#TITLE:1985;
#SUBTITLE:;
#ARTIST:BOWLING FOR SOUP;
#TITLETRANSLIT:;
#SUBTITLETRANSLIT:;
#ARTISTTRANSLIT:;
#CREDIT:;
#BANNER:banner.png;
#BACKGROUND:background.png;
#LYRICSPATH:;
#CDTITLE:Cdtitle.png;
#MUSIC:1985.mp3;
#OFFSET:0.160;
#SAMPLESTART:52.520;
#SAMPLELENGTH:18.340;
#SELECTABLE:YES;
#BPMS:0.000=120.000;
#STOPS:223.000=0.900
;
#BGCHANGES:1.500=1985.avi=1.000=1=0=0,
99999=-nosongbg-=1.000=0=0=0 // don't automatically add -songbackground-
;

//---------------dance-single - ----------------
#NOTES:
     dance-single:
     :
     Beginner:
     1:
     0.076,0.123,0.034,0.007,0.000:
0000
0000
0000
0000
,
0000
0000
0000
0000
,
0000
0000
0000
0000
,
0000
0000
0000
0000
,
0000
0000
1000
0000
,
0000
0000
1000
0000
,
0000
0000
0010
0000
,
0000
0000
1001
0000
,
0000
0000
1001
0000
,
0000
0000
0010
0000
,
0000
0010
0000
0000
,
0000
0100
0000
0000
,
0100
0000
0000
0100
,
0000
0000
0100
0000
,
0000
1000
0000
0000
,
0000
1000
0000
0000
,
0000
0001
0000
0000
,
0000
0001
0000
0000
,
0000
0010
0000
0000
,
0000
0010
0000
0000
,
0000
0100
0000
0000
,
0100
0000
0001
0000
,
0000
0000
0001
0000
,
0000
1000
0000
0000
,
0000
1000
0000
0000
,
0000
0000
0010
0000
,
0000
0000
0010
0000
,
0000
0000
0100
0000
,
0000
0000
0100
0000
,
0000
0000
1000
0000
,
0000
0000
0010
0000
,
0000
0000
0100
0000
,
0000
0000
0010
0000
,
0000
0000
0000
1001
,
0000
0000
0000
0110
,
0000
0000
0010
0000
,
0000
0000
0010
0000
,
0000
0000
0100
0000
,
0000
0000
0100
0000
,
0000
0000
1000
0000
,
0000
0000
1000
0000
,
0000
0001
0000
0000
,
0000
0010
0000
0000
,
0000
0000
0010
0000
,
0000
0100
0000
0000
,
0100
0000
0000
0000
,
0001
0000
0000
0000
,
0001
0000
1000
0000
,
0000
1000
0000
0000
,
0010
0000
0000
0000
,
0010
0000
0000
0000
,
0100
0000
0000
0000
,
0000
0100
0000
0000
,
0010
0000
0000
1000
,
0000
0000
1000
0000
,
0000
0000
0000
0010
,
0000
0000
0000
0000
,
1000
0000
0000
0000
,
1000
0000
0000
0000
,
0010
0000
0000
0000
,
0010
0000
0000
0000
,
0100
0000
0000
0000
,
0100
0000
0000
0001
,
0000
1001
0000
0000
,
0010
0000
0000
0000
,
0100
0000
0000
0000
,
1000
0000
0000
0000
,
0010
0000
0000
0000
,
0100
0000
0000
0000
,
0001
0000
0000
0000
,
1000
0000
0000
0000
,
0010
0000
0000
0000
,
0000
0020
0000
0000
,
0030
0000
0000
0000
;

//---------------dance-single - ----------------
#NOTES:
     dance-single:
     :
     Easy:
     4:
     0.229,0.247,0.291,0.007,0.000:
0000
0000
0000
0000
,
0000
0000
0000
0000
,
0000
0000
0000
0000
,
0000
0000
0000
0000
,
0000
0000
1001
0000
,
0100
0000
0010
0010
,
0100
0000
0110
0000
,
0100
0000
0010
0010
,
0100
0100
0001
0001
,
1000
1000
0001
1000
,
0001
0000
0010
0100
,
0010
0100
0000
0001
,
0001
0100
0000
0010
,
0010
1000
0000
0001
,
0100
0001
0000
1000
,
0010
1000
0000
0010
,
1000
0010
0000
0010
,
0001
0010
0000
0010
,
0010
0011
0000
0100
,
0100
1100
0000
1000
,
0001
1000
0000
1000
,
1000
1010
0000
0100
,
0010
0110
0000
1000
,
0100
1100
0000
0010
,
0001
0011
1000
0000
,
0100
0000
0010
0000
,
0001
0000
0011
0000
,
1010
0000
0001
0001
,
0100
0100
0101
0000
,
1010
0000
1000
1000
,
0001
0001
1001
0000
,
0110
0000
1000
0100
,
0010
0000
0001
0010
,
0100
0010
0001
1001
,
0000
1001
0000
0110
,
0110
0110
1000
0000
,
0001
0000
0001
0010
,
0001
0100
0000
0001
,
0000
0010
0100
1000
,
0100
0010
0000
0001
,
0010
0100
0000
1000
,
0100
0010
0000
0001
,
0100
0010
0000
1000
,
0001
0100
0000
0010
,
0010
0010
0000
0100
,
0100
0100
0000
1000
,
1000
1000
0000
0001
,
0001
0001
0000
1000
,
0000
1100
0000
0100
,
0000
0101
0000
0010
,
0000
0110
0000
1000
,
0000
1001
0000
0001
,
0000
0011
0000
0010
,
0000
1010
0000
0100
,
0000
1100
0000
0010
,
0000
0010
0000
0010
,
1100
0000
0101
0000
,
0001
0100
0001
0100
,
0110
0000
1001
0000
,
0100
1000
0100
1000
,
1001
0000
0110
0000
,
0010
0010
1000
0000
,
0010
0001
0001
0000
,
0000
1001
0000
0000
,
0110
0000
1100
0000
,
0010
0001
0010
1000
,
1100
0000
0101
0000
,
0010
0100
0010
1000
,
1001
0000
1100
0000
,
0001
0001
0100
0010
,
1000
0000
0100
0100
,
0001
1001
0000
1001
,
1100
1100
0200
0000
,
0300
0000
0000
0000
;

//---------------dance-single - ----------------
#NOTES:
     dance-single:
     :
     Medium:
     6:
     0.344,0.370,0.108,0.020,0.000:
0000
0000
0000
0000
,
0000
0000
0000
0000
,
0000
0000
0000
0000
,
0000
0000
0000
0000
,
0000
0000
0100
0000
,
0010
0000
0000
0000
0010
0000
1000
0100
,
1000
0100
0000
0000
0001
0000
0000
0000
,
1000
0000
0000
0000
0001
0001
0011
0000
,
1000
1000
1100
0000
0010
0010
0110
0000
,
0100
0100
0101
0000
0001
0000
0100
0000
,
1000
0100
1000
0000
0001
0000
1000
0000
,
0001
0010
0100
0000
0100
0000
0010
0000
,
0100
0001
0010
0000
1000
0000
1000
0000
,
0010
0100
1000
0000
0010
0000
0001
0100
,
0010
1000
1000
0000
0100
0000
0010
0000
,
0100
0100
0001
0000
0100
0000
0001
0000
,
2000
3010
0100
1000
,
0200
0301
0000
0010
,
0100
0001
0001
0001
0000
0000
0010
0000
,
1000
1000
1000
0000
0010
0000
0100
0000
,
1000
0001
1000
0000
0010
0000
0010
0000
,
0010
1000
0010
0000
0000
0000
0100
0000
,
0010
0100
0001
0000
0100
0000
0001
0000
,
0010
0100
1000
0000
0100
0000
1000
0010
,
1000
0100
0100
0000
0100
1100
0000
0000
,
0010
0011
0000
0000
0010
0110
0000
0000
,
0001
1001
0000
0100
0001
0001
0000
0010
,
1000
1000
0000
0000
0001
0000
1000
0100
,
0010
0001
0010
0001
0001
0001
0000
1000
,
0010
0010
0000
0000
0100
0000
0010
0000
,
0001
0010
0001
0010
0100
0100
0000
0001
,
1000
1000
0000
0000
0001
0000
0100
0001
,
0010
0100
1000
0000
0100
0000
0001
0010
,
0100
0010
1000
0000
0001
0000
0010
0010
,
0000
0000
0100
0100
0000
0000
0001
0000
,
1000
0010
1010
0000
0100
0000
0000
0000
,
1000
0000
0000
0000
0010
0000
0001
0010
,
0001
1000
0000
0000
0100
0000
0000
0000
,
0001
0000
0100
0000
0001
0010
0100
1000
,
1000
0010
0100
0001
,
0010
1000
0100
0100
0000
0000
1000
0000
,
0001
0100
0001
0000
1000
0000
0100
0000
,
0010
0010
1000
0000
0001
0000
0100
0100
,
0001
0100
0000
0010
,
0100
0010
0001
0000
0100
0000
0001
0000
,
0001
0010
1000
0000
0100
0000
1000
0000
,
1000
0010
0100
0000
0001
0000
0010
0000
,
0010
0100
0100
0000
0000
0000
0010
0000
,
0100
1000
0100
0000
0000
0000
0010
0000
,
0001
0001
0000
0100
,
0001
0100
0001
0000
0010
0000
1000
0010
,
0100
0001
0001
0000
0100
0000
0010
0000
,
0001
1000
0001
0000
0100
0000
0001
0000
,
0100
0100
0000
0100
,
0010
0100
1000
0000
0010
0011
0000
0000
,
0100
0110
0000
0000
0001
1001
0000
0000
,
0010
0010
0000
0001
1000
1000
0000
0000
,
0010
0000
1000
0000
0001
0010
0100
0010
,
1000
1000
0000
0010
0001
0001
0000
0000
,
0100
0000
1000
0000
0100
0001
0100
0001
,
0010
0010
0000
0010
1000
1000
0000
0000
,
0100
0000
0001
1000
0100
0010
0100
0000
,
0000
0010
0100
0000
0100
0010
0010
0000
,
0000
0000
0001
0100
0001
0001
0001
0000
,
0010
1000
0000
0100
0001
0001
0001
0000
,
0010
0000
0001
0010
0100
0001
0010
0100
,
0100
0100
0000
0001
0100
0100
0100
0000
,
0010
0000
0100
0010
0100
0001
0100
0010
,
1000
1000
0000
1000
0001
0001
0000
0000
,
0100
0000
1000
0100
0010
0001
0100
0000
,
1000
0010
1000
0000
0010
0001
0010
0000
,
0000
1001
1001
0000
0000
0000
0110
0110
,
0000
1000
0010
0100
0002
0000
0000
0000
,
0003
0000
0000
0000
;

//---------------dance-single - ----------------
#NOTES:
     dance-single:
     :
     Hard:
     8:
     0.428,0.419,0.182,0.020,0.000: // measure 1
0000
0000
0000
0000
,  // measure 2
0000
0000
0000
0000
,  // measure 3
0000
0000
0000
0000
,  // measure 4
0000
0000
0000
0000
,  // measure 5
0000
0000
0000
0000
0100
0001
0000
0001
,  // measure 6
0010
0001
0000
0100
1000
0100
0010
0001
,  // measure 7
0010
0001
0000
0100
0001
0100
0000
0010
,  // measure 8
0100
0010
0001
0000
0101
0101
0000
0000
,  // measure 9
1100
1100
0000
0000
1001
1001
0000
0000
,  // measure 10
1010
1010
0010
0000
0001
0000
0100
0001
,  // measure 11
1000
0100
1000
0000
0001
0100
1000
0100
,  // measure 12
0010
0100
0001
0000
0100
0000
0010
1000
,  // measure 13
0010
0100
0010
0000
0100
0000
1000
0100
,  // measure 14
0010
0010
0100
0000
0000
0100
0010
0001
,  // measure 15
0010
0100
1000
0000
0100
0001
0100
0010
,  // measure 16
1000
1000
0001
0000
1000
0010
0001
0000
,  // measure 17
0100
0000
0100
0000
0010
1000
0010
0000
,  // measure 18
0100
0000
0100
0000
0101
0000
0010
0001
,  // measure 19
0100
0001
0010
0010
0000
0000
1000
0010
,  // measure 20
1000
0100
0100
0000
0000
0010
0001
0100
,  // measure 21
0001
1000
0001
0000
0100
0001
0010
0001
,  // measure 22
1000
0001
0100
0000
0010
0001
0010
0100
,  // measure 23
1000
0100
0002
0000
0000
0103
1000
0100
,  // measure 24
0010
0001
0020
0000
0130
0000
1000
0010
,  // measure 25
1000
0010
0001
0000
0000
0100
1000
1000
,  // measure 26
0000
0001
0010
0001
0000
0000
1001
0000
,  // measure 27
1001
0000
0000
0100
0001
0100
0000
0010
,  // measure 28
1000
0010
0000
0000
0100
0001
0100
0010
,  // measure 29
1000
0100
0010
0001
0001
0001
0000
1000
,  // measure 30
0010
1000
0000
0000
0100
0001
0100
0001
,  // measure 31
0010
0100
0010
0010
1000
0010
0000
0100
,  // measure 32
0001
0001
0000
0100
0001
1000
0010
0100
,  // measure 33
0001
0100
1000
0000
0100
0010
0001
1000
,  // measure 34
0010
1000
0010
0000
0001
0000
0110
0110
,  // measure 35
0000
0000
1100
1100
0000
0000
0001
0010
,  // measure 36
0100
0001
0101
0000
0010
0001
0010
0000
,  // measure 37
0100
0001
0100
0000
0100
0010
0001
0100
,  // measure 38
0001
0100
0000
0001
0100
1000
0000
0010
,  // measure 39
1000
0001
0000
0000
0001
0010
0001
0010
,  // measure 40
0100
0000
0100
0000
0001
0000
0010
0100
,  // measure 41
0001
0100
0010
0010
0000
0000
0001
0100
,  // measure 42
0010
0100
0001
0000
1000
0000
0100
0001
,  // measure 43
0010
0001
0001
0000
1000
0000
0010
0100
,  // measure 44
0100
1000
0010
0000
0100
0000
0001
1000
,  // measure 45
0001
0100
1000
0000
0000
0010
0001
0010
,  // measure 46
0100
1000
1000
0000
0100
0000
0001
0010
,  // measure 47
0100
0010
1000
0000
0100
0001
0100
0100
,  // measure 48
0001
0001
0100
0000
0100
0000
1000
0001
,  // measure 49
0010
1000
0100
0000
1000
0010
0100
0000
,  // measure 50
0110
0000
0110
0000
1000
0001
0010
0010
,  // measure 51
1000
0100
1000
0000
0010
1000
0100
0010
,  // measure 52
0100
0001
0001
0000
0100
0001
0100
0000
,  // measure 53
0010
0100
1000
0000
0001
0000
0001
0000
,  // measure 54
1001
0000
1001
0000
0000
0010
0100
1000
,  // measure 55
0100
0010
0001
0000
0000
0000
0001
0011
,  // measure 56
0000
0000
0010
0110
0000
0001
1001
0000
,  // measure 57
0100
0010
0000
0001
0100
0001
0000
0000
,  // measure 58
0100
0001
0100
0010
0100
1000
1000
0010
,  // measure 59
0001
0001
0000
0010
1000
0010
0000
0000
,  // measure 60
0100
0010
0100
1000
0010
0100
0001
0100
,  // measure 61
1000
1000
0000
0100
0010
0010
0000
0001
,  // measure 62
0100
0001
0010
0100
1000
0100
1000
0000
,  // measure 63
0001
0100
0010
0000
0001
0100
0001
0000
,  // measure 64
0001
0000
0010
0001
1000
1000
1000
0000
,  // measure 65
0010
1000
0000
0100
0001
0100
0001
0000
,  // measure 66
0100
0010
1000
0100
0010
0001
0010
0100
,  // measure 67
1000
1000
0000
0010
0100
0010
0100
0000
,  // measure 68
1000
0010
0100
0001
0100
0010
0100
1000
,  // measure 69
0100
0100
0000
0010
0001
0010
0000
0100
,  // measure 70
0001
0100
0010
1000
0100
0100
0000
0000
,  // measure 71
0100
0010
0001
0000
1000
0001
1000
0000
,  // measure 72
0000
0010
0110
0110
0000
0000
0010
1010
,  // measure 73
1010
0000
1000
0100
0010
0001
0002
0000
,  // measure 74
0003
0000
0000
0000
;
