#VERSION:0.83;
#TITLE:here comes the sun;
#SUBTITLE:;
#ARTIST:Bill Wurtz;
#TITLETRANSLIT:;
#SUBTITLETRANSLIT:;
#ARTISTTRANSLIT:;
#GENRE:;
#ORIGIN:;
#CREDIT:;
#BANNER:banner.png;
#BACKGROUND:;
#PREVIEWVID:;
#JACKET:;
#CDIMAGE:;
#DISCIMAGE:;
#LYRICSPATH:;
#CDTITLE:;
#MUSIC:here comes the sun.ogg;
#OFFSET:1.370000;
#SAMPLESTART:47.561115;
#SAMPLELENGTH:14.769230;
#SELECTABLE:YES;
#BPMS:0.000=130.000;
#STOPS:;
#DELAYS:;
#WARPS:;
#TIMESIGNATURES:0.000=4=4;
#TICKCOUNTS:0.000=4;
#COMBOS:0.000=1;
#SPEEDS:0.000=1.000=0.000=0;
#SCROLLS:0.000=1.000;
#FAKES:;
#LABELS:0.000=Song Start;
#BGCHANGES:2.979=here comes the sun.mp4=1.000=0=0=0=StretchNoLoop====,
99999=-nosongbg-=1.000=0=0=0 // don't automatically add -songbackground-
;
#KEYSOUNDS:;
#ATTACKS:
;

//---------------dance-single - ----------------
#NOTEDATA:;
#CHARTNAME:;
#STEPSTYPE:dance-single;
#DESCRIPTION:;
#CHARTSTYLE:;
#DIFFICULTY:Challenge;
#METER:11;
#RADARVALUES:0.681816,0.872304,0.477271,1.057339,0.888458,650.000000,583.000000,65.000000,144.000000,14.000000,30.000000,6.000000,0.000000,0.000000,0.681816,0.872304,0.477271,1.057339,0.888458,650.000000,583.000000,65.000000,144.000000,14.000000,30.000000,6.000000,0.000000,0.000000;
#CREDIT:;
#NOTES:
0000
0000
0000
0000
,
1000
0100
1000
0000
0001
0000
0100
0000
0000
0000
0001
0000
1000
0000
0001
0000
1000
0000
0001
0000
0000
0000
0000
0000
,
2000
0000
0000
0000
3200
0000
0000
0000
0310
0002
0000
0000
2003
0000
0000
0000
0000
0000
0000
0000
0000
0000
0000
0000
,
3010
0000
0100
000M
0100
0000
0200
0000
0000
0000
0000
0000
0311
0000
0000
0000
0000
0000
1000
0001
1000
0001
1000
0001
,
1000
0000
0100
0000
0010
0000
0000
0000
0000
0001
0000
0000
0100
0000
0000
0100
0000
0000
0010
0000
0000
0010
0000
0000
,
2100
0000
0000
0000
0000
0000
0000
0000
0000
3102
0000
0000
0000
0000
0000
0000
0000
0000
1013
0000
0000
0000
0000
0000
0000
0000
0000
0000
0000
0000
0100
0000
1000
0000
0100
0000
1000
0000
0000
0000
0000
0000
0001
0000
0000
0000
0000
0000
,
0100
0000
0000
0000
0000
0000
0000
0000
0000
0010
0000
0000
1000
0000
0000
0000
0000
0000
0001
0000
0000
0000
0000
0000
1010
0000
0000
0000
0000
0000
0000
0000
0000
0100
0000
0000
1000
0000
0000
0000
0000
0000
0001
0000
0100
0000
0001
0000
,
0100
0000
0000
0010
0000
0000
2000
0000
0000
0000
0000
0000
3000
0000
0100
0000
0010
0000
0100
0000
0000
1000
0000
0000
0101
0000
0000
0000
0000
0000
1000
0000
0000
0000
0000
0000
0001
0000
0000
0000
0000
0000
1000
0000
0000
0000
0000
0000
,
0100
0010
0001
0100
00M0
0100
1000
0000
0001
0100
0001
0100
0010
1000
0001
0000
,
1100
0000
0010
0000
0100
0000
0011
0000
1000
0000
0001
0000
1100
0000
0000
0000
0001
0010
0100
1000
0002
0000
0000
0000
1103
0000
0000
0000
0010
0000
0000
0000
,
0100
0000
0000
0000
0000
0000
0000
0000
0000
0100
0000
0000
0000
0000
0000
0001
0000
0000
1000
0000
0000
0100
0000
0000
0010
0000
0000
0000
0000
0000
0000
0000
0110
0000
0000
0000
0000
0000
0000
0000
0001
0000
0000
0000
0010
0000
0000
0000
,
0200
0000
0000
2310
0000
0000
3001
0100
,
0010
1000
0001
0010
0001
1000
0100
0010
0001
0000
0001
0000
0010
0000
0010
0000
,
0100
0000
0000
0000
0000
0000
0000
0000
0000
0000
0000
0000
0001
0000
0000
0000
0000
0000
0000
0000
0000
0000
0000
0000
0000
0000
0000
0000
0000
0000
0000
0000
0000
0000
0000
0000
0000
0000
0000
0000
0100
0000
0000
0000
0000
0000
0000
0000
0000
0000
0000
0000
0000
0000
0000
0000
1000
0000
0000
0000
0000
0000
0000
0000
0000
0000
0000
0000
0000
0000
0000
0000
0020
0000
0000
0000
0000
0000
0000
0000
0000
0000
0000
0000
0000
0000
0000
0000
0000
0000
0000
0000
0000
0000
0000
0000
0000
0000
0000
0000
0000
0000
0000
0000
0000
0000
0000
0000
0000
0000
0000
0000
0000
0000
0000
0000
0000
0000
0000
0000
0000
0000
0000
0000
0000
0000
0000
0000
0000
0000
0000
0000
0130
0000
0000
0000
0000
0000
0001
0000
0000
0000
0000
0000
0100
0000
0000
0000
0000
0000
0000
0000
0000
0000
0000
0000
0000
0000
0000
0000
0000
0000
0000
0000
0000
0000
0000
0000
0100
0000
0000
0000
0000
0000
0000
0000
0000
0000
0000
0000
0000
0000
0000
0000
0000
0000
0000
0000
0000
0000
0000
0000
,
0011
0000
1000
0100
0010
0000
0001
1000
0010
0000
0100
0001
1000
0000
0020
0000
,
0000
013M
0100
1000
0001
0100
0001
0000
1000
0100
0000
0001
0000
0100
2000
0000
,
0010
0000
0000
0000
0000
0000
0000
0000
0000
0010
0000
0000
0000
0000
0000
0000
0000
0000
0001
0000
0000
0000
0000
0000
0000
0000
0000
0000
0000
0000
0000
0000
0000
0000
3100
0000
0000
0000
0010
0000
0000
0000
0001
0000
0000
0000
0000
0000
,
2100
0000
0000
0000
0000
0000
0000
0000
0000
3012
0000
0000
0000
0000
0000
0000
0000
0000
1013
0000
0000
0000
0000
0000
0000
0000
0000
0000
0100
0000
0000
0000
0010
0000
0000
0000
0001
0000
0000
0000
1000
0000
0000
0000
0000
0000
0000
0000
,
0020
0000
0000
0000
0000
0000
0000
0000
0000
0230
0000
0000
0000
0000
0000
0000
0000
0000
0302
0000
0000
0000
0000
0000
0023
0000
0000
0000
0000
0000
0000
0000
0230
0000
0000
0000
0000
0000
0000
0000
2300
0000
0000
0000
0000
0000
0000
0000
,
3001
0100
0200
0000
0020
0000
0000
0330
,
1000
0000
0000
0100
0000
0000
1000
0000
0000
0001
0000
0000
0100
0000
0000
0001
0000
0000
1000
0000
0000
0010
0000
0000
0100
0000
0001
0000
1000
0000
0002
0000
0000
0000
0000
0000
0013
0000
0000
0000
0000
0000
0100
0000
0000
0000
0000
0000
,
1000
0000
0001
0000
1000
0000
0M10
0010
0002
0000
0000
0203
0000
0000
0320
0000
,
1030
0000
0001
0000
1000
0000
0002
0000
0000
0203
0000
0000
0000
0000
0000
0000
0000
0000
0320
0000
0000
0000
0000
0000
1030
0000
0000
0001
0000
0000
0000
0000
0000
0000
0000
0000
0110
0000
0000
0000
0000
0000
0000
0000
0000
0000
0000
0000
,
2001
0000
0000
0000
0000
0000
3001
0010
0200
0000
0000
2300
0000
0000
3001
0100
,
0010
0001
1000
0100
0001
1000
0200
0000
0000
0320
0000
0000
,
0032
0000
0000
0000
,
0103
0000
0000
0000
0010
0000
0000
0000
1100
0000
0000
0000
0000
0000
0000
0000
0000
0000
0000
0000
0000
0000
0000
0000
1001
0000
0000
0000
0000
0000
0001
0000
0000
0100
0000
0000
00M0
0000
0000
0100
0000
0000
1000
0000
0000
0000
0000
0000
,
0102
0000
0000
0000
0000
0000
0000
0000
0000
0000
0000
0000
0000
0000
0000
0000
0000
0000
0000
0000
0000
0000
0000
0000
0000
0000
0000
0000
0000
0000
0000
0000
0000
0000
0000
0000
1003
0000
0000
0000
0000
0000
0000
0000
0000
0000
0000
0000
0100
0000
0000
0000
0000
0000
0000
0000
0000
0000
0000
0000
0000
0000
0000
0000
0000
0000
0000
0000
0000
0000
0000
0000
0010
0000
0000
0000
0000
0000
0000
0000
0000
0000
0000
0000
0000
0000
0000
0000
0000
0000
0000
0000
0000
0000
0000
0000
0001
0000
0000
0000
0000
0000
0000
0000
0000
0000
0000
0000
0000
0000
0000
0000
0000
0000
0000
1000
0000
0000
0000
0000
0000
0000
0000
0000
0000
0000
0000
0000
0000
0000
0000
0000
0000
0000
0001
0000
0000
0000
0000
0000
0000
0000
0000
0000
0000
0000
0000
0000
0000
0000
0000
0000
0000
0100
0000
0000
0000
0000
0000
0000
0000
0000
0000
0000
0000
0000
0000
0000
0000
0000
0000
0000
0000
0010
0000
0000
0000
0000
0000
0000
0000
0000
0000
0000
0000
0000
0000
0000
0000
0000
0000
0000
,
2000
0000
0000
0000
3011
0000
0100
0000
0002
0000
0000
1013
0000
0100
1000
0000
,
0012
0000
0000
0000
0000
0000
0000
0000
0000
0000
0000
0000
1103
0000
0000
0000
0010
0000
0M00
0000
0010
0000
0000
0000
0001
0000
0000
0000
0000
0000
1000
0000
0000
0102
0000
0000
0000
0000
0000
0000
0000
0000
1003
0000
0000
0000
0000
0000
,
0021
0000
0000
1030
0100
0000
0010
0000
0002
0000
0000
2003
0000
3010
0200
0000
,
0311
0000
0000
0000
0000
0000
1000
0000
0001
0000
1000
0000
0001
0000
0000
0010
0000
0000
0M00
0000
0000
0010
0000
0000
2100
0000
0000
0000
0000
0000
0000
0000
0000
3200
0000
0000
0000
0000
0000
0000
0000
0000
0320
0000
0000
0000
0000
0000
,
0000
0000
0000
0032
0000
0000
0000
0000
0000
0000
0000
0000
0000
0000
0000
2003
0000
0000
0000
0000
0000
0000
0000
0000
3021
0000
0000
0000
0000
0000
0000
0000
0100
0000
0000
0000
0000
0000
0000
0000
0001
0000
0000
0000
0000
0000
0000
0000
,
0100
0000
0000
0000
0000
0000
0000
0000
0000
0001
0000
0000
0000
0000
0000
0000
0000
0000
0130
0000
0000
0000
0000
0000
0000
0000
0000
0000
0000
0000
0001
2000
0000
0000
0000
0000
0000
0000
0000
0000
3100
0000
0000
0000
0000
0000
0000
0000
,
0010
0000
0000
0000
0000
0000
0001
0000
1000
0000
0001
0000
1000
0000
0000
0010
0000
0000
0100
0000
0000
0000
0000
0000
0011
0000
0000
0000
0000
0000
1000
0000
0000
0100
0000
0000
00M0
0000
0000
0100
0000
0000
0001
0000
0000
0000
0000
0000
,
2010
0000
0000
0000
0000
0000
0000
0000
3011
0000
0000
0000
1000
0000
0000
0000
0102
0000
0000
0000
0000
0000
0013
0000
0100
0000
0000
1000
0001
0000
0100
0000
,
0010
0000
0000
0000
0100
0000
0000
0000
1000
0000
0000
0000
0100
0000
0000
0000
0002
0000
0000
0000
0000
0000
0000
0000
2003
0000
0000
0000
0000
0000
0000
0000
0000
3200
0000
0000
0000
0000
0000
0000
0000
0000
0320
0000
0000
0000
0000
0000
,
0132
0000
0000
2103
0000
0000
3011
0000
0100
0000
00M0
0100
1000
0001
1000
0001
,
0100
00M0
0100
0000
1000
0000
0100
00M0
0100
0000
0001
0000
0010
0000
0100
0000
2010
0000
0000
0000
0000
0000
0000
0000
3021
0000
0000
0000
1230
0000
0000
0000
,
0000
0302
0000
2003
0000
3200
0000
0320
,
0000
0031
1000
0002
1100
0000
1103
0001
,
0020
0000
0230
1000
0000
2300
0000
3001
,
0000
0000
0000
0000
0000
0000
0000
0000
0000
0000
0000
0000
1000
0000
0000
0000
0100
0000
0000
0000
1010
0000
0000
0000
0002
0000
0000
0000
0000
0000
0000
0000
0000
0103
0000
0000
0010
0000
0000
M000
0000
0000
0010
0000
0000
0000
0000
0000
,
0002
0000
0000
0203
0000
0000
0320
0000
1030
0000
1000
0002
0000
0000
0023
0000
,
0200
0000
0000
0000
0000
0000
0000
0000
0000
0000
0000
0000
0000
0000
0000
0000
0000
0000
0000
0000
0000
0000
0000
0000
0330
0000
0000
0000
0000
0000
0000
1000
0001
0000
0000
0000
0000
0000
0000
0000
0100
0000
0000
0000
0010
0000
0000
0000
0000
0000
0000
0000
0010
0000
0000
0000
0100
0000
0000
0000
0000
0000
0000
0000
,
2001
0000
0000
3200
0000
0000
0320
0000
0000
0000
0031
0000
1000
0000
0001
0000
,
1200
0000
0000
0000
0000
0000
0000
0000
0000
0000
0000
0000
0000
0000
0000
0000
0000
0000
0000
0000
0000
0000
0000
0000
0000
0000
0000
0000
0000
0000
0000
0000
0000
0000
0000
0000
0312
0000
0000
0000
0000
0000
0000
0000
0000
0000
0000
0000
0000
0000
0000
0000
0000
0000
0000
0000
0000
0000
0000
0000
0000
0000
0000
0000
0000
0000
0000
0000
0000
0000
0000
0000
1013
0000
0000
0000
0000
0000
0000
0000
0000
0000
0000
0000
0000
0000
0000
0000
0000
0000
0000
0000
0000
0000
0000
0000
0000
0000
0000
0000
0000
0000
0000
0000
0000
0000
0000
0000
0000
0000
0000
0000
0000
0000
0000
0000
0000
0000
0000
0000
0000
0000
0000
0000
0000
0000
0000
0000
0000
0000
0000
0000
0000
0000
0000
0000
0000
0000
0000
0000
0000
0000
0000
0000
4444
0000
0000
0000
0000
0000
3333
0000
0000
0000
0000
0000
0000
0000
0000
0000
0000
0000
0000
0000
0000
0000
0000
0000
0000
0000
0000
0000
0000
0000
0000
0000
0001
0000
0000
0000
0000
0000
0000
0000
0000
0000
0000
0000
0000
0000
0000
0000
,
1000
0000
0000
1000
0100
0000
0001
0000
0100
0000
0000
0100
0010
0000
0002
0000
,
0000
2003
0000
3020
0000
0230
0000
0301
,
1000
0000
0000
1000
0010
0000
0100
0001
0010
0000
0100
0001
0000
0200
0000
0000
,
1300
0002
0000
2103
0000
0000
3011
0000
0000
0000
0100
0000
0110
0000
0002
0000
,
1000
0000
0000
0000
0000
0000
0000
0000
0000
0000
0000
0000
0000
0000
0000
0000
0000
0000
0013
0000
0000
0100
0000
0000
1000
0000
0000
0000
0000
0000
0000
0000
0001
0000
0000
0000
0000
0000
0000
0000
0100
0000
0000
0000
0000
0000
0000
0000
,
0020
0000
0000
0000
1030
0000
0001
0000
0010
0000
0000
0100
0010
0000
0001
0000
,
1000
0000
0000
0000
0000
0000
0000
0000
0000
0010
0000
0000
0100
0000
0000
0000
1000
0000
0000
0000
0200
0000
0000
0000
0000
0000
0000
0000
0300
0000
0002
0000
0000
0000
0000
0000
0000
0000
0000
0000
0000
0000
0000
0000
0000
0000
0000
0000
,
1003
0000
0000
1000
0100
0000
0010
0000
0001
0100
0010
0100
1000
0100
0020
0000
,
0000
0000
0000
0000
0000
0000
0000
0000
0000
0000
0000
0000
1030
0000
0000
0100
0000
0000
0000
0000
0000
0001
0000
0000
0000
0000
0000
0000
0000
0000
0000
0000
0100
0000
0000
0000
0010
0000
0000
0000
0002
0000
0000
0000
0000
0000
0000
0000
,
0000
0000
0000
0000
0103
0010
0002
0000
0000
0000
2003
0000
0000
3200
0000
0000
,
0302
0000
0000
1003
0100
0020
0000
0000
0000
0000
0031
1000
,
0101
0000
0000
0010
0100
0000
1000
0000
0020
0000
0000
0230
0000
0000
0302
0000
,
0023
0000
0000
0000
0000
0000
0000
0000
0000
0000
0000
0000
0130
0000
0000
0000
0000
0000
1000
0000
0001
0000
1000
0000
0001
0000
0000
0200
0000
0000
0000
0000
0000
1300
0000
0000
0100
0000
0000
0010
0000
0000
0100
0000
0000
0002
0000
0000
,
0000
0000
1003
0100
0010
0000
0010
0000
0102
0000
0000
2003
0000
0000
3020
0000
,
0130
0000
0000
0000
0000
0000
0000
0000
0000
0000
0000
0000
0000
0000
0000
0000
0100
0000
0000
0000
0000
0000
0000
0000
00M0
0000
0000
0000
0000
0000
0000
0000
0100
0000
0000
0000
0000
0000
0000
0000
0000
0000
0000
0000
0000
0000
0000
0000
0200
0000
0000
0000
0000
0000
0000
0000
0000
0000
0000
0000
0000
0000
0000
0000
0000
0000
0000
0000
0000
0000
0000
0000
0000
0000
0000
0000
0000
0000
0000
0000
0000
0000
0000
0000
0000
0000
0000
0000
0000
0000
0000
0000
0000
0000
0000
0000
2310
0000
0000
0000
0000
0000
0000
0000
0000
0000
0000
0000
0000
0000
0000
0000
0000
0000
0000
0000
0000
0000
0000
0000
0000
0000
0000
0000
0000
0000
0000
0000
0000
0000
0000
0000
3001
0000
0000
0000
0000
0000
0100
0000
0000
0000
0000
0000
0001
0000
0000
0000
0000
0000
0000
0000
0000
0000
0000
0000
0000
0000
0000
0000
1000
0000
0000
0000
0000
0000
0000
0000
0000
0000
0000
0000
0000
0000
0000
0000
0010
0000
0000
0000
0000
0000
0000
0000
0000
0000
0000
0000
0000
0000
0000
0000
,
0100
0000
0000
0100
0001
1000
0100
1000
0020
0000
0000
0230
0000
0000
0302
0000
,
1003
0000
0000
1000
0100
0000
0010
0000
0002
0000
0000
0203
0000
0000
0320
0000
,
0000
2030
0000
0000
0000
3002
0000
0000
1013
0100
1000
0001
0100
0010
1000
0001
,
0010
0000
0000
0010
0100
0000
2000
0000
0000
0000
0000
0000
3011
0000
0100
0000
,
0000
0000
0000
0000
0000
0000
0000
0000
0000
0000
0000
0000
0000
0000
0000
0000
0000
0000
0000
0000
0000
0000
0000
0000
0001
0000
0000
0000
0000
0000
0000
0000
0000
0000
0000
0000
0040
4000
0000
0030
3000
0000
0000
0000
0000
0000
0000
0000
0000
0000
0000
0000
0000
0000
0000
0000
0000
0000
0000
0000
0100
0000
0000
0000
0000
0000
0000
0000
0000
0000
0000
0000
1000
0000
0000
0000
0000
0000
0000
0000
0000
0000
0000
0000
0000
0000
0000
0000
0000
0000
0000
0000
0000
0000
0000
0000
0021
0000
0000
0000
0000
0000
0000
0000
0000
0000
0000
0000
0000
0000
0000
0000
0000
0000
0000
0000
0000
0000
0000
0000
0000
0000
0000
0000
0000
0000
0000
0000
0000
0000
0000
0000
0230
0000
0000
0000
0000
0000
0000
0000
0000
0000
0000
0000
0000
0000
0000
0000
0000
0000
0000
0000
0000
0000
0000
0000
0000
0000
0000
0000
0000
0000
0000
0000
0000
0000
0000
0000
0302
0000
0000
0000
0000
0000
0000
0000
0000
0000
0000
0000
0000
0000
0000
0000
0000
0000
0000
0000
0000
0000
0000
0000
,
1003
0000
0000
0000
0100
0000
0010
0000
0001
0000
0010
0000
0001
0000
0000
0000
0000
0000
0000
0000
0000
1000
0000
0000
0010
0000
0000
0000
0000
0000
0100
0000
0000
2000
0000
0000
0000
0000
0000
0000
0000
0000
3200
0000
0000
0000
0000
0000
,
0302
0000
1003
0100
0010
0100
1000
0001
0200
0000
0000
0320
0000
0000
2030
0000
,
3102
0000
0000
0013
0100
2000
0000
3020
0000
0031
0010
2000
,
0000
3002
0000
0000
0000
0013
0100
0000
2100
0000
0000
3010
0100
0000
0001
0000
,
1010
0000
0100
1010
0000
0000
0001
0000
1100
0000
0000
0010
0100
0000
0001
2000
,
0000
0000
0000
0000
0000
0000
3200
0000
0302
0000
0000
0000
0000
0000
0000
0023
0000
0000
0000
0000
0000
2030
0000
0000
,
3001
0000
0000
0000
0100
00M0
0100
0000
1000
0000
0000
0000
0102
0000
0000
0000
0000
0000
0000
0000
2003
0000
0000
0000
0000
0000
0000
0000
3011
0000
0000
0000
,
0000
0100
0100
0110
0000
0000
0000
0000
0000
0000
0000
0000
;

//---------------dance-single - ----------------
#NOTEDATA:;
#CHARTNAME:;
#STEPSTYPE:dance-single;
#DESCRIPTION:;
#CHARTSTYLE:;
#DIFFICULTY:Hard;
#METER:9;
#RADARVALUES:0.567480,0.599709,0.176223,0.947199,0.693878,541.000000,517.000000,24.000000,129.000000,0.000000,0.000000,8.000000,0.000000,0.000000,0.567480,0.599709,0.176223,0.947199,0.693878,541.000000,517.000000,24.000000,129.000000,0.000000,0.000000,8.000000,0.000000,0.000000;
#CREDIT:;
#NOTES:
0000
0000
0000
0000
,
4000
0000
0000
3001
0000
0010
0100
0010
0100
0010
0000
0000
,
1002
0000
0000
0000
0203
0000
0000
0000
0000
0320
0000
0000
2030
0000
0000
0000
0000
0000
0000
0000
0000
0000
0000
0000
,
3001
0010
0100
1000
0000
0000
1001
0000
0000
0400
0000
0000
,
0301
0000
1000
0000
0100
0000
0000
0000
0000
0010
0000
0000
0001
0000
0000
0001
0000
0000
1000
0000
0000
1000
0000
0000
,
0020
0000
0030
0200
0000
0300
0110
0000
0000
0000
0000
1000
0001
0000
0001
0000
,
0010
0000
0000
0100
1000
0000
0001
0000
0100
0000
0000
0010
1000
0000
0001
0010
,
0100
1000
0002
0000
0003
0100
0010
1000
0001
0000
0010
0000
0100
0000
1000
0000
,
0010
0000
0100
0001
0000
0001
0010
0000
0100
0000
1000
0001
0000
0001
0100
0000
,
0010
0000
1000
0100
0000
0100
0010
0000
0004
0000
0003
0000
1001
0000
1000
0000
,
0010
0000
0000
0000
0000
0000
0100
0000
0000
0001
0000
0000
0000
0000
0000
0001
0000
0000
1000
0000
0000
0000
0000
0000
0100
0000
0000
0000
0000
0000
0000
0000
0110
0000
0000
0000
0000
0000
0000
0000
0001
0000
0000
0000
1000
0000
0000
0000
,
0020
0000
0000
0200
0000
0330
0001
1000
,
0100
0000
0010
0001
0000
0001
1000
0000
0010
0000
0010
0000
0100
0000
0100
0000
,
0001
0000
0000
0010
0000
0000
0000
0000
0000
0000
0100
0000
0000
0000
1000
0000
0000
0000
0002
0000
0000
0000
0000
0000
0000
0000
0000
0000
0000
0000
0000
0000
0000
1003
0000
0000
0010
0000
0000
0000
0000
0000
0100
0000
0000
0000
0000
0000
,
0001
0000
0010
0100
0000
0100
1000
0000
0010
0000
0100
0001
0100
0000
0020
0000
,
0000
1030
0100
0020
0000
0000
0031
0000
0100
0010
0000
1000
0000
0010
0200
0000
,
0001
0000
0000
0000
0000
0000
0000
0000
0000
0001
0000
0000
0000
0000
0000
0000
0000
0000
0302
0000
0000
0000
0000
0000
0000
0000
0000
0000
0000
0000
0000
0000
0000
0000
0013
0000
0000
0000
0100
0000
0000
0000
1000
0000
0000
0000
0000
0000
,
0002
0000
0000
0000
0000
0000
0003
0000
0000
2000
0000
0000
0000
0000
0000
3000
0000
0000
1001
0000
0000
0000
0000
0000
0000
0000
0000
0000
0001
0000
0000
0000
0010
0000
0000
0000
0100
0000
0000
0000
1000
0000
0000
0000
0000
0000
0000
0000
,
0020
0000
0000
0000
0000
0000
0000
0000
0000
0230
0000
0000
0000
0000
0000
0000
0000
0000
0302
0000
0000
0000
0000
0000
0023
0000
0000
0000
0000
0000
0000
0000
0230
0000
0000
0000
0000
0000
0000
0000
2300
0000
0000
0000
0000
0000
0000
0000
,
3001
0100
0200
0000
0020
0000
0000
0330
,
2000
0000
0000
3020
0000
0000
0230
0000
0302
0000
0000
0023
0000
0000
0130
0000
,
1000
0000
0001
0000
1000
0000
0010
0100
0010
0000
0000
2000
0000
0000
3200
0000
,
0320
0000
0000
0032
0000
0000
0203
0000
0310
1000
0000
0000
1001
0000
0000
0000
,
0210
0000
0000
0000
0000
0000
0301
1000
0200
0000
0000
0320
0000
0000
0031
1000
,
0020
0000
0000
0230
0000
0000
0302
0000
2003
0000
0000
0000
3200
0000
0000
0000
,
0320
0000
0000
0000
,
0031
0000
0000
0000
1000
0000
0000
0000
0001
0000
0000
0000
0000
0000
0000
0000
0000
0000
0000
0000
0000
0000
0000
0000
1001
0000
0000
0000
0000
0000
0001
0000
0000
0100
0000
0000
0000
0000
0000
0100
0000
0000
0010
0000
0000
0000
0000
0000
,
2000
0000
0000
0000
0000
0000
0000
0000
0000
0000
0000
0000
0000
0000
0000
0000
0000
0000
0000
0000
0000
0000
0000
0000
0000
0000
0000
0000
0000
0000
0000
0000
0000
0000
0000
0000
3100
0000
0000
0000
0000
0000
0000
0000
0000
0000
0000
0000
0010
0000
0000
0000
0000
0000
0000
0000
0000
0000
0000
0000
0000
0000
0000
0000
0000
0000
0000
0000
0000
0000
0000
0000
0001
0000
0000
0000
0000
0000
0000
0000
0000
0000
0000
0000
0000
0000
0000
0000
0000
0000
0000
0000
0000
0000
0000
0000
1000
0000
0000
0000
0000
0000
0000
0000
0000
0000
0000
0000
0000
0000
0000
0000
0000
0000
0000
0010
0000
0000
0000
0000
0000
0000
0000
0000
0000
0000
0000
0000
0000
0000
0000
0000
0000
0000
0100
0000
0000
0000
0000
0000
0000
0000
0000
0000
0000
0000
0000
0000
0000
0000
0000
0000
0000
0001
0000
0000
0000
0000
0000
0000
0000
0000
0000
0000
0000
0000
0000
0000
0000
0000
0000
0000
0000
0010
0000
0000
0000
0000
0000
0000
0000
0000
0000
0000
0000
0000
0000
0000
0000
0000
0000
0000
,
0200
0000
0000
0000
1300
0000
0100
0000
0010
0000
0001
1000
0000
1000
0010
0000
,
0200
0000
0000
0000
0000
0000
0000
0000
0000
0000
0000
0000
0301
0000
0000
0000
1000
0000
0000
0000
0001
0000
0000
0000
2000
0000
0000
0000
0000
0000
0000
0000
0000
3200
0000
0000
0000
0000
0000
0000
0000
0000
0310
0000
0000
0000
0000
0000
,
0002
0000
0000
1003
0010
0000
0100
0000
0010
0000
1000
0001
0000
0001
0020
0000
,
0130
0000
1000
0000
0001
0100
0000
0100
0020
0000
0000
2030
0000
0000
3200
0000
,
0000
0000
0000
0320
0000
0000
0000
0000
0000
0000
0000
0000
0000
0000
0000
0032
0000
0000
0000
0000
0000
0000
0000
0000
1003
0000
0000
0000
0000
0000
0000
0000
0001
0000
0000
0000
0000
0000
0000
0000
1000
0000
0000
0000
0000
0000
0000
0000
,
0001
0000
0000
0000
0000
0000
0000
0000
0000
1000
0000
0000
0000
0000
0000
0000
0000
0000
0001
0000
0000
0000
0000
0000
0000
0000
0000
0000
0000
0000
0210
0000
0000
0000
0000
0000
0000
0000
0000
0000
0310
0000
0000
0000
0000
0000
0000
0000
,
0001
0000
4000
0000
3000
0000
0100
0000
0110
0000
0001
1000
0000
1000
0010
0000
,
0200
0000
0000
0000
0301
0000
0010
0000
0200
0000
0000
0300
0010
0000
0001
1000
,
0010
0000
0000
0000
0100
0000
0000
0000
0010
0000
0000
0000
0100
0000
0000
0000
0002
0000
0000
0000
0000
0000
0000
0000
0013
0000
0000
0000
0000
0000
0100
0000
0000
1000
0000
0000
0000
0000
0000
1000
0000
0000
0001
0000
0000
0000
0000
0000
,
0200
0000
0000
0320
0000
0000
1030
0000
0002
0000
0000
0013
0100
0000
1000
0000
,
0001
0100
0000
0010
0000
0100
0001
0000
2000
0000
0000
0000
3200
0000
0320
0000
,
0000
0032
0000
0203
0000
0320
0000
0032
,
0000
0000
0023
0000
0000
0000
2030
0000
0000
0000
3200
0000
0000
0320
0000
0000
,
0032
0000
2003
0010
0000
0010
0000
3001
,
0000
0000
0000
0000
0000
0000
0000
0000
0000
0000
0000
0000
0010
0000
0000
0000
0100
0000
0000
0000
1000
0000
0000
0000
0002
0000
0000
0000
0000
0000
0000
0000
0000
0103
0000
0000
0010
0000
0000
0000
0000
0000
1000
0000
0000
0000
0000
0000
,
0200
0000
0000
0320
0000
0000
0031
0000
2000
0000
0000
3002
0000
0000
0203
0000
,
0020
0000
0000
0000
0000
0000
0330
0000
1000
0000
0100
0010
0000
0010
0001
0000
,
0200
0000
0000
0320
0000
0000
2030
0000
0000
0000
3100
0000
0010
0000
0001
0000
,
0200
0000
0300
0020
0000
0030
0110
0000
0000
0000
0000
0000
1002
0000
0000
0000
,
0013
0000
0000
0100
1000
0000
0001
0000
0100
0000
0000
0010
1000
0000
0200
0000
,
0000
0320
0000
0032
0000
0203
0000
0310
,
1000
0000
0000
0001
0100
0000
0010
0000
1000
0000
0000
0001
0010
0200
0000
0000
,
1300
0002
0000
2003
0000
3000
1001
0000
0000
0000
0100
0000
0110
0000
0002
0000
,
0000
0000
0000
0000
0000
0000
0000
0000
0000
0000
0000
0000
0000
0000
0000
0000
0000
0000
0013
0000
0000
0100
0000
0000
1000
0000
0000
0000
0000
0000
0000
0000
0001
0000
0000
0000
0000
0000
0000
0000
0100
0000
0000
0000
0000
0000
0000
0000
,
0020
0000
0000
0000
1030
0000
0001
0000
0200
0000
0000
0320
0000
0000
1030
0000
,
0002
0000
0000
0000
0000
0000
0013
0000
0100
0000
2000
0000
0000
0000
0000
0002
3000
0000
0000
0000
0000
0000
0000
0000
,
0103
0000
0000
0000
0000
0000
0000
0000
0000
0010
0000
0000
1000
0000
0000
0000
0000
0000
0001
0000
0000
0000
0000
0000
2000
0000
0000
0000
0000
0000
0000
0000
0000
3100
0000
0000
0000
0000
0010
0000
0000
0000
0002
0000
0000
0000
0000
0000
,
0000
0000
0000
0000
0000
0000
0000
0000
0000
0000
0000
0000
0103
0000
0000
0010
0000
0000
0000
0000
0000
2000
0000
0000
0000
0000
0000
0000
0000
0000
0000
0000
3100
0000
0000
0000
0010
0000
0000
0000
0002
0000
0000
0000
0000
0000
0000
0000
,
0000
0000
0000
0000
1003
0100
0020
0000
0000
0000
0032
0000
0000
0203
0000
0000
,
0320
0000
0000
1030
0001
0020
0000
0000
0000
0000
0130
1000
,
0010
0000
0000
0100
0001
0000
0010
0000
0100
0000
1000
0001
0000
0001
0100
0000
,
0110
0000
4000
0000
3001
0000
0040
0000
0130
1000
0000
0001
0100
0010
1000
0002
,
0000
0000
0000
0013
0100
0000
1000
0000
0010
0000
0100
0001
0000
0001
0010
0000
,
0100
1000
0100
2000
0000
3000
1001
0000
0004
0103
0010
1000
,
0001
0000
0000
0010
0100
0000
1000
0001
1000
0000
0010
0100
0000
0100
0001
0000
,
0010
0000
0000
0100
1000
0000
0010
0000
0100
0000
0001
1000
0000
1000
0200
0000
,
0000
0320
0000
0000
0000
0032
0000
0000
2003
0000
0000
3010
0100
0000
0001
0000
,
0010
0000
0000
0100
1000
0000
1001
0000
0000
0000
0000
0000
0110
0000
0010
0000
,
0000
0000
1000
0001
0000
0001
1000
0000
0100
0000
0010
0001
0000
0001
0100
0000
,
0010
0000
0000
0000
1000
0000
0004
0000
0000
0000
0000
0000
0003
0000
0000
0000
0000
0000
0000
0000
0000
1000
0000
0000
0100
0000
0000
0000
0000
0000
0001
0000
0000
0200
0000
0000
0000
0000
0000
0000
0000
0000
0310
0000
0000
0000
0000
0000
,
0002
0000
1003
0010
0100
0000
0001
0010
0100
0000
1000
0001
0000
0001
0100
0000
,
0020
0000
0000
1030
0001
0020
0000
0230
0000
0301
0100
2000
,
0000
3002
0000
0000
0000
0103
0010
0000
2001
0000
0000
3100
0010
0000
0001
0000
,
1000
0000
0010
0100
0000
0100
0001
0000
1001
0000
0000
1000
0100
0000
0010
0002
,
0000
0000
0000
0000
0000
0000
1003
0000
0020
0000
0000
0000
0000
0000
0000
0230
0000
0000
0000
0000
0000
0302
0000
0000
,
1003
0000
0100
0010
0001
0000
1001
0000
0000
0000
0110
0000
0000
0000
1001
0000
,
0000
0100
0010
0100
0000
0000
0000
0000
0000
0000
0000
0000
;

//---------------dance-single - ----------------
#NOTEDATA:;
#CHARTNAME:;
#STEPSTYPE:dance-single;
#DESCRIPTION:;
#CHARTSTYLE:;
#DIFFICULTY:Medium;
#METER:8;
#RADARVALUES:0.429019,0.490671,0.080769,1.387757,0.363460,409.000000,398.000000,11.000000,189.000000,0.000000,0.000000,0.000000,0.000000,0.000000,0.429019,0.490671,0.080769,1.387757,0.363460,409.000000,398.000000,11.000000,189.000000,0.000000,0.000000,0.000000,0.000000,0.000000;
#CREDIT:;
#NOTES:
// measure 0
0000
0000
0000
0000
,  // measure 1
2000
0000
0000
3001
0000
0010
0000
0010
0000
0010
0000
0000
,  // measure 2
0200
0000
0000
0000
2300
0000
0000
0000
0000
3002
0000
0000
0203
0000
0000
0000
0000
0000
0000
0000
0000
0000
0000
0000
,  // measure 3
0310
0000
0100
0010
0000
0000
1001
0000
0000
2000
0000
0000
,  // measure 4
3100
0000
0000
0000
0010
0000
0000
0000
0000
0001
0000
0000
1000
0000
0000
0010
0000
0000
0100
0000
0000
0001
0000
0000
,  // measure 5
2000
0000
0000
3200
0000
0000
0320
0000
0000
0000
0000
0000
0030
0000
0001
0000
,  // measure 6
1000
0010
0100
0001
1000
0100
0010
0002
,  // measure 7
1003
0001
2000
0000
0000
3000
0001
1000
0001
0000
0010
0000
0100
0000
1000
0000
,  // measure 8
0020
0000
0000
0230
0000
0000
0301
0000
0020
0000
0000
0230
0000
0000
1300
0000
,  // measure 9
0002
0000
0000
0203
0000
0000
0310
0000
0020
0000
0030
0000
1001
0000
1000
0000
,  // measure 10
0020
0000
0000
0000
0000
0000
0000
0000
0000
0230
0000
0000
0000
0000
0000
0000
0000
0000
0301
0000
0000
0000
0000
0000
0010
0000
0000
0000
0000
0000
0000
0000
1000
0000
0000
0000
0000
0000
0000
0000
0010
0000
0000
0000
0100
0000
0000
0000
,  // measure 11
0020
0000
0000
0200
0000
0330
1000
0001
,  // measure 12
0200
0000
0000
0320
0000
0000
1030
0000
0001
0000
0010
0000
0100
0000
1000
0000
,  // measure 13
0002
0000
0000
0023
0000
0000
0230
0000
0000
0000
0000
0000
0300
0000
1000
0000
,  // measure 14
0010
0100
0001
1000
0100
0010
0001
2000
,  // measure 15
0000
0000
3010
0100
0000
0000
0001
0000
2000
0000
0000
0000
3100
0000
0010
0000
,  // measure 16
0002
0000
0000
0000
0000
0000
0000
0000
0000
0203
0000
0000
0000
0000
0000
0000
0000
0000
0320
0000
0000
0000
0000
0000
0000
0000
0000
0000
0000
0000
0000
0000
0000
0030
1000
0000
0000
0000
0001
0000
0000
0000
1000
0000
0000
0000
0000
0000
,  // measure 17
0002
0000
0000
0023
0000
0000
0130
0000
0000
0000
2000
0000
0000
0000
0000
0000
,  // measure 18
3020
0000
0000
0000
0000
0000
0000
0000
0000
0230
0000
0000
0000
0000
0000
0000
0000
0000
0302
0000
0000
0000
0000
0000
0023
0000
0000
0000
0000
0000
0000
0000
0230
0000
0000
0000
0000
0000
0000
0000
2300
0000
0000
0000
0000
0000
0000
0000
,  // measure 19
3002
0000
0203
0000
,  // measure 20
0320
0000
0000
2030
0000
0000
3002
0000
0023
0000
0000
0230
0000
0000
2300
0000
,  // measure 21
3001
0000
0100
0000
0010
0000
1000
0000
2000
0000
0000
3200
0000
0000
0320
0000
,  // measure 22
0032
0000
0000
2003
0000
0000
3020
0000
0130
0001
0000
0000
1000
0000
0000
0000
,  // measure 23
2001
0000
0000
0000
0000
0000
3001
0000
0002
0000
0000
0023
0000
0000
0130
0000
,  // measure 24
0200
0000
0000
2300
0000
0000
3020
0000
0230
0000
0000
0000
0310
0000
0000
0000
,  // measure 25
2002
0000
0000
0000
,  // measure 26
0000
0000
0000
0000
0000
0000
0000
0000
3003
0000
0000
0000
0000
0000
0000
0000
0000
0000
0000
0000
0000
0000
0000
0000
1002
0000
0000
0000
0000
0000
0000
0000
0000
0023
0000
0000
0000
0000
0000
0000
0000
0000
0130
0000
0000
0000
0000
0000
,  // measure 27
2000
0000
3001
0100
0020
0000
0000
0000
,  // measure 28
2030
0000
0000
0000
3100
0000
0010
0000
0002
0000
0000
0203
0000
0000
0310
0000
,  // measure 29
2000
0000
0000
0000
3200
0000
0000
0000
0320
0000
0000
0032
0000
0000
1003
0000
,  // measure 30
0020
0000
0000
0000
0130
0000
0001
0000
0020
0000
0000
0230
0000
0000
1300
0000
,  // measure 31
0001
0000
0100
0000
0010
1000
0000
0000
0002
0000
0000
0023
0000
0000
0230
0000
,  // measure 32
0000
0000
0000
2300
0000
0000
0000
0000
0000
0000
0000
0000
0000
0000
0000
3001
0000
0000
0000
0000
0000
0000
0000
0000
1000
0000
0000
0000
0000
0000
0000
0000
0001
0000
0000
0000
0000
0000
0000
0000
1000
0000
0000
0000
0000
0000
0000
0000
,  // measure 33
0001
0000
0000
1000
0000
0000
0002
0000
0000
0000
0020
0000
0000
0030
0000
0000
,  // measure 34
1003
0000
0010
0000
0100
0000
0001
0000
2000
0000
0000
3200
0000
0000
0310
0000
,  // measure 35
0002
0000
1003
0001
0020
0000
0130
0010
,  // measure 36
2000
0000
0000
0000
0000
0000
3010
0000
0002
0000
0000
0203
0000
0000
0310
0000
,  // measure 37
2000
0000
0000
3200
0000
0000
0310
0000
0002
0000
0000
0000
1003
0000
0010
0000
,  // measure 38
0100
0001
0000
0001
0000
0001
1000
0000
0200
0000
0000
0000
0310
0000
0002
0000
,  // measure 39
0000
2003
0000
3020
0000
0230
0000
0302
,  // measure 40
0000
0000
0023
0000
0000
0000
0230
0000
0000
0000
2300
0000
0000
3002
0000
0000
,  // measure 41
0203
0000
0320
1000
0000
2030
0000
3001
,  // measure 42
0000
0000
0000
0000
0000
0000
0010
0000
0000
0000
0010
0000
0200
0000
0000
0000
0000
0000
1300
0000
0000
0001
0000
0000
,  // measure 43
0200
0000
0000
0320
0000
0000
1030
0000
0200
0000
0000
0320
0000
0000
0032
0000
,  // measure 44
2000
0000
0000
0000
0000
0000
3003
0000
0001
0000
0000
0100
0000
0000
0010
0000
,  // measure 45
2000
0000
0000
3200
0000
0000
0320
0000
0000
0000
0031
0000
1000
0000
0010
0000
,  // measure 46
0200
0000
0000
0320
0000
0000
2030
0000
3000
0000
0000
0000
1002
0000
0000
0000
,  // measure 47
0023
0000
0000
0000
0000
0000
0000
0000
0000
0000
0130
0000
0000
1000
0000
0000
0001
0000
0000
0000
0200
0000
0000
0000
0000
0000
0000
0000
0320
0000
0000
0000
,  // measure 48
0000
2030
0000
3200
0000
0320
0000
0031
,  // measure 49
2000
0000
0000
3020
0000
0000
0230
0000
0000
0000
0000
0301
1000
0002
0000
0000
,  // measure 50
0023
0000
0000
0230
0000
0000
1300
0000
0000
0000
0001
0000
0001
0000
0200
0000
,  // measure 51
0000
0000
0000
0000
0000
0000
0000
0000
0000
0310
0000
0000
0010
0000
0000
0000
1000
0000
0000
0000
0001
0000
0000
0000
,  // measure 52
0020
0000
0000
0000
0130
0000
1000
0000
0002
0000
0000
0203
0000
0000
0320
0000
,  // measure 53
2030
0000
0000
0000
3200
0000
0000
0320
0000
0000
0032
0000
0000
0000
0000
0000
,  // measure 54
1003
0000
0000
0000
0000
0000
0000
0000
0000
0000
0000
0000
0010
0000
0000
0000
0000
0000
0100
0000
0000
0000
0000
0000
0002
0000
0000
0000
0000
0000
0000
0000
0000
0013
0000
0000
0000
0000
0100
0000
2000
0000
0000
0000
0000
0000
0000
0000
,  // measure 55
0000
0000
0000
0000
0000
0000
0000
0000
0000
0000
0000
0000
3001
0000
0000
0000
0000
0000
0000
0000
0000
0002
0000
0000
0000
0000
0000
0000
0000
0000
0000
0000
0100
0003
0000
0000
0010
0000
0000
0000
2000
0000
0000
0000
0000
0000
0000
0000
,  // measure 56
0000
0000
0000
0000
3100
0000
0200
0000
0000
0000
0320
0000
0000
0032
0000
0000
,  // measure 57
2003
0000
0000
0000
0000
0000
0000
0000
0000
0000
0000
0000
3010
0000
0000
0000
0000
0000
0000
0000
0000
0020
0000
0000
0000
0000
0000
0000
0000
0000
0000
0000
0000
0000
0000
0000
0000
0000
0000
0000
1030
0000
0000
0000
0002
0000
0000
0000
,  // measure 58
0000
0000
0000
0000
0000
0000
0003
0000
2000
0000
0000
3200
0000
0300
0010
0000
,  // measure 59
0001
0000
0100
0000
0001
0000
0100
0000
0010
2000
0000
0000
3001
0000
0010
0200
,  // measure 60
0000
0000
1300
0000
0001
0000
0100
0000
0020
0000
0000
2030
0000
0000
3001
0000
,  // measure 61
0020
0130
1001
2000
,  // measure 62
3100
0000
0000
0010
0001
0000
1000
0000
0020
0000
0000
0230
0000
0000
0301
0000
,  // measure 63
0010
0000
0100
0000
1000
0000
0001
0000
0200
0000
0000
0320
0000
0000
2030
0000
,  // measure 64
0000
0000
0000
3200
0000
0000
0000
0000
0000
0000
0000
0000
0000
0000
0000
0320
0000
0000
0000
0000
0000
0000
0000
0000
0031
0000
0000
0000
0000
0000
0000
0000
0000
1000
0000
0000
0000
0000
0001
0000
0000
0000
0000
0000
0000
0000
0000
0000
,  // measure 65
1000
0000
0000
0001
0000
0000
1000
0000
0000
0000
0000
0000
0100
0000
0100
0000
,  // measure 66
0000
0000
0000
1001
0000
1000
0001
0000
0020
0000
0000
0230
0000
0000
1300
0000
,  // measure 67
0010
0000
0200
0000
0300
0000
0001
0000
2000
0000
0000
3200
0000
0000
0310
0000
,  // measure 68
0002
0000
1003
0100
1000
0000
0001
0000
0200
0000
0000
0320
0000
0000
2030
0000
,  // measure 69
3200
0000
0000
0310
0000
0002
0000
2003
0000
3020
0000
0230
,  // measure 70
0000
0000
0000
0002
0300
0000
0000
0000
0000
0000
0000
0000
0000
0000
0000
0000
0000
0000
1003
0000
0000
0000
0000
0000
2001
0000
0000
0000
0000
0000
0000
0000
0000
0000
0000
0000
3100
0000
0000
0000
0000
0000
0020
0000
0000
0000
0000
0000
,  // measure 71
0000
0032
0000
0203
0000
0320
0000
2030
,  // measure 72
0000
0000
3100
0020
0000
0031
0000
0001
,  // measure 73
1000
0000
0010
0100
0010
0000
1000
0000
0000
0000
0001
0000
0000
0000
1001
0000
,  // measure 74
0000
0110
0000
0000
;
