#TITLE:You Spin Me Around;
#SUBTITLE:;
#ARTIST:RiraN;
#TITLETRANSLIT:;
#SUBTITLETRANSLIT:;
#ARTISTTRANSLIT:;
#GENRE:;
#CREDIT:;
#BANNER:;
#BACKGROUND:;
#LYRICSPATH:;
#CDTITLE:;
#MUSIC:You Spin Me Around.ogg;
#OFFSET:-0.252000;
#SAMPLESTART:25.442661;
#SAMPLELENGTH:17.777779;
#SELECTABLE:YES;
#BPMS:0.000000=162.000000
;
#STOPS:
;
#BGCHANGES:;
#KEYSOUNDS:;
#ATTACKS:;

//---------------dance-single - ----------------
#NOTES:
     dance-single:
     :
     Challenge:
     10:
     0.663058,0.827737,0.000000,0.842419,0.498161,573.000000,573.000000,0.000000,104.000000,22.000000,10.000000,0.663058,0.827737,0.000000,0.842419,0.498161,573.000000,573.000000,0.000000,104.000000,22.000000,10.000000:
// measure 0
0000
0000
0000
0000
,  // measure 1
0000
0000
0000
0000
,  // measure 2
0000
0000
0000
0000
,  // measure 3
0000
0000
0000
0000
,  // measure 4
0000
0000
0000
0000
0000
0000
0000
0001
,  // measure 5
0100
1000
0010
0002
0000
0000
0000
0103
,  // measure 6
0010
1000
0001
0020
0000
0230
0000
1300
,  // measure 7
0100
0001
0010
2000
0000
0000
0000
3001
,  // measure 8
0002
0000
0000
2003
0000
0000
0010
0000
0000
0000
3020
0000
0000
0000
0000
0000
,  // measure 9
0130
0000
0000
0100
0000
0000
0001
0000
1000
0000
0000
1000
0000
0000
0100
0000
,  // measure 10
0010
0000
0000
0010
0000
0000
0001
0000
1000
0000
0000
1000
0000
0000
0010
0000
,  // measure 11
0010
0000
0000
0010
0000
0000
0100
0000
0001
0000
0000
0001
0000
0000
1000
0000
,  // measure 12
0100
0000
0000
0100
0000
0000
0010
0000
0001
0000
0000
0001
0000
0000
0100
0000
,  // measure 13
0010
0000
0000
1000
0000
0001
0010
0000
0100
0000
0000
1000
0000
0001
0100
0000
,  // measure 14
0100
0000
0000
0001
0000
1000
0100
0000
0010
0000
0000
0001
0000
1000
0010
0000
,  // measure 15
0100
0000
0100
0000
0001
0000
0001
0000
0010
0000
0010
0000
0100
0000
0000
1000
,  // measure 16
0001
0100
0010
1000
0001
1000
0100
0010
0001
1000
0100
1000
0001
0000
0010
0000
,  // measure 17
0100
0000
0000
0100
0000
0000
1000
0000
0010
0000
M010
0000
0010
0000
1000
0000
,  // measure 18
0100
0000
0000
0100
0000
0000
1000
0000
0001
0000
0100
0000
1000
0000
0100
0000
,  // measure 19
0010
0000
0000
1000
0000
0000
0001
0000
0010
0000
001M
0000
0010
0000
0001
0000
,  // measure 20
0100
0010
1000
0010
0100
0000
0001
1000
0100
1000
0001
0100
0010
1000
0001
0000
,  // measure 21
0100
0000
0000
0100
0000
0000
0001
0000
0010
0000
001M
0000
0010
0000
0001
0000
,  // measure 22
0100
0000
0000
0100
0000
0000
0001
0000
1000
0000
0100
0000
0001
0000
0100
0000
,  // measure 23
0010
0000
0000
0001
0000
0000
1000
0000
0010
0000
M010
0000
0010
0000
1000
0000
,  // measure 24
0001
01M0
0100
0000
1000
01M0
0100
0000
0001
01M0
0100
0000
0010
0000
M100
0100
,  // measure 25
0002
0000
0000
0000
0040
0030
0000
0000
2003
0000
0000
0000
0400
0300
0000
0000
3002
0000
0000
0000
0040
0030
0000
0000
2003
0000
0000
0000
0400
0300
0000
0000
,  // measure 26
3002
0000
0000
0000
0400
0300
0000
0000
2003
0000
0000
0000
0040
0030
0000
0000
3002
0000
0000
0000
0400
0300
0000
0000
2003
0000
0000
0000
0040
0030
0000
0000
,  // measure 27
3002
0000
0000
0000
0040
0030
0000
0000
2003
0000
0000
0000
0040
0030
0000
0000
3002
0000
0000
0000
0400
0300
0000
0000
2003
0000
0000
0000
0400
0300
0000
0000
,  // measure 28
3001
0000
0010
0000
0100
0000
0010
0000
0001
0000
0000
0000
0010
0000
0100
0000
1000
0000
0002
0000
0400
0300
0000
0000
4003
3000
0010
0000
0100
0000
0001
0000
,  // measure 29
2000
0000
0000
0000
0400
0300
0000
0000
3002
0000
0000
0000
0040
0030
0000
0000
2003
0000
0000
0000
0400
0300
0000
0000
3002
0000
0000
0000
0040
0030
0000
0000
,  // measure 30
2003
0000
0000
0000
0040
0030
0000
0000
3002
0000
0000
0000
0400
0300
0000
0000
2003
0000
0000
0000
0040
0030
0000
0000
3002
0000
0000
0000
0400
0300
0000
0000
,  // measure 31
1003
0000
0000
0000
4000
3000
0000
0000
0100
0000
0000
0000
0400
0300
0000
0000
0010
0000
0000
0000
0040
0030
0000
0000
0001
0000
0000
0000
0004
0003
0000
0000
,  // measure 32
1000
01M0
0100
0000
0001
01M0
0100
0000
1000
01M0
0100
0000
0010
0000
010M
0100
,  // measure 33
2000
0000
3001
0020
0030
0200
0300
2000
,  // measure 34
0020
0000
0200
3330
,  // measure 35
0001
0020
0030
0200
0000
0300
1000
0020
,  // measure 36
0200
0000
0000
0000
0002
0000
0333
1000
,  // measure 37
0001
0020
0030
0200
0300
2000
3000
0002
,  // measure 38
0020
0000
0000
0000
0200
0000
0333
1000
,  // measure 39
0002
0003
0100
0020
0030
2000
3000
0002
,  // measure 40
0013
0100
1000
0100
0010
0000
0001
1000
0010
0100
0001
1000
0001
0010
0100
1000
,  // measure 41
0002
0000
0003
1000
0020
0030
0100
0002
,  // measure 42
0020
0000
0000
0000
0200
0000
0333
1000
,  // measure 43
0002
0003
0100
0020
0000
0030
1000
0001
,  // measure 44
0010
M100
0100
0000
0001
01M0
0100
0000
1000
01M0
0100
0000
0010
0000
010M
0100
,  // measure 45
2000
0000
3000
0002
0003
0200
0300
0020
,  // measure 46
2000
0000
0000
0000
0002
0000
3033
0001
,  // measure 47
0200
0300
0010
2000
3000
0002
0003
0010
,  // measure 48
0100
1000
0001
1000
0100
0000
0010
0001
0100
0000
0100
0000
0010
0000
1000
0000
,  // measure 49
0100
0001
0010
2000
0000
0000
0000
3001
,  // measure 50
0100
0020
0000
1000
0000
1030
0000
0001
,  // measure 51
0100
1000
0010
0002
0000
0000
0000
1003
,  // measure 52
0010
0000
0000
0010
0000
0000
0100
0000
0000
0000
0002
0000
0003
0000
1000
0000
,  // measure 53
0010
0001
0100
2000
0000
0000
0000
3010
,  // measure 54
0100
0001
1000
0100
0000
0010
0000
0001
,  // measure 55
0010
1000
0100
0002
0000
0000
0000
1003
,  // measure 56
0100
0000
0000
0100
0000
0000
0020
0000
0000
0000
0032
0000
0000
0000
1003
0000
,  // measure 57
0010
0000
0000
0010
0000
0000
1000
0000
0001
0000
0000
0001
0000
0000
0010
0000
,  // measure 58
0100
0000
0000
0100
0000
0000
1000
0000
0001
0000
0000
0001
0000
0000
0100
0000
,  // measure 59
0100
0000
0000
0100
0000
0000
0001
0000
1000
0000
0000
1000
0000
0000
0100
0000
,  // measure 60
0010
0000
0000
0010
0000
0000
0001
0000
1000
0000
0000
1000
0000
0000
0010
0000
,  // measure 61
0100
0000
0001
1000
0000
0001
1000
0000
0100
0000
1000
0001
0000
1000
0001
0000
,  // measure 62
0100
0000
0010
1000
0000
0001
0010
0000
0100
0000
0010
0001
0000
1000
0010
0000
,  // measure 63
0100
0000
0100
0000
0001
0000
0001
0000
1000
0000
1000
0000
0100
0000
0000
0010
,  // measure 64
0001
1000
0010
1000
0001
0100
0001
1000
0100
0010
0001
1000
0001
0100
0010
1000
,  // measure 65
0002
0000
0000
0020
0000
0000
0133
0000
1000
0000
0001
0000
0100
0000
0010
0000
,  // measure 66
2000
0000
0000
0020
0000
0000
3130
0000
0001
0000
1000
0000
0100
0000
0010
0000
,  // measure 67
0001
0000
0000
0001
0000
0000
1000
0000
0010
0000
M010
0000
0010
0000
0100
0000
,  // measure 68
0001
1000
0100
1000
0001
0000
0100
0010
1000
0001
0000
0010
0100
1000
0001
0000
,  // measure 69
2000
0000
0000
0020
0000
0000
3130
0000
0001
0000
0010
0000
0100
0000
1000
0000
,  // measure 70
0020
0000
0000
0200
0000
0000
0331
0000
1000
0000
1000
0000
0100
0000
0010
0000
,  // measure 71
0002
0000
0000
2000
0000
0000
3103
0000
1000
0000
0010
0000
M010
0000
0010
0000
,  // measure 72
1000
01M0
0100
0000
0001
01M0
0100
0000
1000
01M0
0100
0000
0010
0000
010M
0100
,  // measure 73
2000
0000
0000
0000
0040
0030
0000
0000
3002
0000
0000
0000
0400
0300
0000
0000
2003
0000
0000
0000
0040
0030
0000
0000
3002
0000
0000
0000
0400
0300
0000
0000
,  // measure 74
2003
0000
0000
0000
0400
0300
0000
0000
3002
0000
0000
0000
0040
0030
0000
0000
2003
0000
0000
0000
0400
0300
0000
0000
3002
0000
0000
0000
0040
0030
0000
0000
,  // measure 75
2003
0000
0000
0000
0040
0030
0000
0000
3002
0000
0000
0000
0040
0030
0000
0000
2003
0000
0000
0000
0400
0300
0000
0000
3002
0000
0000
0000
0400
0300
0000
0000
,  // measure 76
1003
0100
0010
0001
0100
0010
1000
0010
0001
0010
0100
0001
1000
0100
0010
0001
,  // measure 77
2000
0000
0000
0000
0400
0300
0000
0000
3002
0000
0000
0000
0040
0030
0000
0000
2003
0000
0000
0000
0400
0300
0000
0000
3002
0000
0000
0000
0040
0030
0000
0000
,  // measure 78
2003
0000
0000
0000
0040
0030
0000
0000
3002
0000
0000
0000
0400
0300
0000
0000
2003
0000
0000
0000
0040
0030
0000
0000
3002
0000
0000
0000
0400
0300
0000
0000
,  // measure 79
1003
1000
0100
0100
0010
0010
0001
0001
,  // measure 80
1000
0100
0010
0001
1000
0001
0100
0010
0001
0010
1000
0001
1000
0100
0010
0001
,  // measure 81
2000
0000
0000
3000
;

//---------------dance-single - ----------------
#NOTES:
     dance-single:
     :
     Hard:
     9:
     0.606357,0.761518,0.008100,0.202505,0.356408,524.000000,523.000000,1.000000,25.000000,0.000000,0.000000,0.606357,0.761518,0.008100,0.202505,0.356408,524.000000,523.000000,1.000000,25.000000,0.000000,0.000000:
0000
0000
0000
0000
,
0000
0000
0000
0000
,
0000
0000
0000
0000
,
0000
0000
0000
0000
,
0000
0000
0000
0000
,
0000
0000
0000
0000
,
0000
0000
0000
0000
,
0000
0000
0000
0000
,
0000
0000
0000
0000
0000
0000
0000
1000
,
0100
0000
0001
0000
0010
0000
1000
0000
0001
0000
0000
0001
0000
0100
0001
0000
,
1000
0000
0000
1000
0000
0100
1000
0000
0001
0000
0000
0001
0000
0010
0001
0000
,
0100
0000
1000
0000
0010
0000
0001
0000
1000
0000
0000
1000
0000
0100
1000
0000
,
0001
0000
0000
0001
0000
0100
0001
0000
1000
0000
0000
1000
0000
0010
1000
0000
,
0100
0000
0001
0000
0010
0000
1000
0000
0001
0000
0001
0000
1000
0000
0000
0100
,
0010
0000
0010
0000
0001
0000
0000
1000
0100
0000
0100
0000
0010
0000
0000
0001
,
1000
0010
0001
0100
1000
0010
0001
0100
,
1000
0001
1000
0001
1000
0001
1000
0001
1000
0001
1000
0001
2000
0000
0000
0000
,
3001
0000
0000
0001
0000
0000
0001
0000
0100
0000
1000
0000
0100
0000
0001
0000
,
1000
0000
0000
1000
0000
0000
1000
0000
0100
0000
0001
0000
0100
0000
1000
0000
,
0010
0000
0000
0010
0000
0000
0010
0000
0100
0000
1000
0000
0100
0000
0001
0000
,
1000
0000
0100
0010
0100
0000
1000
0000
0001
0100
0001
0100
0001
1000
0100
0000
,
1000
0000
0000
1000
0000
0000
1000
0000
0100
0000
0001
0000
0100
0000
1000
0000
,
0001
0000
0000
0001
0000
0000
0001
0000
0100
0000
1000
0000
0100
0000
0001
0000
,
0010
0000
0000
0010
0000
0000
0010
0000
0100
0000
0001
0000
0100
0000
1000
0000
,
0001
0100
0001
0000
1000
0100
1000
0000
0001
0100
0001
0000
0010
0000
0100
0000
,
1000
0010
1000
0001
1000
0100
1000
0001
,
1000
0010
1000
0001
1000
0100
1000
0001
,
0001
0010
0001
1000
0001
0100
0001
1000
,
0001
0000
0010
0100
0010
0000
0001
0000
1000
0100
1000
0000
1001
0000
0000
0000
,
0001
0010
0001
1000
0001
0100
0001
1000
,
0001
0010
0001
1000
0001
0100
0001
1000
,
1000
0010
1000
0001
1000
0100
1000
0001
,
1000
0010
1000
0000
0001
0010
0001
0000
1000
0100
1000
0000
0020
0000
0000
0000
,
0130
0000
0001
0010
0000
0100
0000
2000
,
0002
0003
0002
3003
,
0001
0010
0000
0100
0000
0000
0010
0002
,
2000
0000
3000
0000
2000
0000
3003
1000
,
0001
0010
0000
0100
0000
1000
0000
0020
,
0200
0000
0300
0000
0200
0000
0330
1000
,
0100
0000
0100
1000
0000
0001
0000
0020
,
0200
0000
0300
0000
0230
0000
1300
0001
,
0100
0000
0000
0000
0010
0000
1000
0001
,
2000
0000
0000
0000
3002
0000
0003
0100
,
0010
0000
0010
1000
0000
0000
0001
1000
,
0001
0100
0001
0000
1000
0100
1000
0000
0001
0100
0001
0000
0010
0000
0100
0000
,
1000
0000
0000
0001
0000
0100
0000
0010
,
2000
0000
0000
0000
3002
0000
0003
0010
,
0100
0000
0010
0001
0000
0100
0000
0010
,
1000
0001
1000
0001
1000
0000
0100
0010
0100
0000
1000
0000
0001
0000
1000
0000
,
0100
0001
0010
2000
0000
0000
0000
3100
,
0010
0001
0000
1000
0000
1000
0000
0001
,
0100
1000
0010
0002
0000
0000
0000
0103
,
0010
1000
0000
0001
0000
0001
0000
1000
,
0100
0001
0010
2000
0000
0000
0000
3001
,
0100
1000
0010
0002
0000
1003
0000
0010
,
0001
1000
0010
0002
0000
0000
0000
1003
,
0010
0000
0000
0010
0000
0000
0100
0000
0000
0000
0100
0000
0000
0000
0001
0000
,
0100
0000
1000
0000
0010
0000
0001
0000
1000
0000
0000
1000
0000
0100
1000
0000
,
0001
0000
0000
0001
0000
0100
0001
0000
1000
0000
0000
1000
0000
0010
1000
0000
,
0100
0000
0001
0000
0010
0000
1000
0000
0001
0000
0000
0001
0000
0100
0001
0000
,
1000
0000
0000
1000
0000
0100
1000
0000
0001
0000
0000
0001
0000
0010
0001
0000
,
0100
0000
1000
0000
0010
0000
0001
0000
1000
0000
1000
0000
0001
0000
0000
0100
,
0010
0000
0010
0000
1000
0000
0000
0001
0100
0000
0100
0000
0010
0000
0000
1000
,
0001
0010
1000
0100
0001
0010
1000
0100
,
0001
1000
0001
1000
0001
1000
0001
1000
0001
1000
0001
1000
0002
0000
0000
0000
,
0013
0000
0000
0010
0000
0000
0010
0000
1000
0000
0100
0000
0001
0000
0010
0000
,
0100
0000
0000
0100
0000
0000
0100
0000
0001
0000
0010
0000
1000
0000
0100
0000
,
0010
0000
0000
0010
0000
0000
0010
0000
0001
0000
0100
0000
1000
0000
0100
0000
,
0001
1000
0000
0000
1000
0000
0100
0000
0010
0001
0010
0000
0100
0000
1000
0000
,
0010
0000
0000
0010
0000
0000
0010
0000
0001
0000
0100
0000
1000
0000
0010
0000
,
0100
0000
0000
0100
0000
0000
0100
0000
1000
0000
0010
0000
0001
0000
0100
0000
,
0010
0000
0000
0010
0000
0000
0010
0000
1000
0000
0100
0000
0001
0000
0100
0000
,
1000
0100
1000
0000
0001
0100
0001
0000
1000
0100
1000
0000
0010
0000
0100
0000
,
0001
0001
0010
0010
1000
1000
0100
0100
,
0001
0001
0010
0010
1000
1000
0100
0100
,
0001
0000
0000
0001
0000
0000
0001
0000
0100
0000
1000
0000
0100
0000
0001
0000
,
1000
0000
0100
0010
0001
0000
1000
0100
0010
0000
0001
1000
0010
0000
0100
0001
,
1000
1000
0010
0010
0001
0001
0100
0100
,
1000
1000
0010
0010
0001
0001
0100
0100
,
1000
0000
0000
1000
0000
0000
1000
0000
0100
0000
0001
0000
0100
0000
1000
0000
,
0001
0000
0100
0010
1000
0000
0001
0100
0010
0000
1000
0001
0010
0000
0100
1000
,
0002
0000
0000
0003
;

//---------------dance-single - ----------------
#NOTES:
     dance-single:
     :
     Medium:
     7:
     0.411952,0.529752,0.000000,0.437410,0.072902,356.000000,356.000000,0.000000,54.000000,0.000000,0.000000,0.411952,0.529752,0.000000,0.437410,0.072902,356.000000,356.000000,0.000000,54.000000,0.000000,0.000000:
0000
0000
0000
0000
,
0000
0000
0000
0000
,
0000
0000
0000
0000
,
0000
0000
0000
0000
,
0000
0000
0000
0000
,
0000
0000
0000
0000
,
0000
0000
0000
0000
,
0000
0000
0000
0000
,
0000
0000
0000
0000
0000
0000
0000
1000
,
0100
0001
0010
2000
0000
0000
0000
0000
,
3200
0000
0000
0000
0320
0000
0000
0031
,
0100
1000
0010
0002
0000
0000
0000
0000
,
0203
0000
0000
0000
0320
0000
0000
1030
,
0100
0001
0010
2000
0000
0000
0000
0000
,
3200
0000
0000
0000
0320
0000
0000
0031
,
0100
1000
0010
0002
0000
0000
0000
0000
,
1003
0001
1000
0001
1000
0001
1000
0000
,
0010
0000
0000
0100
0000
0000
0010
0000
1000
0000
0001
0000
1000
0000
0001
0000
,
0010
0000
0000
0100
0000
0000
0010
0000
0001
0000
1000
0000
0010
0000
1000
0000
,
0100
0000
0000
0010
0000
0000
0100
0000
1000
0000
0001
0000
1000
0000
0001
0000
,
0100
0010
1000
0000
0100
0010
0001
0000
,
1000
0000
0000
1000
0000
0000
1000
0000
0010
0000
0100
0000
0010
0000
0100
0000
,
0001
0000
0000
0001
0000
0000
0001
0000
0010
0000
0100
0000
0010
0000
0100
0000
,
1000
0000
0000
1000
0000
0000
1000
0000
0010
0000
0100
0000
0010
0000
0100
0000
,
0001
0001
1000
1000
0100
0100
0010
0000
,
0001
0200
0000
0320
0000
2030
0000
3002
,
0000
0023
0000
0230
0000
0320
0000
0031
,
1000
0200
0000
0320
0000
0032
0000
2003
,
0000
3020
0000
0230
0000
0301
0002
0000
,
1003
0200
0000
0320
0000
0032
0000
2003
,
0000
3020
0000
0230
0000
0320
0000
1030
,
0001
0200
0000
0320
0000
2030
0000
3001
,
0010
0010
0100
0100
1000
1000
0001
0000
,
0100
0000
0010
1000
0000
0001
0000
0020
,
0000
0000
0000
0000
,
0130
1000
0000
0010
0000
0000
0100
0002
,
0000
0000
0000
0000
0000
0000
0000
0013
,
0100
1000
0000
0010
0000
0100
0000
0002
,
0000
0000
0000
0000
0000
0000
0000
0013
,
0100
0000
0100
1000
0000
0001
0000
0200
,
0000
0000
0000
0000
0000
0000
0310
1000
,
0100
0000
0000
0000
0010
0000
0001
0100
,
0000
0020
0000
0000
0000
0000
0000
1030
,
0001
0000
0010
0100
0000
0000
1000
0020
,
0000
0000
0000
0000
0000
0000
0130
0001
,
0010
0000
0000
0100
0000
1000
0000
0010
,
0000
0200
0000
0000
0000
0000
0000
0301
,
0010
0000
0100
1000
0000
0001
0000
0100
,
0010
1000
0001
1000
0100
0010
0001
1000
,
0000
0000
0000
0000
0000
0000
0000
0100
,
0010
0001
0000
1000
0000
1000
0000
0001
,
0100
1000
0010
0002
0000
0000
0000
0000
,
0203
0000
0000
0000
0320
0000
0000
1030
,
0100
0001
0010
2000
0000
0000
0000
0000
,
3200
0000
0000
0000
0320
0000
0000
0031
,
0100
1000
0010
0002
0000
0000
0000
0000
,
0203
0000
0000
0000
0320
0000
0000
1030
,
0100
0000
0001
0000
0010
0000
1000
0000
0001
0000
0000
0010
0000
0000
0001
0000
,
1000
0010
0000
0200
0000
0300
0000
0001
,
0100
0000
1000
0000
0010
0000
0001
0000
1000
0000
0000
0010
0000
0000
1000
0000
,
0001
0000
0000
0010
0000
0000
0200
0000
0000
0000
0300
0000
0000
0000
1000
0000
,
0100
0000
0001
0000
0010
0000
1000
0000
0001
0000
0000
0010
0000
0000
0001
0000
,
1000
0010
0100
0010
0000
0100
0000
0001
,
0100
0000
1000
0000
0010
0000
0001
0000
1000
0000
0000
0010
0000
0000
1000
0000
,
0001
0000
0000
0010
0000
0000
0200
0000
0000
0000
0300
0000
0000
0000
1000
0000
,
0001
0000
0000
0001
0000
0000
0001
0000
0100
0000
0010
0000
0100
0000
0010
0000
,
1000
0000
0000
1000
0000
0000
1000
0000
0100
0000
0010
0000
0100
0000
0010
0000
,
0001
0000
0000
0001
0000
0000
0001
0000
1000
0000
0100
0000
0010
0000
0001
0000
,
1000
1000
0010
0010
0100
0100
0001
0001
,
1000
0000
0000
1000
0000
0000
1000
0000
0100
0000
0010
0000
0100
0000
0010
0000
,
0001
0000
0000
0001
0000
0000
0001
0000
0100
0000
0010
0000
0100
0000
0010
0000
,
1000
0000
0000
1000
0000
0000
1000
0000
0001
0000
0100
0000
0010
0000
1000
0000
,
0001
0001
0010
0010
0100
0100
1000
0000
,
0001
0100
0000
0100
0000
0010
0000
0010
,
0000
1000
0000
1000
0000
0001
0000
0001
,
0000
0010
0000
0010
0000
0100
0000
0100
,
1000
0010
0001
0100
1000
0010
0001
0100
,
1000
0100
0000
0100
0000
0010
0000
0010
,
0000
0001
0000
0001
0000
1000
0000
1000
,
0000
0010
0000
0010
0000
0100
0000
0100
,
0001
0010
1000
0100
0001
0010
1000
0100
,
0002
0000
0000
0003
;
