#TITLE:The Reverie;
#SUBTITLE:;
#ARTIST:uma;
#TITLETRANSLIT:;
#SUBTITLETRANSLIT:;
#ARTISTTRANSLIT:;
#GENRE:;
#CREDIT:;
#BANNER:;
#BACKGROUND:;
#LYRICSPATH:;
#CDTITLE:;
#MUSIC:The Reverie.ogg;
#OFFSET:-0.264000;
#SAMPLESTART:76.266525;
#SAMPLELENGTH:20.000000;
#SELECTABLE:YES;
#BPMS:0.000000=150.000000
;
#STOPS:
;
#BGCHANGES:;
#KEYSOUNDS:;
#ATTACKS:;

//---------------dance-single - ----------------
#NOTES:
     dance-single:
     :
     Challenge:
     12:
     0.869672,1.069509,0.000000,1.036812,1.326929,640.000000,640.000000,0.000000,109.000000,45.000000,0.000000,0.869672,1.069509,0.000000,1.036812,1.326929,640.000000,640.000000,0.000000,109.000000,45.000000,0.000000:
// measure 0
0000
0000
0000
0000
,  // measure 1
0000
0000
0000
0000
,  // measure 2
0000
0000
0000
0000
,  // measure 3
0000
0000
0000
0000
,  // measure 4
0002
0000
0000
0203
0000
0000
0320
0000
2030
0000
0000
3200
0000
0000
0320
0000
,  // measure 5
0032
0000
0000
2003
0000
0000
3200
0000
0320
0000
0000
2030
0000
3000
0020
0000
,  // measure 6
0130
1000
0001
1000
0010
0100
0001
1000
0100
1000
0010
0100
0001
1000
0100
0010
,  // measure 7
0002
0000
0000
0000
2003
0000
0000
0000
3200
0320
0000
0000
0130
0000
0000
0000
,  // measure 8
1000
0000
2000
0000
0000
0010
0000
0000
3002
0000
0000
0010
0000
0000
0103
0000
,  // measure 9
0010
0000
0000
0000
0020
0000
0000
0000
0000
0000
1000
0000
0000
0000
0000
0000
0230
0000
0000
0000
0000
0000
0001
0000
0000
0000
0000
0300
01M0
0000
0000
0000
,  // measure 10
2000
0000
0001
0000
0000
0010
0000
0000
0001
0000
0000
3200
0000
0000
0310
0000
,  // measure 11
0002
0000
0000
0000
0000
0000
1000
0000
0000
0000
0000
0000
0000
0000
0000
0010
0000
0000
0000
0000
0000
0000
0000
0000
1000
0000
0000
0000
0000
0000
0000
0000
0000
0103
0000
0000
0010
0000
1000
0000
0001
0000
1000
0000
0100
0000
0010
0000
,  // measure 12
0001
0000
1000
0000
0001
0010
0M00
0010
1000
0000
1000
0100
00M0
0100
0001
0000
,  // measure 13
1000
0000
0100
0000
1000
0010
0M00
0010
0001
0000
0001
0100
0020
0000
0000
0000
,  // measure 14
1030
0001
1000
0100
0010
0001
1000
0001
0100
0010
1000
0001
0010
0100
1000
0001
,  // measure 15
0200
0000
0000
0000
0000
0000
0000
0000
0000
0000
0000
0000
0320
0000
0000
0000
0000
0000
1030
0001
0010
0100
1000
0001
,  // measure 16
0200
0000
03M0
0100
1000
0000
0010
0000
0200
0000
03M0
0100
1000
0000
0010
0000
,  // measure 17
0200
0000
03M0
0100
1000
0000
0010
0000
0200
0000
0000
0302
0000
0000
2003
0000
,  // measure 18
3200
0000
03M0
0100
0001
0000
0010
0000
0200
0000
03M0
0100
0001
0000
0010
0000
,  // measure 19
0200
0000
03M0
0100
0001
0000
0010
0000
0200
0000
0000
2300
0000
0000
3002
0000
,  // measure 20
0103
0000
0010
0000
1000
0000
0001
0000
1000
0000
0100
0000
0010
0000
0000
0000
0000
0000
0100
0000
0000
0000
0000
0000
0002
0000
0000
0000
0000
0000
0M03
0000
0000
0001
0000
0000
0010
0000
0000
0000
0000
0000
0100
0000
0000
0000
0000
0000
,  // measure 21
0002
0000
0M03
0001
0010
0000
0100
0000
0002
0000
0003
0200
0000
0000
0320
0000
,  // measure 22
0031
1000
0010
0100
0001
1000
0100
1000
0010
0100
0001
1000
0100
0010
0001
0100
,  // measure 23
0020
0000
0000
0000
0000
0000
0000
0000
0031
1000
0100
0001
0010
0100
0001
0100
,  // measure 24
2000
0000
0000
0000
0000
0000
3001
0100
0020
0000
0000
0000
0230
0000
0302
0000
,  // measure 25
0023
0000
0000
0000
0000
0000
0000
0000
0000
0000
0000
0000
0230
0000
0000
0000
0000
0000
0302
0000
0000
0000
0000
0000
0203
0000
0000
0000
0000
0000
1300
0000
0001
0000
1000
0000
0001
0000
0000
0100
0000
0000
0010
0000
0000
1000
0000
0000
,  // measure 26
0002
0023
2030
3020
0230
0000
2300
3020
,  // measure 27
0230
2300
3200
0302
2003
3200
0000
0320
,  // measure 28
0032
0000
0203
0000
2300
0000
3002
0023
,  // measure 29
0230
0000
0000
0000
0302
0000
0000
0000
0023
0000
0000
0000
0230
0000
1300
0001
,  // measure 30
0200
0000
0000
0000
0000
0000
0310
1000
0002
0000
0000
0000
0000
0000
0013
0100
,  // measure 31
2000
0000
0000
0000
0000
0000
0000
0000
0000
0000
0000
0000
3001
0000
0000
0000
0100
0000
0000
0000
0010
0000
0000
0000
2000
0000
0000
0000
0000
0000
0000
0000
0000
0000
0000
0000
3001
0000
0000
0010
0000
0000
0100
0000
0000
0010
0000
0000
,  // measure 32
0002
0000
0000
0000
1000
0000
1003
0010
0200
0000
0000
1000
0000
0000
0302
0000
,  // measure 33
0000
0000
0023
0000
0000
0000
0000
0000
0000
0000
0000
0000
0000
0000
0130
1000
,  // measure 34
0002
0000
0000
0000
0100
0000
0103
0010
2000
0000
0000
0100
0000
0000
3002
0000
,  // measure 35
0000
0000
0000
0000
0000
0000
0103
1000
0200
0000
0302
0000
0023
0000
0230
0000
,  // measure 36
2300
0000
0000
0000
3001
0000
0001
0100
0020
0000
0000
0001
0000
0000
2030
0000
,  // measure 37
0000
0000
3200
0000
0000
0000
0000
0000
0000
0000
0000
0000
0000
0000
0310
0001
,  // measure 38
2000
0000
0000
0000
0010
0000
3010
0100
0002
0000
0000
0010
0000
0000
1000
0000
,  // measure 39
1003
0000
0000
0000
0000
0000
0001
0100
0010
0000
1000
0000
0001
0000
1000
0000
,  // measure 40
0001
0100
01M0
0100
0010
0100
010M
0100
0001
0100
01M0
0100
0020
0030
0020
0030
,  // measure 41
1000
0100
01M0
0100
0010
0100
M100
0100
1000
0100
01M0
0100
0020
0030
0002
0003
,  // measure 42
0100
01M0
0100
0010
0100
010M
0100
0001
0100
01M0
0100
0010
2000
3000
2000
3000
,  // measure 43
0100
01M0
0100
0010
0100
M100
0100
1000
0100
01M0
0100
0010
0200
0000
0000
0000
,  // measure 44
1300
0100
01M0
0001
1000
0100
01M0
0001
1000
0100
01M0
0001
2000
0000
0000
0000
,  // measure 45
3001
0000
0000
0100
0000
0000
01M0
0000
0000
1000
0000
0000
0001
0000
0000
0100
0000
0000
01M0
0000
0000
1000
0000
0000
0001
0000
0000
0100
0000
0000
01M0
0000
0000
1000
0000
0000
0001
0000
0010
0000
0100
0000
1000
0000
0001
0000
0100
0000
,  // measure 46
0010
1000
0001
1000
0100
0010
0001
0100
0010
0100
0001
1000
0001
0010
0100
1000
,  // measure 47
0020
0000
0000
0000
0230
0000
0000
0000
0302
0000
0000
1003
0010
0100
0001
0010
,  // measure 48
0100
1000
0001
0100
00M0
0100
1000
0001
0010
0100
1000
0010
0M00
0010
0001
0100
,  // measure 49
0010
1000
0001
0100
00M0
0100
1000
0010
0001
1000
0100
0010
000M
0010
0001
1000
,  // measure 50
0010
0100
0001
0010
0M00
0010
1000
0001
0010
0001
1000
0100
00M0
0100
0001
1000
,  // measure 51
0001
0010
0100
1000
0001
0100
0010
0001
0010
1000
0001
0010
0100
0001
0100
1000
,  // measure 52
0001
0100
0010
1000
0001
1000
0100
0010
0100
1000
0001
0100
0001
1000
0001
0100
,  // measure 53
0010
0100
1000
0100
0010
0100
1000
0100
0010
0100
1000
0100
0001
0010
1000
0001
,  // measure 54
0100
1000
0010
0100
00M0
0100
1000
0010
0100
0001
1000
0010
0M00
0010
0001
1000
,  // measure 55
0010
0000
0100
0000
0001
0000
1000
0000
0100
0000
0010
0000
0001
0000
0000
0000
0100
0000
0000
0000
0010
0000
0000
0000
1000
0000
0000
0001
0000
0000
1000
0000
0000
0001
0000
0000
0010
0000
0100
0000
0010
0000
0100
0000
0010
0000
0100
0000
,  // measure 56
1000
0001
0100
0010
M000
0010
0001
1000
0001
0100
0010
1000
0001
0010
0100
1000
,  // measure 57
0001
0100
0010
1000
0001
1000
0100
0010
0100
0001
1000
0010
0001
1000
0001
0100
,  // measure 58
0010
0000
1000
0000
0001
0000
0010
0000
0M00
0000
0010
0000
1000
0000
0001
0000
0010
0000
0100
0000
0010
0000
1000
0000
0M00
0000
1000
0100
1000
0000
0001
0000
,  // measure 59
0100
0010
0100
0010
1000
0010
1000
0010
1000
0001
1000
0001
0010
0001
0010
0001
,  // measure 60
0010
0100
1000
0001
0100
0010
1000
0001
1000
0100
0010
0001
1000
0010
0100
1000
,  // measure 61
0100
0010
0001
0010
0100
0010
0001
0010
0100
0010
0001
1000
0100
0001
0010
0100
,  // measure 62
1000
0010
0100
1000
00M0
1000
0010
0100
0001
0010
0100
0001
00M0
0001
0010
0100
,  // measure 63
1000
0001
0100
1000
00M0
1000
0010
0100
0001
1000
0100
0001
00M0
0001
0010
0100
,  // measure 64
2000
0002
3003
0000
0000
0000
0000
0000
;

//---------------dance-single - ----------------
#NOTES:
     dance-single:
     :
     Hard:
     11:
     0.797652,0.945437,0.142680,0.951203,1.141444,587.000000,572.000000,15.000000,100.000000,0.000000,11.000000,0.797652,0.945437,0.142680,0.951203,1.141444,587.000000,572.000000,15.000000,100.000000,0.000000,11.000000:
0000
0000
0000
0000
,
0000
0000
0000
0000
,
0000
0000
0000
0000
,
0000
0000
0000
0000
,
1000
1100
0001
0101
,
1000
1010
0001
0011
,
1000
0100
1000
0100
0010
0001
0010
0001
1000
0010
1000
0010
0100
0001
0100
0001
,
2000
0002
0200
3303
,
0002
0000
0010
0000
0000
2003
0000
0000
0010
0000
0000
0001
0000
0000
3100
0000
,
0020
0000
0001
0000
0000
0230
0000
0000
0001
0000
0000
0010
0000
0000
1300
0000
,
0020
0000
0100
0000
0000
2030
0000
0000
0100
0000
0000
0001
0000
0000
3010
0000
,
0200
0000
1000
0000
0000
0320
0000
0000
1000
0000
0000
0130
0004
0000
0000
0000
,
1003
0000
0010
0000
0100
0001
0000
0100
0001
0000
1000
0010
0000
0010
0100
0000
,
0001
0000
0010
0000
0100
1000
0000
0100
1000
0000
0001
0010
0200
0000
0000
0000
,
1300
0000
0001
0000
0100
0010
0000
0010
1000
0000
1000
0001
0000
0001
0010
0100
,
2000
0000
3002
0403
,
0320
0000
0000
2030
0000
0000
3101
0000
0020
0000
0000
0032
0000
0000
1103
0000
,
0020
0000
0000
2030
0000
0000
3101
0000
0020
0000
0000
2030
0000
0000
3002
0000
,
0203
0000
0000
0320
0000
0000
0131
0000
2000
0000
0000
3002
0000
0000
1103
0000
,
0020
0000
0000
0230
0000
0000
0311
0000
2000
0000
0000
3200
0000
0000
0302
0000
,
4003
0000
0000
0000
3010
0000
0101
0000
2000
0000
0000
3020
0000
0000
1130
0000
,
0002
0000
0000
2003
0000
0000
3101
0000
0020
0000
0000
0032
0000
0000
1103
0000
,
0010
0100
0010
0100
0001
1000
0001
1000
0100
0010
0100
0010
0001
0100
0001
0100
,
0020
0000
0000
0000
0000
0000
0000
0000
1030
0100
0010
0001
0010
0100
1000
0001
,
0200
0000
0000
0000
0000
0000
0310
1000
0002
0000
0000
0000
0203
0000
0302
0000
,
0023
0000
0000
0000
0230
0000
0302
0000
0203
0000
0320
0000
0031
1000
0010
0100
,
0002
0023
0230
2300
3002
0000
0203
0320
,
2030
3200
2300
3200
0320
0032
0000
2003
,
3020
0000
0032
0000
2003
0000
3200
0302
,
2003
0000
0000
0000
3200
0000
0000
0000
0320
0000
0000
0000
0032
0000
0103
0010
,
2000
0000
0000
0000
0000
0000
3100
0010
0002
0000
0000
0000
0000
0000
1003
0010
,
0200
0000
0000
0000
0000
0000
0000
0000
0000
0000
0000
0000
0301
0000
0000
0000
1000
0000
0000
0000
0001
0000
0000
0000
2000
0000
0000
0000
0000
0000
0000
0000
0000
0000
0000
0000
3100
0000
0000
0010
0000
0000
0001
0000
0000
0010
0000
0000
,
0002
0000
0000
0000
0000
0000
0103
0010
2000
0000
0000
0100
0000
0000
3002
0000
,
0000
0000
0023
0000
0000
0000
0000
0000
0000
0000
0000
0000
0000
0000
0130
1000
,
0020
0000
0000
0000
0000
0000
0130
0001
0200
0000
0000
1000
0000
0000
0320
0000
,
0000
0000
0000
0000
0000
0000
1030
0001
0020
0000
0230
0000
2300
0000
3020
0000
,
0230
0000
0000
0000
0000
0000
0301
1000
0200
0000
0000
0010
0000
0000
2300
0000
,
0000
0000
3020
0000
0000
0000
0000
0000
0000
0000
0000
0000
0000
0000
0130
0001
,
2000
0000
0000
0000
0000
0000
3100
0010
0002
0000
0000
0100
0000
0000
1003
0000
,
1001
0000
0000
0000
0000
0000
0001
0100
0001
0000
1000
0000
0100
0000
0010
0000
,
0001
1000
0001
0100
0001
1000
0001
0100
0001
1000
0001
0100
0002
0000
0000
0000
,
0013
0100
0010
0001
0010
0100
0010
0001
0010
0100
0010
0001
0020
0000
0000
0000
,
0130
1000
0100
0010
0100
1000
0100
0010
0100
1000
0100
0010
0200
0000
0000
0000
,
1300
0010
1000
0001
1000
0010
1000
0001
1000
0010
1000
0001
2000
0000
0000
0000
,
3100
0010
0001
0010
0100
0010
0001
0010
0100
0010
0001
0010
0200
0000
0000
0000
,
1300
0001
0100
0001
1000
0001
0100
0001
1000
0001
0100
0001
4000
0000
0000
0000
,
3100
0010
0001
1000
0100
0010
0100
1000
0001
0100
0001
0010
0100
1000
0100
0010
,
0002
0000
0000
0000
2000
0000
0000
0000
3103
0000
0000
1000
0010
0100
0001
0010
,
0100
1000
0100
1000
0000
0001
0100
0010
1000
0001
1000
0001
0000
0010
0100
1000
,
0001
0100
0001
0100
0000
0010
1000
0001
0010
0100
0010
1000
0000
0010
0001
1000
,
0010
0100
0010
0100
0000
0001
1000
0100
0010
0001
0010
0001
0000
1000
0010
0100
,
0001
0010
0001
0010
0100
0000
1000
0001
0100
0010
0100
0000
0001
1000
0001
1000
,
0001
0000
0010
0100
1000
0000
0001
0100
0010
1000
0010
1000
0000
0001
0010
0100
,
1000
0001
0100
0001
1000
0001
0100
0001
1000
0001
0100
0001
1000
0100
0010
0001
,
1000
0010
1000
0010
0000
0100
0001
1000
0100
0010
0100
0010
0000
0001
1000
0010
,
0400
0000
0000
0000
0000
0000
0000
0000
0000
0000
0000
0000
1300
0000
0000
0000
0100
0000
0000
0000
0001
0000
0000
0000
1000
0000
0000
0100
0000
0000
1000
0000
0000
0100
0000
0000
0010
0000
0000
0001
0000
0000
0010
0000
0000
0001
0000
0000
,
1000
0010
1000
0010
0000
0100
0001
1000
0100
0010
0100
0010
0000
0001
1000
0010
,
0100
0001
0100
0001
0000
0010
0100
1000
0010
0100
0010
0001
0000
0010
0100
0001
,
1000
0100
1000
0100
0000
0010
0001
0100
0010
1000
0010
0001
0000
0010
0100
0001
,
1000
0100
1000
0100
0010
0001
0010
0001
1000
0010
1000
0010
0100
0001
0100
0001
,
1000
0010
0100
0000
0001
1000
0100
0000
0010
0001
0010
0001
0000
1000
0010
0100
,
0001
1000
0100
1000
0001
1000
0100
1000
0001
1000
0100
1000
0001
0100
0010
1000
,
0100
0001
0100
0001
0000
0100
0010
0001
0100
1000
0100
1000
0000
0100
0010
1000
,
0001
0010
0001
0010
0000
0100
1000
0010
0100
0001
0100
0001
0000
1000
0100
0010
,
0002
0003
0000
0000
0000
0000
0000
0000
;

//---------------dance-single - ----------------
#NOTES:
     dance-single:
     :
     Medium:
     9:
     0.654971,0.914939,0.190241,0.865595,0.703890,482.000000,462.000000,20.000000,91.000000,2.000000,0.000000,0.654971,0.914939,0.190241,0.865595,0.703890,482.000000,462.000000,20.000000,91.000000,2.000000,0.000000:
0000
0000
0000
0000
,
0000
0000
0000
0000
,
0000
0000
0000
0000
,
0000
0000
0000
0000
,
2000
0000
0000
3020
0000
0000
0230
0000
0302
0000
0000
0023
0000
0000
0230
0000
,
2300
0000
0000
3002
0000
0000
0203
0000
0320
0000
0000
2030
0000
0000
3002
0000
,
0013
0000
0100
1000
0100
0000
0010
0001
0010
0000
0001
1000
0001
0000
0100
0010
,
0200
0000
0302
0000
2000
3003
1001
0000
,
1000
0000
0100
0000
0000
1100
0000
0000
0001
0000
0000
0101
0000
0000
1001
0000
,
0000
0000
0010
0000
0000
0110
0000
0000
0001
0000
0000
0011
0000
0000
0110
0000
,
0000
0000
1000
0000
0000
1001
0000
0000
0001
0000
0000
0101
0000
0000
0110
0000
,
0000
0000
1000
0000
0000
1100
0000
0000
0101
0000
0000
0110
0000
0000
1001
0000
,
0000
0000
1000
0000
0000
1100
0000
0000
0010
0000
0000
0011
0000
0000
1010
0000
,
0000
0000
0001
0000
0000
0101
0000
0000
0010
0000
0000
0000
1002
0000
0000
0000
,
0013
0000
0001
0100
0001
0000
1000
0100
1000
0000
0010
0100
0010
0000
1000
0001
,
0020
0000
0230
2300
,
3002
0000
0000
0203
0000
0000
2300
0000
3002
0000
0000
0023
0000
0000
2030
0000
,
3002
0000
0000
0023
0000
0000
2030
0000
3002
0000
0000
0203
0000
0000
1300
0000
,
2000
0000
0000
3200
0000
0000
0302
0000
2003
0000
3000
0020
0000
0030
0002
0000
,
2003
0000
0000
3020
0000
0000
0032
0000
2003
0000
0000
3200
0000
0000
0302
0000
,
0023
0000
0000
0000
0230
0000
0302
0000
2003
0000
0000
3020
0000
0000
0032
0000
,
2003
0000
0000
3020
0000
0000
0032
0000
2003
0000
0000
3200
0000
0000
0302
0000
,
1003
0000
0001
0100
0001
0000
0010
0100
0010
0000
0100
1000
0100
0000
0010
0001
,
0020
0000
0000
0000
0000
0000
0000
0000
0031
1000
0001
1000
0001
1000
0001
1000
,
0020
0000
0000
0130
0002
0000
0013
0100
,
2000
0000
0000
0000
3010
0000
0100
0000
0001
0000
0010
0000
0100
1000
0100
1000
,
0100
0010
0001
1000
0020
0000
0130
0001
,
0010
0100
1000
0001
0100
0020
0000
0000
,
2030
3002
0023
0230
,
2300
0000
3020
0000
0230
0000
0301
0010
,
0200
0000
0000
1300
0002
0000
0000
0103
,
0020
0000
0000
1030
0001
1000
0002
0000
0000
0000
0000
0000
,
0023
0000
0000
0000
0000
0000
0000
0000
0100
0000
0000
0100
0000
0000
0001
0000
,
0000
0032
0000
0000
0000
0000
0000
1003
,
0020
0000
0000
0000
0000
0000
0000
0000
0100
0000
0000
0100
0000
0000
2030
0000
,
0000
0000
0000
3001
0010
0100
1000
0010
,
0200
0000
0000
0000
0000
0000
0000
0000
1000
0000
0000
1000
0000
0000
0010
0000
,
0000
0320
0000
0000
0000
0000
0000
1030
,
0200
0000
0000
0000
0000
0000
0000
0000
0001
0000
0000
0001
0000
0000
0320
0000
,
0000
0000
0000
0000
0031
0100
0010
0100
,
0001
1000
0001
1000
0001
1000
0001
1000
0001
1000
0001
1000
0002
0000
0000
0000
,
1003
0001
1000
0001
1000
0001
1000
0001
1000
0001
1000
0001
2000
0000
0000
0000
,
3100
0010
0100
0010
0100
0010
0100
0010
0100
0010
0100
0010
0002
0000
0000
0000
,
0103
0010
0100
0010
0100
0010
0100
0010
0100
0010
0100
0010
2000
0000
0000
0000
,
3001
0100
0001
0100
0001
0100
0001
0100
0001
0100
0001
0100
0020
0000
0000
0000
,
1030
0100
1000
0100
1000
0100
1000
0100
1000
0100
1000
0100
0020
0000
0000
0000
,
0031
1000
0001
1000
0010
1000
0010
1000
0001
0100
0001
0100
0001
1000
0001
1000
,
0200
0320
0032
0000
,
1003
0000
0010
0100
0000
0100
0001
0000
1000
0000
0100
0010
0000
0010
0001
0000
,
0100
0000
0010
1000
0000
1000
0100
0000
0010
0000
0001
0100
00M0
0100
1000
0000
,
0001
0000
0010
0100
0000
0100
1000
0000
0001
0000
0100
0010
0000
0010
1000
0000
,
0100
0000
0010
0001
0000
0001
0100
0000
0010
0000
1000
0000
0001
1000
0001
1000
,
0001
0100
1000
0001
0010
1000
0001
0010
,
0100
1000
0100
0000
1000
0100
1000
0000
0100
1000
0100
0000
0010
0001
1000
0000
,
0010
0000
0100
0001
0000
0001
0010
0000
0100
0000
0010
0001
0000
0001
0100
0000
,
0010
0000
0000
0000
1000
0000
0000
0000
0100
0000
0000
0000
0010
0000
0000
0000
0001
0000
0000
0000
0100
0000
0000
0000
0010
0000
0000
1000
0000
0000
0010
0000
0000
1000
0000
0000
0002
0000
0000
0000
0000
0000
0000
0000
0000
0000
0000
0000
,
0013
0000
0100
1000
0000
1000
0001
0000
0100
0000
0010
1000
0000
1000
0001
0000
,
0010
0000
0100
1000
0000
1000
0010
0000
0100
0000
0001
0100
00M0
0100
1000
0000
,
0010
0000
0100
0001
0000
0001
1000
0000
0100
0000
0010
0001
0000
0001
1000
0000
,
0010
0010
0100
0100
0001
0001
1000
1000
,
0100
0001
1000
0010
0001
1000
0010
0100
,
0001
0100
0001
0000
0100
0001
0100
0000
0001
0100
0001
0000
1000
0010
0100
0000
,
0001
0000
0100
1000
0000
0100
0001
0000
1000
0000
0100
0001
0000
0100
1000
0000
,
0010
0000
0100
1000
0000
0100
0001
0000
0010
0000
0100
0001
0000
0100
1000
0000
,
2002
3003
0000
0000
0000
0000
0000
0000
;
