#TITLE:The Essence;
#SUBTITLE:;
#ARTIST:Au5;
#TITLETRANSLIT:;
#SUBTITLETRANSLIT:;
#ARTISTTRANSLIT:;
#GENRE:;
#CREDIT:;
#BANNER:the essence-bn.png;
#BACKGROUND:;
#LYRICSPATH:;
#CDTITLE:;
#MUSIC:The Essence.ogg;
#OFFSET:-0.218000;
#SAMPLESTART:127.075623;
#SAMPLELENGTH:13.714279;
#SELECTABLE:YES;
#BPMS:0.000000=140.000000
;
#STOPS:
;
#BGCHANGES:;
#KEYSOUNDS:;
#ATTACKS:;

//---------------dance-single - ----------------
#NOTES:
     dance-single:
     :
     Challenge:
     11:
     0.666022,1.019138,0.336711,0.595720,0.715511,720.000000,668.000000,52.000000,92.000000,17.000000,14.000000,0.666022,1.019138,0.336711,0.595720,0.715511,720.000000,668.000000,52.000000,92.000000,17.000000,14.000000:
0000
0000
0000
0000
,
0000
0000
0000
0000
,
0000
0000
0000
0000
,
0000
0000
0000
0000
,
0000
0000
0000
0000
,
0000
0000
0000
0000
,
0000
0000
0000
0000
,
0000
0000
0000
0000
0000
0000
0000
0000
0000
0000
0000
0000
0000
0000
0000
0000
0000
0000
0000
0000
0000
0000
0000
0000
0000
0000
0000
0000
0000
0000
1000
0000
0100
0000
1000
0000
0100
0000
0000
0010
0000
0000
0001
0000
0000
1000
0000
0000
,
0020
0000
1130
0001
,
0010
0100
1000
0000
0001
0000
0200
0000
0311
0000
0000
0000
0000
0000
0000
0000
,
2000
0000
3101
0010
,
0001
0100
0010
0000
1000
0000
0000
1000
0011
0000
0000
0000
0000
0000
0100
0000
,
0200
0000
0311
1000
,
0100
0010
0001
0000
1000
0010
0200
0000
0311
0000
0000
0000
1000
0100
1000
0000
,
0002
0000
1103
0010
,
1000
0000
0000
0001
0000
0000
0010
0000
0000
0000
0000
0000
0100
0000
0000
1000
0000
0000
0001
0000
0000
1000
0000
0000
0011
0000
0000
0000
0000
0000
0100
0000
0001
0000
0100
0000
0001
0000
0000
1000
0000
0000
0001
0000
0000
0010
0000
0000
,
0100
0000
0100
1000
0000
0000
0001
0000
1100
0010
0000
0M10
0001
0000
0010
0000
,
0200
0000
1310
0000
,
0001
0000
0000
0001
0100
0010
2000
0000
3101
0000
0020
0000
0000
0000
0032
0000
,
2003
0000
0000
0000
3011
0000
0000
0100
,
0100
0000
0100
0001
0000
0000
0010
0000
0101
0010
0000
0M10
1000
0000
0002
0000
,
0103
0000
0000
0010
0100
0000
0001
0000
1010
0100
0000
M100
0001
0000
1000
0010
,
0100
0000
0100
0001
0000
1000
0100
0000
1010
0000
0002
0000
0203
0000
2300
0000
,
3200
0000
0000
0000
0000
0000
0000
0000
0310
0000
0000
0000
1000
0000
0001
0000
1010
0000
0000
0000
0200
0000
0000
0000
1300
0000
0001
0100
0001
0000
1000
0000
,
0100
1010
0001
1010
0101
0101
1000
0011
,
0100
0000
0011
0000
1000
0000
0101
0000
1010
0100
1000
0001
0100
0010
1000
0001
,
1000
0101
0010
0101
1010
1010
0001
1100
,
0010
0000
1100
0000
0001
0000
1100
0010
1100
0001
1000
0001
1000
0100
0010
0001
,
0100
0010
1000
0001
1000
0100
1000
0001
0100
0010
1000
0001
0100
0001
1000
0100
,
0010
0001
0010
0100
0010
0001
1000
0010
0100
0010
1000
0001
1000
0100
0010
0001
,
1000
0000
0000
0001
0000
0000
0100
0000
0000
0010
0000
0000
1000
0000
0000
0100
0000
0000
0010
0000
0000
0100
0000
0000
1000
0000
0000
0001
0000
0000
0100
0000
0000
0010
0000
0000
1000
0000
0001
0000
1000
0000
0001
0000
1000
0000
0001
0000
,
2000
0000
0000
0000
,
3200
0000
0320
0000
,
0000
0000
0000
0000
0000
0000
0000
0000
0000
0000
0000
0000
0000
0000
0000
0000
0000
0000
0031
0000
1000
0000
0001
0000
1000
0000
0000
0010
0000
0000
0100
0000
0000
0001
0000
0000
1000
0000
0000
0100
0000
0000
0010
0000
0000
0001
0000
0000
,
0200
0000
0000
0000
0000
0000
0000
0310
4000
0000
3000
1000
0000
0000
0100
0000
,
0M02
0000
0000
0000
1103
0000
0010
0100
0011
2000
0000
0000
3200
0000
0000
1310
,
0002
0000
0003
0002
0000
0003
0002
0000
2003
0000
0000
0000
0000
0000
0000
0000
,
0000
0000
0000
0000
0000
0000
0000
0000
0000
0000
0000
0000
0000
0000
0000
0000
0000
0000
3010
0000
0100
0000
0010
0000
0100
0000
0000
0001
0000
0000
0010
0000
0000
0100
0000
0000
2000
0000
0000
0000
0000
0000
0000
0000
0000
0000
0000
0000
,
3040
0000
0000
0430
0000
0000
0301
1000
0400
0000
0000
0340
0000
0000
0031
1000
,
0010
0100
0010
0100
0001
0000
0001
0000
1100
0010
0000
0010
1000
0001
0010
0100
,
2000
0000
3020
0000
,
0000
0000
0000
0000
0000
0000
0000
0000
0000
0130
0001
0100
0002
0000
0000
0000
0000
0000
0000
0000
0000
0000
0000
0000
,
2003
0000
0000
0000
3100
0010
0001
0100
2000
0000
0000
3000
2000
0000
0000
0000
,
3100
0010
0000
0010
1000
0001
0010
0100
0020
0000
0000
0032
0000
0000
1003
0010
,
0100
0001
0010
1000
0010
0001
0000
1000
0020
0000
0000
0030
0020
0000
0000
0130
,
0002
0000
0000
1003
0100
0010
0100
0010
0001
0010
0001
0010
0001
1000
0001
1000
,
0020
0000
0000
0000
0130
0001
1000
0100
0020
0000
0000
0030
0020
0000
0000
0000
,
0131
1000
0000
1000
0001
0100
0010
1000
0200
0000
0000
0300
0200
0000
0000
0310
,
0001
1000
0010
1000
0001
0100
00M0
0100
2000
0000
0000
3000
2000
0000
0000
3001
,
0200
0000
0000
0000
0000
0000
0301
0000
0020
0000
0000
0000
0000
0000
0130
0000
0020
0000
0030
0000
1000
0000
0020
0000
0030
0000
0100
1000
0100
0000
0010
0000
,
0002
0000
0000
0000
0000
0000
0000
0000
2103
0000
0000
0000
3010
0001
0010
0100
,
0002
2000
0000
0003
3002
2000
0000
0003
3201
0000
0000
0000
0000
0000
0000
0000
,
0320
0000
0000
0031
0100
0010
0001
0010
2000
0000
0000
3000
2000
0000
0000
3100
,
0010
0001
0100
0010
1000
0100
00M0
0100
0001
0000
1000
0010
0M00
0010
0001
1000
,
0020
0000
0000
0000
0000
0000
0000
0000
0130
0001
0100
0001
0100
0001
0100
0001
,
0020
0000
0000
0000
0130
1000
0100
1000
0002
0000
0000
0000
0000
0000
0000
0000
,
0103
0010
1000
0001
1000
0100
00M0
0100
0002
0000
0000
0003
0002
0000
0000
0013
,
0200
0000
0000
1300
0001
0100
0010
1000
0200
0000
0000
0300
0200
0000
0000
0000
,
0310
0000
0001
0000
1000
0000
0010
0000
0100
0000
0001
1000
0100
0000
0010
0000
,
0001
0000
0100
0000
0010
0000
1000
0000
0001
0000
1000
0100
0010
0000
0001
0000
,
0100
0000
0010
0000
1000
0000
0100
0000
1000
0000
0001
0100
0010
0000
1000
0000
,
0001
0000
1000
0000
0100
0000
0010
0000
0001
0000
0100
0001
0010
0000
0100
0000
,
1000
0000
0001
0000
1100
0000
0010
0000
0100
0000
0001
1000
0101
0000
0010
0000
,
0100
0000
0000
0000
0000
0000
1000
0000
0000
0000
0000
0000
0101
0000
0000
0000
0000
0000
0010
0000
0000
0000
0000
0000
0001
0000
0000
0000
0000
0000
1000
0000
0010
0000
1000
0000
0010
0000
0000
0100
0000
0000
0001
0000
0000
1000
0000
0000
,
0200
0000
0000
0000
,
0320
0000
0000
0000
,
0031
0000
0100
0000
,
0010
0000
0000
0000
0000
0000
1000
0000
0000
0000
0000
0000
0000
0000
0100
0010
,
0001
0000
0001
1000
0000
0010
0000
0100
,
0000
0100
0000
0001
0010
1000
0010
0100
,
1000
0000
0000
0001
0000
0000
0100
0010
,
1000
0000
0000
0000
0000
0000
0100
0000
0000
0000
0100
0000
0000
0000
0010
0001
,
1000
0000
0000
0010
0000
0000
0001
0000
0000
0000
1000
0000
0100
0000
0001
0000
,
1000
0000
0000
0000
0000
0000
0000
0000
0000
0000
0000
0000
0000
0000
0000
0000
0000
0000
0100
0000
0000
0000
0000
0000
0000
0000
0000
0000
0000
0000
0010
0000
0001
0000
0010
0000
0001
0000
0000
0000
0000
0000
1000
0000
0000
0010
0000
0000
,
0100
0001
1100
0010
1000
0001
1010
0100
,
0010
0001
1100
0010
0100
0001
0010
0010
,
0100
1000
0011
0100
0001
1000
0101
0010
,
0100
1000
0011
0100
0001
1000
0100
0100
,
0010
0001
1001
1000
0010
0100
0101
0001
,
0010
0100
1100
1000
0001
0100
0110
1000
,
0001
0010
0001
0010
0100
1000
0100
1000
0001
0100
0001
0100
0010
1000
0010
1000
,
0001
0000
0000
0010
0000
0000
0100
0000
0000
0010
0000
0000
0001
0000
0000
1000
0000
0000
0010
0000
0000
0100
0000
0000
0001
0000
0000
1000
0000
0000
0100
0000
0000
1000
0000
0000
0001
0000
1000
0000
0001
0000
1000
0000
0001
0000
1000
0000
,
0001
0000
1000
0100
00M0
0100
0010
0000
1000
0010
0M00
0010
0200
0000
1000
0000
,
0310
0000
0001
0100
00M0
0100
0010
0000
0001
0010
0M00
0010
0200
0000
0301
1000
,
0010
0000
1000
0010
0M00
0010
0002
0000
0000
0000
0203
0000
0000
0000
1000
0000
,
0000
1000
0000
0000
1300
0000
0002
0000
0023
0000
2030
0000
3200
0000
0320
0000
,
0032
0000
0103
1000
00M0
1000
0010
0M00
0010
0001
0000
1000
0020
0000
0100
0000
,
1030
0000
0100
0001
00M0
0001
0010
0M00
0010
1000
0000
0001
0020
0000
0130
1000
,
0002
0203
0000
0320
0000
0230
2300
3200
,
0302
0000
0000
0000
0023
0000
0230
0000
4300
0000
0000
0000
0000
0000
0000
3000
;

//---------------dance-single - ----------------
#NOTES:
     dance-single:
     :
     Hard:
     10:
     0.546693,0.845016,0.025901,0.608670,0.537443,591.000000,587.000000,4.000000,94.000000,0.000000,0.000000,0.546693,0.845016,0.025901,0.608670,0.537443,591.000000,587.000000,4.000000,94.000000,0.000000,0.000000:
0000
0000
0000
0000
,
0000
0000
0000
0000
,
0000
0000
0000
0000
,
0000
0000
0000
0000
,
0000
0000
0000
0000
,
0000
0000
0000
0000
,
0000
0000
0000
0000
,
0000
0000
0000
0000
0000
0000
0000
0000
0000
0000
1000
0100
1000
0100
0010
0001
,
2000
0000
3020
0000
,
0130
0001
0100
0001
0000
1000
0200
0000
0320
0000
0000
0000
0000
0000
0000
0000
,
0032
0000
0203
0000
,
0310
1000
0010
1000
0000
0001
0010
0100
2000
0000
0000
0000
0000
0000
3100
0000
,
0200
0000
0320
0000
,
0031
1000
0001
0000
1000
0001
1000
0000
0100
0000
0010
0000
0001
0100
0001
0000
,
2000
0000
3200
0000
,
0310
0001
0010
0001
0000
1000
0010
0100
0001
0000
1000
0100
1000
0100
0010
0002
,
1000
0000
0000
2003
0000
0000
0010
0000
0000
3020
0000
0000
0130
0000
0001
0000
,
0020
0000
0130
0000
,
2000
0000
0000
3001
0100
0001
0200
0000
0310
0000
2000
0000
0000
0000
3100
0000
,
0020
0000
0000
0000
0031
0000
0000
2000
,
0010
0000
0000
3020
0000
0000
0100
0000
0000
0130
0000
0000
0001
0000
0020
0000
,
0100
0000
0000
0230
0000
0000
1000
0000
0000
1300
0000
0000
0001
0000
1000
0200
,
0010
0000
0000
0320
0000
0000
0032
0000
0000
0000
0103
0000
1000
0000
0100
0000
,
0020
0000
0000
0000
1030
0000
0001
0010
0100
0000
1000
0000
0001
0100
0010
0100
,
0001
0010
0001
0010
0110
0110
1000
0001
,
1000
0000
0010
0000
1000
0000
0010
0000
0100
0001
0100
0001
1000
0100
0010
0001
,
1000
0010
1000
0010
0110
0110
0001
1000
,
0001
0000
0010
0000
0001
0000
0010
0000
0100
1000
0100
1000
0001
0100
0010
1000
,
0001
0010
0001
0010
0000
0100
1000
0000
0001
0100
0001
0100
0000
0010
1000
0000
,
1000
0100
1000
0100
0000
0010
0001
0000
1000
0010
1000
0010
0000
0100
0001
0000
,
1000
0100
0010
0001
1000
0001
0100
0010
1000
0001
0100
0010
1000
0100
1000
0001
,
0200
0000
0000
0000
,
0320
0000
2030
0000
,
0000
0000
0000
0000
0000
0000
3001
0010
0100
1000
0100
1000
0002
0000
0000
0000
,
0203
0000
0000
0000
0000
0000
0000
0310
4000
0000
3000
1000
0000
0000
1000
0000
,
0002
0000
0000
0000
0013
0000
0100
1000
0100
1000
0000
0000
0002
0000
0000
0103
,
0020
0000
0030
0020
0000
0030
0020
0000
2030
0000
0000
0000
0000
0000
0000
0000
,
0000
0000
0000
0000
0000
0000
3001
0010
0001
0010
0100
1000
0020
0000
0000
0000
,
0230
0000
0000
0000
0000
0000
0301
1000
0200
0000
0000
0000
0000
0000
0310
0001
,
1000
0000
0010
0100
0010
0000
0100
0000
0001
0010
0000
0001
0010
0100
0010
0100
,
2000
0000
3020
0000
,
0000
0000
0000
0000
0000
0000
0130
0001
2000
0000
0000
0000
0000
0000
0000
0000
,
3200
0000
0000
0000
0310
0001
0010
0001
2000
0000
0000
3000
2000
0000
0000
0000
,
3010
0100
0000
0001
1000
0001
1000
0000
0200
0000
0000
0320
0000
0000
0031
1000
,
0001
0100
0001
0000
1000
0200
0000
0000
0320
0000
0000
0030
0020
0000
0000
0031
,
2000
0000
0000
3001
0400
0300
0400
0300
0040
0030
0040
0030
4000
3000
4000
3000
,
0002
0000
0000
0000
0043
0000
0000
0000
0230
0000
0000
0300
0200
0000
0000
0000
,
1300
0001
0000
1000
0001
0100
0010
1000
0002
0000
0000
0003
0002
0000
0000
0013
,
0100
1000
0001
0000
0100
0010
0000
0010
2000
0000
0000
3000
2000
0000
0000
3100
,
0020
0000
0000
0031
1000
0000
0000
0001
1000
0000
0001
1000
0000
0001
1000
0100
,
0020
0000
0000
0000
0000
0000
0000
0000
0032
0000
0000
0000
1003
0000
0010
0100
,
0002
2000
0000
0003
3002
2000
0000
0003
3200
0000
0000
0000
0000
0000
0000
0000
,
0320
0000
0000
0031
1000
0000
0010
0100
0020
0000
0000
0030
0020
0000
0000
1030
,
0001
0100
0001
0000
1000
0100
0000
1000
0100
0000
0010
0001
0000
0010
0001
1000
,
0002
0000
0000
0000
0000
0000
0000
0000
1003
0010
1000
0010
1000
0010
1000
0010
,
2000
0000
0000
0000
3001
0010
0001
0010
0002
0000
0000
0000
0000
0000
0000
0000
,
0203
0000
0000
0000
0310
1000
0000
0001
0020
0000
0000
0030
0020
0000
0000
0130
,
2000
0000
0000
0000
3001
0100
0001
0100
0020
0000
0000
0000
0000
0000
0000
0000
,
0130
0000
0001
0000
0010
0000
0100
0000
1000
0000
0001
0100
0001
0000
0010
0000
,
0100
0000
1000
0000
0001
0000
0100
0000
0010
0000
1000
0001
1000
0000
0100
0000
,
0010
0000
0001
0000
0010
0000
0100
0000
1000
0000
0001
0100
0001
0000
1000
0000
,
0010
0000
0100
0000
0001
0000
0010
0000
0100
0000
1000
0001
1000
0000
0010
0000
,
0100
0000
0010
0000
1000
0000
0001
0000
0010
0000
0100
1000
0100
0000
0010
0000
,
0001
0000
1000
0000
0010
0000
0100
0000
0001
0000
1000
0100
1000
0100
0010
0001
,
2000
0000
0000
0000
,
3020
0000
0000
0000
,
0130
0000
0001
0000
,
0010
0000
0000
0000
0000
0000
0100
0000
0000
0000
0000
0000
0000
0000
1000
0001
,
1000
0000
0010
0100
0000
0100
0000
0001
,
0000
0001
0000
0010
0100
1000
0001
0100
,
0010
0000
0000
1000
0000
0000
0100
0010
,
0001
0000
0000
0000
0000
0000
0100
0000
0000
0000
0100
0000
0000
0000
0010
1000
,
0010
0000
0000
0100
0000
0000
0001
0000
0000
0000
0010
0000
1000
0000
0010
0000
,
0001
0000
0000
1000
0000
0010
0100
0001
,
1000
0100
0010
0100
0001
0100
0010
0001
,
0100
0000
0010
0000
0100
0000
1000
0000
0100
0000
0001
0000
0010
0000
0100
1000
,
0010
0100
1000
0100
0001
0010
0100
0001
,
0100
0001
0100
0010
0001
0100
0010
1000
,
0001
0100
0010
0001
0010
1000
0100
0010
,
1000
0000
0010
0000
0100
0000
1000
0000
0001
0000
0100
0000
0010
0000
1000
0001
,
0010
0000
0000
0100
0000
0000
1000
0000
0000
0000
0010
0000
0100
0000
0001
0000
,
0020
0000
0000
0000
0000
0000
0230
0000
0000
0000
0000
0000
1300
0001
1000
0001
,
1000
0000
1000
0010
0000
0010
0100
0000
0100
0001
0000
0001
0010
0000
0100
0000
,
1000
0000
0001
0100
0000
0100
0010
0000
0010
1000
0000
1000
0100
0000
0010
0001
,
1000
0000
1000
0010
0000
0010
0200
0000
0000
0000
0302
0000
0000
0000
0010
0000
,
0000
0010
0000
0000
0013
0000
0100
0000
0001
0000
0100
0000
1000
0000
0001
0000
,
0100
0000
0100
0010
0000
0010
1000
0000
1000
0001
0000
0001
0010
0000
0100
0000
,
1000
0000
1000
0010
0000
0010
0100
0000
0100
0001
0000
0001
0010
0000
0100
1000
,
0020
0230
0000
2300
0000
3200
0302
0023
,
0230
0000
0320
2030
3040
0000
0000
0000
,
0030
0000
0000
0000
;

//---------------dance-single - ----------------
#NOTES:
     dance-single:
     :
     Medium:
     8:
     0.426439,0.553631,0.000000,0.556869,0.119792,461.000000,461.000000,0.000000,86.000000,0.000000,0.000000,0.426439,0.553631,0.000000,0.556869,0.119792,461.000000,461.000000,0.000000,86.000000,0.000000,0.000000:
// measure 0
0000
0000
0000
0000
,  // measure 1
0000
0000
0000
0000
,  // measure 2
0000
0000
0000
0000
,  // measure 3
0000
0000
0000
0000
,  // measure 4
0000
0000
0000
0000
,  // measure 5
0000
0000
0000
0000
,  // measure 6
0000
0000
0000
0000
,  // measure 7
0000
0000
0000
0000
0000
1000
0100
0010
,  // measure 8
0002
0000
2003
0000
,  // measure 9
3010
0100
0001
0200
0320
0000
0000
0000
,  // measure 10
2030
0000
3200
0000
,  // measure 11
0310
0001
1000
0001
0200
0000
0000
0310
,  // measure 12
2000
0000
3200
0000
,  // measure 13
0310
0001
0100
0001
0010
0100
1000
0001
,  // measure 14
0200
0000
0320
0000
,  // measure 15
1030
0001
0010
0001
1000
0010
0100
0001
,  // measure 16
0010
0000
0000
0100
0000
0000
1000
0000
0000
0001
0000
0000
0100
0000
0010
0000
,  // measure 17
2000
0000
3100
0000
,  // measure 18
0010
0000
0000
0001
0000
0000
0200
0000
0300
0000
0020
0000
0030
0000
1000
0000
,  // measure 19
0002
0000
0000
0000
0013
0000
0000
0100
,  // measure 20
1000
0000
0000
0010
0000
0000
0100
0000
0000
0001
0000
0000
0010
0000
0100
0000
,  // measure 21
1000
0000
0000
0001
0000
0000
0100
0000
0000
0010
0000
0000
1000
0000
1000
0000
,  // measure 22
0001
0000
0000
0010
0000
0000
0100
0000
0000
0000
1000
0000
0010
0000
0100
0000
,  // measure 23
0002
0000
0000
0000
1003
0000
0001
0000
0010
0000
0100
0000
1000
0001
1000
0000
,  // measure 24
0010
0100
0001
1000
0100
0010
0100
1000
,  // measure 25
0001
0100
0010
1000
0001
0010
0100
1000
,  // measure 26
0001
0100
0010
1000
0100
1000
0010
0100
,  // measure 27
0001
0010
0100
1000
0001
0100
0001
0010
,  // measure 28
0100
1000
0100
1000
0001
0100
0001
0100
,  // measure 29
0010
1000
0010
1000
0001
0010
0001
0010
,  // measure 30
0100
0000
1000
0000
0001
0000
1000
0000
0010
0000
0100
0000
0001
1000
0001
1000
,  // measure 31
0002
0000
0000
0000
,  // measure 32
0023
0000
0230
0000
,  // measure 33
0000
0000
0000
1300
0010
0100
0002
0000
,  // measure 34
0023
0000
0000
0000
0000
0000
0000
0000
0130
0000
0000
0100
0000
0000
0100
0000
,  // measure 35
2000
0000
0000
0000
3010
0000
0100
0000
0001
0100
0000
0000
0020
0000
0000
0000
,  // measure 36
1030
0000
0000
1000
0000
0000
1000
0000
0002
0000
0000
0000
0000
0000
0000
0000
,  // measure 37
0000
0000
0000
0013
0100
1000
0002
0000
,  // measure 38
0203
0000
0000
0310
0020
0000
0000
1030
,  // measure 39
1000
0000
0001
0000
0010
0000
0100
0000
1000
0000
0000
1000
0000
0000
1000
0000
,  // measure 40
0020
0000
0230
0000
,  // measure 41
0000
0000
0000
0301
0002
0000
0000
0000
,  // measure 42
0023
0000
0000
0000
0130
0000
1000
0000
0002
0000
0000
0003
0002
0000
0000
0000
,  // measure 43
0203
0000
0000
0000
0310
0000
0010
0000
2000
0000
0000
3200
0000
0000
0310
0000
,  // measure 44
0001
0000
1000
0000
0001
0200
0000
0000
0320
0000
0000
0030
0020
0000
0000
0000
,  // measure 45
2030
0000
3100
0010
0100
0010
0001
1000
,  // measure 46
0020
0000
0000
0000
0000
0000
0000
0000
0230
0000
0000
0300
0200
0000
0000
0000
,  // measure 47
0302
0000
0000
0000
0013
0000
0100
0000
2000
0000
0000
3000
2000
0000
0000
0000
,  // measure 48
3010
0000
0100
0000
0001
2000
0000
0000
3200
0000
0000
0300
0200
0000
0000
0000
,  // measure 49
0320
0000
0000
0000
0032
0000
0003
0002
0000
0003
0002
0000
0003
0002
0000
0000
,  // measure 50
0203
0000
0000
0000
0320
0000
1030
0001
,  // measure 51
0020
0000
0000
0030
0020
0000
0000
0000
0230
0000
0000
0000
0000
0000
0000
0000
,  // measure 52
2300
0000
0000
0000
3001
0000
0100
0000
0020
0000
0000
0030
0020
0000
0000
1030
,  // measure 53
0001
0000
0010
0000
0100
0000
0000
0000
1000
0000
0000
1000
0000
0000
1000
0000
,  // measure 54
0002
0000
0000
0000
0103
0100
0010
0010
,  // measure 55
2000
0000
3100
0100
0020
0000
0000
0000
,  // measure 56
0032
0000
0000
0000
2003
0000
0000
0000
3020
0000
0000
0030
0020
0000
0000
0000
,  // measure 57
0130
0000
0001
0000
0010
0000
0100
0000
2000
0000
0000
3000
2000
0000
0000
0000
,  // measure 58
3001
0100
0010
1000
0100
0010
0100
1000
,  // measure 59
0001
0100
0010
1000
0100
1000
0001
0100
,  // measure 60
0010
1000
0001
1000
0100
0010
0001
1000
,  // measure 61
0010
0100
0001
0010
0100
0010
0001
1000
,  // measure 62
0100
1000
0010
0100
0001
1000
0100
1000
,  // measure 63
0010
0100
0001
0010
0100
1000
0001
1000
,  // measure 64
0002
0000
0000
0000
,  // measure 65
0203
0000
0000
0000
,  // measure 66
0310
0000
1000
0000
,  // measure 67
0100
0000
0000
0010
0000
0000
0000
0001
,  // measure 68
0001
0000
1000
0010
0000
0010
0000
0100
,  // measure 69
0000
0100
0000
0001
0010
0100
1000
0010
,  // measure 70
0100
0000
0000
0001
0000
0000
1000
0100
,  // measure 71
0010
0000
0000
0001
0000
0001
0000
1000
,  // measure 72
1000
0000
0000
0010
0000
0000
0100
0000
0000
0000
0001
0000
0010
0000
0001
0000
,  // measure 73
0010
0000
0000
0100
0000
1000
0001
0100
,  // measure 74
0010
1000
0100
1000
0001
0100
0010
1000
,  // measure 75
0100
0010
0001
0010
0100
1000
0001
1000
,  // measure 76
0010
0100
0001
1000
0100
1000
0010
0100
,  // measure 77
0001
0010
0100
0010
0001
1000
0100
1000
,  // measure 78
0001
0100
0001
0010
0100
1000
0001
0100
,  // measure 79
0001
1000
0010
1000
0001
0010
0100
1000
,  // measure 80
0010
0010
0100
0100
0001
0001
1000
1000
,  // measure 81
0100
0100
0010
0010
0001
0001
2000
0000
,  // measure 82
3010
0000
0000
0010
0000
0000
0010
0000
0100
0001
0000
0001
1000
0000
0100
0000
,  // measure 83
0010
0000
0000
0010
0000
0000
0010
0000
0100
1000
0000
1000
0001
0000
0100
0000
,  // measure 84
0100
0000
0000
0100
0000
0000
0020
0000
0000
0000
2030
0000
0000
0000
3100
0000
,  // measure 85
0000
0100
0000
0000
0100
0000
0010
0000
0001
0000
1000
0000
0010
0000
0100
0000
,  // measure 86
0001
0000
0000
0001
0000
0000
0001
0000
1000
0100
0000
0100
0010
0000
0001
0000
,  // measure 87
1000
0000
0000
1000
0000
0000
1000
0000
0001
0100
0000
0100
0010
0000
1000
0000
,  // measure 88
0002
0023
0000
0230
0000
2300
3002
0203
,  // measure 89
0320
0000
2030
3002
0023
0000
0000
0000
,  // measure 90
0030
0000
0000
0000
;
