#TITLE:Space People;
#SUBTITLE:;
#ARTIST:Crystal Lake;
#TITLETRANSLIT:;
#SUBTITLETRANSLIT:;
#ARTISTTRANSLIT:;
#GENRE:;
#CREDIT:;
#BANNER:;
#BACKGROUND:;
#LYRICSPATH:;
#CDTITLE:;
#MUSIC:Space People.ogg;
#OFFSET:1.127000;
#SAMPLESTART:45.924286;
#SAMPLELENGTH:21.081078;
#LASTBEATHINT:0.289145;
#SELECTABLE:YES;
#BPMS:0.000000=148.000000
;
#STOPS:
;
#BGCHANGES:;
#KEYSOUNDS:;
#ATTACKS:;

//---------------dance-single - ----------------
#NOTES:
     dance-single:
     :
     Challenge:
     11:
     0.580657,1.034625,0.217358,0.804225,0.778867,561.000000,531.000000,30.000000,111.000000,72.000000,44.000000,0.580657,1.034625,0.217358,0.804225,0.778867,561.000000,531.000000,30.000000,111.000000,72.000000,44.000000:
// measure 0
0000
0000
0000
0000
,  // measure 1
0000
0000
0000
0000
,  // measure 2
0000
0000
0000
0000
,  // measure 3
0000
0000
0000
0000
,  // measure 4
0000
0000
0000
0000
,  // measure 5
0000
0000
0000
0000
,  // measure 6
1000
0000
0001
0010
0000
0001
0010
0000
0100
0000
1000
0001
0000
1000
0001
0000
,  // measure 7
0100
0000
0010
1000
0000
0010
1000
0000
0100
0000
0010
0001
0000
1000
0000
0000
,  // measure 8
0001
0000
1000
0010
0000
1000
0010
0000
0100
0000
0001
1000
0000
0001
1000
0000
,  // measure 9
0000
0000
0100
0010
0000
0010
0100
0000
0000
0000
0010
0000
1001
0000
0000
0000
,  // measure 10
1000
0000
0001
0100
0010
0000
1000
0010
0100
0000
0001
1000
0010
0000
0100
0001
,  // measure 11
1000
0000
0100
0010
0001
0000
1000
0100
0010
0000
0001
1000
0100
0000
0010
0001
,  // measure 12
1000
0000
0010
0100
0001
0000
1000
0100
0010
0000
0001
1000
0010
0000
0100
0001
,  // measure 13
1000
0000
0100
0010
0001
0000
1000
0010
0100
0000
0010
1000
0100
0000
0010
0001
,  // measure 14
1000
0000
0010
0100
0001
1000
0001
0100
0010
0000
1000
0100
0010
0001
0010
0100
,  // measure 15
1000
0000
0001
0100
0010
1000
0010
0100
0001
0000
1000
0001
0010
0100
0010
0001
,  // measure 16
1000
0010
0100
0001
1000
0100
1000
0001
0100
0010
1000
0001
1000
0100
0010
0001
,  // measure 17
1000
0010
1000
0010
0100
0001
0100
0001
1000
0100
1000
0100
0010
0001
0010
0001
,  // measure 18
2100
0000
0000
0000
,  // measure 19
0000
0000
0000
0000
,  // measure 20
0000
0000
0000
0000
,  // measure 21
3000
0000
0000
0000
,  // measure 22
0002
0000
0000
0000
0103
01M0
1000
0000
0001
0100
01M0
0100
0001
0000
0001
0000
,  // measure 23
2000
0000
0000
0000
3100
01M0
0001
0000
1000
0100
01M0
0100
1000
0000
1000
0000
,  // measure 24
0001
0100
0001
0000
1000
0100
01M0
0000
0001
0100
01M0
0100
0001
0000
0001
0000
,  // measure 25
1000
0100
1000
0000
0001
0100
01M0
0000
1000
0100
01M0
0100
1000
0000
0001
0000
,  // measure 26
1000
0100
0010
0001
1000
0010
1000
0100
0010
0001
1000
0001
0100
0010
1000
0001
,  // measure 27
0100
0001
0010
0100
1000
0001
1000
0010
0100
0001
1000
0100
1000
0001
0100
0010
,  // measure 28
1000
0001
0010
0100
1000
0001
0100
0010
1000
0001
1000
0001
1000
0001
1000
0001
,  // measure 29
2000
0000
0000
0000
0000
0000
0000
0000
0000
0000
0000
0000
0000
0000
0000
0000
0000
0000
0000
0000
0000
0000
0000
0000
0000
0000
0000
0000
0000
0000
0000
0000
0000
0000
0000
0000
0MMM
0000
000M
0000
0MMM
0000
000M
0000
0MMM
0000
0000
0000
0000
0000
0000
0000
0000
0000
0000
0000
0000
0000
0000
0000
0000
0000
0000
0000
0000
0000
0000
0000
0000
0000
0000
0000
0000
0000
0000
0000
0000
0000
0000
0000
0000
0000
0000
0000
0MMM
0000
000M
0000
0MMM
0000
0M00
0000
0MMM
0000
0000
0000
000M
0000
0000
0000
0000
0000
0000
0000
0000
0000
0000
0000
000M
0000
0000
0000
0000
0000
0000
0000
0000
0000
0000
0000
000M
0000
0000
0000
0000
0000
0000
0000
0000
0000
0000
0000
000M
0000
0000
0000
0000
0000
0000
0000
0000
0000
0000
0000
300M
0000
0000
0000
0000
0000
0000
0000
0000
0000
0000
0000
0000
0000
0000
0000
0000
0000
0000
0000
0000
0000
0000
0000
0000
0000
0000
0000
0000
0000
0000
0000
0000
0000
0000
0000
0000
0000
0000
0000
0000
0000
0000
0000
0000
0000
0000
0000
,  // measure 30
1001
0000
1000
0001
0M10
0020
2000
0000
0001
0000
0100
0000
0001
0000
0130
0000
,  // measure 31
3001
0000
1000
0001
0M10
0010
2000
0000
0020
0000
0100
0002
0200
0000
3333
0000
,  // measure 32
1001
0000
0001
1000
0M10
0020
0002
0000
1000
0000
0100
0000
1000
0000
0130
0000
,  // measure 33
2003
0000
0020
0000
0202
0000
0000
3333
,  // measure 34
1001
0000
1000
0001
0M10
0010
1000
0000
0002
0000
0010
0100
1003
0000
0001
0000
,  // measure 35
1001
0000
0001
1000
0M10
0010
0001
0000
2000
0000
0010
0100
3001
0000
1000
0000
,  // measure 36
1001
0000
1000
0001
0M10
0010
1000
0000
0002
0000
0010
0100
1003
0000
0001
0000
,  // measure 37
1001
0000
0000
0001
0100
0010
1000
0000
0000
0100
01M0
0100
,  // measure 38
1000
0000
0001
1000
0M10
0020
0002
0000
1000
0000
0100
0000
1000
0000
0130
0000
,  // measure 39
1003
0000
0001
1000
0M10
0010
0002
0000
0020
0000
0100
2000
0200
0000
3333
0000
,  // measure 40
1001
0000
1000
0001
0M10
0020
2000
0000
0001
0000
0100
0000
0001
0000
0130
0000
,  // measure 41
3002
0000
0020
0000
2200
0000
0000
3333
,  // measure 42
1001
0000
0001
1000
0M10
0010
0001
0000
2000
0000
0010
0100
3001
0000
1000
0000
,  // measure 43
1001
0000
1000
0001
0M10
0010
1000
0000
0002
0000
0010
0100
1003
0000
0001
0000
,  // measure 44
1001
0000
0001
1000
0M10
0010
0001
0000
2000
0000
0010
0100
3001
0000
1000
0000
,  // measure 45
0001
0010
0100
1000
0001
1000
0010
0100
0001
1000
0100
1000
0010
0100
0001
1000
,  // measure 46
0400
0000
0000
0000
,  // measure 47
0300
0000
0000
0000
,  // measure 48
0000
0000
0000
0000
,  // measure 49
0000
0000
0000
0000
,  // measure 50
2000
0000
0000
0000
0000
0000
0000
0000
0000
0000
0000
0000
0000
0000
0000
0000
0000
0000
3200
0000
0000
0000
0000
0320
,  // measure 51
0000
0000
0000
0000
0000
0000
0000
0000
0000
0000
0000
0000
0000
0000
0000
0000
0000
0000
0230
0000
0000
0000
0000
0302
,  // measure 52
0000
0000
0000
0000
,  // measure 53
0000
0000
0000
0000
,  // measure 54
0203
0000
0000
0320
,  // measure 55
0032
0000
0000
0203
,  // measure 56
0000
0320
0000
0000
0000
0000
0000
0000
0000
0000
0000
0000
,  // measure 57
0000
0000
0100
0130
,  // measure 58
0002
0000
0000
0000
0000
0000
0000
0000
0000
0000
0000
0000
0000
0000
0000
0000
0000
0000
0203
0000
0000
0000
0000
2300
,  // measure 59
0000
0000
0000
0000
0000
0000
0000
0000
0000
0000
0000
0000
0000
0000
0000
0000
0000
0000
3200
0000
0000
0000
0000
0320
,  // measure 60
0000
0000
0000
0000
,  // measure 61
2000
0000
0001
0100
0000
0001
3130
0000
0100
0000
0100
0000
,  // measure 62
0200
0000
0000
0320
,  // measure 63
2030
0000
0000
3200
,  // measure 64
0000
0020
0000
0000
0000
0000
0000
0000
0000
0000
0000
0000
,  // measure 65
0000
0000
0000
0330
,  // measure 66
1001
0000
0000
1000
01M0
0100
0001
0000
0000
1000
0M10
0020
,  // measure 67
0002
0000
0000
0200
0000
0000
2003
0030
0300
3001
0M10
0020
,  // measure 68
2000
0000
0000
0200
0000
0000
3002
0300
0030
1003
01M0
0200
,  // measure 69
0000
0000
0000
0301
M010
0020
0000
0000
0130
100M
2000
0020
,  // measure 70
0000
0000
0000
0200
0000
0000
3002
0300
0030
1003
0M10
0020
,  // measure 71
0002
0000
0000
0200
0000
0000
2003
0030
0300
3001
0M10
0010
,  // measure 72
2000
0000
0000
0000
31M0
0100
0002
0000
0000
M013
0010
0200
,  // measure 73
0000
0000
0000
130M
1000
0020
0000
0000
0130
0001
M010
0010
,  // measure 74
2100
0000
0000
3001
01M0
0100
1000
0000
0000
0001
0M10
0010
,  // measure 75
2200
0000
0000
0022
0033
0000
3022
0300
0030
1003
0M10
0010
,  // measure 76
0202
0000
0000
2020
0000
3030
2023
0030
0300
3100
01M0
0002
,  // measure 77
0000
0000
0000
0013
0M10
2000
0000
0000
3100
0010
0M10
1000
,  // measure 78
0202
0000
0000
2020
0000
3030
2023
0030
0300
3001
0010
001M
,  // measure 79
2200
0000
0000
0022
0000
0033
3022
0300
0030
1003
0100
M100
,  // measure 80
0022
0000
0033
1000
0M10
0010
0202
0000
0303
0010
0M10
2000
,  // measure 81
0000
0000
0000
0000
0000
0000
31M0
0000
0100
0000
0020
0000
0000
0000
0000
0000
1030
0001
1000
0000
0100
0000
01M0
0000
,  // measure 82
0002
0000
0000
0000
,  // measure 83
0000
0000
0000
0000
,  // measure 84
0003
0000
0000
0000
;

//---------------dance-single - ----------------
#NOTES:
     dance-single:
     :
     Hard:
     10:
     0.541326,0.882474,0.137660,0.623094,0.655697,523.000000,504.000000,19.000000,86.000000,17.000000,0.000000,0.541326,0.882474,0.137660,0.623094,0.655697,523.000000,504.000000,19.000000,86.000000,17.000000,0.000000:
0000
0000
0000
0000
,
0000
0000
0000
0000
,
0000
0000
0000
0000
,
0000
0000
0000
0000
,
0000
0000
0000
0000
,
0000
0000
0000
0000
,
1000
0000
0001
0100
0000
0100
0001
0000
1000
0000
0001
0010
0000
0010
0001
0000
,
1000
0000
0010
0100
0000
0100
0010
0000
1000
0000
0100
0010
0000
0010
0000
0000
,
0001
0000
1000
0100
0000
0100
1000
0000
0001
0000
1000
0010
0000
0010
1000
0000
,
0000
0000
0100
0010
0000
0010
0100
0000
0000
0000
0000
0000
1001
0000
0000
0000
,
1000
0000
0001
0010
0001
0000
1000
0100
1000
0000
0001
0010
0001
0000
1000
0010
,
1000
0000
0001
0100
0001
0000
1000
0010
1000
0000
0001
0100
0001
0000
1000
0100
,
1000
0000
0001
0100
0001
0000
1000
0100
1000
0000
0001
0100
0001
0000
1000
0010
,
1000
0000
0001
0010
0001
0000
1000
0010
1000
0000
0001
0010
0002
0000
0000
0000
,
1003
0000
0010
0100
0010
0000
1000
0001
1000
0000
0001
0100
0001
0000
1000
0100
,
1000
0000
0010
1000
0010
0000
0100
0001
0100
0000
0010
1000
0010
0000
0100
0001
,
1000
0100
1000
0000
0001
0100
0001
0000
1000
0010
1000
0000
0001
0010
0001
0000
,
1000
0010
1000
0010
0100
0001
0100
0001
1000
0100
1000
0100
0010
0001
0010
0001
,
0200
0000
0000
0000
,
0000
0000
0000
0000
,
0000
0000
0000
0000
,
0300
0000
0000
0000
,
0002
0000
0000
0000
1003
0100
1000
0000
0001
0100
0010
0100
0001
0000
0001
0000
,
2000
0000
0000
0000
3001
0100
0001
0000
1000
0100
0010
0100
1000
0000
1000
0000
,
0020
0000
0000
0000
0130
0001
0100
0000
0010
1000
0001
1000
0100
0000
0100
0000
,
0020
0000
0000
0000
0130
1000
0100
0000
0010
0001
1000
0001
0100
0000
0100
0000
,
0010
0000
1000
0001
1000
0000
0100
1000
0100
0000
0010
0001
0010
0000
0001
0100
,
0001
0000
1000
0100
1000
0000
0001
0100
0001
0000
1000
0010
1000
0000
0001
0010
,
0001
1000
0001
1000
0010
1000
0010
1000
0001
0100
0001
0100
0001
1000
0001
1000
,
02M0
00M0
00M0
0300
,
0010
0000
0001
1000
0001
1000
0001
0000
0200
0300
02M0
0300
0200
0300
02M0
0300
,
1000
0000
0001
0100
0001
0100
0001
0000
1000
0010
1000
0010
0200
0000
0000
0000
,
0310
0000
1000
0001
1000
0001
1000
0000
0200
0300
02M0
0300
0200
0300
02M0
0300
,
0002
0000
0000
0000
0000
0000
0000
0000
2000
3003
0000
0000
0000
0000
0000
0000
0220
0000
0000
0000
0000
0000
0000
0000
0330
0000
0000
0000
0000
0000
0000
0000
,
1001
0000
1000
0100
1000
0100
0010
0000
0001
0000
0100
01M0
1000
0000
0001
0000
,
1001
0000
0001
0100
0001
0100
0010
0000
1000
0000
0100
01M0
0001
0000
1000
0000
,
1001
0000
1000
0100
1000
0100
0010
0000
0001
0000
0100
01M0
1000
0000
0001
0000
,
1001
0000
0000
1000
0100
0010
0002
0000
0000
0103
1000
0100
,
0001
0000
0000
0000
1000
0001
1000
0000
0200
0300
02M0
0300
0200
0300
02M0
0300
,
0001
0000
1000
0100
1000
0100
1000
0000
0001
0010
0001
0010
0200
0000
0000
0000
,
0310
0000
0001
1000
0001
1000
0001
0000
0200
0300
02M0
0300
0200
0300
02M0
0300
,
2000
0000
0000
0000
0000
0000
0000
0000
0002
3003
0000
0000
0000
0000
0000
0000
0220
0000
0000
0000
0000
0000
0000
0000
0330
0000
0000
0000
0000
0000
0000
0000
,
1001
0000
0001
0100
0001
0100
0010
0000
1000
0000
0100
01M0
0001
0000
1000
0000
,
1001
0000
1000
0100
1000
0100
0010
0000
0001
0000
0100
01M0
1000
0000
0001
0000
,
1001
0000
0001
0100
0001
0100
0010
0000
1000
0000
0100
01M0
0001
0000
1000
0000
,
0001
0100
0001
0000
1000
0100
1000
0000
0001
0010
0100
0010
0001
0000
1000
0100
,
0020
0000
0000
0000
,
0030
0000
0000
0000
,
0000
0000
0000
0000
,
0000
0000
0000
0000
,
0002
0000
0000
0000
0000
0000
0000
0000
0000
0000
0000
0000
0000
0000
0000
0000
0000
0000
0023
0000
0000
0000
0000
0230
,
0000
0000
0000
0000
0000
0000
0000
0000
0000
0000
0000
0000
0000
0000
0000
0000
0000
0000
2300
0000
0000
0000
0000
3020
,
0000
0000
0000
0000
,
0000
0000
0000
0000
,
0230
0000
0000
0302
,
0023
0000
0000
0230
,
0000
2300
0000
0000
0000
0000
0000
0000
0000
0000
0000
0000
,
0000
0000
3001
0001
,
0200
0000
0000
0000
0000
0000
0000
0000
0000
0000
0000
0000
0000
0000
0000
0000
0000
0000
0320
0000
0000
0000
0000
2030
,
0000
0000
0000
0000
0000
0000
0000
0000
0000
0000
0000
0000
0000
0000
0000
0000
0000
0000
3200
0000
0000
0000
0000
0320
,
0000
0000
0000
0000
,
0031
0000
0001
0100
0000
0100
0010
0000
1000
0000
0001
0000
,
0020
0000
0000
0230
,
2300
0000
0000
3020
,
0000
0200
0000
0000
0000
0000
0000
0000
0000
0000
0000
0000
,
0000
0000
0000
0330
,
1001
0000
0000
1000
0100
0010
0001
0000
0000
1000
0010
0100
,
0002
0000
0000
0020
0000
0033
0011
0000
0000
0001
0010
0100
,
2000
0000
0000
0020
0000
3030
1010
0000
0000
1000
0100
0020
,
0000
0000
0000
0031
0100
0020
0000
0000
1030
0100
0010
0002
,
0000
0000
0000
0200
0000
0303
0101
0000
0000
0100
0010
1000
,
0200
0000
0000
0020
0000
0330
0110
0000
0000
0010
0001
1000
,
0020
0000
0000
0000
0031
0010
2000
0000
0000
3100
0010
0002
,
0000
0000
0000
0103
0010
2000
0000
0000
3100
0010
0001
1000
,
0020
0000
0000
0031
0010
1000
0002
0000
0000
0013
0100
0001
,
0200
0000
0000
2000
0000
3300
1100
0000
0000
0001
0100
1000
,
0200
0000
0000
0020
0000
0330
0110
0000
0000
1000
0100
0002
,
0000
0000
0000
1003
0010
0002
0000
0000
1003
0010
0100
0001
,
0020
0000
0000
0200
0000
0330
0110
0000
0000
1000
0010
0001
,
0020
0000
0000
2000
0000
3030
1010
0000
0000
0001
0010
0100
,
0002
0000
0000
0103
0010
0001
0200
0000
0000
1300
0100
0002
,
0000
0000
0000
1003
0100
0002
0000
0000
1003
0010
0001
1000
,
0020
0000
0000
0000
,
0000
0000
0000
0000
,
0030
0000
0000
0000
;

//---------------dance-single - ----------------
#NOTES:
     dance-single:
     :
     Medium:
     8:
     0.384000,0.578173,0.007245,0.441962,0.217358,371.000000,370.000000,1.000000,61.000000,3.000000,0.000000,0.384000,0.578173,0.007245,0.441962,0.217358,371.000000,370.000000,1.000000,61.000000,3.000000,0.000000:
0000
0000
0000
0000
,
0000
0000
0000
0000
,
0000
0000
0000
0000
,
0000
0000
0000
0000
,
0000
0000
0000
0000
,
0000
0000
0000
0000
,
1000
0000
0000
0010
0000
0100
0001
0000
1000
0000
0000
0010
0000
0100
0001
0000
,
1000
0000
0000
0010
0000
0100
0001
0000
1000
0000
0000
0010
0000
0100
0000
0000
,
0001
0000
0000
0010
0000
0100
1000
0000
0001
0000
0000
0010
0000
0100
1000
0000
,
0000
0000
0000
0001
0000
0001
1000
0000
0000
0000
0000
0000
0010
0000
0000
0000
,
0110
0001
1000
0100
1000
0010
0100
0001
,
1000
0100
1000
0001
0100
0010
1000
0001
,
0010
0100
1000
0001
1000
0010
0100
0010
,
1000
0100
0010
0001
0010
0100
0010
0001
,
1000
0010
0100
0010
1000
0001
0010
0100
,
1000
0001
1000
0010
0100
0010
1000
0001
,
0100
0001
1000
0100
1000
0010
0100
0001
,
0010
0100
0010
0000
0001
0000
1000
0000
0010
0000
0100
0000
0001
0000
1000
0001
,
2000
0000
0000
0000
,
0000
0000
0000
0000
,
0000
0000
0000
0000
,
3000
0000
0000
0000
,
0001
0000
0010
0010
0100
1000
0001
0001
,
1000
0000
0010
0010
0100
0001
1000
1000
,
0100
0000
0010
0010
0001
0100
0010
0010
,
1000
0001
1000
0100
0010
0001
1000
0100
,
1000
0010
0100
0001
0010
0100
1000
0001
,
1000
0010
0100
0010
1000
0100
0010
0001
,
1000
0010
0100
0001
1000
0010
0100
0010
,
200M
000M
000M
3000
,
0100
0000
0010
0000
0004
0003
0004
0003
1000
0000
0001
0000
1000
0000
0001
0000
,
0100
0000
0010
0000
4000
3000
4000
3000
0001
0000
0010
0000
2000
0000
0000
0000
,
3010
0000
0100
0000
4000
3000
4000
3000
0001
0000
1000
0000
0001
0000
1000
0000
,
0020
0230
0302
0000
,
1003
0000
0100
0000
0040
0030
0040
0030
0001
0000
0100
0000
0010
0000
1000
0000
,
0001
0000
0100
0000
0040
0030
0040
0030
1000
0000
0100
0000
0010
0000
0001
0000
,
1000
0000
0010
0000
0400
0300
0400
0300
0001
0000
0010
0000
0100
0000
1000
0000
,
0002
0000
0000
1003
0000
0100
1000
0000
0000
0001
0000
0100
,
0001
0000
0010
0000
0400
0300
0400
0300
1000
0000
0001
0000
1000
0000
0001
0000
,
1000
0000
0010
0000
0400
0300
0400
0300
0010
0000
0100
0000
2000
0000
0000
0000
,
3100
0000
0001
0000
0040
0030
0040
0030
0001
0000
1000
0000
0001
0000
1000
0000
,
0020
0230
0302
0000
,
1003
0000
0100
0000
0004
0003
0004
0003
0100
0000
0010
0000
0001
0000
1000
0000
,
0001
0000
0100
0000
4000
3000
4000
3000
0100
0000
0010
0000
1000
0000
0001
0000
,
1000
0000
0100
0000
0004
0003
0004
0003
0100
0000
0010
0000
0001
0000
1000
0000
,
0010
0100
0010
0100
0001
1000
0001
1000
,
0200
0000
0000
0000
,
0300
0000
0000
0000
,
0000
0000
0000
0000
,
0000
0000
0000
0000
,
0020
0000
0000
0000
0000
0000
0000
0000
0000
0000
0000
0000
0000
0000
0000
0000
0000
0000
0000
0000
0000
0000
0000
0032
,
0000
0000
0000
0000
0000
0000
0000
0000
0000
0000
0000
0000
0000
0000
0000
0000
0000
0000
0000
0000
0000
0000
0000
2003
,
0000
0000
0000
0000
,
0000
0000
0000
0000
,
3020
0000
0000
0000
,
0230
0000
0000
0000
,
0000
0302
0000
0000
0000
0000
0000
0000
0000
0000
0000
0000
,
0000
0000
0000
0000
,
0023
0000
0000
0000
0000
0000
0000
0000
0000
0000
0000
0000
0000
0000
0000
0000
0000
0000
0000
0000
0000
0000
0000
0030
,
0200
0000
0000
0000
0000
0000
0000
0000
0000
0000
0000
0000
0000
0000
0000
0000
0000
0000
0000
0000
0000
0000
0000
0302
,
0000
0000
0000
0000
,
0103
0000
0000
1000
0000
0000
0001
0000
1000
0000
0001
0000
,
0200
0000
0000
0000
,
0302
0000
0000
0000
,
0000
2000
0000
0000
0000
0000
0000
0000
0000
0000
0000
0000
,
0000
0000
0000
3003
,
1000
0000
0000
0001
0000
0001
0100
0000
0000
0010
0000
0010
,
2000
0000
0000
3002
0000
0000
0023
0000
0000
0130
0000
0100
,
2000
0000
0000
3020
0000
0000
0230
0000
0000
0301
1000
0002
,
0000
0000
0000
1003
0001
2000
0000
0000
0000
3010
0100
0020
,
0000
0000
0000
2030
0000
0000
3002
0000
0000
0013
0000
0010
,
0200
0000
0000
2300
0000
0000
3020
0000
0000
0130
0000
0100
,
0002
0000
0000
0000
1003
0100
2000
0000
0000
3001
0100
0002
,
0000
0000
0000
0013
0100
0020
0000
0000
0000
0031
0000
0001
,
0100
0000
0000
0010
0000
0010
1000
0000
0000
0001
0000
0001
,
0020
0000
0000
0230
0000
0000
2300
0000
0000
3010
0000
0010
,
0200
0000
0000
0302
0000
0000
0023
0000
0000
0130
1000
0200
,
0000
0000
0000
0310
0001
0020
0000
0000
0000
0130
0000
0100
,
2000
0000
0000
3020
0000
0000
0230
0000
0000
0301
0000
0001
,
2000
0000
0000
3200
0000
0000
0320
0000
0000
0031
0000
0001
,
2000
0000
0000
3010
0000
0010
0200
0000
0000
0301
1000
0002
,
0000
0000
0000
0013
0100
0020
0000
0000
0000
0031
1000
0001
,
2000
0000
0000
0000
,
0000
0000
0000
0000
,
3000
0000
0000
0000
;
