#VERSION:0.83;
#TITLE:Siren's Call;
#SUBTITLE:;
#ARTIST:Taku Inoue;
#TITLETRANSLIT:;
#SUBTITLETRANSLIT:;
#ARTISTTRANSLIT:;
#GENRE:;
#ORIGIN:;
#CREDIT:;
#BANNER:;
#BACKGROUND:;
#PREVIEWVID:;
#JACKET:;
#CDIMAGE:;
#DISCIMAGE:;
#LYRICSPATH:;
#CDTITLE:;
#MUSIC:Siren's Call.ogg;
#OFFSET:0.528000;
#SAMPLESTART:61.541439;
#SAMPLELENGTH:22.068966;
#SELECTABLE:YES;
#BPMS:0.000=174.000;
#STOPS:;
#DELAYS:;
#WARPS:;
#TIMESIGNATURES:0.000=4=4;
#TICKCOUNTS:0.000=4;
#COMBOS:0.000=1;
#SPEEDS:0.000=0.100=0.000=0,
4.000=1.000=16.000=0,
90.000=10.000=7.000=0,
170.000=100.000=10.000=0,
260.000=1000.000=16.000=0,
340.000=250.000=0.000=0,
346.000=1000.000=4.000=0;
#SCROLLS:0.000=1.000,
4.000=0.000,
15.000=1.000,
84.000=0.100,
164.000=0.010,
244.000=0.001;
#FAKES:;
#LABELS:0.000=Song Start;
#BGCHANGES:;
#KEYSOUNDS:;
#ATTACKS:
;

//---------------dance-single - ----------------
#NOTEDATA:;
#CHARTNAME:;
#STEPSTYPE:dance-single;
#DESCRIPTION:;
#CHARTSTYLE:;
#DIFFICULTY:Challenge;
#METER:13;
#RADARVALUES:0.712028,1.480199,0.264063,1.048002,0.825198,604.000000,572.000000,32.000000,127.000000,14.000000,78.000000,0.000000,0.000000,0.000000,0.712028,1.480199,0.264063,1.048002,0.825198,604.000000,572.000000,32.000000,127.000000,14.000000,78.000000,0.000000,0.000000,0.000000;
#CREDIT:;
#NOTES:
// measure 0
0000
0000
0000
0000
,  // measure 1
0000
0000
0000
0000
,  // measure 2
0000
0000
0000
0000
,  // measure 3
0000
0000
0000
0000
,  // measure 4
0000
0000
0000
0000
1000
0001
1000
0010
0M00
0010
0001
0000
1000
0100
1000
0001
,  // measure 5
2000
0000
0020
0000
0000
0000
0000
0000
3130
0000
0001
1000
0020
0000
0200
0000
,  // measure 6
0000
0000
0000
0331
1000
0102
0000
1020
,  // measure 7
0000
0000
0133
0000
1000
0000
0021
1200
,  // measure 8
0030
0000
0301
0000
1000
0100
0010
0100
1000
0000
0001
01M0
0100
0000
0010
0000
,  // measure 9
0002
0000
2000
0000
0000
0000
0000
0000
3103
0000
0010
0001
2000
0000
0020
0000
,  // measure 10
0000
0000
0000
0100
0001
0100
0000
3131
,  // measure 11
0000
0000
0012
0000
2100
0000
00M3
0000
3100
0000
0010
0001
0010
0001
1000
0010
,  // measure 12
1000
0010
0100
0001
0100
0001
1000
0100
00M0
0100
0001
1000
0010
0100
0001
1000
,  // measure 13
0002
0000
0020
0000
0000
0000
0000
0000
0133
0000
1000
0001
0020
0000
0200
0000
,  // measure 14
0000
0000
0000
1330
0001
2100
0000
0021
,  // measure 15
0000
0000
3130
0000
0001
0000
1020
0201
,  // measure 16
0030
0000
1300
0001
0100
0010
0100
0010
1000
0001
0010
0100
0010
0001
1000
0010
,  // measure 17
2000
0000
0002
0000
0000
0000
0000
0000
3103
0000
0010
1000
0002
0000
0020
0000
,  // measure 18
0000
0000
0000
0100
1000
0100
0000
1133
,  // measure 19
0000
2010
0102
30M0
0103
0022
0000
0000
,  // measure 20
1133
0000
0001
1000
0001
0010
0100
1000
0001
1000
0010
0100
0001
1000
0100
1000
,  // measure 21
0020
0000
0000
0000
,  // measure 22
0000
0000
0000
0000
,  // measure 23
0000
0000
0000
0000
,  // measure 24
0000
0000
0000
0000
0130
0001
1000
0010
0M00
0010
0001
1000
0010
0100
0001
0100
,  // measure 25
0002
0000
0020
0000
0000
0000
0000
0000
0133
0000
1000
0001
0020
0000
0200
0000
,  // measure 26
0000
0000
0000
1330
0001
2100
0000
0021
,  // measure 27
0000
0100
3032
0000
1023
0000
0200
1330
,  // measure 28
0001
1000
0001
1000
0010
0100
0010
2000
0002
0000
3103
0000
0000
0000
0000
0000
,  // measure 29
0020
0000
0200
0000
0000
0000
0000
0000
0331
0000
1000
0001
0020
0000
0200
0000
,  // measure 30
0000
0000
0000
1330
0001
2100
0000
0021
,  // measure 31
0000
0000
0100
0000
3031
0000
0000
0000
2000
0000
0000
0000
3001
0010
0001
0010
,  // measure 32
0100
1000
0001
1000
0010
0100
0001
1000
01M0
0100
0001
0M10
0010
1000
0001
1000
,  // measure 33
0002
0000
0020
0000
0000
0000
0000
0000
0133
0000
1000
0100
0020
0000
0002
0000
,  // measure 34
0000
0000
0000
1000
0100
1000
0000
1133
,  // measure 35
0000
0001
2100
0000
0021
0000
0100
3032
,  // measure 36
0000
0000
0000
0000
0020
0133
0000
0000
,  // measure 37
2000
0000
0020
0000
0000
0000
0000
0000
3130
0000
0001
1000
0020
0000
2000
0000
,  // measure 38
0000
0000
0000
0001
0100
0001
0000
3132
,  // measure 39
0000
0000
0023
0000
0200
0000
0000
0000
1330
0000
0000
0000
0001
0000
1000
0100
,  // measure 40
1000
0001
0100
0001
0100
0010
1000
0001
1000
0100
0010
0001
1000
01M0
0100
0001
,  // measure 41
2000
0000
0000
0000
,  // measure 42
0000
0000
0000
0000
,  // measure 43
0000
0000
0000
0000
,  // measure 44
0000
0000
0000
0000
,  // measure 45
3001
0000
0100
0000
0010
0000
1000
0000
0001
0000
0100
0000
0001
0000
0000
1000
0000
0000
0100
0000
0000
0010
0000
0000
0002
0000
0000
0000
0000
0000
0000
0000
0000
0000
0000
0000
1003
0000
0010
0000
0100
0000
0002
0000
0000
0000
0000
0000
,  // measure 46
0000
0000
0013
0000
0100
0000
2000
0000
0000
0000
3010
0100
0001
1000
0200
0000
,  // measure 47
0000
0000
0000
0000
0000
0000
0310
0000
0001
0000
1000
0000
0100
0000
0010
0000
0001
0000
1000
0000
0000
0010
0000
0000
0100
0000
0000
0001
0000
0000
1000
0000
0000
0001
0000
0000
0010
0000
0000
0100
0000
0000
1000
0000
0000
0001
0000
0000
,  // measure 48
0100
0000
0000
0001
0000
0000
1000
0000
0000
0010
0000
0000
0100
0000
0000
0001
0000
0000
1000
0000
0100
0000
0010
0000
0001
0000
1000
0000
0100
0000
2000
0000
0000
0000
0000
0000
0000
0000
0000
0000
0000
0000
0000
0000
0000
0000
0000
0000
,  // measure 49
3020
0000
0000
0032
0000
0000
2003
0000
3200
0000
0000
0302
0000
0000
2003
0000
,  // measure 50
0000
0000
0000
0000
3100
0010
0002
0000
0000
0000
0000
0000
1003
0010
0100
0001
,  // measure 51
1000
0000
0000
0001
0000
0000
0010
0000
0100
0000
1000
0000
0001
0000
0010
0000
0001
0000
1000
0000
0001
0000
0100
0000
0020
0000
0000
0000
0000
0000
0000
0000
0000
0000
0000
0000
1030
0000
0000
0100
0000
0000
0010
0000
0000
0100
0000
0000
,  // measure 52
1000
0001
1000
0001
0100
0010
0100
0010
1000
0001
1000
0100
0010
0001
1000
0001
,  // measure 53
0200
0000
0000
0000
0310
1000
0001
0020
,  // measure 54
0000
0000
0130
0000
1000
0001
0200
0000
0000
0000
0310
0000
1000
0000
0002
0000
,  // measure 55
0000
0000
0000
0000
0000
0000
0013
0000
0100
0000
1000
0000
0001
0000
0010
0000
0001
0000
1000
0000
0001
0000
0100
0000
0010
0000
0000
1000
0000
0000
0001
0000
0000
1000
0000
0000
0100
0000
0000
0010
0000
0000
0001
0000
0000
1000
0000
0000
,  // measure 56
0010
0000
0000
1000
0000
0000
0001
0000
0000
0010
0000
0000
0001
0000
0000
0100
0000
0000
0010
0000
1000
0000
0001
0000
0100
0000
0010
0000
0100
0000
0002
0000
0000
0000
0000
0000
0000
0000
0000
0000
0000
0000
0000
0000
0000
0000
0000
0000
,  // measure 57
2003
0000
0000
0000
3100
0010
0001
1000
0020
0000
0000
0230
0000
0000
0302
0000
,  // measure 58
0000
0000
0000
0000
0000
0000
0000
0000
0000
0000
0000
0000
1003
0000
0000
0100
0000
0000
0010
0000
0001
0000
1000
0000
0100
0000
1000
0000
0001
0000
0100
0000
0000
0010
0000
0000
1000
0000
0000
0001
0000
0000
1000
0000
0000
0100
0000
0000
,  // measure 59
0010
0000
0000
0001
0000
0000
1000
0000
0100
0000
0010
0000
0100
0000
1000
0000
0001
0000
0100
0000
0000
0010
0000
0000
1000
0000
0000
0001
0000
0000
0100
0000
0010
0000
1000
0000
0001
0000
0100
0000
0010
0000
1000
0000
0000
0001
0000
0000
,  // measure 60
0010
0000
0000
0100
0000
0000
1000
0000
0001
0000
0010
0000
0100
0000
1000
0000
0100
0000
0010
0000
0001
0000
1000
0000
0020
0000
0000
0000
0000
0000
0000
0000
0000
0000
0000
0000
0000
0000
0000
0000
0000
0000
0000
0000
0000
0000
0000
0000
,  // measure 61
0230
0000
0000
0000
,  // measure 62
0000
0000
0000
0000
,  // measure 63
0000
0000
0000
0000
,  // measure 64
0000
0000
0000
0000
,  // measure 65
0302
0000
0000
0000
,  // measure 66
0000
0000
0000
0000
,  // measure 67
0000
0000
0000
0000
,  // measure 68
0000
0000
0000
0000
0000
1003
0100
1000
0001
01M0
0100
1000
,  // measure 69
0002
0020
0000
0000
0000
0000
0100
2000
,  // measure 70
0033
0000
0000
0020
0100
0001
0000
3132
,  // measure 71
0000
1003
0102
0000
0020
0000
0100
1033
,  // measure 72
0000
0000
0001
0000
1000
0001
0100
0010
2000
0000
0001
0000
3100
0000
0000
0000
,  // measure 73
0002
0000
0020
0000
0000
0000
0000
0000
0133
1000
0001
1000
0020
0000
0200
0000
,  // measure 74
0000
0000
0000
0331
1000
0102
0000
1020
,  // measure 75
0000
0000
0100
0000
1033
0000
0000
0000
0002
0000
0000
0000
1003
0010
1000
0010
,  // measure 76
0100
0001
1000
0100
1000
0001
01M0
0100
1000
0010
0M10
0001
1000
0001
0100
0010
,  // measure 77
2000
0002
0000
0000
3103
0001
0020
0002
,  // measure 78
0000
0000
0000
1000
0100
1000
0000
1233
,  // measure 79
0000
0320
0002
0000
2033
0000
0020
3130
,  // measure 80
0001
0000
1000
0100
1000
0001
0100
0020
2000
0000
3031
0100
0001
0100
0010
1000
,  // measure 81
0002
0000
0020
0000
0000
0000
0000
0000
0133
1000
0001
1000
0020
0000
0200
0000
,  // measure 82
0000
0000
0000
0331
1000
0102
0000
1020
,  // measure 83
0000
0100
2033
0000
0020
0200
0000
0000
,  // measure 84
3331
0000
1000
0100
1000
0100
0010
0001
1000
0010
0100
010M
1000
0010
0M10
0002
,  // measure 85
2000
0000
0000
0000
,  // measure 86
0000
0000
0000
0000
,  // measure 87
0000
0000
3003
0000
;

//---------------dance-single - ----------------
#NOTEDATA:;
#CHARTNAME:;
#STEPSTYPE:dance-single;
#DESCRIPTION:;
#CHARTSTYLE:;
#DIFFICULTY:Hard;
#METER:11;
#RADARVALUES:0.755646,1.083073,0.792190,0.462111,0.676663,641.000000,545.000000,96.000000,56.000000,0.000000,0.000000,6.000000,0.000000,0.000000,0.755646,1.083073,0.792190,0.462111,0.676663,641.000000,545.000000,96.000000,56.000000,0.000000,0.000000,6.000000,0.000000,0.000000;
#CREDIT:;
#NOTES:
0000
0000
0000
0000
,
0000
0000
0000
0000
,
0000
0000
0000
0000
,
0000
0000
0000
0000
,
0000
0000
0000
0000
1000
0001
1000
0001
0000
0100
0010
0000
1000
0001
1000
0100
,
0010
0000
0011
0000
0000
0000
0000
0000
2000
0000
3010
0100
0001
0000
1001
0000
,
2000
0000
0000
3100
0110
0001
0000
0102
,
0000
1003
1100
0000
0110
0000
1001
1001
,
0000
0000
0001
0000
1000
0100
0010
0100
1000
0000
0001
0100
0010
0000
1000
0000
,
0001
0000
0011
0000
0000
0000
0000
0000
0110
0000
1000
0001
0100
0000
0120
0000
,
0000
0000
0000
1030
1001
0010
0000
0210
,
0000
0000
0301
0000
1001
0000
0000
0000
1100
0000
0000
0000
0001
0100
0001
0100
,
0010
1000
0010
1000
0001
0010
0100
1000
0000
0001
0100
0010
1000
0001
1000
0001
,
0010
0000
0110
0000
0000
0000
0000
0000
1100
0000
0001
0100
0010
0000
1010
0000
,
0000
0000
0000
0101
1000
0011
0000
0210
,
0000
1300
1100
0000
0101
0000
0010
0110
,
0000
0000
1000
0010
0100
0010
1000
0001
0010
0000
0100
1000
0001
1000
0100
0010
,
0001
1001
0000
0000
0110
1000
0001
0011
,
0100
1000
0002
0000
0000
0000
0103
0000
0110
0000
1000
0000
0000
0000
1002
0000
,
0000
0013
0110
1000
0101
0020
0000
0000
,
1030
0000
0001
0100
0001
1000
0100
0010
0001
1000
0001
0100
0010
1000
0001
1000
,
0200
0000
0000
0000
,
0000
0000
0000
0000
,
0000
0000
0000
0000
,
0000
0000
0000
0000
0310
0001
0010
0001
0000
1000
0010
0100
0001
1000
0001
1000
,
0100
0000
0110
0000
0000
0000
0000
0000
0011
0000
1000
0010
0100
0000
0101
0000
,
0000
0000
0000
1100
0001
0101
0000
0120
,
0000
0000
1030
0000
1001
0000
0000
0000
0110
0000
0000
0000
0001
0000
0100
0010
,
1000
0001
1000
0001
0010
0100
0010
0100
1000
0000
1001
0000
0000
0000
0000
0000
,
0100
0000
0110
0000
0000
0000
0000
0000
1010
0000
0001
0010
0100
0000
0110
0000
,
0000
0000
0000
1001
0001
0110
0000
2010
,
0000
0000
3001
0000
0011
0000
0000
0000
0110
0000
0000
0000
0100
1000
0100
1000
,
0001
0100
0001
0100
0010
1000
0001
0010
0000
0100
1000
0001
1000
0010
1000
0010
,
0100
0101
0000
0000
1100
0001
0100
0110
,
0000
0000
0000
1010
0001
0011
0000
0210
,
0000
1300
1010
0000
0102
0000
1000
1003
,
0400
0300
0040
0030
0400
0300
0040
0030
0001
0000
1001
0000
4000
3000
0040
0030
,
0100
0101
0000
0000
1100
0001
0110
0110
,
0000
0000
0000
1010
0001
0110
0000
2100
,
0000
0000
3001
0000
0101
0000
0000
0000
0110
0000
0000
0000
1000
0000
1000
0001
,
0010
0001
0010
0001
1000
0010
1000
0010
0100
0001
0100
0001
1000
0100
0010
0001
,
2000
0000
0000
0000
,
0000
0000
0000
0000
,
0000
0000
0000
0000
,
0000
0000
0000
0000
,
3001
0100
0010
1000
0010
0100
0001
1000
0200
0000
0000
0000
0310
0001
0200
0000
,
0000
0000
0310
1000
0200
0000
0302
0000
0000
0000
0103
0010
0001
1000
0020
0000
,
0000
0000
1030
0100
0001
0100
0010
0001
1000
0010
0100
0001
1000
0100
0010
0001
,
1000
0001
0100
0010
1000
0001
1000
0100
0010
0001
2000
0000
0000
0000
0000
0000
,
3020
0000
0000
0230
0000
0000
2300
0000
3002
0000
0000
0023
0000
0000
2030
0000
,
0000
0000
0000
0000
3001
0010
0200
0000
0000
0000
0000
0000
1300
0001
1000
0001
,
0100
0010
1000
0100
0010
1000
0010
0001
2000
0000
0000
0000
3010
0100
0010
0100
,
0001
0100
0001
0100
0010
1000
0010
1000
0001
1000
0001
1000
0100
0010
0001
1000
,
0200
0000
0000
0000
0320
0032
2003
3020
,
0000
0000
0230
0000
0301
1000
0020
0000
0000
0000
0230
0000
0302
0000
0023
0000
,
0000
0000
0130
0001
0100
1000
0001
0100
0010
1000
0001
1000
0100
1000
0100
0010
,
0001
1000
0010
0100
0001
1000
0001
0010
0100
1000
0002
0000
0000
0000
0000
0000
,
0203
0000
0000
0000
1300
0001
0010
1000
0002
0000
0000
0023
0000
0000
0230
0000
,
0000
0000
0000
0000
1300
0001
0100
0010
1000
0001
1000
0001
0010
0100
0010
0100
,
1000
0000
0001
0100
1000
0000
0100
0000
0010
0000
1000
0100
0010
0000
1000
0000
,
0001
0000
0100
0010
0001
1000
0010
0100
0002
0000
0000
0000
0000
0000
0000
0000
,
0203
0000
0000
0000
,
0000
0000
0000
0000
,
0000
0000
0000
0000
,
0000
0000
0000
0000
,
0000
0000
0000
0000
,
0000
0000
0000
0000
,
0000
0000
0000
0000
,
0000
0000
0000
0000
0000
0000
0301
1000
0000
0100
0010
0100
,
1000
1002
0000
0000
0000
0000
0013
0210
,
0000
0000
0000
1300
0010
0110
0000
0102
,
0000
1003
1100
0000
0110
0000
0001
1001
,
0000
0000
1000
0000
0010
0100
0001
0100
0010
0000
1000
0001
0010
0000
0100
1000
,
0001
0000
0101
0000
0000
0000
0000
0000
1100
0000
0001
0100
0010
0000
0110
0000
,
0000
0000
0000
1010
0001
1001
0000
0210
,
0000
0000
0000
0000
0301
0000
0000
0000
1000
0000
0000
0000
0100
0010
0100
0010
,
0001
1000
0001
0100
0010
1000
0001
0010
0000
0100
1000
0001
1000
0001
0100
0010
,
1000
1100
0000
0000
0101
1000
1100
1100
,
0000
0000
0000
0101
0010
1010
0000
0021
,
0000
0130
1100
0000
0101
0000
1000
1000
,
0100
0000
0010
0001
1000
0001
1000
0010
0100
0000
0001
1000
0001
0010
0100
1000
,
0001
0101
0000
0000
1010
0001
0110
0110
,
2000
0000
0000
3001
0101
0010
0000
2010
,
0000
3001
0011
0000
0110
2000
0000
0000
,
3001
0000
0100
0010
1000
0001
1000
0100
0010
0001
1000
0001
0100
0010
1000
0001
,
2000
0000
0000
0000
,
0000
0000
0000
0000
,
0000
0000
3000
0000
;

//---------------dance-single - ----------------
#NOTEDATA:;
#CHARTNAME:;
#STEPSTYPE:dance-single;
#DESCRIPTION:;
#CHARTSTYLE:;
#DIFFICULTY:Medium;
#METER:9;
#RADARVALUES:0.544631,0.794253,0.066016,0.800442,0.342457,462.000000,454.000000,8.000000,97.000000,0.000000,0.000000,0.000000,0.000000,0.000000,0.544631,0.794253,0.066016,0.800442,0.342457,462.000000,454.000000,8.000000,97.000000,0.000000,0.000000,0.000000,0.000000,0.000000;
#CREDIT:;
#NOTES:
0000
0000
0000
0000
,
0000
0000
0000
0000
,
0000
0000
0000
0000
,
0000
0000
0000
0000
,
0000
0000
0000
0000
1000
0000
0001
1000
0000
0000
0010
0000
0100
0001
0100
0000
,
0010
0000
2000
0000
0000
0000
0000
0000
3001
0000
0010
0100
1000
0000
0002
0000
,
0000
0000
0000
0103
1000
0200
0000
0320
,
0000
1030
0001
0000
1001
0000
0010
0200
,
0000
0000
0301
0000
0100
1000
0100
1000
0100
0000
0010
0000
0001
0000
1000
0000
,
0010
0000
0200
0000
0000
0000
0000
0000
1300
0000
0100
0001
0100
0000
0020
0000
,
0000
0000
0000
1030
0100
0002
0000
2003
,
0000
0000
3010
0000
0002
0000
0000
0000
2003
0000
0000
0000
3010
0000
0100
0001
,
0000
0001
1000
0000
0100
0000
0010
0001
0000
0001
1000
0000
0010
0000
0100
0000
,
0002
0023
0000
0000
0130
0001
0100
2000
,
0000
0000
0000
3010
0001
0020
0000
0230
,
0000
0301
1000
0000
1001
0000
0001
0020
,
0000
0000
0130
1000
0100
0000
1000
0100
1000
0000
0001
0000
0100
0010
0100
0000
,
0001
0020
0000
0000
1030
0010
0001
0200
,
0310
0020
0000
1030
0100
0002
0000
2003
,
0000
3010
0001
0100
0010
0002
0000
0000
,
0013
0000
1000
0001
1000
0000
0100
0000
0010
0001
0010
0000
0100
0000
1000
0001
,
0200
0000
0000
0000
,
0000
0000
0000
0000
,
0000
0000
0000
0000
,
0000
0000
0000
0000
0310
0000
0100
0010
0000
0000
1000
0000
0001
0010
0100
0000
,
0001
0000
0200
0000
0000
0000
0000
0000
0310
0000
0001
1000
0001
0000
0200
0000
,
0000
0000
0000
1300
0001
0020
0000
2030
,
0000
3100
0010
0000
0110
0000
0001
0100
,
0010
1000
0010
0000
0100
0000
0001
1000
0001
0000
0020
0000
0000
0000
0000
0000
,
0130
0000
0002
0000
0000
0000
0000
0000
0103
0000
0010
0001
0010
0000
0200
0000
,
0000
0000
0000
1300
0010
0001
0000
0020
,
0000
0000
0130
0000
0001
0000
0000
0000
1001
0000
0000
0000
1000
0100
1000
0000
,
0001
0100
0001
0000
1000
0000
0100
0010
0001
0000
1000
0000
0010
0100
0010
0100
,
0020
0000
0032
0000
0000
0000
0000
0003
1000
0000
0100
0000
0001
0000
0020
0000
,
0000
0000
0000
0130
0001
0200
0000
2300
,
0000
3010
0100
0000
0110
0000
1000
0002
,
0000
0000
0000
0000
0013
0200
0000
0000
,
0000
1300
0020
0000
0031
1000
0100
0002
,
0000
0000
0000
0013
1000
0020
0000
0230
,
0000
1300
0010
0000
0110
0000
1000
0001
,
0010
0100
0010
0000
0001
0000
1000
0010
0100
0010
1000
0000
0001
0010
0100
0000
,
2000
0000
0000
0000
,
0000
0000
0000
0000
,
0000
0000
0000
0000
,
0000
0000
0000
0000
,
3001
0000
0010
0100
0010
0100
0010
0000
0002
0000
0000
0000
1003
0010
0200
0000
,
0000
0000
0320
0000
2030
0000
3200
0000
0000
0000
0310
0001
2000
0000
3020
0000
,
0000
0000
1030
0100
0010
0000
0001
0000
1000
0000
0010
0000
0100
0001
0100
0000
,
0010
0000
1000
0001
1000
0000
0100
0000
1000
0001
0200
0000
0000
0000
0000
0000
,
0320
0000
0000
2030
0000
0000
3200
0000
0320
0000
0000
0032
0000
0000
0203
0000
,
0000
0000
0000
0000
0310
1000
0002
0000
0000
0000
0000
0000
1003
0100
1000
0100
,
1000
0000
0001
0000
0100
0010
1000
0000
0002
0000
0000
0000
0013
0100
0010
0000
,
0001
0000
1000
0000
0010
0000
0100
0001
0000
0001
0010
0000
0100
1000
0100
1000
,
0200
0000
0000
0000
0320
0032
2003
3020
,
0000
0000
0230
0000
0301
1000
0020
0000
0000
0000
0230
0000
0302
0000
2003
0000
,
0000
0000
3100
0010
0001
0000
1000
0000
0010
0000
0100
0000
0001
1000
0001
0000
,
0010
0000
0100
0000
1000
0001
1000
0000
0010
0100
0002
0000
0000
0000
0000
0000
,
2003
0000
0000
0000
3100
0010
0001
0010
0200
0000
0000
2300
0000
0000
3020
0000
,
0000
0000
0000
0000
0130
0001
0100
0000
0010
1000
0001
0000
0010
0000
0100
0000
,
1000
0000
0001
0000
0100
0010
0100
0000
0001
0000
1000
0000
0100
0010
0100
0000
,
1000
0000
0010
0000
0100
0001
0100
0001
2000
0000
0000
0000
0000
0000
0000
0000
,
3200
0000
0000
0000
,
0000
0000
0000
0000
,
0000
0000
0000
0000
,
0000
0000
0000
0000
,
0000
0000
0000
0000
,
0000
0000
0000
0000
,
0000
0000
0000
0000
,
0000
0000
0000
0000
0000
0000
0310
0001
0000
1000
0010
1000
,
0010
0002
0000
0000
0000
0000
0013
0200
,
0000
0000
0000
0301
0010
2000
0000
3002
,
0000
0103
1000
0000
1001
0000
0001
0200
,
0000
0000
0310
0000
1000
0001
1000
0000
0100
0000
0010
0000
0001
0000
1000
0010
,
0100
0000
2000
0000
0000
0000
0000
0000
3100
0000
0001
1000
0001
0000
0020
0000
,
0000
0000
0000
0130
0001
0200
0000
2300
,
0000
0000
0000
0000
3010
0000
0000
0000
0100
0000
0000
0000
0001
1000
0001
0000
,
0010
0100
0010
0000
0001
0000
1000
0010
0000
0010
0100
0000
0001
1000
0001
0000
,
0010
0200
0000
0000
0301
0100
1000
0020
,
0000
0000
0000
0130
1000
0200
0000
0302
,
0000
0013
0100
0000
0110
0000
1000
0001
,
0100
0010
0100
0000
0001
0000
0010
0100
1000
0000
0001
0100
0001
0000
1000
0100
,
1000
0020
0000
0000
0130
0001
0010
0200
,
0000
0000
0000
0301
0100
2000
0000
3020
,
0000
0031
0020
0000
0130
0002
0000
0000
,
0013
0000
0100
1000
0100
1000
0000
0001
0100
0000
0010
1000
0001
0000
0010
0000
,
0200
0000
0000
0000
,
0000
0000
0000
0000
,
0000
0000
0300
0000
;
