#VERSION:0.83;
#TITLE:Set Me Free;
#SUBTITLE:;
#ARTIST:kors k vs BEMANI Sound Team "L.E.D.";
#TITLETRANSLIT:;
#SUBTITLETRANSLIT:;
#ARTISTTRANSLIT:;
#GENRE:;
#ORIGIN:;
#CREDIT:;
#BANNER:banner.png;
#BACKGROUND:;
#PREVIEWVID:;
#JACKET:;
#CDIMAGE:;
#DISCIMAGE:;
#LYRICSPATH:;
#CDTITLE:;
#MUSIC:Set Me Free.ogg;
#OFFSET:-0.171000;
#SAMPLESTART:88.592522;
#SAMPLELENGTH:14.210526;
#SELECTABLE:YES;
#BPMS:0.000=152.000;
#STOPS:;
#DELAYS:;
#WARPS:;
#TIMESIGNATURES:0.000=4=4;
#TICKCOUNTS:0.000=4;
#COMBOS:0.000=1;
#SPEEDS:0.000=1.000=0.000=0,
274.000=2.000=2.000=0,
288.000=3.000=2.000=0;
#SCROLLS:0.000=1.000,
147.000=0.750,
212.000=1.000,
227.000=0.000,
227.125=2.000,
227.250=0.000,
227.375=2.000,
227.500=0.000,
227.625=2.000,
227.750=0.000,
227.875=2.000,
228.000=1.000,
237.000=0.000,
237.063=2.000,
237.125=0.000,
237.188=2.000,
237.250=0.000,
237.313=2.000,
237.375=0.000,
237.438=2.000,
237.500=0.000,
237.563=2.000,
237.625=0.000,
237.688=2.000,
237.750=0.000,
237.813=2.000,
237.875=0.000,
237.938=2.000,
238.000=1.000,
253.000=0.000,
253.063=2.000,
253.125=0.000,
253.188=2.000,
253.250=0.000,
253.313=2.000,
253.375=0.000,
253.438=2.000,
253.500=0.000,
253.563=2.000,
253.625=0.000,
253.688=2.000,
253.750=0.000,
253.813=2.000,
253.875=0.000,
253.938=2.000,
254.000=1.000,
272.000=0.500;
#FAKES:;
#LABELS:0.000=Song Start;
#BGCHANGES:;
#KEYSOUNDS:;
#ATTACKS:
;

//---------------dance-single - ----------------
#NOTEDATA:;
#CHARTNAME:;
#STEPSTYPE:dance-single;
#DESCRIPTION:;
#CHARTSTYLE:;
#DIFFICULTY:Challenge;
#METER:12;
#RADARVALUES:0.768583,0.966759,0.935307,1.258111,0.595948,650.000000,535.000000,113.000000,152.000000,18.000000,98.000000,2.000000,0.000000,0.000000,0.768583,0.966759,0.935307,1.258111,0.595948,650.000000,535.000000,113.000000,152.000000,18.000000,98.000000,2.000000,0.000000,0.000000;
#CREDIT:;
#NOTES:
// measure 0
0000
0000
0000
0000
,  // measure 1
0000
0000
0000
0000
,  // measure 2
0000
0000
0000
0000
,  // measure 3
0000
0000
0000
0000
,  // measure 4
0000
0000
0000
0000
,  // measure 5
1001
0000
1000
0000
0010
0100
0001
2000
,  // measure 6
3102
0000
0000
1003
0001
0000
0100
0000
0021
0000
0000
1030
0001
0000
0020
0000
,  // measure 7
0130
0000
1000
0100
00M0
0100
0001
1000
0000
0001
1000
0010
0M00
0010
0001
1000
,  // measure 8
0010
0100
0001
1000
0001
0010
0100
1000
0002
0000
0000
0003
0002
0000
0000
0000
,  // measure 9
1023
0000
0000
0000
0132
0000
0010
0100
2003
0000
0000
0000
3021
0000
0100
0001
,  // measure 10
2030
0000
3002
0000
1023
0000
0100
1000
0032
0000
0000
0000
2103
0000
0010
0100
,  // measure 11
3001
0000
0001
0000
1000
0000
1000
0000
0100
0010
0001
0100
0010
1000
0001
1000
,  // measure 12
0000
0000
0002
0000
0000
0020
0000
0000
0200
0000
0000
0000
1333
0000
0001
0000
,  // measure 13
1100
0010
0100
0002
1000
0100
0010
0100
,  // measure 14
1003
0000
0020
0000
0100
0000
0130
0000
0001
0000
4000
3000
0100
0000
0010
0000
,  // measure 15
0002
0000
0000
1003
0020
0000
0100
0000
2030
0000
0000
3001
0020
0000
0100
0000
,  // measure 16
0031
0000
0000
0000
0000
0000
0000
0000
0000
0001
0000
0000
1000
0000
0000
0000
0000
0000
0010
0000
0000
0000
0000
0000
0010
0000
0000
0000
0000
0000
0100
0000
0001
0000
0100
0000
0001
0000
0000
1000
0000
0000
0100
0000
0000
0010
0000
0000
,  // measure 17
0002
0000
1003
0010
0100
0000
0002
0000
1003
0100
00M0
0100
0001
0000
0010
0000
,  // measure 18
0100
0000
2000
0000
0020
0000
3130
0000
0001
0010
0M00
0010
2000
3000
2000
3000
,  // measure 19
0002
0000
0000
0103
0010
0000
2000
0000
0100
0000
0000
3001
0200
0000
0010
0000
,  // measure 20
0301
0000
2000
0000
0000
0020
0000
0000
0200
0000
0000
0000
3332
0000
0000
0000
,  // measure 21
1013
0000
0001
0100
0000
0100
0010
0000
1100
0001
0000
0001
1100
0000
0010
0000
,  // measure 22
1100
0000
0001
0010
0000
0010
0100
0000
1010
0000
0101
0010
0101
0000
2000
0000
,  // measure 23
3011
0000
1000
0100
0000
0100
0010
0000
0101
1000
0000
1000
0101
0000
0010
0000
,  // measure 24
0101
0000
1000
0010
0000
0010
0100
0000
0011
1100
0011
1100
0012
0000
0000
0000
,  // measure 25
1010
0000
1010
0000
1013
0000
0001
0000
1100
0010
0000
0010
1100
0000
0001
0000
,  // measure 26
1010
0000
0100
1000
0000
1000
0001
0000
1200
0000
0312
0000
0000
0000
1013
0000
,  // measure 27
0102
0000
0010
0100
1003
0000
0011
0000
1100
0001
1000
0100
0020
0000
0032
0000
,  // measure 28
1103
0000
0010
0000
1100
0000
0010
0000
1100
0000
0001
0010
0100
1000
0100
2000
,  // measure 29
0101
0101
0101
3102
,  // measure 30
1100
1100
1100
2103
,  // measure 31
0011
0011
0011
3012
,  // measure 32
1010
1010
1010
1023
,  // measure 33
0101
0101
0101
0132
,  // measure 34
1100
1100
1100
1203
,  // measure 35
0311
0000
1000
0000
0011
0000
0000
1000
0101
0000
0010
0000
0101
0000
1000
0010
,  // measure 36
0100
0000
0000
0002
0000
0000
1013
0000
0000
0100
1000
0002
2000
0000
0000
0000
0000
0000
3103
0000
0000
0000
0000
0000
,  // measure 37
0000
0000
1000
0000
0010
0M00
0010
0000
0001
0000
0100
000M
0100
0000
2000
0000
,  // measure 38
0000
0020
0000
0200
3330
0001
1000
0002
,  // measure 39
0000
0020
0000
0200
0333
1000
0001
2000
,  // measure 40
0000
0020
0000
3130
0002
0020
0200
2000
,  // measure 41
3333
0000
0001
0000
0010
0M00
0010
0000
1000
0000
0100
00M0
0100
0000
0002
0000
,  // measure 42
0000
0020
0000
0200
0333
1000
0001
2000
,  // measure 43
0000
0020
0000
0200
3330
0001
1000
0002
,  // measure 44
0000
0020
0000
0133
2000
0020
0200
0002
,  // measure 45
3333
0000
1000
0000
0100
00M0
0100
0000
0001
0000
0010
0M00
0010
0000
2100
0000
,  // measure 46
0000
0021
0000
0202
3333
1000
0001
1020
,  // measure 47
0000
0102
0000
2200
3333
0001
1000
0021
,  // measure 48
0000
2100
0000
3032
0023
0002
2000
0200
,  // measure 49
3333
0000
0001
0000
0100
00M0
0100
0000
1000
0000
0010
0M00
0010
0000
0102
0000
,  // measure 50
0000
1020
0000
2200
3333
1000
0001
2100
,  // measure 51
0000
0021
0000
0202
3333
1000
0001
1020
,  // measure 52
0000
0000
0102
0000
0000
0000
2033
0000
3020
0000
2000
0000
0002
0000
0200
3333
,  // measure 53
0021
0000
0000
0000
2130
0000
0010
0100
3002
0000
0000
0000
1023
0000
0100
1000
,  // measure 54
0032
0000
2003
0000
3021
0000
0100
0001
2030
0000
0000
0000
3102
0000
0010
0100
,  // measure 55
1003
0000
1000
0000
0001
0000
0001
0000
0100
0010
1000
0100
0010
0001
1000
0001
,  // measure 56
0000
0000
2000
0000
0000
0020
0000
0000
0200
0000
0000
0000
3331
1000
0001
1000
,  // measure 57
0102
0000
0000
0020
0000
0000
0200
0000
1333
0100
00M0
0100
0001
0000
1000
0000
,  // measure 58
0020
0000
0000
2000
0000
0000
0002
0000
3133
0001
0000
0001
1000
0001
0020
0000
,  // measure 59
0100
0000
0031
0000
1000
0100
01M0
0100
1000
0000
0001
0100
00M0
0100
0000
0020
,  // measure 60
0001
0000
0230
0000
1000
0000
0310
0001
2000
0000
0000
3001
0100
0000
0010
0000
,  // measure 61
2100
0000
0000
0020
0000
0000
0200
0000
3331
0100
00M0
0100
1000
0000
0001
0000
,  // measure 62
0020
0000
0000
0002
0000
0000
2000
0000
3133
1000
0000
1000
0001
1000
0010
0000
,  // measure 63
1100
0001
1000
0010
0100
0100
01M0
0100
1000
0000
0001
0100
00M0
0100
0000
0010
,  // measure 64
0001
0000
2000
0000
0000
0020
0000
0000
0200
0000
0000
0000
3334
0000
0000
0000
,  // measure 65
1013
0000
0100
1000
0000
1000
0001
0000
1100
0010
0000
0010
1100
0000
0001
0000
,  // measure 66
1010
0000
0100
1000
0000
1000
0001
0000
1100
0010
0000
0010
1100
0001
1100
0000
,  // measure 67
0011
0000
1000
0010
0000
0010
0100
0000
0011
1000
0000
1000
0102
0000
2000
0000
,  // measure 68
0100
0000
0100
0000
3203
0320
0032
2003
,  // measure 69
3011
0000
0100
0010
0000
0010
1000
0000
0101
0010
0000
0010
0101
0000
1000
0000
,  // measure 70
0011
0000
0100
0010
0000
0010
1000
0000
0011
2100
0000
3102
0000
0003
2010
0000
,  // measure 71
3101
1000
0001
0100
0010
1000
0001
1000
0100
0010
0001
1000
0001
0100
0010
1000
,  // measure 72
0002
0000
0020
0000
0000
0200
0000
0000
2000
0000
0000
0000
3333
0000
0000
0000
,  // measure 73
1111
0000
0000
0000
;

//---------------dance-single - ----------------
#NOTEDATA:;
#CHARTNAME:;
#STEPSTYPE:dance-single;
#DESCRIPTION:;
#CHARTSTYLE:;
#DIFFICULTY:Hard;
#METER:11;
#RADARVALUES:0.820610,0.996971,0.827705,0.132433,0.695272,694.000000,594.000000,100.000000,16.000000,18.000000,0.000000,3.000000,0.000000,0.000000,0.820610,0.996971,0.827705,0.132433,0.695272,694.000000,594.000000,100.000000,16.000000,18.000000,0.000000,3.000000,0.000000,0.000000;
#CREDIT:;
#NOTES:
0000
0000
0000
0000
,
0000
0000
0000
0000
,
0000
0000
0000
0000
,
0000
0000
0000
0000
,
0000
0000
0000
0000
,
1001
0000
1000
0000
0100
0010
0001
1000
,
0020
0000
0000
0130
0001
0000
1000
0100
0020
0000
0000
0031
1000
0000
0010
0100
,
0001
1000
0100
1000
0000
0001
0100
0010
1000
0001
1000
0001
0000
0010
0100
1000
,
0001
0100
0001
0100
0010
1000
0010
1000
0002
0000
0000
0000
0200
0000
0303
0000
,
0110
0000
0000
0000
1001
0000
1000
0100
0010
0000
0000
0000
0011
0000
1000
0010
,
0100
0000
0001
0000
1000
0000
0100
0010
0001
0000
0000
0000
1001
0000
0001
0100
,
0010
1000
0010
1000
0001
0010
0001
0010
0100
1000
0001
0100
0010
1000
0001
0020
,
0000
0000
0100
0000
0000
0100
0000
0000
0230
0000
0000
0000
1300
0000
0001
0000
,
1001
0000
1000
0000
0010
0000
0002
0003
0010
0000
0100
0000
0001
0000
1000
0000
,
0100
0000
0010
0000
2000
3000
0010
0000
0001
1000
0000
1000
0001
0000
0100
0000
,
0010
0000
1000
0001
0010
0000
0100
0000
1000
0000
0010
0100
0001
0000
1000
0000
,
0100
0000
0000
0010
0000
0000
0000
0000
0000
0010
0000
0000
0000
0000
0000
0000
0000
0000
0001
0000
0000
1000
0000
0000
0001
0000
0000
0000
0000
0000
0100
0000
0010
0000
0100
0000
0010
0000
0000
1000
0000
0000
0001
0000
0000
1000
0000
0000
,
0100
0000
0100
0010
0100
0000
1000
0000
0001
0100
00M0
0100
1000
0000
0001
0000
,
0010
0000
0400
0300
4000
3000
0004
0003
1000
0100
00M0
0100
0001
0000
0001
0000
,
1000
0000
0100
0010
0001
0010
0001
0000
1000
0010
0M00
0010
0001
0000
1000
0000
,
0110
0000
0001
1000
0100
0010
0001
1000
0010
1000
0001
0000
0020
0030
0200
0300
,
1001
0000
0000
0000
1100
0000
0001
0000
0100
0010
0000
1000
0010
0000
0100
0000
,
0101
0000
1000
0100
0000
0100
0010
0000
1001
0000
1000
0010
0100
0000
0001
0000
,
1001
0000
0000
0000
1100
0000
0010
0000
0001
1000
0000
0001
0100
0000
0100
0000
,
0110
0000
1000
0001
0000
0001
1000
0000
0100
0010
0100
0010
0002
0000
0003
0000
,
0101
0000
0110
0000
1010
0000
0001
0000
0010
0100
0000
0100
1000
0000
0001
0000
,
0101
0000
1000
0100
1000
0001
0100
0000
0110
0000
0110
0000
0000
0000
1001
0000
,
1000
0100
0001
0100
0010
0000
0001
0000
1000
0010
0001
0010
0100
0001
1000
0100
,
0010
0000
0100
0000
0010
0000
0100
0000
1000
0000
0001
0100
0010
1000
0100
0010
,
0110
0110
0110
0110
,
0011
0011
0011
0011
,
1010
1010
1010
1010
,
0101
0101
0101
0101
,
1100
1010
0101
1001
,
1100
0110
0011
1001
,
1010
0000
0010
0000
0110
0000
0000
0001
1000
0000
0100
0000
0001
0100
0010
0001
,
1000
0000
0000
0000
0000
0000
1001
0000
0000
0010
0100
0010
0200
0000
0000
0000
0000
0000
0310
0000
0000
0000
0000
0000
,
0000
0001
0010
1000
0001
0100
1000
0010
,
0000
0100
0000
0110
0000
1000
0100
0001
,
0000
0100
0000
0110
0000
0001
0100
1000
,
0000
0100
0000
0010
0010
0010
0010
0010
,
0000
1000
0010
0001
1000
0100
0001
0010
,
0000
0100
0000
0110
0000
0001
0100
1000
,
0000
0100
0000
0110
0000
1000
0100
0001
,
0000
0100
0000
0110
1001
1100
0101
0110
,
1000
0100
0001
0100
0010
1000
0010
0110
,
0000
0011
0000
1010
0000
0001
0100
1100
,
0000
0011
0000
1010
0000
0001
0010
0110
,
0000
1100
0000
0101
0010
0010
0010
0010
,
1000
0001
0010
0100
0001
0100
1000
1010
,
0000
0101
0000
1100
0000
0010
0001
0101
,
0000
0110
0000
1010
0000
0001
0010
1010
,
0000
0110
0000
0011
1000
1000
1000
1000
,
1001
0000
0000
0000
1010
0000
0010
0100
0001
0000
0000
0000
0011
0000
0010
0100
,
1000
0000
0001
0000
0100
0000
0010
1000
0100
0000
0000
0000
0110
0000
0001
1000
,
0010
0100
0010
0100
0001
1000
0001
1000
0100
0010
0001
1000
0001
0100
0010
2000
,
0000
0000
0001
0000
0000
0001
0000
0000
3002
0000
0000
0000
0013
0100
0010
0100
,
1000
0000
0000
1100
0000
0000
0101
0000
1000
0010
M000
0010
0100
0000
0001
0000
,
0100
0000
1000
0010
0M00
0010
0001
0000
0001
0100
00M0
0100
1000
0001
0100
0000
,
0010
0000
1000
0000
01M0
0100
01M0
0100
0001
0000
1000
0010
0000
M010
0000
0010
,
0100
0000
01M0
1000
0010
0M00
0010
0001
0200
0000
0300
01M0
1000
0000
1000
0000
,
1001
0000
0000
0101
0000
0000
1100
0000
0001
0010
000M
0010
0100
0000
1000
0000
,
0100
0000
0001
0010
0M00
0010
1000
0000
1000
0100
00M0
0100
0001
1000
0100
0000
,
0010
0000
0001
0100
01M0
0100
01M0
0100
0010
0000
1000
0100
0000
M100
0000
0100
,
0010
0001
1000
0010
0100
0001
1000
0100
1000
0001
1000
0010
0100
0010
1000
0001
,
1001
0000
1000
0000
1100
0000
0001
0100
0010
0100
0001
0000
1001
0000
0010
0000
,
0110
0000
0100
0000
1100
0000
0001
0100
0010
1000
0001
0010
0100
0000
0110
0000
,
1100
0000
0001
0100
0010
0000
1000
0000
0001
0010
0100
1000
0001
0000
0101
0000
,
2100
0000
0100
0000
3100
0010
0110
1100
,
1001
0000
0001
0100
0010
0100
0001
0000
1001
0000
1000
0100
0010
0000
0001
0000
,
0101
0000
0000
0000
0010
0000
1000
0000
0001
0000
1000
0000
0100
0000
0000
0000
0010
0001
0010
0000
0000
0000
0110
0000
0000
0000
0000
0000
1001
0000
0000
0000
,
1000
0010
0100
0001
1000
0100
1000
0010
0100
0001
1000
0100
0010
0001
0100
0010
,
1000
0001
1000
0001
1000
0001
1000
0001
1000
0001
1000
0001
1000
0001
1000
0001
,
1000
0000
0000
0000
;

//---------------dance-single - ----------------
#NOTEDATA:;
#CHARTNAME:;
#STEPSTYPE:dance-single;
#DESCRIPTION:;
#CHARTSTYLE:;
#DIFFICULTY:Medium;
#METER:9;
#RADARVALUES:0.597130,0.664647,0.455238,0.786320,0.260727,505.000000,450.000000,55.000000,95.000000,0.000000,0.000000,2.000000,0.000000,0.000000,0.597130,0.664647,0.455238,0.786320,0.260727,505.000000,450.000000,55.000000,95.000000,0.000000,0.000000,2.000000,0.000000,0.000000;
#CREDIT:;
#NOTES:
0000
0000
0000
0000
,
0000
0000
0000
0000
,
0000
0000
0000
0000
,
0000
0000
0000
0000
,
0000
0000
0000
0000
,
1001
1000
0001
0001
,
0200
0310
0200
0310
,
1000
0000
0001
0010
0000
0000
0001
0010
0000
0000
0100
1000
0000
0000
0100
1000
,
0001
0100
0010
1000
0002
0000
2000
3003
,
1002
0000
0000
0000
1003
0000
0010
0100
0020
0000
0000
0000
1030
0000
0001
0010
,
0001
0000
1000
0000
0010
0000
0100
0001
0200
0000
0000
0000
0310
0000
1000
0001
,
1000
0110
1001
0110
,
0000
0000
2000
0000
0000
3200
0000
0000
0302
0000
0000
0000
0100
0000
0103
0000
,
1000
0000
0010
0000
0100
0000
2000
3000
0002
0003
0020
0030
2000
3000
0002
0003
,
0010
0000
0200
0300
0002
0003
2000
3000
0020
0030
0400
0300
1000
0000
0040
0030
,
0100
0000
0001
1000
0001
0000
0010
0000
0100
0000
1000
0100
1000
0000
0001
0000
,
0100
0010
0000
0020
0000
0030
1000
0000
0100
0000
0010
0000
0010
0000
0010
0000
,
0001
0000
1000
0010
1000
0000
0001
0000
0010
0100
0000
0100
1000
0000
0001
0000
,
0100
0000
0020
0000
0032
0000
2003
0000
3200
0000
0310
1000
0010
0000
0100
0000
,
0001
0000
0000
1000
0100
0000
0010
0000
0001
0000
0000
1000
0010
0000
0100
0000
,
2000
0000
3002
0000
0000
0023
0000
0000
2030
0000
0000
0000
0000
0000
0000
3000
,
1001
0000
0000
0000
0110
0000
1000
0000
0001
0100
0000
0100
0001
0000
0010
0000
,
0110
0000
1100
0001
0010
0010
0010
0100
,
1100
0000
0101
0000
1010
0000
1001
1001
,
1000
0000
0001
0100
0000
1000
0100
0000
0001
1000
0001
1000
0001
0000
0000
0000
,
0100
0010
0110
0000
1010
0000
0011
0000
,
0110
0000
1100
0000
1001
0010
0000
0010
,
0110
0000
0001
1000
0001
0000
0010
0000
0100
0000
0100
0000
1000
0000
1000
0000
,
0001
0000
0100
0000
1000
0000
0100
0000
0001
0000
0001
0000
1000
0001
1000
0000
,
1001
1001
1001
1001
,
1100
1100
1100
1100
,
0101
0101
0101
0101
,
0011
0011
0011
0011
,
1010
1010
1010
1010
,
0110
0110
0110
0110
,
1000
0000
0001
0000
0010
0000
0000
0100
1000
0000
0010
0000
0001
0000
1000
0000
,
0100
0000
0002
0000
0000
0023
0000
0000
0200
0000
0000
0000
0330
0000
0000
0000
,
0000
1000
0100
0001
0100
1000
0001
0200
,
0300
0200
0300
0200
0300
0010
1000
0002
,
0003
0002
0003
0002
0003
0010
0100
2000
,
3000
2000
3000
0001
0200
0320
2030
3002
,
0003
1000
0100
0010
0001
0010
0100
0002
,
0003
0002
0003
0002
0003
0100
0010
2000
,
3000
2000
3000
2000
3000
0010
0100
2000
,
3000
2000
3000
0001
0100
0010
1000
0001
,
0010
0100
0010
1000
0001
0100
0010
0002
,
0003
0002
0003
0002
0003
1000
0010
0200
,
0300
0200
0300
0200
0300
0010
1000
0200
,
0300
0200
0300
0010
0001
1000
0001
0100
,
0010
1000
0100
0001
0100
0010
0001
2000
,
3000
2000
3000
2000
3000
0010
0100
0002
,
0003
0002
0003
0002
0003
0010
0100
0002
,
0003
0002
0003
0100
1000
0010
0100
0001
,
2001
0000
0000
0000
3001
0000
0010
0100
0020
0000
0000
0000
0031
0000
1000
0010
,
1000
0000
0001
0000
1000
0000
0100
0010
0200
0000
0000
0000
1300
0000
0001
0100
,
0001
0110
1001
0110
,
0000
0000
0002
0000
0000
0203
0000
0000
2300
0000
0000
0000
3100
0001
0100
0001
,
2000
0000
0000
3200
0000
0000
0302
0000
0103
0010
0000
0010
0001
0000
1000
0000
,
0002
0000
0000
0203
0000
0000
2300
0000
3100
0010
0000
0010
1000
0000
0001
0000
,
0010
0000
0100
0000
1000
0001
1000
0001
1000
0000
0000
0100
0000
0100
0000
0000
,
0010
0001
1000
0010
0200
0000
0302
0000
,
2003
0000
0000
3200
0000
0000
0302
0000
0103
0010
0000
0100
0010
0000
0010
0000
,
0002
0000
0000
0203
0000
0000
2300
0000
3100
0010
0000
0100
0010
0000
0010
0000
,
1000
0000
0001
0000
0010
0100
0010
0100
0010
0000
0000
0001
0000
0001
0000
0000
,
2000
0000
3002
0000
0000
0203
0000
0000
2300
0000
0000
0000
0000
0000
0000
0000
,
3100
0001
1000
0100
0001
0100
0010
0001
,
1001
1000
0010
0100
0001
1000
0100
0010
,
0011
0001
1000
0010
0100
0010
1000
0001
,
0100
0000
0100
0000
0100
1000
0100
0001
,
1001
0001
0010
1000
0010
0100
1000
0001
,
0101
0000
1000
0000
0001
0000
0010
0000
0100
1000
0000
1001
0000
0000
0100
0000
,
1001
0000
0001
0100
0001
0000
1000
0100
1000
0000
0001
0000
0100
0000
0010
0000
,
2000
0000
3200
0000
0000
0320
0000
0000
0032
0000
0000
0000
0000
0000
0000
0000
,
0003
0000
0000
0000
;
