#TITLE:O.D.;
#SUBTITLE:;
#ARTIST:Polyphia;
#TITLETRANSLIT:;
#SUBTITLETRANSLIT:;
#ARTISTTRANSLIT:;
#GENRE:;
#CREDIT:;
#BANNER:banner.png;
#BACKGROUND:;
#LYRICSPATH:;
#CDTITLE:;
#MUSIC:O.D..ogg;
#OFFSET:-0.070000;
#SAMPLESTART:84.785660;
#SAMPLELENGTH:14.117653;
#SELECTABLE:YES;
#BPMS:0.000000=136.000000
;
#STOPS:
;
#BGCHANGES:;
#KEYSOUNDS:;
#ATTACKS:;

//---------------dance-single - ----------------
#NOTES:
     dance-single:
     :
     Challenge:
     13:
     0.919362,1.322683,0.269032,0.814177,1.423039,909.000000,871.000000,38.000000,115.000000,52.000000,4.000000,0.919362,1.322683,0.269032,0.814177,1.423039,909.000000,871.000000,38.000000,115.000000,52.000000,4.000000:
0000
0000
0000
0000
,
0000
0000
0000
0000
,
0000
0000
0000
0000
,
0000
0000
0000
0000
,
1000
0000
0000
0000
0000
0000
0000
0000
0000
0000
0000
0000
1000
0000
0000
0000
0000
0000
0001
0000
0100
0000
0001
0000
0100
0000
0000
0000
0000
0000
0000
0000
0000
0000
0000
0000
0100
0000
0000
0000
0000
0000
01M0
1000
0000
0000
0000
0000
,
0001
0000
0000
0000
0000
0000
0000
0000
0000
0000
0000
0000
0001
0000
0000
0000
0000
0000
1000
0000
0100
0000
1000
0000
0100
0000
0000
0000
0000
0000
0100
0000
0000
0000
0000
0000
0010
0000
0000
0001
0000
0000
1000
0000
0000
0001
0000
0000
,
0100
0000
0000
0000
0000
0000
0000
0000
0000
0000
0000
0000
0100
0000
0000
0000
0000
0000
0010
0000
1000
0000
0010
0000
1000
0000
0000
0000
0000
0000
0000
0000
0000
0000
0000
0000
1000
0000
0000
0000
0000
0000
0010
0100
0000
0000
0000
0000
,
0001
0000
0000
0000
0000
0000
0000
0000
1000
0000
0000
0000
0000
0000
0000
0000
0100
0000
0000
0000
0000
0000
0000
0000
1000
0000
0000
0000
0000
0000
0000
0000
0001
0000
0000
0000
0000
0000
0000
0000
0100
0000
0000
0000
0000
0000
0000
0000
0010
0000
0000
0000
0000
0000
0000
0000
0000
0000
0000
0000
1000
0000
0000
0000
0000
0000
0000
0000
0000
0000
0000
0000
0001
0000
0000
0000
0000
0000
0000
0000
0000
0000
0000
0000
1000
0000
0000
0000
0000
0000
0000
0000
0000
0000
0000
0000
0100
0000
0000
0000
0000
0000
00M0
0000
0000
0000
0000
0000
0100
0000
0000
0000
0000
0000
0000
0000
0000
0000
0000
0000
0001
0000
0000
0000
0000
0000
0000
0000
0000
0000
0000
0000
0000
0000
0000
0000
0000
0000
0000
0000
0000
0000
0000
0000
1000
0000
0000
0000
0000
0000
0000
0000
0000
0000
0000
0000
1000
0000
0000
0000
0000
0000
0000
0000
0000
0000
0000
0000
0010
0000
0000
0000
0000
0000
0000
0000
0000
0000
0000
0000
0100
0000
0000
0000
0000
0000
0000
0000
0000
0000
0000
0000
,
0002
0000
0000
0000
0000
0000
0000
0000
0000
0000
0000
0000
0000
0000
0000
0000
0000
0000
0000
0000
0000
0000
0000
0000
0000
0000
0000
0000
0000
0000
0000
0000
0000
0000
0000
0000
0000
0000
0000
0000
0000
0000
0000
0000
0000
0000
0000
0000
0000
0003
0000
0000
0000
0000
0000
0000
0000
0000
0000
0000
0000
0000
0000
0000
0000
0000
0000
0000
0000
0000
0000
0000
1000
0000
0000
0000
0000
0000
0000
0000
0100
0000
0000
0000
0000
0000
0000
0000
1000
0000
0000
0000
0000
0000
0000
0000
0100
0000
0000
0000
0000
0000
0000
0000
0000
0000
0000
0000
0010
0000
0000
0000
0000
0000
0000
0000
0000
0000
0000
0000
0001
0000
0000
0000
0000
0000
0000
0000
0000
0000
0000
0000
1000
0000
0000
0000
0000
0000
0000
0000
0000
0000
0000
0000
0001
0000
0000
0000
0000
0000
0000
0000
0000
0000
0000
0000
0100
0000
0000
0000
0000
0000
00M0
0000
0000
0000
0000
0000
0100
0000
0000
0000
0000
0000
0000
0000
0000
0000
0000
0000
1000
0000
0000
0000
0000
0000
0000
0000
0000
0000
0000
0000
,
0000
0000
0000
1000
0000
0000
0000
0000
0000
0010
0000
0000
0100
0000
0000
0001
0000
0000
1000
0000
0000
0100
0000
0000
0010
0000
0001
0000
0010
0000
0001
0000
0000
1000
0000
0000
0010
0000
0000
0100
0000
0000
0001
0000
0000
1000
0000
0000
,
0001
0000
0100
00M0
0100
0000
1000
0000
0000
0000
0000
0000
0000
0000
0000
0000
0010
0000
0100
0000
0001
0000
0001
0000
1000
0000
0100
00M0
0100
0000
0001
0000
,
0000
0000
0001
0000
0000
0000
0010
0000
0100
0000
1000
0000
0001
0000
0010
0000
0101
0000
0000
0000
1000
0100
1000
0000
0000
0000
0001
0000
0001
0000
0001
0000
,
1000
0000
0100
00M0
0200
0000
0001
0000
0000
0000
0310
0000
0000
0000
1000
0000
0001
0000
0010
0M00
0010
0000
1000
0000
0001
0000
0010
0000
0100
0000
1000
0000
,
0001
0000
0100
00M0
0200
0000
0010
0000
0000
0000
1300
0000
0000
0000
0001
0000
0001
0000
0100
0000
0010
0000
1000
0000
0001
0000
0010
0000
0100
0000
1000
0000
,
0001
0000
0100
00M0
0100
0000
1000
0000
0002
0000
0000
0000
0000
0000
0000
0000
1003
0000
0010
0M00
0010
0000
0001
0000
1000
0000
0100
0000
0010
0000
0001
0000
,
1000
0000
0010
0000
1000
0000
0010
0000
0100
0000
0001
0000
1000
0000
0001
0000
0010
0000
0000
0000
0100
1000
0100
0000
0000
0000
0000
0000
4000
0000
0000
0000
,
3002
0000
0003
0000
0020
2030
3020
0230
,
2300
3020
0230
0302
,
2003
0000
0000
0000
0000
0000
0000
0000
0000
0000
0000
3000
2000
0000
0000
0000
0000
0000
0000
0000
0000
0000
0000
0000
3002
0000
0000
0000
0000
0000
0000
0000
0000
0000
0000
0003
0002
0000
0000
0000
0000
0000
0000
0000
0000
0000
0000
0000
,
0023
0000
0000
0000
0000
0000
0000
0000
0000
0000
0000
0030
0020
0000
0000
0000
0000
0000
0230
0000
0000
0000
0000
0000
0302
0000
0000
0000
0000
0000
0203
0000
0000
0000
0000
0000
2300
0000
0000
0000
0000
0000
3002
0000
0000
0000
0000
0000
,
0203
0000
0000
0000
0000
0000
0000
0000
0000
0000
0000
0300
0200
0000
0000
0000
0000
0000
0000
0000
0000
0000
0000
0000
0320
0000
0000
0000
0000
0000
0000
0000
0000
0000
0000
0000
1030
0000
0000
0000
0001
0000
0000
0000
0010
0000
0000
0000
,
0100
0000
0M01
0000
1000
0000
0010
0000
00M1
0000
1000
0000
0100
00M0
0100
0000
0001
0000
1000
0000
0000
1000
0000
0000
,
0020
0000
0000
0000
0230
0000
0000
0000
0301
1000
0010
0000
0002
0000
0023
0000
,
0230
0000
0000
0000
0000
0000
2300
0000
0000
0000
0000
0000
3200
0000
0000
0000
0000
0000
0302
0000
0000
0003
0000
0000
2001
0000
0000
0000
0000
0000
0000
0000
0000
0000
0000
0000
3100
0000
0000
0000
01M0
0000
0000
0000
0100
0000
0000
0000
,
1020
0000
0032
0203
0320
2030
0100
3001
,
0100
0010
0100
0020
1000
0000
0130
0000
0002
0000
0023
0000
0230
0000
0302
0000
,
0203
0000
0320
0030
0101
0101
2000
0000
,
3001
0000
0100
0000
0001
0000
0100
0000
0000
0010
0000
0000
1000
0000
0000
0001
0000
0000
0010
0000
0000
1000
0000
0000
0010
0000
0000
0100
0000
0000
1000
0000
0000
0001
0000
0000
1000
0000
0000
0010
0000
0000
0100
0000
0000
0001
0000
0000
,
0020
0000
0230
2300
3021
0230
0302
0023
,
2030
0000
0000
0000
0000
0000
3010
0000
0000
0100
0000
0000
0010
0000
0000
0000
0000
0000
0002
0000
0000
0000
0000
0000
1003
0000
0010
0000
1000
0000
0010
0000
0000
0000
0000
0000
0200
0000
0000
0000
0000
0000
0302
0000
0000
0000
0000
0000
,
1023
0000
0000
0000
0130
1000
0100
0010
0002
0000
0203
0000
2300
0000
0000
0000
,
3100
0000
0010
0000
1000
0000
0001
0000
1000
0000
0100
0000
0010
0000
0100
0000
0001
0000
0100
0000
0010
0000
0001
0000
1000
0000
0010
0000
0100
0001
0100
0000
,
0010
0000
1000
0000
0001
0000
1000
0000
0100
00M0
0100
0000
0001
0000
1000
0000
0100
0000
0001
0000
0100
0000
0010
0000
0001
0000
1000
0000
0010
0000
0100
0000
,
0001
0000
0100
00M0
0100
0000
1000
0000
0001
0000
0010
0M00
0010
0000
1000
0000
0001
0000
0100
00M0
0100
0000
1000
0000
0001
0000
0010
0M00
0010
0000
0100
0000
,
0001
1000
0100
0010
1000
0010
0001
0100
0010
0001
0010
0100
0001
1000
0100
0010
,
0001
0100
01M0
0100
0001
0010
0M10
0010
0001
1000
1000
0010
0100
0001
1000
0100
,
0010
0001
0100
0010
0001
0010
1000
0001
1000
0100
0010
0100
0001
0100
0010
0001
,
1000
0000
0010
0000
0001
0000
1000
0000
0100
0000
0001
0000
1000
0000
1000
0000
0100
00M0
0100
0000
0100
00M0
0100
0000
0001
0000
1000
0000
0010
0000
0100
0000
,
0001
0100
01M0
0100
0010
1000
0001
1000
0100
0001
0100
0010
0001
1000
0001
0100
,
0010
1000
0001
1000
0100
1000
0001
0100
0001
1000
0100
0010
0002
0000
0000
0000
0000
0000
0000
0000
0000
0000
0000
0000
,
1003
0000
0100
00M0
0100
0000
0001
0000
0000
0000
0000
0000
0000
0000
0000
0000
1100
0000
0010
0000
1100
0000
0001
0000
1000
0000
0100
00M0
0100
0000
0001
0000
,
0000
0000
0000
0001
0000
0000
0000
0000
0000
0010
0000
0000
0100
0000
0000
1000
0000
0000
0001
0000
0000
0100
0000
0000
0010
0000
1000
0000
0010
0000
1000
0000
0000
0001
0000
0000
0010
0000
0000
0100
0000
0000
1000
0000
0000
0001
0000
0000
,
1010
0000
0101
0000
1010
0000
0102
0000
0000
0000
0000
0000
0000
0000
0000
0000
1103
0000
0010
0000
1000
0000
0001
0000
1010
0000
0100
00M0
0100
0000
0001
0000
,
0000
0000
0001
0000
1000
0000
0100
0000
0010
0000
1000
0000
0010
0000
0001
0000
1000
0000
0010
0M00
0010
0000
0100
0000
1000
0000
0001
0000
0100
0000
0010
0000
,
1000
0000
0100
00M0
0100
0000
0001
0000
0100
00M0
0100
0000
0010
0000
0001
0000
0100
0000
0010
0000
0001
0000
0010
0000
1000
0000
0001
0000
0100
0000
0010
0000
,
1000
0000
0010
0M00
0010
0000
0001
0000
0000
0000
0001
0000
0000
0000
1000
0000
1000
0000
0010
0000
0100
0000
0001
0000
0100
0000
0010
0000
1000
0000
0001
0000
,
1000
0000
0100
00M0
0100
0000
0001
0000
0000
0000
0000
0000
1000
0000
1000
0000
0010
0000
0100
0000
0011
0000
0000
0000
1100
0000
0000
0000
0001
0000
1000
0000
,
0001
0000
0100
00M0
0100
0000
1000
0000
0001
0000
0100
00M0
0100
0000
0010
0000
0001
0000
1000
0000
0001
0000
1000
0000
0100
00M0
0100
0000
0100
00M0
0100
0000
,
0001
0000
0100
00M0
0100
0000
1000
0000
0010
0000
0000
0000
0100
0000
0001
0000
1000
0000
0100
0000
0010
0000
0001
0000
1000
0000
0010
0M00
0010
0000
0001
0000
,
0000
0000
0000
0001
0000
0000
1000
0000
0000
0010
0000
0000
0100
0000
0000
0010
0000
0000
1000
0000
0000
0001
0000
0000
0010
0000
0100
0000
0010
0000
0100
0000
0000
1000
0000
0000
0001
0000
0000
0100
0000
0000
0010
0000
0000
1000
0000
0000
,
0001
0000
0100
00M0
0100
0000
1000
0000
0001
0000
0000
0000
0000
0000
0000
0000
1010
0000
0100
0000
1000
0000
0001
0000
1100
0000
0010
0M00
0010
0000
0001
0000
,
0000
0001
1000
0010
0100
1000
0100
0001
1000
0100
1000
0001
0100
0010
0M10
0010
,
1000
0000
0000
0000
0000
0000
0000
0000
0000
0000
0000
0000
0100
0000
0000
0000
0000
0000
00M0
0000
0000
0000
0000
0000
0100
0000
0000
0000
0000
0000
0000
0000
0000
0000
0000
0000
0001
0000
0000
0000
0000
0000
0000
0000
0000
0000
0000
0000
1100
0000
0000
0000
0000
0000
0000
0000
0000
0000
0000
0000
0000
0000
0000
0000
0000
0000
0000
0000
0000
0000
0000
0000
0001
0000
0000
0000
0000
0000
0000
0000
0100
0000
0000
0000
0000
0000
0000
0000
0001
0000
0000
0000
0000
0000
0000
0000
0100
0000
0000
0000
0000
0000
0000
0000
0000
0000
0000
0000
0010
0000
0000
0000
0000
0000
0000
0000
0000
0000
0000
0000
0001
0000
0000
0000
0000
0000
0000
0000
0000
0000
0000
0000
0010
0000
0000
0000
0000
0000
0000
0000
0000
0000
0000
0000
1000
0000
0000
0000
0000
0000
0000
0000
0000
0000
0000
0000
0001
0000
0000
0000
0000
0000
0000
0000
0000
0000
0000
0000
0010
0000
0000
0000
0000
0000
0000
0000
0000
0000
0000
0000
0100
0000
0000
0000
0000
0000
0000
0000
0000
0000
0000
0000
,
0001
0000
0000
0100
0000
0000
0010
0000
0000
1000
0000
0000
0010
0000
0000
0100
0000
0000
1000
0000
0000
0001
0000
0000
1000
0000
0010
0000
1000
0000
0010
0000
0000
0100
0000
0000
0001
0000
0000
0010
0000
0000
0100
0000
0000
1000
0000
0000
,
0001
0000
0100
00M0
0100
0000
1000
0000
0001
0000
0000
0000
1000
0000
1000
0000
0010
0000
0100
0000
0011
0000
0000
0000
1100
0000
0000
0000
0001
0000
1000
0000
,
0100
0000
0000
0010
0000
0000
0100
0000
0000
0001
0000
0000
0100
0000
0000
0010
0000
0000
0001
0000
0000
1000
0000
0000
0010
0000
0100
0000
0001
0000
1000
0000
0100
0000
1000
0000
0001
0000
0100
0000
0010
0000
1000
0000
0001
0000
1000
0000
,
0200
0000
0000
0000
0000
0000
0000
0000
0000
0000
0000
0000
0320
0000
0000
0000
0000
0000
0000
0000
0000
0000
0000
0000
0000
0000
0000
0000
0000
0000
0030
0000
0000
0000
0000
0000
0001
1000
0000
0000
0000
0000
0000
0000
0000
0000
0000
0000
,
0200
0000
0000
0000
0000
0310
0001
0001
,
0200
0000
0000
0000
0000
0000
0000
0000
0000
0000
0000
0000
0320
0000
0000
0000
0000
0000
0000
0000
0000
0000
0000
0000
0000
0000
0000
0000
0000
0000
0030
0000
0000
0000
0000
0000
1000
0001
0000
0000
0000
0000
0000
0000
0000
0000
0000
0000
,
0200
0000
0302
0000
,
0013
0000
0000
0000
0000
0000
0100
0000
1000
0000
0100
0000
1000
0000
0000
0000
0000
0000
0001
0000
0000
0000
0000
0000
0100
0000
0000
0000
0000
0000
0010
0000
0000
0000
0000
0000
1000
0001
0000
0000
0000
0000
0000
0000
0000
0000
0000
0000
,
0010
0000
0000
0100
0000
0000
2010
0000
0000
0000
0000
0000
3001
0100
0001
0100
0000
0000
0040
0030
0000
0040
0030
0000
,
1100
0000
0000
0001
0100
0001
0100
0000
0000
0010
0000
0000
00M1
0000
0000
1000
0000
0000
1000
0000
0000
0002
0000
0000
,
0023
0230
0320
0130
0M01
0001
0001
0001
,
2000
0000
3010
0100
0011
1000
0200
0000
,
0320
0000
0031
1000
0011
0200
0320
2030
,
3200
0000
0000
0310
0001
0010
0001
0000
0000
0100
0000
0000
1M00
0000
0000
0001
0000
0000
0001
0000
0000
2000
0000
0000
,
3200
0320
0230
0310
20M0
0000
3020
0000
,
0230
0000
0000
0301
1000
0001
1000
0000
0000
0100
0000
0000
1010
0000
0000
0001
0000
0000
0200
0000
0000
0000
0000
0000
,
0320
0000
1000
M000
1130
0002
0023
0230
,
2300
3020
0230
0302
0023
0230
0320
2030
,
3020
0032
0203
0320
2030
3200
0320
0032
,
1003
0000
1000
0010
0100
0001
1000
0100
1010
0000
0000
0001
1100
0000
0001
0000
,
0100
00M0
0100
0000
1000
0000
0000
0000
0011
0000
0000
0000
0100
0000
0001
0000
1100
0000
0000
0000
0020
0000
0000
0000
0230
0000
0000
0000
0301
0000
1000
0000
,
0100
0000
0100
0010
0100
0000
1000
0001
1100
0000
0010
0000
0010
0000
0010
0000
,
0100
0000
0010
0000
1000
0000
0001
0000
0001
0000
0010
0000
0100
0000
1000
0000
1000
0000
0000
0000
0100
00M0
0100
0000
0001
0000
1000
0000
0100
00M0
0100
0000
,
0011
0000
1000
0010
0100
0001
1100
0001
1000
0001
0010
0100
1000
0000
0001
0000
,
0100
0000
0000
0100
00M0
0000
0100
0000
0000
0010
0000
0000
1000
0000
0000
0001
0000
0000
0010
0000
0000
0100
0000
0000
1010
0000
0000
0000
0000
0000
0001
0000
0000
1000
0000
0000
0010
0000
0000
0100
0000
0000
0011
0000
0000
1100
0000
0000
,
0001
1000
0100
1000
0001
0100
0010
1000
0010
0100
0001
1000
0001
0010
0100
1000
0001
0100
0001
1000
0010
1000
0001
0010
,
0001
1000
0100
0010
0001
1000
0010
0100
0001
0010
0100
1000
0001
0000
0000
0000
0000
0000
0000
0000
0000
0000
0000
0000
;

//---------------dance-single - ----------------
#NOTES:
     dance-single:
     :
     Hard:
     11:
     0.750458,0.956835,0.028319,0.339830,0.948693,742.000000,738.000000,4.000000,48.000000,0.000000,0.000000,0.750458,0.956835,0.028319,0.339830,0.948693,742.000000,738.000000,4.000000,48.000000,0.000000,0.000000:
0000
0000
0000
0000
,
0000
0000
0000
0000
,
0000
0000
0000
0000
,
0000
0000
0000
0000
,
1000
0000
0000
0000
0000
0000
0001
0000
0000
1000
0000
0100
1000
0000
0000
0000
0000
0000
1000
0000
0000
0110
0000
0000
,
0001
0000
0000
0000
0000
0000
0000
0000
0000
0000
0000
0000
1000
0000
0000
0000
0000
0000
0001
0000
0000
0000
0100
0000
0001
0000
0000
0000
0000
0000
1000
0000
0000
0000
0000
0000
0100
0000
0000
0010
0000
0000
0001
0000
0000
0000
0000
0000
,
1000
0000
0000
0000
0000
0000
0001
0000
0000
0100
0000
0010
0100
0000
0000
0000
0000
0000
0001
0000
0000
1001
0000
0000
,
1000
0100
0010
0001
1000
0010
0000
0100
0001
1000
0100
1000
0001
0100
0010
0100
,
0020
0000
0000
0000
0000
0000
1030
0000
0001
0100
0001
0100
0010
1000
0001
0010
,
0000
0100
0000
1000
0100
0000
0010
0001
1000
0010
1000
0010
0100
0001
1000
0100
,
0010
0001
0010
0001
0000
0000
0000
0000
1000
0010
1000
0010
0100
0001
1000
0100
,
0000
0010
0000
0001
1000
0000
0010
0100
0001
0000
0001
1000
0000
1000
0100
0010
,
0001
1000
0001
1000
0000
0100
0000
0000
1000
0010
0100
0000
0001
1000
0000
1000
,
0100
0010
0000
0001
0000
1000
0000
0010
0100
0001
0100
0001
1000
0100
1000
0100
,
0010
0001
0010
0001
0000
0000
0000
0000
1000
0010
1000
0010
0100
0001
1000
0100
,
0010
0001
1000
0001
0100
0010
1000
0001
1000
0100
0010
0001
0010
0100
1000
0001
,
0200
0000
0000
0000
0310
1000
0001
0010
,
0200
2300
3020
0230
,
0302
2003
3002
2003
,
3200
0000
0310
0001
1000
0001
0100
0010
,
2000
0000
0000
3002
0000
0000
0023
0000
0000
0130
1000
0100
,
1000
0000
0001
0000
0100
0000
0001
0000
1000
0000
0100
0000
0010
0000
0001
0000
1000
0000
0001
0000
0000
1000
0000
0000
,
0020
0000
0000
0000
0230
0000
0000
0000
0301
1000
0001
0000
0010
0000
0100
0000
,
1000
0001
0100
0010
2000
0000
0000
0000
,
3001
0000
0000
0001
0010
0000
0100
0000
1000
0000
0010
0000
0100
0000
0001
0000
,
1000
0100
1000
0010
0100
0001
0010
0100
,
2000
3002
0103
0010
,
1000
0100
1000
0100
0010
0001
0010
0001
1000
0010
1000
0010
0100
0001
0100
0001
,
2000
0000
3100
0010
0001
0001
1000
0010
,
0100
0010
0001
0010
1000
0001
0010
0100
,
2000
0000
0000
0000
3010
0100
0010
0100
0001
0000
0010
0000
0200
0000
0000
0000
,
1300
0001
1000
0001
0100
0010
1000
0001
1000
0100
0010
0001
1000
0100
0010
0001
,
1000
0010
1000
0010
0200
0000
0000
0000
0301
0010
0001
0010
0100
1000
0001
1000
,
0010
0000
0100
0000
0001
0000
0100
0000
0010
1000
0001
1000
0100
1000
0001
1000
,
0010
0100
0010
0100
0002
0000
0000
0000
0013
0100
0010
0100
1000
0001
1000
0010
,
0100
0000
0001
0000
0100
0000
0010
0000
1000
0001
1000
0001
0010
0100
0010
0100
,
1000
0000
0001
0000
0100
0010
0100
0010
1000
0000
0001
0000
0010
0100
0010
0100
,
1000
0000
0001
0000
0100
0000
0010
0000
1000
0001
1000
0001
0010
0100
0010
0100
,
1000
0000
0001
0000
0100
0010
0100
0000
0001
0010
0001
0000
1000
0100
1000
0000
,
0001
0100
0001
0100
0010
1000
0001
0010
0200
0000
0000
0000
0000
0000
0000
0000
,
1300
0001
1000
0001
0000
0000
0000
0000
0100
0010
0100
0000
0001
0000
1000
0100
,
0000
0001
0000
0100
1000
0000
0001
0100
0001
0000
1000
0000
0100
0000
0010
0000
,
0100
1000
0100
1000
0000
0000
0000
0000
0001
0100
0001
0100
0010
1000
0001
0010
,
0000
0100
1000
0001
0100
1000
0100
0010
2000
0000
0000
0001
0000
0000
3001
0000
,
0010
0100
0010
0100
0000
1000
0000
0000
0001
0100
1000
0000
0100
0010
0000
0010
,
1000
0001
0000
0010
0000
0001
0000
0100
0010
1000
0010
1000
0001
0010
0001
0010
,
0100
1000
0100
1000
0000
0000
0000
0000
0001
0100
1000
0100
0010
1000
0001
0010
,
0100
1000
0001
1000
0010
0100
0001
1000
0001
0010
0100
1000
0100
0010
0001
1000
,
0010
0100
0010
0100
0000
0000
0000
0000
0001
0010
0100
1000
0100
0010
0001
1000
,
0000
0010
0000
0100
1000
0100
0010
1000
0001
0010
0001
0010
0100
1000
0001
0100
,
0010
1000
0010
1000
0000
0000
0000
0000
0001
0010
0100
0010
0001
1000
0010
0100
,
0000
0001
0000
0010
0100
1000
0100
1000
0001
0100
0010
1000
0000
0001
0010
0001
,
1000
0010
1000
0010
0000
0000
0000
0000
0100
0010
0001
0010
1000
0001
0010
0100
,
1000
0001
1000
0010
0000
0100
0000
0010
1000
0001
1000
0001
0010
0100
1000
0001
,
0100
0010
0100
0010
0000
0000
0000
0000
1000
0100
0001
0000
0100
0000
1000
0001
,
0100
0000
0000
0010
0000
0000
1000
0000
0000
0001
0000
0000
1000
0000
0000
0100
0000
0000
0010
0000
0000
0001
0000
0000
0010
0000
0000
0100
0000
0000
1000
0000
0000
0001
0000
0000
0100
0000
0001
0000
1000
0000
0100
0000
1000
0000
0001
0000
,
0200
0302
0000
0023
,
0230
0000
0000
0000
0000
1300
0010
0100
,
0002
0023
0000
0230
,
2300
0000
3002
0000
,
0203
0320
0000
2030
,
3002
0000
0000
0000
0000
0013
0100
1000
,
0001
0100
1000
0100
0001
0000
1000
0010
,
1000
0100
0001
0100
1000
0001
1000
0001
,
0200
0000
0310
1000
0001
1000
0200
0000
,
0320
0000
0031
0000
1001
1000
0010
0100
,
0001
0010
0001
0100
0020
0000
1030
0001
,
0010
0001
0100
0010
2000
0000
3200
0000
,
0320
0000
0031
1000
0010
0100
0002
0000
,
0023
0000
0130
0000
0110
1000
0001
0100
,
0010
1000
0010
1000
0001
0010
0001
0010
,
0100
1000
0100
1000
0001
0100
0001
0100
,
0010
0000
1000
0001
1000
0001
1000
0001
0010
0000
0000
0010
0100
0000
1000
0000
,
0001
0100
0001
0000
1000
0000
0001
0010
0001
0000
1000
0000
0010
0000
0100
0000
,
0001
0000
0001
1000
0000
1000
0100
0010
0001
0000
1000
0000
0010
0100
0010
0000
,
1000
0000
0001
0100
0001
0000
1000
0100
1000
0000
0001
0100
0001
0100
0010
1000
,
0001
0000
0010
0100
0010
0100
1000
0000
0001
0100
0001
0100
0010
0000
1000
0000
,
0001
0010
0001
0010
0100
1000
0100
1000
0001
0000
0100
0010
1000
0001
0010
0100
,
1000
0100
0010
0001
0100
0010
1000
0100
0010
0001
0100
0010
1000
0100
0010
0001
,
0100
0000
0000
0010
0000
0000
1000
0000
0000
0100
0000
0000
0010
0000
0001
0000
1000
0000
0001
0000
0100
0000
0010
0000
1000
0000
0000
0000
0000
0000
0000
0000
0000
0000
0000
0000
0000
0000
0000
0000
0000
0000
0000
0000
0000
0000
0000
0000
;

//---------------dance-single - ----------------
#NOTES:
     dance-single:
     :
     Medium:
     9:
     0.574475,0.731697,0.000000,0.261952,0.339830,568.000000,568.000000,0.000000,37.000000,0.000000,0.000000,0.574475,0.731697,0.000000,0.261952,0.339830,568.000000,568.000000,0.000000,37.000000,0.000000,0.000000:
// measure 0
0000
0000
0000
0000
,  // measure 1
0000
0000
0000
0000
,  // measure 2
0000
0000
0000
0000
,  // measure 3
0000
0000
0000
0000
,  // measure 4
1000
0000
1000
0000
0001
0000
0001
1000
,  // measure 5
0010
0000
0010
0000
0100
0000
0100
0001
,  // measure 6
0010
0000
0010
0000
0100
0000
0100
1000
,  // measure 7
0001
0000
0100
0000
1000
0000
0100
0000
0010
0000
0100
0000
0001
1000
0001
1000
,  // measure 8
0001
0000
0000
0000
0000
0000
0000
0000
1000
0000
0001
0000
0100
0000
0010
1000
,  // measure 9
0000
1000
0000
1000
0001
0000
0010
0000
0100
0000
1000
0000
0001
0000
0100
0010
,  // measure 10
0100
0000
0001
0100
0000
0000
0000
0000
0010
0000
1000
0000
0001
0000
0010
0100
,  // measure 11
0000
0100
0000
0100
1000
0000
0001
0000
0100
0000
0010
0000
1000
0000
0001
0000
,  // measure 12
0010
0000
0100
1000
0000
1000
0000
1000
0001
0000
0100
0000
0010
0000
1000
0000
,  // measure 13
0001
0010
0000
0100
0000
1000
0000
0001
0100
0000
0010
0000
1000
0000
0001
0000
,  // measure 14
0010
0000
0100
0010
0000
0000
0000
0000
0001
0000
1000
0000
0010
0000
0100
0000
,  // measure 15
0001
0000
0010
0000
0100
0000
1000
0000
0001
0000
0100
0000
0010
1000
0010
1000
,  // measure 16
0002
0000
0000
0000
0013
0100
1000
0100
,  // measure 17
0020
0032
0203
0320
,  // measure 18
1030
1000
0001
0001
,  // measure 19
0020
0000
0130
1000
0001
0100
0010
1000
,  // measure 20
0100
0000
0000
0100
0000
0000
0020
0000
0000
0031
0000
0001
,  // measure 21
0100
0000
0000
0000
0100
0000
0010
0000
0000
0000
0010
0000
1000
0000
0000
0000
1000
0000
0001
0000
0000
0010
0000
0000
,  // measure 22
0200
0000
0000
0000
1300
0000
0000
0000
0001
0100
0001
0000
0010
0000
0100
0000
,  // measure 23
1000
0010
0100
0001
2000
0000
0000
0000
,  // measure 24
3001
0000
0000
0001
0100
0000
0010
0000
1000
0000
0001
0000
0010
0000
0100
0000
,  // measure 25
1000
0010
1000
0100
0010
0001
0100
0010
,  // measure 26
2000
3100
0002
0103
,  // measure 27
1000
0001
1000
0000
0010
0000
0100
0000
0001
1000
0001
0000
0010
0000
0100
0000
,  // measure 28
2000
0000
3010
0100
0001
0010
0100
0010
,  // measure 29
0001
1000
1000
0010
0100
0001
0010
0100
,  // measure 30
2000
0000
0000
0000
3010
0100
0010
0100
0010
0000
1000
0000
0001
0000
0000
0000
,  // measure 31
0010
0000
0100
1000
0100
0000
0010
0001
0010
0000
0100
0000
1000
0000
0010
0000
,  // measure 32
0100
0000
0001
1000
0001
0000
0010
0000
0100
0000
1000
0001
1000
0000
0010
0000
,  // measure 33
0100
0001
0010
1000
0010
0001
1000
0010
,  // measure 34
0100
0000
0001
1000
0001
0000
0010
0000
0100
0000
1000
0001
1000
0000
0010
0000
,  // measure 35
0100
0001
0010
0100
0001
1000
0010
0001
,  // measure 36
1000
0000
0010
0100
0010
0000
1000
0000
0001
0000
0010
0100
0010
0000
0001
0000
,  // measure 37
0100
1000
0100
0001
0010
1000
0001
0100
,  // measure 38
1000
0001
1000
0000
0010
0000
0100
0000
0001
1000
0001
0000
0010
0000
0100
0000
,  // measure 39
1000
0000
0001
0100
0010
0000
1000
0100
0020
0000
0000
0000
0000
0000
0000
0000
,  // measure 40
0031
0000
1000
0001
0000
0000
0000
0000
0100
0000
0010
0000
1000
0000
0001
0010
,  // measure 41
0000
0010
0000
0010
0100
0000
1000
0000
0001
0000
0100
0000
0010
0000
1000
0000
,  // measure 42
0100
0000
0010
0001
0000
0000
0000
0000
1000
0000
0010
0000
0100
0000
0001
1000
,  // measure 43
0000
1000
0000
1000
0100
0000
0010
0000
0001
0000
1000
0000
0010
0000
0100
0000
,  // measure 44
0001
0000
0010
0100
0000
0100
0000
0100
1000
0000
0001
0000
0100
0000
0010
0000
,  // measure 45
1000
0001
0000
0010
0000
0100
0000
1000
0001
0000
0100
0000
0010
0000
1000
0000
,  // measure 46
0001
0000
0010
0100
0000
0000
0000
0000
1000
0000
0010
0000
0100
0000
0001
0000
,  // measure 47
0010
0000
0100
0000
0010
0000
0001
0000
0100
0000
1000
0000
0100
0000
0010
1000
,  // measure 48
0001
0000
1000
0001
0000
0000
0000
0000
0010
0000
0100
0000
1000
0000
0001
0100
,  // measure 49
0000
0100
0000
0100
0010
0000
1000
0000
0001
0000
0010
0000
0100
0000
1000
0000
,  // measure 50
0010
0000
0100
0010
0000
0000
0000
0000
1000
0000
0001
0000
0010
0000
0100
1000
,  // measure 51
0000
1000
0000
1000
0010
0000
0100
0000
0001
0000
0010
0000
0100
0000
0001
0000
,  // measure 52
0100
0000
1000
0001
0000
0000
0100
0010
0100
0000
0001
0000
1000
0000
0100
0000
,  // measure 53
0010
0001
0000
1000
0000
0010
0000
0100
0001
0000
0010
0000
0100
0000
1000
0000
,  // measure 54
0001
0000
0100
0010
0000
0000
0000
0000
1000
0000
0100
0000
0010
0000
0100
0000
,  // measure 55
1000
0001
1000
0000
0010
0000
0100
0000
0001
1000
0001
1000
0100
0010
0100
0010
,  // measure 56
0002
0203
0000
0320
,  // measure 57
2030
0000
0000
0000
0000
3100
0010
0001
,  // measure 58
2000
3020
0000
0230
,  // measure 59
0302
0000
0023
0000
,  // measure 60
0230
2300
0000
3020
,  // measure 61
0230
0000
0000
0000
0000
0301
0010
0100
,  // measure 62
1000
0001
1000
0001
0200
0000
0310
1000
,  // measure 63
0001
0010
0001
0010
0100
1000
0100
1000
,  // measure 64
0002
0000
0203
0000
0310
1000
0002
0000
,  // measure 65
0023
0000
0130
0000
0100
1000
0001
1000
,  // measure 66
0010
0100
0010
0100
0001
0000
1000
0100
,  // measure 67
0010
0001
0010
0001
2000
0000
3020
0000
,  // measure 68
0230
0302
0013
0010
,  // measure 69
0200
0000
1300
0000
1000
0001
0100
0010
,  // measure 70
1000
0001
1000
0001
0010
0100
0010
0100
,  // measure 71
1000
0010
0100
0001
0010
0100
1000
0100
,  // measure 72
0010
0001
0010
0001
1000
0010
1000
0010
,  // measure 73
0100
0000
0001
0000
0100
0000
0001
0000
1000
0000
0100
0000
1000
0000
0001
0100
,  // measure 74
0010
1000
0010
1000
0001
0010
0001
0010
,  // measure 75
0100
0000
1000
0000
0100
0000
1000
0000
0001
0000
0100
0010
1000
0010
1000
0000
,  // measure 76
0001
0000
0010
0100
1000
0000
0001
0000
0100
0010
1000
0000
0001
0010
0001
0010
,  // measure 77
0100
0000
1000
0000
0010
0000
0100
0001
0100
0000
0010
1000
0010
0000
0100
0000
,  // measure 78
0001
0000
1000
0100
1000
0000
0001
0100
0001
0000
1000
0010
1000
0000
0001
0010
,  // measure 79
0001
1000
0001
0100
0010
1000
0001
1000
0100
0000
0000
0000
0000
0000
0000
0000
;
