#VERSION:0.83;
#TITLE:Noxious Fowls;
#SUBTITLE:;
#ARTIST:Doin;
#TITLETRANSLIT:;
#SUBTITLETRANSLIT:;
#ARTISTTRANSLIT:;
#GENRE:;
#ORIGIN:;
#CREDIT:;
#BANNER:;
#BACKGROUND:;
#PREVIEWVID:;
#JACKET:;
#CDIMAGE:;
#DISCIMAGE:;
#LYRICSPATH:;
#CDTITLE:;
#MUSIC:Noxious Fowls.ogg;
#OFFSET:-0.248000;
#SAMPLESTART:83.400238;
#SAMPLELENGTH:19.716400;
#SELECTABLE:YES;
#BPMS:0.000=139.985;
#STOPS:;
#DELAYS:;
#WARPS:;
#TIMESIGNATURES:0.000=4=4;
#TICKCOUNTS:0.000=4;
#COMBOS:0.000=1;
#SPEEDS:0.000=0.750=0.000=0,
94.000=1.000=2.000=0,
163.000=1.500=0.000=0,
163.063=1.000=0.000=0,
163.125=1.500=0.000=0,
163.188=1.000=0.000=0,
163.250=1.500=0.000=0,
163.313=1.000=0.000=0,
163.375=1.500=0.000=0,
163.438=1.000=0.000=0,
163.500=1.500=0.000=0,
163.563=1.000=0.000=0,
163.625=1.500=0.000=0,
163.688=1.000=0.000=0,
163.750=1.500=0.000=0,
163.813=1.000=0.000=0,
163.875=1.500=0.000=0,
163.938=1.000=0.000=0;
#SCROLLS:0.000=1.000,
160.000=0.000,
160.063=2.000,
160.125=0.000,
160.188=2.000,
160.250=0.000,
160.313=2.000,
160.375=0.000,
160.438=2.000,
160.500=0.000,
160.563=2.000,
160.625=0.000,
160.688=2.000,
160.750=0.000,
160.813=2.000,
160.875=0.000,
160.938=2.000,
161.000=0.000,
161.063=2.000,
161.125=0.000,
161.188=2.000,
161.250=0.000,
161.313=2.000,
161.375=0.000,
161.438=2.000,
161.500=0.000,
161.563=2.000,
161.625=0.000,
161.688=2.000,
161.750=0.000,
161.813=2.000,
161.875=0.000,
161.938=2.000,
162.000=0.000,
162.063=2.000,
162.125=0.000,
162.188=2.000,
162.250=0.000,
162.313=2.000,
162.375=0.000,
162.438=2.000,
162.500=0.000,
162.563=2.000,
162.625=0.000,
162.688=2.000,
162.750=0.000,
162.813=2.000,
162.875=0.000,
162.938=2.000,
163.000=0.000,
163.063=2.000,
163.125=0.000,
163.188=2.000,
163.250=0.000,
163.313=2.000,
163.375=0.000,
163.438=2.000,
163.500=0.000,
163.563=2.000,
163.625=0.000,
163.688=2.000,
163.750=0.000,
163.813=2.000,
163.875=0.000,
163.938=2.000,
164.000=1.000,
321.000=0.000,
321.125=2.000,
321.250=1.000;
#FAKES:;
#LABELS:0.000=Song Start;
#BGCHANGES:;
#KEYSOUNDS:;
#ATTACKS:
;

//---------------dance-single - ----------------
#NOTEDATA:;
#CHARTNAME:;
#STEPSTYPE:dance-single;
#DESCRIPTION:;
#CHARTSTYLE:;
#DIFFICULTY:Challenge;
#METER:11;
#RADARVALUES:0.620040,0.778125,0.187500,0.541667,0.541667,625.000000,598.000000,27.000000,78.000000,37.000000,0.000000,5.000000,0.000000,0.000000,0.620040,0.778125,0.187500,0.541667,0.541667,625.000000,598.000000,27.000000,78.000000,37.000000,0.000000,5.000000,0.000000,0.000000;
#CREDIT:;
#NOTES:
// measure 0
0000
0000
0000
0000
,  // measure 1
0000
0000
0000
0000
,  // measure 2
0000
0000
0000
0000
,  // measure 3
0000
0000
0000
0000
,  // measure 4
0000
0000
0000
0000
,  // measure 5
0000
0000
0000
0000
,  // measure 6
0000
0000
0000
0000
,  // measure 7
0000
0000
0000
0000
,  // measure 8
1000
0001
1000
0000
0100
0000
0010
0000
2000
0000
0000
0000
3010
0100
0010
0000
,  // measure 9
0001
1000
0001
0000
0100
0000
0010
0000
0002
0000
0000
0000
0013
0000
0100
0000
,  // measure 10
0001
1000
0001
0000
0010
0000
0100
0000
0002
0000
0000
0000
0103
0010
0100
0000
,  // measure 11
1000
0001
1000
0000
0010
0000
0100
0000
2000
0000
0000
0000
3100
0000
0010
0000
,  // measure 12
1000
0001
1000
0000
0100
0000
0001
0000
2000
0000
0000
0000
3001
0100
1000
0000
,  // measure 13
0001
1000
0001
0000
0100
0000
1000
0000
0002
0000
0000
0000
1003
0000
0100
0000
,  // measure 14
0001
1000
0001
0000
0010
0000
1000
0000
0002
0000
0000
0000
1003
0010
0001
0000
,  // measure 15
1000
0001
1000
0000
0010
0100
0001
0000
1000
0100
0000
0100
0010
0001
1000
0001
,  // measure 16
1000
0000
1000
0000
0011
0000
0100
0001
0000
0100
0001
0000
1010
0000
0100
1000
,  // measure 17
0001
0000
0001
0000
1010
0000
0100
1000
0000
0100
1000
0000
0011
0000
0100
0001
,  // measure 18
1000
0000
1000
0000
0101
0000
0010
0001
0000
0010
0001
0000
1100
0000
0010
1000
,  // measure 19
0001
0000
0001
0000
1100
0000
0010
1000
0000
0010
1000
0000
0101
0000
0010
0001
,  // measure 20
1000
0010
0100
0000
0011
0000
1000
0010
0000
1000
0100
0000
1010
0000
0001
1000
,  // measure 21
0100
0000
0100
0000
1010
0000
0001
0010
0000
0001
0100
0000
0011
0000
1000
0001
,  // measure 22
0010
0000
0010
0000
0101
0000
1000
0100
0000
1000
0010
0000
1100
0000
0001
1000
,  // measure 23
0010
0100
1000
0010
0002
0000
0000
0000
,  // measure 24
2003
0000
0000
0000
0000
0000
0000
0000
3001
01M0
0100
0000
1000
0M10
0010
0000
,  // measure 25
0001
1000
0200
0000
0000
0320
0000
0000
,  // measure 26
0032
0000
0000
0000
0000
0000
0100
0000
1003
0000
M00M
0000
1000
0001
1000
0100
,  // measure 27
0010
0100
0002
0000
0000
0203
0000
0000
,  // measure 28
2300
0000
3002
0000
,  // measure 29
1003
01M0
0100
0000
0001
0M10
0010
0000
1000
0000
0001
0000
0200
0000
0000
0000
,  // measure 30
0000
0320
0000
0000
2030
0000
0000
0100
,  // measure 31
3001
0000
M00M
0000
1001
0000
1000
0010
1000
0100
01M0
0001
1000
0000
0100
0010
,  // measure 32
0001
0200
0000
0000
0320
0000
0000
0000
,  // measure 33
2030
0000
0000
0000
0000
0000
0000
0000
3100
00M1
0001
0000
0100
10M0
1000
0000
,  // measure 34
0010
0100
0002
0000
0000
0023
0000
0000
,  // measure 35
0230
0000
0000
0000
0000
0000
0001
0000
0310
0000
0MM0
0000
0001
1000
0001
0100
,  // measure 36
0010
0000
0100
0000
1000
0000
0000
0000
0100
0000
0001
0000
1000
0001
1000
0001
,  // measure 37
0020
0000
0032
0000
,  // measure 38
0103
10M0
1000
0000
0100
00M1
0001
0000
0010
0000
0100
0000
2000
0000
0000
0000
,  // measure 39
0010
0002
0000
3000
0200
0000
0003
0310
,  // measure 40
1000
0100
0010
0001
1000
0010
0100
0001
1000
0100
0001
0100
4000
0000
0000
3000
,  // measure 41
0001
0100
0010
0100
1000
0100
0010
0100
,  // measure 42
0001
0010
0100
0010
1000
0010
0100
0010
,  // measure 43
0001
0100
1000
0100
0001
0001
0010
0100
,  // measure 44
1000
0001
0100
0010
0001
0010
0100
0001
,  // measure 45
1000
0100
0010
0100
0001
0100
0010
0100
,  // measure 46
1000
0010
0100
0010
0001
0010
0100
0010
,  // measure 47
1000
0100
0010
0001
1000
0100
0001
1000
,  // measure 48
0010
0001
0100
0010
2000
0000
0000
0000
,  // measure 49
3001
0010
0100
0000
0010
0000
0001
1000
0001
01M0
0100
0000
1000
0M10
0010
0000
,  // measure 50
0001
0000
0100
0000
1000
0000
0100
0001
1000
0000
0200
0000
0310
0001
0010
0001
,  // measure 51
0200
0000
0001
1000
0000
0000
1000
0001
0300
0000
MM0M
0000
0010
1000
0001
1000
,  // measure 52
0100
0000
0010
0001
1000
0000
0010
1000
0001
0000
0020
0000
0130
1000
0100
1000
,  // measure 53
0002
0000
0000
0000
0000
0000
0000
0000
1003
0010
0100
0000
0010
0000
1000
0001
,  // measure 54
1000
01M0
0100
0000
0001
0M10
0010
0000
1000
0000
0100
0000
0001
0000
0100
1000
,  // measure 55
0001
0000
0200
0000
0310
1000
0010
1000
0200
0000
1000
0001
0000
0000
0001
1000
,  // measure 56
0300
0000
MM0M
0000
0110
0000
0001
0010
0001
0100
01M0
1000
0001
0000
1000
0010
,  // measure 57
0100
0000
0002
0000
0013
0100
0010
0100
2000
0000
0000
0000
0000
0000
0000
0000
,  // measure 58
3010
0100
0001
0000
1000
0000
0001
0010
0100
00M1
0001
0000
0100
10M0
1000
0000
,  // measure 59
0100
0000
0001
0000
1000
0000
0010
0100
1000
0000
0002
0000
0103
0010
0100
0010
,  // measure 60
2000
0000
0100
0010
0000
0000
0010
0100
3000
0000
MMM0
0000
0001
0100
0010
0100
,  // measure 61
1000
0000
0100
0001
1000
0000
0010
1000
0001
0000
0020
0000
0130
1000
0100
1000
,  // measure 62
0002
0000
0000
0000
0000
0000
0000
0000
0013
0100
1000
0000
0001
0000
1000
0010
,  // measure 63
0100
10M0
1000
0000
0100
00M1
0001
0000
0100
0000
1000
0000
0001
0000
0010
0100
,  // measure 64
0001
0000
2000
0000
3100
0010
0100
0010
0002
0000
0000
0000
0000
0000
2003
0000
,  // measure 65
0000
3200
0000
0302
0000
0203
0000
2300
,  // measure 66
0000
3020
0000
0032
0000
0023
0000
2030
,  // measure 67
0000
3200
0000
0302
0000
0203
0000
2300
,  // measure 68
0000
3020
0000
0032
0000
0023
0000
2030
,  // measure 69
3100
0010
0200
0000
0000
0000
0302
0000
0000
0000
0203
0000
1300
0001
1000
0000
,  // measure 70
0010
0100
0020
0000
0000
0000
2030
0000
0000
0000
3020
0000
0000
0000
0032
0000
,  // measure 71
0013
0100
0020
0000
0000
0000
2030
0000
0000
0000
3200
0000
0310
0100
0010
0000
,  // measure 72
0001
1000
0002
0000
0000
0000
0203
0000
0000
0000
2300
0000
0000
0000
3200
0000
,  // measure 73
0301
0000
0000
0000
1001
0000
0000
1000
0400
03M0
0000
0100
0001
0000
1000
0100
,  // measure 74
0010
0000
0010
0000
0101
0000
1000
0010
0000
1000
0010
0000
1100
0001
1000
0001
,  // measure 75
1000
0000
0000
0000
1001
0000
0000
0001
0400
03M0
0000
0100
1000
0000
0001
0100
,  // measure 76
0010
0000
0010
0000
1100
0000
0001
0010
0000
0001
0010
0000
0101
1000
0001
1000
,  // measure 77
0001
0000
0000
0000
0110
0000
0000
0000
1001
0000
0000
1000
0040
0M30
0000
0010
,  // measure 78
0001
0000
1000
0010
0100
0000
0001
1000
0000
0001
1000
0000
0101
1000
0001
1000
,  // measure 79
0001
0000
0000
0000
0110
0000
0000
0000
1001
0000
0000
0001
0040
0M30
0000
0010
,  // measure 80
1000
0001
1000
0100
0020
0031
1000
0001
0100
0010
0100
0010
1000
0001
1000
0001
,  // measure 81
2000
0000
0000
0000
,  // measure 82
0000
0000
0000
0000
,  // measure 83
3000
0000
0000
0000
;

//---------------dance-single - ----------------
#NOTEDATA:;
#CHARTNAME:;
#STEPSTYPE:dance-single;
#DESCRIPTION:;
#CHARTSTYLE:;
#DIFFICULTY:Hard;
#METER:10;
#RADARVALUES:0.575397,0.683333,0.034722,0.520833,0.458333,580.000000,575.000000,5.000000,75.000000,6.000000,0.000000,5.000000,0.000000,0.000000,0.575397,0.683333,0.034722,0.520833,0.458333,580.000000,575.000000,5.000000,75.000000,6.000000,0.000000,5.000000,0.000000,0.000000;
#CREDIT:;
#NOTES:
0000
0000
0000
0000
,
0000
0000
0000
0000
,
0000
0000
0000
0000
,
0000
0000
0000
0000
,
0000
0000
0000
0000
,
0000
0000
0000
0000
,
0000
0000
0000
0000
,
0000
0000
0000
0000
,
1000
0100
0010
0100
0002
0000
0103
1000
,
0001
0100
0010
0100
2000
0000
3100
0010
,
1000
0100
0010
0100
0002
0000
0103
1000
,
0001
0100
0010
0100
2000
0000
3100
0001
,
0010
1000
0001
0100
2000
0000
3010
0100
,
1000
0001
0010
1000
0002
0000
0013
0100
,
0001
1000
0010
0001
2000
0000
3010
0100
,
1000
0000
0100
0000
0001
1000
0001
0000
0010
0100
0000
0100
1000
0001
1000
0000
,
0100
0000
0010
0000
0001
0000
1000
0010
0000
0010
0100
0000
0001
0000
1000
0010
,
0100
0000
0010
0000
1000
0000
0001
0010
0000
0010
0100
0000
1000
0000
0001
0010
,
0100
0000
1000
0000
0010
0000
0100
0001
0000
0001
0010
0000
0100
0000
1000
0001
,
0100
0000
0001
0000
0010
0000
0100
1000
0000
1000
0010
0000
0100
0000
0001
1000
,
0100
0010
0001
0000
1000
0000
0001
0100
00M0
0100
1000
0000
0010
0000
1000
0001
,
0100
0010
1000
0000
0001
0000
1000
0100
00M0
0100
0001
0000
1000
0100
1000
0100
,
0010
0000
0001
0000
1000
0000
0010
0100
0000
0100
0010
0000
1000
0000
0001
0010
,
0200
0302
2003
3020
0032
0000
0000
0000
,
2003
0000
0000
0000
0000
0000
0000
0000
3001
0100
0001
0000
1000
0100
1000
0000
,
0010
0000
0100
0000
0001
0000
1000
0100
0010
0000
0001
0000
1000
0010
0100
0010
,
0200
0000
0000
0000
0000
0000
0001
0000
0301
0000
0000
0000
1000
0100
1000
0100
,
0010
0000
0001
0000
1000
0000
0010
0100
0000
0100
0010
0000
1000
0001
1000
0001
,
2000
0000
3002
0000
,
1003
0100
1000
0000
0001
0100
0001
0000
0010
0000
0100
0000
1000
0000
0001
0100
,
0010
0000
1000
0000
0001
0010
0100
0010
0200
0000
0000
0000
0000
0000
1000
0000
,
1300
0000
0000
0000
0001
0100
0001
0100
0010
0000
1000
0000
0001
0000
0010
0100
,
0000
0100
0010
0000
0001
1000
0001
1000
0020
0000
0000
0000
0000
0000
0000
0000
,
0230
0000
0000
0000
0000
0000
0000
0000
0310
1000
0001
0000
0010
0001
1000
0000
,
0010
0000
0100
0000
0001
0000
0010
0100
1000
0000
0001
0000
0100
0010
0100
0010
,
2000
0000
0000
0000
0000
0000
0100
0000
3001
0000
0000
0000
0100
0010
0100
0010
,
1000
0000
0001
0000
0010
0000
0100
1000
0001
0000
0100
0000
0010
1000
0010
1000
,
0200
0000
0320
0000
,
0130
1000
0001
0000
0100
0001
1000
0000
0100
0000
0010
0000
0001
0000
1000
0010
,
0100
0000
0001
0000
1000
0100
1000
0100
0020
0000
0000
0000
0000
0000
0031
0000
,
1000
0010
1000
0010
0100
0001
0100
0001
1000
0100
1000
0100
0040
0000
0000
0000
,
0031
0100
0010
1000
0002
0000
0013
0100
,
0001
1000
0010
0100
2000
0000
3010
0100
,
1000
0001
0010
1000
0100
0001
0100
0010
,
0002
0000
1003
0010
0001
0010
0100
0001
,
1000
0100
0010
0001
1000
0020
0000
0000
,
0130
0001
1000
0001
0020
0000
0130
1000
,
0001
0100
0010
1000
0001
0001
0010
0010
,
0100
0200
0000
0000
2300
0000
0000
0000
,
3001
0100
0001
0000
1000
0000
0001
0100
0001
1000
0100
0000
0010
0001
0010
0000
,
0100
0000
1000
0000
0001
0000
0100
0010
1000
0000
0001
0000
0010
0100
0010
0100
,
2000
0000
0000
0000
0000
0000
0010
0000
3010
0000
0000
0000
0100
0001
0100
0001
,
1000
0000
0100
0000
0010
0000
0001
1000
0001
0000
0100
0000
0010
1000
0001
1000
,
0002
0000
0000
0000
0000
0000
0000
0000
1003
0100
1000
0000
0001
0000
1000
0100
,
1000
0001
0100
0000
0010
1000
0010
0000
0100
0000
0001
0000
1000
0000
0100
0010
,
0100
0000
1000
0000
0001
0100
0001
0100
0020
0000
0000
0000
0000
0000
1000
0000
,
1030
0000
0000
0001
0010
0000
0000
0010
0100
1000
0001
1000
0001
0000
1000
0010
,
0100
0000
0001
0000
1000
0100
1000
0100
0020
0000
0000
0000
0000
0000
0000
0000
,
0031
1000
0001
0000
0100
0000
0001
1000
0001
0010
0100
0000
1000
0001
1000
0000
,
0010
0000
0100
0000
0001
0000
1000
0100
1000
0000
0001
0000
0100
0010
0100
0010
,
2000
0000
0000
0000
0000
0000
0100
0000
3100
0000
0000
0000
0010
0001
0010
0001
,
1000
0000
0010
0000
0100
0000
0001
1000
0001
0000
0010
0000
0100
1000
0100
1000
,
0020
0000
0000
0000
0000
0000
0000
0000
0130
0001
0100
0000
0010
0000
0100
0001
,
0100
0010
1000
0000
0001
0010
0001
0000
1000
0000
0100
0000
0010
0000
0001
1000
,
0001
0000
0100
0000
0010
1000
0010
1000
0002
0000
0000
0000
0000
0000
0023
0030
,
0000
0000
0020
0030
0000
0000
0200
0300
0000
0000
0200
0300
0000
0000
0020
0030
,
0000
0000
0020
0030
0000
0000
0200
0300
0000
0000
0200
0300
0000
0000
2000
3000
,
0000
0000
2000
3000
0000
0000
0002
0003
0000
0000
0002
0003
0000
0000
2000
3000
,
0000
0000
2000
3000
0000
0000
0002
0003
0000
0000
0002
0003
0000
0000
0200
0300
,
0000
0000
0200
0300
0000
0000
0020
0030
0000
0000
0020
0030
0000
0000
0200
0300
,
0000
0000
0200
0300
0000
0000
0020
0030
0000
0000
0020
0030
0000
0000
2000
3000
,
0000
0000
2000
3000
0000
0000
0002
0003
0000
0000
0002
0003
0000
0000
2000
3000
,
0000
0000
2000
3000
0000
0000
0002
0003
0000
0000
0002
0003
0020
0000
0000
0000
,
0130
0000
0000
0000
0110
0000
0000
1000
0400
03M0
0000
0100
0001
0000
0000
0000
,
1000
0100
0001
0100
0020
0000
0031
1000
,
0010
0000
0000
0000
0110
0000
0000
0001
0400
03M0
0000
0100
1000
0000
0000
0000
,
0001
0100
1000
0100
0020
0000
1030
0001
,
0010
0000
0000
0000
0100
0000
0000
0000
0110
0000
0000
1000
0400
03M0
0000
0100
,
0001
0100
1000
0100
0020
0000
1030
0001
,
0010
0000
0000
0000
0100
0000
0000
0000
1001
0000
0000
0000
0110
0000
0000
0001
,
0400
03M0
0000
0100
2000
0000
0000
0000
3001
0010
0001
0010
0100
1000
0100
1000
,
0002
0000
0000
0000
,
0003
0000
0000
0000
;

//---------------dance-single - ----------------
#NOTEDATA:;
#CHARTNAME:;
#STEPSTYPE:dance-single;
#DESCRIPTION:;
#CHARTSTYLE:;
#DIFFICULTY:Medium;
#METER:8;
#RADARVALUES:0.449405,0.512500,0.000000,0.354167,0.072917,453.000000,453.000000,0.000000,51.000000,0.000000,0.000000,6.000000,0.000000,0.000000,0.449405,0.512500,0.000000,0.354167,0.072917,453.000000,453.000000,0.000000,51.000000,0.000000,0.000000,6.000000,0.000000,0.000000;
#CREDIT:;
#NOTES:
0000
0000
0000
0000
,
0000
0000
0000
0000
,
0000
0000
0000
0000
,
0000
0000
0000
0000
,
0000
0000
0000
0000
,
0000
0000
0000
0000
,
0000
0000
0000
0000
,
0000
0000
0000
0000
,
1000
0100
0010
0001
2000
0000
3100
0010
,
0001
0100
0010
1000
0002
0000
0103
0010
,
1000
0100
0010
0001
2000
0000
3100
0010
,
0001
0100
0010
1000
0002
0000
0103
0010
,
1000
0001
1000
0100
0020
0000
0130
1000
,
0001
1000
0001
0100
0020
0000
0130
0001
,
1000
0001
1000
0100
0020
0000
0130
1000
,
0001
1000
0001
0010
0200
0000
1300
0001
,
0100
0000
0010
0000
1000
0000
0000
1000
0000
0000
0100
0000
0010
0000
0000
0000
,
0001
0000
1000
0000
0010
0000
0000
0010
0000
0000
0100
0000
0001
0000
0000
0000
,
1000
0000
0100
0000
0010
0000
0000
0010
0000
0000
0001
0000
1000
0000
0000
0000
,
0010
0000
0100
0000
0001
0000
0000
0001
0000
0000
0010
0000
0100
0000
0000
0000
,
1000
0001
1000
0000
0010
0000
0000
0010
0000
0000
0100
0000
0001
0000
0000
0000
,
1000
0000
0100
0000
0010
0000
0000
0010
0000
0000
0001
0000
1000
0000
0000
0000
,
0010
0000
1000
0000
0100
0000
0000
0100
0000
0000
0010
0000
0001
0000
0000
0000
,
1000
0010
0001
0010
2000
0000
0000
0000
,
3002
0000
0000
0000
0013
0010
0100
0100
,
1000
0001
0100
1000
0100
0001
2000
0000
,
3200
0000
0000
0310
0002
0000
2003
0000
,
3010
0100
0001
1000
0100
0020
0000
0000
,
0032
0000
2003
0000
,
3010
0010
0100
0100
0001
1000
0100
0001
,
0100
1000
0002
0000
0203
0000
0000
0310
,
2000
0000
0000
0000
3002
0000
0000
0000
0013
0100
0000
0100
0010
0000
0001
0000
,
1000
0020
0000
0000
0230
0000
0000
0000
,
0302
0000
0000
0000
1003
1000
0100
0100
,
0001
0100
0010
0001
1000
0020
0000
0000
,
0230
0000
0000
0301
2000
0000
3100
0010
,
0001
0100
0010
1000
0001
0020
0000
0000
,
0230
0000
2300
0000
,
3001
0001
0100
0100
1000
0100
0010
1000
,
0001
0020
0000
0000
0230
0000
0000
1300
,
0004
0003
0400
0300
4000
3000
0004
0003
0040
0030
4000
3000
0002
0000
0000
0000
,
0013
0000
0100
1000
0001
0000
0100
0000
,
0010
0000
1000
0001
0010
0000
0100
1000
,
0010
1000
0001
0010
0100
2000
0000
0000
,
3001
0000
0000
0001
0100
0010
1000
0001
,
1000
0100
0010
0001
0010
0200
0000
0000
,
1300
0000
0001
0100
0010
0000
1000
0100
,
0010
0000
0001
0000
1000
0010
0001
1000
,
0100
0002
0000
0000
2003
0000
0000
0000
,
3001
0010
0100
1000
0001
0001
0100
0100
,
1000
0100
0010
1000
0001
0010
0100
1000
,
0020
0100
0230
0001
0301
1000
0100
0010
,
1000
0010
0001
1000
0010
0100
0001
1000
,
0002
0000
0000
0000
1003
0010
0100
0001
,
1000
1000
0100
0100
0001
0100
0010
0001
,
1000
0010
0100
0001
0020
0100
0230
1000
,
1300
0000
0001
0000
0100
0000
0010
0000
1000
0000
0001
1000
0001
0000
0010
0000
,
0100
1000
0001
0100
0010
1000
0001
1000
,
0100
0010
0001
1000
0010
0010
0100
0100
,
1000
0100
0010
1000
0001
0010
0100
1000
,
0002
0100
0203
0010
0310
1000
0001
1000
,
0100
0010
0001
1000
0010
1000
0100
0100
,
0010
0001
1000
0001
0100
0010
1000
0001
,
0010
0010
0100
0100
0001
0100
0010
0001
,
1000
0010
0100
0001
2000
3002
0203
0310
,
0000
0010
0000
1000
0000
1000
0000
0001
,
0000
0001
0000
0010
0000
0010
0000
0100
,
0000
0100
0000
1000
0000
1000
0000
0001
,
0000
0001
0000
0100
0000
0100
0000
0010
,
0000
0010
0000
1000
0000
1000
0000
0001
,
0000
0001
0000
0010
0000
0010
0000
0100
,
0000
0100
0000
1000
0000
1000
0000
0001
,
0000
0001
0000
0100
0000
0100
0010
0000
,
1000
0000
0000
0000
0001
0000
0000
1000
0100
0000
0000
0100
1000
0000
0010
0000
,
0100
0001
1000
0001
0020
0000
0130
1000
,
0001
0000
0000
0000
1000
0000
0000
0001
0100
0000
0000
0100
0001
0000
0010
0000
,
0100
1000
0001
1000
0020
0000
0130
0001
,
0010
0000
0000
0000
0100
0000
0000
0000
0010
0000
0000
0001
1000
0000
0000
1000
,
0001
0100
0010
1000
0001
1000
0100
0010
,
0001
0000
0000
0000
0100
0000
0000
0000
0001
0000
0000
0000
1000
0000
0000
0100
,
0010
0000
0000
0010
0200
0000
0000
0000
1300
0001
1000
0000
0001
1000
0001
0000
,
0200
0000
0000
0000
,
0300
0000
0000
0000
;
