#VERSION:0.83;
#TITLE:Nostalgia Sonatina;
#SUBTITLE:;
#ARTIST:Ice;
#TITLETRANSLIT:;
#SUBTITLETRANSLIT:;
#ARTISTTRANSLIT:;
#GENRE:;
#ORIGIN:;
#CREDIT:;
#BANNER:banner.png;
#BACKGROUND:;
#PREVIEWVID:;
#JACKET:;
#CDIMAGE:;
#DISCIMAGE:;
#LYRICSPATH:;
#CDTITLE:;
#MUSIC:Nostalgia Sonatina.ogg;
#OFFSET:-0.091570;
#SAMPLESTART:52.593971;
#SAMPLELENGTH:19.687496;
#SELECTABLE:YES;
#BPMS:0.000=160.000;
#STOPS:;
#DELAYS:;
#WARPS:;
#TIMESIGNATURES:0.000=4=4;
#TICKCOUNTS:0.000=4;
#COMBOS:0.000=1;
#SPEEDS:0.000=1.000=0.000=0,
140.000=1.330=4.000=0,
304.000=2.000=4.000=0,
380.000=4.000=4.000=0;
#SCROLLS:0.000=1.000,
136.000=0.750,
276.000=0.500,
376.000=0.250;
#FAKES:;
#LABELS:0.000=Song Start;
#BGCHANGES:;
#KEYSOUNDS:;
#ATTACKS:
;

//---------------dance-single - ----------------
#NOTEDATA:;
#CHARTNAME:;
#STEPSTYPE:dance-single;
#DESCRIPTION:;
#CHARTSTYLE:;
#DIFFICULTY:Challenge;
#METER:12;
#RADARVALUES:0.998641,1.336957,0.740489,0.203804,0.879755,1029.000000,920.000000,109.000000,30.000000,24.000000,13.000000,0.000000,0.000000,0.000000,0.998641,1.336957,0.740489,0.203804,0.879755,1029.000000,920.000000,109.000000,30.000000,24.000000,13.000000,0.000000,0.000000,0.000000;
#CREDIT:;
#NOTES:
// measure 0
0000
0000
0000
0000
,  // measure 1
0000
0000
0000
0000
,  // measure 2
0000
0000
0000
0000
,  // measure 3
0000
0000
0000
0000
,  // measure 4
0000
0000
0000
0000
,  // measure 5
1001
0000
1000
0100
1000
0000
1000
0100
1000
0000
0001
0000
0100
0000
0010
0000
,  // measure 6
1001
0000
0001
0100
0001
0000
0001
0100
0001
0000
1000
0000
0100
0000
0010
0000
,  // measure 7
1001
0000
1000
0100
1000
0000
0010
0000
0100
0000
1000
0000
0100
0000
0001
0000
,  // measure 8
1001
0000
1000
0100
0010
0001
1000
0010
0100
0001
0100
0001
1000
0100
1000
0100
,  // measure 9
0010
0000
0001
0100
0001
0000
0001
0010
0001
0000
1000
0000
0010
0000
0100
0000
,  // measure 10
1001
0000
1000
0100
1000
0000
1000
0010
1000
0000
0001
0000
0010
0000
0100
0000
,  // measure 11
0110
0000
1000
0001
1000
0000
0010
0000
0110
0000
0001
1000
0001
0000
0010
0000
,  // measure 12
0110
0000
1000
0010
0100
0000
0011
0000
1100
0000
0001
0010
0100
0000
1010
0000
,  // measure 13
0101
0000
1000
0100
0010
0000
0101
0000
1010
0000
0001
0100
0010
0000
1100
0000
,  // measure 14
0012
0000
1023
0000
0132
0000
0000
1003
,  // measure 15
0012
1023
0132
2003
,  // measure 16
3010
0000
0100
0001
1000
0000
0010
0100
0001
0000
1000
0010
0100
0000
0001
1000
,  // measure 17
0100
0000
0010
0001
1000
0000
0100
0010
0001
0000
1000
0100
0010
0000
0100
1000
,  // measure 18
0001
0000
0100
0010
0100
0000
0100
0010
0100
0000
0001
0000
0010
0000
0100
0000
,  // measure 19
1000
0000
0100
0010
0100
0000
0100
0010
0100
0000
1000
0000
0001
0000
0100
0000
,  // measure 20
0010
0000
1000
0001
1000
0000
1000
0001
1000
0000
0100
0000
0010
0000
0100
0000
,  // measure 21
0010
0000
0001
1000
0001
0000
0001
1000
0001
0000
0100
0000
0010
0000
1000
0000
,  // measure 22
0001
0000
0010
0100
1000
0000
1000
0100
0010
0000
0001
0000
1000
0000
0010
0000
,  // measure 23
0100
0000
0001
0100
0010
0000
0010
0100
0001
0000
1000
0000
0010
0000
1000
0000
,  // measure 24
1100
0000
0010
0001
0100
0000
0100
0001
0010
0000
0100
0000
1000
0000
0001
0000
,  // measure 25
0100
0000
0010
1000
0100
0000
0100
1000
0010
0000
0100
0000
0001
0000
0100
0000
,  // measure 26
0110
0000
1000
0100
0001
0000
0001
0100
1000
0000
0010
0000
0100
0000
0001
0000
,  // measure 27
0010
0100
0010
0100
1000
0001
1000
0001
0100
0010
1000
0001
1000
0100
0010
0001
,  // measure 28
1000
0000
0001
0100
0010
0000
M0M1
0100
0010
0000
1000
0000
1000
0000
1000
0000
,  // measure 29
0001
0000
1000
0100
0010
0000
10MM
0100
0010
0000
0001
0000
0001
0000
0001
0000
,  // measure 30
0100
0000
0010
1000
0001
0000
0M1M
1000
0001
0000
0010
0000
0010
0000
0010
0000
,  // measure 31
0100
0000
1000
0001
0100
0000
1MM0
0001
0100
0010
1000
0001
0100
0010
1000
0001
,  // measure 32
0010
0000
0100
1000
0001
0000
1100
0000
0011
0000
0100
0001
1000
0000
0101
0000
,  // measure 33
1010
0000
0001
1000
0100
0000
1010
0000
0001
1000
0010
0100
0001
1000
0010
0100
,  // measure 34
0001
0000
1000
0001
1000
0000
1000
0001
1000
0000
0100
0000
0100
0000
0100
0000
,  // measure 35
0010
0000
0001
0100
0010
1000
0001
1000
0100
0010
0001
1000
0010
1000
0100
0010
,  // measure 36
0001
0000
1000
0100
0010
0000
10MM
0100
0010
0000
0001
0000
0001
0000
1000
0000
,  // measure 37
1000
0000
0001
0100
0010
0000
M0M1
0100
0010
0000
1000
0000
1000
0000
0001
0000
,  // measure 38
0001
0000
1000
0010
0100
0000
1M0M
0010
0100
0000
0001
0000
0001
0000
1000
0000
,  // measure 39
0101
0000
1010
0000
0101
0000
1010
0000
0101
0000
1000
0010
0100
0001
1000
0100
,  // measure 40
0010
0000
0001
1000
0010
0000
1100
0000
0011
0000
1000
0100
0010
0000
0101
0000
,  // measure 41
1010
0000
0001
1000
0010
0000
1100
0000
0011
0000
1100
0000
0011
0000
1100
0000
,  // measure 42
0011
0000
1000
0001
0100
0000
0011
0000
1100
0000
0001
0010
0100
0000
1010
0000
,  // measure 43
0101
0000
1000
0001
0100
0000
0011
0000
1100
0000
0011
0000
1100
0000
0011
0000
,  // measure 44
2100
0000
0000
0000
3001
0010
0100
0010
0001
0010
0100
0010
0001
0010
0100
0010
,  // measure 45
0001
0010
0100
0010
0001
0010
0100
0010
0001
0000
1000
0000
1000
0000
1000
0000
,  // measure 46
0102
0000
0000
0000
1003
0010
0100
0010
1000
0010
0100
0010
1000
0010
0100
0010
,  // measure 47
1000
0010
0100
0010
1000
0010
0100
0010
1000
0000
0001
0000
0001
0000
0001
0000
,  // measure 48
2010
0000
0000
0000
0000
0000
0000
0000
0000
0000
0000
0000
3001
0000
0010
0000
0001
0000
0010
0000
0000
0100
0000
0000
1000
0000
0001
0000
1000
0000
0001
0000
0000
0100
0000
0000
0010
0000
1000
0000
0010
0000
1000
0000
0001
0000
0010
0000
,  // measure 49
0100
0000
1000
0000
0001
0000
0100
0000
0000
0010
0000
0000
1000
0000
0001
0000
1000
0000
0001
0000
0010
0000
0100
0000
1000
0000
0000
0001
0000
0000
1000
0000
0010
0000
1000
0000
0010
0000
0100
0000
0001
0000
1000
0000
0001
0000
0010
0000
,  // measure 50
0200
0000
0000
0000
,  // measure 51
0300
0000
0220
0330
,  // measure 52
1001
0000
0001
0100
0001
0000
0001
0100
0001
0000
1000
0000
0100
0000
0010
0000
,  // measure 53
1001
0000
1000
0100
1000
0000
1000
0100
1000
0000
0001
0000
0100
0000
0010
0000
,  // measure 54
1001
0000
0001
0100
0001
0000
1000
0000
0100
0000
0010
0001
0010
0000
0100
0000
,  // measure 55
0001
0000
0100
0000
1000
0000
0001
0000
0100
0000
0010
1000
0001
0000
0000
0000
,  // measure 56
1001
0000
0001
0100
0001
0000
0001
0100
0001
0000
1000
0000
0100
0000
0010
0000
,  // measure 57
1001
0000
1000
0100
1000
0000
1000
0100
1000
0000
0001
0000
0100
0000
0010
0000
,  // measure 58
1001
0000
0001
0100
0001
0000
0010
0000
0100
0000
0001
0000
0100
0000
1000
0000
,  // measure 59
1001
0000
0001
0100
0010
1000
0001
0010
0100
1000
0100
1000
0001
0100
0001
0100
,  // measure 60
0010
0000
1000
0100
1000
0000
1000
0010
1000
0000
0001
0000
0010
0000
0100
0000
,  // measure 61
1001
0000
0001
0100
0001
0000
0001
0010
0001
0000
1000
0000
0010
0000
0100
0000
,  // measure 62
0110
0000
0001
1000
0001
0000
0010
0000
0110
0000
1000
0001
1000
0000
0010
0000
,  // measure 63
0110
0000
0001
0010
0100
0000
1010
0000
0101
0000
1000
0010
0100
0000
0011
0000
,  // measure 64
1100
0000
0001
0100
0010
0000
1100
0000
0011
0000
1000
0100
0010
0000
0101
0000
,  // measure 65
2010
0000
3021
0000
2130
0000
0000
3001
,  // measure 66
2010
0000
0000
0000
3021
0000
0000
0000
1130
0000
0001
0010
0100
1000
0001
0000
,  // measure 67
1200
0000
0000
0000
0312
0000
0000
0000
2013
0000
0000
0000
3002
0003
1000
0000
,  // measure 68
0021
2130
3102
0023
,  // measure 69
M13M
0000
1000
0100
1000
0000
1000
0100
1000
0000
0001
0000
0001
0000
0001
0000
,  // measure 70
0010
0000
0100
0001
0100
0000
0100
0001
0100
0000
0010
0000
0010
0000
0001
0000
,  // measure 71
1000
0000
0001
0100
0001
0000
0001
0100
0001
0000
1000
0000
1000
0000
1000
0000
,  // measure 72
0010
0000
0100
1000
0100
0000
0100
1000
0100
0000
0010
0000
0010
0000
1000
0000
,  // measure 73
0001
0000
0010
0100
0010
0000
0010
0100
0010
0000
1000
0000
0000
0000
0000
0000
,  // measure 74
0001
0000
0100
0010
0100
0000
0100
0010
0100
0000
1000
0000
1000
0000
1000
0000
,  // measure 75
0101
0000
1000
0001
1000
0000
1000
0001
1000
0000
0010
0000
0010
0000
0010
0000
,  // measure 76
1100
0000
0001
1000
0100
0010
0001
1000
0010
1000
0100
0010
0001
1000
0010
0100
,  // measure 77
0001
0000
0010
0001
0100
0000
MM10
0001
0100
0000
0010
0000
0010
0000
0010
0000
,  // measure 78
0100
0000
0010
1000
0100
0000
0M1M
1000
0100
0000
0010
0000
0001
0000
0100
0000
,  // measure 79
0010
0000
1000
0100
0001
0000
10MM
0100
0001
0000
0100
0000
0010
0000
0001
0000
,  // measure 80
1000
0000
0001
0100
1000
0000
M0M1
0100
1000
0000
0100
0000
0010
0000
1000
0000
,  // measure 81
0001
0000
0010
0100
1000
0000
0101
0000
1010
0000
0001
1000
0010
0000
1100
0000
,  // measure 82
0011
0000
1000
0001
0010
0000
0101
0000
1010
0000
0101
0000
1010
0000
0101
0000
,  // measure 83
1010
0000
0000
0000
0001
1000
0001
1000
0001
1000
0001
1000
0001
1000
0001
1000
,  // measure 84
0001
1000
0001
1000
0001
1000
0001
1000
0001
1000
0001
1000
0001
0000
0100
0010
,  // measure 85
0200
0000
0000
0000
0000
0000
0300
0000
0110
0000
0001
0100
0010
0000
1000
0100
,  // measure 86
0010
0000
0001
1000
0010
0000
0100
0001
1100
0000
0011
0000
1100
0000
0011
0000
,  // measure 87
1100
0000
0001
0010
0100
0000
1000
0001
0100
0000
0010
1000
0001
0000
0010
0100
,  // measure 88
1000
0000
0001
0100
0010
0000
1000
0001
1010
0000
0101
0000
1010
0000
0101
0000
,  // measure 89
1010
0000
0000
0000
0001
1000
0001
1000
0010
1000
0010
1000
0010
0100
0010
0100
,  // measure 90
0001
0100
0001
0100
0001
1000
0001
1000
0100
1000
0100
1000
0001
0100
0001
0100
,  // measure 91
1000
0100
1000
0100
0010
1000
0010
1000
0001
0010
0001
0010
0100
1000
0100
1000
,  // measure 92
0001
0100
0010
1000
0001
1000
0100
0010
0001
1000
0001
0100
1000
0100
0010
1000
,  // measure 93
0002
0000
2000
0000
,  // measure 94
0200
0000
0000
0000
,  // measure 95
3003
0000
0000
0000
,  // measure 96
0300
0000
0000
0000
;

//---------------dance-single - ----------------
#NOTEDATA:;
#CHARTNAME:;
#STEPSTYPE:dance-single;
#DESCRIPTION:;
#CHARTSTYLE:;
#DIFFICULTY:Hard;
#METER:10;
#RADARVALUES:0.750194,0.847826,0.292120,0.244565,0.512908,773.000000,730.000000,43.000000,36.000000,2.000000,0.000000,8.000000,0.000000,0.000000,0.750194,0.847826,0.292120,0.244565,0.512908,773.000000,730.000000,43.000000,36.000000,2.000000,0.000000,8.000000,0.000000,0.000000;
#CREDIT:;
#NOTES:
0000
0000
0000
0000
,
0000
0000
0000
0000
,
0000
0000
0000
0000
,
0000
0000
0000
0000
,
0000
0000
0000
0000
,
1001
0000
1000
0100
1000
0000
0100
1000
0100
0000
0010
0000
0001
0000
1000
0000
,
1001
0000
0001
0100
0001
0000
0100
0001
0100
0000
0010
0000
1000
0000
0001
0000
,
0011
0000
0010
0100
1000
0000
0001
0000
0100
0000
1000
0000
0100
0000
0010
0000
,
1010
0000
0001
0010
0001
0010
0001
0000
1001
0000
0000
0000
0110
0000
0000
0000
,
1001
0000
1000
0010
1000
0000
0010
1000
0010
0000
0100
0000
0001
0000
1000
0000
,
1001
0000
0001
0010
0001
0000
0010
0001
0010
0000
0100
0000
1000
0000
0001
0000
,
1001
0000
0001
0100
0010
0000
1000
0000
1010
0000
0001
0010
0100
0000
1000
0000
,
1100
0000
0001
0100
0010
0000
1000
0000
0001
0000
0010
0100
1000
0000
0001
0000
,
1000
0000
0010
0100
0001
0000
1000
0000
0001
0000
0010
0100
1000
0000
0001
0000
,
2000
0000
0000
0000
0020
0000
0000
3030
1010
0000
0000
0000
0000
0000
1000
0000
,
0002
0000
0000
0000
0020
0000
0000
0033
0011
0000
0000
0000
0000
0000
0000
0000
,
2000
0000
3020
0000
,
0230
0000
0302
0000
,
0013
0000
0100
1000
0001
0000
0100
0001
1000
0000
0020
0000
0000
0000
0000
0000
,
0130
0000
0001
1000
0100
0000
1000
0001
0100
0000
0010
0000
0010
0000
1000
0000
,
0100
0000
0010
0001
1000
0000
0010
1000
0001
0000
0200
0000
0000
0000
0000
0000
,
0310
0000
1000
0001
0100
0000
0001
1000
0100
0000
0010
0000
0010
0000
0001
0000
,
1000
0000
0100
0010
0001
0000
0100
0010
1000
0000
0200
0000
0000
0000
0000
0000
,
0310
0000
0001
0100
0010
0000
1000
0100
0010
0000
0001
0000
0001
0000
1000
0000
,
0010
0000
0100
0001
0010
0000
0100
1000
0010
0000
0200
0000
0000
0000
0000
0000
,
0301
0000
0010
0001
0100
0000
0010
1000
0100
0000
0010
0000
0010
0000
0001
0000
,
1000
0000
0010
1000
0100
0000
0010
0001
0100
0000
0020
0000
0000
0000
0000
0000
,
1030
0000
0001
0010
0100
0000
1000
0010
0100
0000
0001
0010
0100
1000
0001
1000
,
0001
0000
1000
0100
1000
0000
0100
1000
0100
0000
0010
0000
0010
0000
0001
0000
,
0001
0000
1000
0010
1000
0000
0010
1000
0010
0000
0100
0000
0100
0000
0001
0000
,
1000
0000
0001
0100
0001
0000
0100
0001
0100
0000
0010
0000
0010
0000
1000
0000
,
1000
0000
0001
0010
0001
0000
0010
0001
0010
0000
0001
0000
1000
0000
0010
0100
,
0010
0000
1000
0001
1000
0000
0100
0000
0010
0000
0001
1000
0001
0000
0100
0000
,
0010
0000
1000
0001
1000
0000
0010
0000
0100
0000
0001
1000
0001
0000
1000
0001
,
1000
0000
0100
0010
0100
0000
0010
0100
0010
0000
0001
0000
0001
0000
1000
0000
,
1000
0000
0010
0100
0004
0000
0043
0000
0430
0000
4300
0000
3004
0000
0403
0000
,
0310
0000
1000
0100
0010
0000
0001
0100
0010
0000
1000
0000
1000
0000
0001
0000
,
0001
0000
0010
0100
1000
0000
0010
0100
0001
0000
0010
0000
0010
0000
0100
0000
,
0100
0000
1000
0001
0100
0000
0010
1000
0001
0000
0010
0000
0010
0000
0100
0000
,
1000
0000
1000
0000
1000
0000
1000
0000
1000
0000
0001
0100
0001
0000
1000
0100
,
1000
0000
0010
0100
0010
0000
1000
0000
0001
0000
0010
0100
0010
0000
0001
0000
,
1000
0000
0010
0100
0010
0000
1000
0000
1000
0000
0001
0000
0001
0000
0001
0000
,
0010
0000
0100
1000
0001
0000
0001
0000
0001
0000
0100
0010
1000
0000
1000
0000
,
1000
0000
0001
0010
0100
0000
0100
0000
1000
0000
1000
0000
1000
0000
1000
0000
,
0020
0000
0000
0000
0130
0001
0100
0001
0100
0001
0100
0001
0100
0001
0100
0001
,
0100
0001
0100
0001
0100
0001
0100
0001
1000
0000
0100
0000
0010
0000
0001
0000
,
0020
0000
0000
0000
0130
1000
0100
1000
0100
1000
0100
1000
0100
1000
0100
1000
,
0100
1000
0100
1000
0100
1000
0100
1000
0001
0000
0100
0000
0010
0000
2000
0000
,
0002
0000
0000
0000
,
0000
0000
0000
3003
,
0220
0000
0000
0000
,
0330
0000
0000
0000
2002
0000
0000
3003
,
1001
1000
1000
0001
0001
0010
0100
1000
,
1001
0001
0001
1000
1000
0010
0100
0001
,
1001
1000
1000
0001
0001
0010
0010
0100
,
0110
0000
1000
0000
0001
0000
1000
0000
0001
0000
0100
0010
0100
0000
0000
0000
,
1001
0000
1000
0100
1000
0000
0100
1000
0100
0000
0010
0000
0001
0000
1000
0000
,
1001
0000
0001
0100
0001
0000
0100
0001
0100
0000
0010
0000
1000
0000
0001
0000
,
0011
0000
0010
0100
1000
0000
0001
0000
0100
0000
1000
0000
0100
0000
0010
0000
,
1010
0000
0001
0010
0001
0010
0001
0000
1001
0000
0000
0000
0110
0000
0000
0000
,
1001
0000
1000
0010
1000
0000
0010
1000
0010
0000
0100
0000
0001
0000
1000
0000
,
1001
0000
0001
0010
0001
0000
0010
0001
0010
0000
0100
0000
1000
0000
0001
0000
,
1001
0000
0001
0100
0010
0000
1000
0000
1010
0000
0001
0010
0100
0000
1000
0000
,
1100
0000
0001
0100
0010
0000
1000
0000
0001
0000
0010
0100
1000
0000
0001
0000
,
1000
0000
0010
0100
0001
0000
1000
0000
0001
0000
0010
0100
1000
0000
0001
0000
,
2000
0000
0000
0000
0020
0000
0000
3030
1010
0000
0000
0000
0000
0000
1000
0000
,
0002
0000
0000
0000
0020
0000
0000
0033
0011
0000
0000
0000
0000
0000
0001
0000
,
2000
0000
0000
0000
0200
0000
0000
3300
1100
0000
0000
0000
0000
0000
1000
0000
,
0002
0000
0000
0000
0200
0000
0000
0303
0201
0000
0000
0000
0020
0000
0330
0000
,
1001
0000
1000
0100
1000
0000
0001
0100
0001
0000
0010
0000
0010
0000
0010
0000
,
0100
0000
0010
0001
0010
0M00
0010
1000
0010
0000
0100
0000
0100
0000
0001
0000
,
1000
0000
0001
0100
0001
0000
1000
0100
1000
0000
0010
0000
0010
0000
0010
0000
,
0100
0000
0010
1000
0010
0M00
0010
0001
0010
0000
0100
0000
0100
0000
1000
0000
,
0001
0000
0100
0010
0100
0000
0010
0100
0010
0000
1000
0000
0000
0000
0000
0000
,
1000
0000
0100
0010
0100
0000
0010
0100
0010
0000
0001
0000
1000
0000
0010
0000
,
0110
0000
1000
0001
1000
0000
0001
1000
0001
0000
0010
0000
0010
0000
0010
0000
,
0400
0000
0000
0000
,
1300
0000
0001
0100
0010
0000
1000
0001
0010
0000
0100
0000
0100
0000
0100
0000
,
1000
0000
0001
0100
0010
0000
1000
0001
0010
0000
0100
0000
0100
0000
1000
0000
,
0001
0000
1000
0010
0100
0000
0001
1000
0100
0000
0010
0000
0001
0000
1000
0000
,
0010
0000
0100
0001
1000
0000
0100
0010
0001
0000
1000
0000
0010
0000
0100
0000
,
0001
0000
0010
0100
0010
0000
0001
0000
1000
0000
0010
0100
0010
0000
1000
0000
,
0001
0000
0010
0100
0010
0000
0001
0000
0100
0000
1000
0000
0100
0000
0010
0000
,
2000
0004
0000
0000
,
0000
0000
0000
0000
,
3003
0000
1100
0000
,
0101
0000
0000
0000
1000
1000
0010
0010
,
0110
0000
0101
0000
,
1100
0000
0000
0000
0001
0001
0010
0010
,
0110
0000
0000
0000
1000
0001
0100
0000
0010
1000
0001
0000
0010
0100
1000
0000
,
0010
1000
0100
0000
0010
0001
1000
0000
0010
0100
0001
0000
1000
0100
0010
0000
,
1000
0010
0001
0000
1000
0010
0100
0000
0001
1000
0100
0000
0010
0001
1000
0000
,
0010
0100
0001
0000
1000
0100
1000
0000
0001
0100
0010
0000
1000
0001
1000
0000
,
0200
0000
0020
0330
,
2002
0000
0000
0000
,
0000
0000
0000
0000
,
3003
0000
0000
0000
;

//---------------dance-single - ----------------
#NOTEDATA:;
#CHARTNAME:;
#STEPSTYPE:dance-single;
#DESCRIPTION:;
#CHARTSTYLE:;
#DIFFICULTY:Medium;
#METER:8;
#RADARVALUES:0.518245,0.586957,0.509511,0.169837,0.000000,534.000000,459.000000,75.000000,25.000000,0.000000,0.000000,34.000000,0.000000,0.000000,0.518245,0.586957,0.509511,0.169837,0.000000,534.000000,459.000000,75.000000,25.000000,0.000000,0.000000,34.000000,0.000000,0.000000;
#CREDIT:;
#NOTES:
0000
0000
0000
0000
,
0000
0000
0000
0000
,
0000
0000
0000
0000
,
0000
0000
0000
0000
,
0000
0000
0000
0000
,
1001
0004
0003
0004
0003
0010
0100
1000
,
1001
4000
3000
4000
3000
0010
0100
0001
,
1001
0004
0003
0010
0100
1000
0001
0100
,
0110
0000
1001
1001
,
1001
0040
0030
0040
0030
0100
0010
0100
,
1001
0040
0030
0040
0030
0100
0010
0100
,
1001
0400
0300
0010
1001
0400
0300
0010
,
1001
0000
0000
1000
1100
0000
0000
0001
,
0101
0000
0000
1000
1010
0000
0000
0001
,
0011
0000
0110
0000
1100
0000
0000
1000
,
1010
0110
0101
2000
,
3002
0000
0023
0000
,
0230
0000
2300
0000
,
3001
0100
0001
0100
0001
0020
0000
0030
,
0100
1000
0100
1000
0100
0010
0010
0001
,
1000
0100
1000
0100
1000
0020
0000
0030
,
0100
0001
0100
0001
0100
0010
0010
1000
,
0001
0010
0100
0010
0001
2000
0000
0000
,
3010
0100
0001
1000
0100
0010
0010
0001
,
1000
0010
0100
0010
1000
0002
0000
0003
,
0010
0100
1000
0001
0100
0010
0010
1000
,
0001
0100
1000
0100
0001
2000
0000
0000
,
3100
0100
0010
0010
0001
0001
1000
1000
,
0010
0100
0001
0100
0010
1000
1000
0001
,
0010
0100
1000
0100
0010
0001
0001
1000
,
0100
0010
0001
0010
0100
1000
1000
0001
,
0100
0010
1000
0010
0100
0001
1000
0001
,
0010
0100
0100
1000
0001
0100
0100
0010
,
1000
0001
0001
0010
0100
1000
0001
0100
,
0020
0000
0000
0030
,
2002
0000
0000
3003
,
1000
0100
1000
0100
1000
0010
0010
0100
,
0001
0100
0001
0100
0001
0010
0010
0100
,
1000
0100
1000
0100
1000
0010
0010
0100
,
0001
1000
0001
1000
0001
0000
0000
0000
,
0110
0000
0000
1000
1010
0000
0000
0001
,
0101
0000
0000
1000
1001
0100
0010
0100
,
0110
0000
0000
0001
0011
0000
0000
1000
,
1100
0000
0000
0001
1001
0100
0010
0100
,
0110
0000
1000
0100
0010
0100
1000
0100
,
0010
0100
1000
0100
0010
0001
0001
0001
,
2000
0000
3001
0100
0010
0100
0001
0100
,
0010
0100
0001
0100
0010
1000
1000
1000
,
0002
0000
0000
0000
,
0000
0000
0000
0000
,
0023
0000
0000
0000
,
0030
0000
0000
0000
0220
0000
0000
0330
,
1001
0000
0000
0000
,
1010
0000
0000
0000
,
0110
0000
0000
0000
,
0101
0000
1001
0110
,
1001
4000
3000
4000
3000
0010
0100
0001
,
1001
0004
0003
0004
0003
0010
0100
1000
,
1001
4000
3000
0010
0100
0001
1000
0100
,
0110
0000
1001
1001
,
1001
0040
0030
0040
0030
0100
0010
0100
,
1001
0040
0030
0040
0030
0100
0010
0100
,
1001
0400
0300
0010
1001
0400
0300
0010
,
1001
0000
0000
0001
0101
0000
0000
1000
,
1100
0000
0000
0001
0011
0000
0000
1000
,
1010
0000
0110
0000
0101
0000
0000
0001
,
0011
0000
0110
0000
1100
0000
0000
0010
,
0110
0000
1001
0000
0110
0000
1000
0010
,
0110
1001
0110
1001
,
1000
0040
0030
0040
0030
0100
0001
0100
,
0001
0040
0030
0040
0030
0100
1000
0100
,
1000
0040
0030
0040
0030
0100
0001
0100
,
0001
0040
0030
0040
0030
0100
1000
0100
,
1000
0004
0003
0004
0003
1000
0000
0000
,
0001
4000
3000
4000
3000
0001
0100
0010
,
0110
0000
0000
0000
,
2002
0000
0000
0000
,
3003
1000
0100
0010
0100
1000
1000
0100
,
0010
0001
0100
0010
0100
0001
0001
0100
,
0010
1000
0001
0010
0001
1000
1000
0010
,
0100
0001
1000
0010
1000
0001
0001
0010
,
0110
0000
0000
1000
1100
0000
0000
0001
,
0101
0000
0000
0010
0110
1000
0001
1000
,
0001
2002
0000
0000
,
0000
0000
0000
0000
,
3003
0000
1010
0000
,
0011
0000
0000
0000
1000
0100
0001
0100
,
1000
0000
0011
0000
,
1010
0000
0000
0000
0001
0100
1000
0100
,
0001
0000
1000
1000
0100
0100
0010
0010
,
0001
0001
1000
1000
0010
0010
0100
0100
,
0001
0010
0100
1000
0001
0010
0100
1000
,
0001
0100
0010
1000
0001
0100
0010
1000
,
0002
0000
0023
0000
,
0230
0000
0000
0000
,
0000
0000
0000
0000
,
0300
0000
0000
0000
;
