#VERSION:0.83;
#TITLE:Murasaki;
#SUBTITLE:;
#ARTIST:Srav3r;
#TITLETRANSLIT:;
#SUBTITLETRANSLIT:;
#ARTISTTRANSLIT:;
#GENRE:;
#ORIGIN:;
#CREDIT:;
#BANNER:banner.png;
#BACKGROUND:;
#PREVIEWVID:;
#JACKET:;
#CDIMAGE:;
#DISCIMAGE:;
#LYRICSPATH:;
#CDTITLE:;
#MUSIC:Murasaki.ogg;
#OFFSET:0.022000;
#SAMPLESTART:71.987778;
#SAMPLELENGTH:21.000000;
#SELECTABLE:YES;
#BPMS:0.000=180.000;
#STOPS:;
#DELAYS:;
#WARPS:;
#TIMESIGNATURES:0.000=4=4;
#TICKCOUNTS:0.000=4;
#COMBOS:0.000=1;
#SPEEDS:0.000=10.000=0.000=0,
4.000=0.150=0.000=0,
4.500=0.300=0.500=0,
5.000=9.000=0.000=0,
5.125=0.300=0.000=0,
5.250=9.000=0.000=0,
5.375=0.300=0.000=0,
5.500=9.000=0.000=0,
5.625=0.300=0.000=0,
5.750=9.000=0.000=0,
5.875=0.300=0.000=0,
6.000=0.200=0.250=0,
6.250=0.300=0.250=0,
6.750=0.200=0.250=0,
7.000=0.300=0.250=0,
7.500=0.200=0.250=0,
7.750=0.300=0.250=0,
8.000=0.750=4.000=0,
58.000=1.000=2.000=0,
148.000=2.000=4.000=0,
168.000=2.100=0.500=0,
168.500=1.900=0.500=0,
169.000=2.100=0.500=0,
169.500=1.900=0.500=0,
170.000=2.100=0.500=0,
170.500=1.900=0.500=0,
171.000=2.100=0.500=0,
171.479=1.900=0.500=0,
171.500=2.100=0.500=0,
172.000=2.000=0.500=0,
200.000=2.100=0.500=0,
200.500=1.900=0.500=0,
201.000=2.100=0.500=0,
201.500=1.900=0.500=0,
202.000=2.100=0.500=0,
202.500=1.900=0.500=0,
203.000=2.100=0.500=0,
203.479=1.900=0.500=0,
203.500=2.100=0.500=0,
204.000=2.000=0.500=0,
214.000=3.000=2.000=0,
244.000=3.333=0.000=0,
244.500=3.667=0.000=0,
245.500=4.000=0.000=0,
280.000=5.000=0.500=0,
280.500=4.000=0.500=0,
296.000=5.000=0.500=0,
296.500=4.000=0.500=0,
376.500=10000.000=0.000=0,
377.000=2.000=0.000=0;
#SCROLLS:0.000=1.000,
8.000=0.250,
12.000=1.000,
144.000=0.500,
164.000=0.000,
164.125=1.000,
164.250=0.000,
164.375=1.000,
164.500=0.000,
164.625=1.000,
164.750=0.000,
164.875=1.000,
165.000=0.500,
172.000=0.000,
172.125=1.000,
172.250=0.000,
172.375=1.000,
172.500=0.500,
173.000=0.000,
173.125=0.667,
173.500=0.000,
173.625=0.667,
174.000=0.000,
174.125=0.667,
174.500=0.000,
174.625=0.667,
175.000=0.500,
204.000=0.000,
204.125=1.000,
204.250=0.000,
204.375=1.000,
204.500=0.500,
205.000=0.000,
205.125=0.667,
205.500=0.000,
205.625=0.667,
206.000=0.000,
206.125=1.000,
206.250=0.000,
206.375=1.000,
206.500=0.000,
206.625=1.000,
206.750=0.000,
206.875=1.000,
207.000=0.000,
207.125=0.667,
207.500=0.000,
207.625=0.667,
208.000=0.000,
208.250=1.000,
208.500=0.500,
210.000=0.000,
210.250=1.000,
210.500=0.500,
212.000=0.250,
276.000=0.000,
276.188=1.000,
276.250=0.000,
276.438=1.000,
276.500=0.000,
276.688=1.000,
276.750=0.000,
276.938=1.000,
277.000=0.000,
277.188=1.000,
277.250=0.000,
277.438=1.000,
277.500=0.000,
277.688=1.000,
277.750=0.000,
277.938=1.000,
278.000=0.000,
278.188=1.000,
278.250=0.000,
278.438=1.000,
278.500=0.000,
278.688=1.000,
278.750=0.000,
278.938=1.000,
279.000=0.250,
284.000=0.500,
284.250=0.000,
284.500=0.500,
285.000=0.000,
285.500=0.500,
286.000=0.000,
286.500=0.500,
287.000=0.000,
287.500=0.500,
288.000=0.000,
288.500=0.250,
307.500=0.375,
308.000=0.000,
308.250=0.375,
308.750=0.000,
309.000=0.250,
336.000=0.000,
336.250=0.500,
336.500=0.250,
336.750=0.000,
337.000=0.500,
337.250=0.250,
337.500=0.000,
337.750=0.500,
338.000=0.250,
338.250=0.000,
338.500=0.500,
338.750=0.250;
#FAKES:;
#LABELS:0.000=Song Start;
#BGCHANGES:;
#KEYSOUNDS:;
#ATTACKS:
;

//---------------dance-single - ----------------
#NOTEDATA:;
#CHARTNAME:;
#STEPSTYPE:dance-single;
#DESCRIPTION:;
#CHARTSTYLE:;
#DIFFICULTY:Challenge;
#METER:13;
#RADARVALUES:0.972515,1.326195,0.546482,0.780689,0.882178,872.000000,802.000000,70.000000,100.000000,49.000000,15.000000,40.000000,0.000000,0.000000,0.972515,1.326195,0.546482,0.780689,0.882178,872.000000,802.000000,70.000000,100.000000,49.000000,15.000000,40.000000,0.000000,0.000000;
#CREDIT:;
#NOTES:
0000
0000
0000
0000
,
0000
0000
0000
0000
,
0000
0000
0000
0000
,
1000
0001
0100
0010
00M1
1000
0100
0010
,
0001
1000
0010
0100
1M00
0001
0010
0001
,
0100
0010
1000
0100
0M01
0100
0010
1000
,
0001
0000
1000
0000
0100
0000
0010
0000
10M0
0001
1000
0000
0010
0000
00M1
0000
,
0100
0010
1000
0100
0M01
0010
0100
1000
,
0001
0100
0010
1000
M100
0001
0010
0100
,
1000
0001
0100
0010
00M1
1000
0100
0010
,
0001
0000
0000
0000
0000
0000
0000
0000
0000
0000
0000
0000
0000
0000
0000
0000
0000
0000
0000
0000
0000
0000
0000
0000
1000
0000
0000
0000
0000
0000
0000
0000
0000
0000
0000
0000
0000
0000
0000
0000
0000
0000
0000
0000
0000
0000
0000
0000
0010
0000
0000
0000
0000
0000
0000
0000
0000
0000
0000
0000
0000
0000
0000
0000
0000
0000
0000
0000
0000
0000
0000
0000
0100
0000
0000
0000
0000
0000
0000
0000
0000
0000
0000
0000
0000
0000
0000
0000
0000
0000
0000
0000
0000
0000
0000
0000
1M00
0000
0000
0000
0000
0000
0000
0000
0000
0000
0001
0000
0000
0000
0000
0000
0000
0000
0000
1000
0000
0000
0000
0000
0000
0000
0000
0000
0000
0001
0000
0000
0000
0000
0000
0000
0000
0000
1000
0000
0000
0000
0000
0000
0000
0000
0000
0000
0001
0000
0000
0000
0000
0000
0000
0000
0000
0000
1000
0000
0000
0000
0000
0000
0000
0000
0000
0001
0000
0000
0000
0000
0000
0000
0000
0000
0000
1000
0000
0000
0000
0000
0000
0000
0000
0000
0001
0000
0000
0000
0000
0000
0000
0000
0000
0000
,
0020
0000
0130
1000
0020
0030
0100
0001
,
0020
0230
2300
0000
,
3020
0230
0320
0032
,
0023
0000
0000
0000
0000
0000
0000
0000
0000
0000
0000
0000
0000
0000
0000
0000
0000
0000
0000
0000
0000
0000
0000
0000
0000
0000
0000
0000
0000
0000
0000
0000
0000
0000
0000
0000
0000
0000
0000
0000
0000
0000
0000
0000
0000
0000
0000
0000
0230
0000
0000
0000
0000
0000
0000
0000
0000
0000
0000
0000
0000
0000
0000
0000
0000
0000
0000
0000
0000
0000
0000
0000
0000
0000
0000
0000
0000
0000
0000
0000
0000
0000
0000
0000
0000
0000
0000
0000
0000
0000
0000
0000
0000
0000
0000
0000
0301
0000
0000
0000
0000
0000
0000
0000
0000
0000
1000
0000
0000
0000
0000
0000
0000
0000
0000
0001
0000
0000
0000
0000
0000
0000
0000
0000
0000
1000
0000
0000
0000
0000
0000
0000
0000
0000
0001
0000
0000
0000
0000
0000
0000
0000
0000
0000
1000
0000
0000
0000
0000
0000
0000
0000
0000
0000
0001
0000
0000
0000
0000
0000
0000
0000
0000
1000
0000
0000
0000
0000
0000
0000
0000
0000
0000
0001
0000
0000
0000
0000
0000
0000
0000
0000
1000
0000
0000
0000
0000
0000
0000
0000
0000
0000
,
0010
0100
0004
0013
0100
1000
0100
0010
0001
1000
0010
1000
0001
0010
0004
1003
,
0010
0000
0100
0000
0004
0000
1003
0000
0100
0000
0010
0000
0001
0000
1000
0000
0001
0000
0100
0000
0010
0000
1000
0000
0001
0000
0010
0000
0001
1000
0001
0000
,
0100
0010
0100
0100
0001
0001
1000
1000
,
0010
0100
0001
0100
0010
1000
0001
1000
0100
0010
0001
0010
0100
1000
0010
0100
,
0001
0000
0100
00M0
0100
0000
0000
0000
4000
0000
3000
0000
0010
0000
0000
0000
0100
0000
0000
0000
0100
0000
0000
0000
0001
0000
0000
0000
0001
0000
0000
0000
,
2100
0000
3010
0100
1M00
0001
1020
0000
,
0230
2300
3201
2300
3100
0100
1020
0000
,
0032
0000
0103
0010
00M1
1000
0101
0020
,
0000
0000
0031
1000
0001
0000
0100
0000
0011
0000
1000
0000
0001
0010
0M00
0010
,
2000
0000
0000
0000
0000
0000
0000
0000
0000
0000
0000
0000
3001
0000
0000
0010
0000
0000
0400
0000
0000
0300
0000
0000
1000
0000
0000
0000
0000
0000
0001
0000
0000
0000
0000
0000
0MM0
0000
0000
0000
0000
0000
0001
0000
0010
0000
0100
0000
,
4010
0000
0000
0000
0000
0000
3000
0000
0000
0000
0000
0000
0401
0000
0000
0000
0000
0000
0300
0000
0000
1000
0010
0100
,
0014
0000
0000
0000
1003
0100
0010
0100
1000
0000
0000
0001
0200
0000
0320
0000
,
2000
0000
3000
2000
0000
3000
2030
0000
3004
0043
0031
1000
0100
1000
0001
0100
,
0021
0000
0000
0000
1030
0000
0100
0000
0M01
0000
0100
0000
0010
1000
0001
0000
,
1020
0000
0130
1000
0001
0100
0010
00M1
,
1200
0310
1000
0000
0100
0000
0M01
0000
0010
0000
0100
0000
1000
0000
M020
0000
,
0000
0000
0031
0000
1000
0100
0010
0100
1000
0000
0010
0000
00M1
0000
1000
0010
,
1100
0000
0000
0000
0000
0000
0001
0000
0000
0010
0000
0000
0100
0000
0000
0000
0000
0000
1000
0000
0000
0000
0000
0000
0001
0000
0000
0000
0000
0000
0100
0000
0000
0010
0000
0000
1000
0000
0000
0000
0000
0000
0001
0000
0010
0000
0100
0000
,
4000
0000
0000
0000
0000
0000
3000
0000
0000
0000
0000
0000
0040
0000
0000
0000
0000
0000
0030
0000
0000
0100
0001
1000
,
0040
0000
0000
0000
0130
0000
0000
0000
0010
0000
0000
0000
1000
0000
0000
0000
0100
00M0
0100
0000
0001
0000
0000
0000
0010
0000
0000
0000
0400
0000
4300
0000
,
3100
0000
0000
0010
0000
0000
0000
0000
0000
0004
0000
0000
1003
0000
0000
0010
0000
0000
0100
0000
0000
0001
0000
0000
1000
0000
0000
0000
0100
0000
00M0
0000
0100
0000
0000
0000
0001
0000
0000
0000
0010
0000
0M00
0000
0010
0000
0000
0000
,
1000
0000
0001
0000
0002
0000
0000
0003
0002
0000
0000
0003
0002
0000
0000
0003
,
0001
0000
0100
00M0
0100
0000
0000
0000
4000
0000
3010
0000
0100
0000
0000
0000
0001
0000
0000
0000
0001
0000
0000
0000
1MM0
0000
0000
0000
1000
0000
0000
0000
,
0102
0000
0023
0000
0130
0M01
1000
2000
,
0010
0000
0000
0001
0000
0000
3100
0000
0102
0000
0000
1000
0000
0000
0013
0M00
,
0010
2000
0000
0001
0000
0000
3100
0000
0102
0000
0000
1000
0000
0000
0013
0000
,
0100
00M0
0100
0000
0100
00M0
0100
0000
0001
0000
0000
0000
1000
0000
0000
0000
0010
0000
0000
0000
0010
0000
0000
0000
0100
0000
0001
0000
0010
0000
0000
0000
,
0101
1000
0101
0010
0101
1000
0011
0011
,
1100
0001
1100
0000
0010
0000
0010
0000
1000
0000
1000
0000
0001
0000
0100
0010
,
1000
0000
0000
0000
0004
0000
0000
0000
1003
0000
0100
00M0
0100
0000
0000
0000
0021
0000
0000
0000
1030
0000
0000
0000
0004
0000
0000
0000
0003
0000
0000
0000
,
1000
0100
0010
0001
4000
3040
0130
0001
0010
0000
0000
0010
0000
0000
0010
0000
,
0004
0000
0000
0000
0003
0000
0000
0000
0100
00M0
0100
0000
1000
0000
0000
0000
0004
0000
0000
0000
0000
0000
0000
0000
0100
0000
0000
0000
0100
0000
0000
0000
,
1003
0000
1000
0000
0100
0000
0M01
0000
0010
0000
0010
0000
0100
1000
0100
1000
,
0001
0000
0100
00M0
0100
0000
0000
0000
1000
0000
0000
0000
1000
0000
0000
0000
0010
0000
0000
0000
00M1
0000
0000
0000
0100
0000
0000
0000
0004
0000
0000
0000
,
1003
0000
0100
00M0
0100
0000
0000
0000
0001
0000
0000
0000
0001
0000
0000
0000
0010
0000
0000
0000
0100
0000
0000
0000
2000
0000
0000
0000
0000
0000
0000
0000
,
3011
1000
0011
0100
0011
1000
0101
0101
,
1010
0001
1010
0000
0100
0000
0100
0000
1000
0010
0100
0010
1000
0000
1000
0000
,
0102
0000
0013
0100
1000
0010
0100
0000
0011
0000
1000
0001
1010
0100
1000
0001
,
0020
0000
0000
0000
0000
0000
0000
0000
0000
0000
0000
0000
0000
0000
0000
0000
0000
0000
0000
0000
0000
0000
0000
0000
0000
0000
0000
0000
0000
0000
0000
0000
0000
0000
0000
0000
0000
0000
0000
0000
0000
0000
0000
0000
0000
0000
0000
0000
0000
0000
0000
0000
0000
0000
0000
0000
0000
0000
0000
0000
0000
0000
0000
0000
0000
0000
0000
0000
0000
0000
0000
0000
0000
0000
0000
0000
0000
0000
0000
0000
0000
0000
0000
0000
0000
0000
0000
0000
0000
0000
0000
0000
0000
0000
0000
0000
0031
0000
0000
0000
0000
0000
0000
0000
0000
0000
1000
0000
0000
0000
0000
0000
0000
0000
0000
0001
0000
0000
0000
0000
0000
0000
0000
0000
0000
1000
0000
0000
0000
0000
0000
0000
0000
0000
0001
0000
0000
0000
0000
0000
0000
0000
0000
0000
1000
0000
0000
0000
0000
0000
0000
0000
0000
0000
0001
0000
0000
0000
0000
0000
0000
0000
0000
1000
0000
0000
0000
0000
0000
0000
0000
0000
0000
0001
0000
0000
0000
0000
0000
0000
0000
0000
1000
0000
0000
0000
0000
0000
0000
0000
0000
0000
,
0020
0000
0130
0001
0020
0000
0130
1000
,
0020
0230
2300
0000
,
3200
0320
2030
3200
,
0302
0203
0320
0000
,
0032
0000
2003
3020
,
0230
0302
0023
0000
,
0230
0000
2300
3002
,
1103
0000
0000
0000
0012
0000
0000
0000
0000
0000
0000
0000
1013
0000
0000
0000
0100
1000
0100
0000
0010
0000
0001
0000
1000
0000
0001
0000
0100
0000
0010
0000
,
2000
0000
3001
0010
2000
0000
3001
0100
,
2000
3020
0230
0000
,
0321
2030
3200
0320
,
2030
3020
0230
2300
,
3011
0000
0400
0000
0301
1000
0100
0010
0100
1000
0001
1000
0010
0100
0004
1003
,
0100
0010
0100
1000
0001
0100
0001
1000
0100
0010
0001
1000
0100
01M0
0100
0100
,
0001
0000
1000
0000
0010
0000
0010
0000
1000
0001
0100
0010
1000
0100
0010
0100
,
1000
0000
0000
0001
0000
0000
1000
0000
0000
0001
0000
0000
1000
0000
0000
0001
0000
0000
1000
0000
0000
0001
0000
0000
1000
0000
0000
0001
0000
0000
1000
0000
0000
0001
0000
0000
0200
0000
0000
0000
0000
0000
0310
0000
1000
0000
0001
0000
,
0020
0000
0000
0000
0000
0000
0000
0000
0130
0000
0000
0000
1000
0001
1000
0000
0010
0000
0100
0000
0001
0000
1000
0000
0100
0000
0010
0000
0001
0000
1000
0000
,
0011
2100
0000
3102
0000
2013
0000
3021
,
0000
1130
0001
1000
0100
0010
0001
1000
,
0010
0100
1M00
0001
0010
0010
0101
1000
,
0002
0000
0103
0010
1000
0100
0M01
0100
,
0010
0000
1000
0000
M400
0300
0001
0010
0400
0000
0300
0000
1010
0000
0002
0000
,
0000
0103
0010
2000
0000
3100
0010
0102
,
0000
2013
0000
0000
3001
0000
0100
0010
1000
0000
0100
0000
0040
0034
0013
0100
,
2000
3010
1100
0001
0100
0010
00M1
1000
,
0001
0000
0000
0000
0100
00M0
0100
0000
1000
0000
0000
0000
0100
0000
0000
0000
0M01
0000
0000
0000
0100
0000
0000
0000
0010
0000
0000
0000
00M1
0000
0000
0000
,
1000
0000
0100
0000
0010
0000
0001
1000
0001
0000
0100
0000
1M00
0000
0020
0000
,
0000
0000
0000
0000
0130
0000
0000
0000
0001
0000
0000
0000
0100
0000
0000
0000
1M00
0000
0001
0000
1000
0000
0001
0000
0010
0000
0000
0000
0100
1000
0100
0000
,
0010
0000
0001
0000
1000
0000
0001
0000
0100
0000
0010
0000
1000
0000
0100
0000
1000
0000
0001
0000
0100
0000
0010
1000
0010
0000
0100
0000
0001
0000
1000
0000
,
0100
0010
0001
1000
0100
1000
0001
0100
0004
4003
3004
4003
3101
0000
0010
0100
,
1010
0000
0001
1100
0000
0010
1100
0000
0001
1010
0000
0100
1010
0001
1000
0001
,
0010
0100
1010
0001
1010
0100
0010
0100
4000
0000
3040
0000
0130
0001
1000
0010
,
1200
0000
0301
0010
0200
0000
1300
0010
,
0200
0000
0302
0000
0023
0000
0000
0131
,
2010
3002
2103
3020
,
0130
0001
0100
0000
0010
0000
1000
0000
0001
0000
0010
0000
0101
0000
1000
0000
0001
0000
1000
0000
0010
0000
0100
0000
0014
0000
0000
0000
0000
0000
0000
0000
,
1103
0010
00M1
0100
0010
1000
M100
0001
,
0010
0000
0400
0000
0300
0000
0010
0000
0001
1000
0001
1000
0010
0000
0100
0000
,
0011
0000
0000
0000
1000
0000
0000
0000
0100
00M0
0100
0000
0001
0000
0000
0000
1000
0000
0000
0000
1000
0000
0000
0000
0010
0000
0000
0000
0010
0000
0000
0000
,
1100
0000
0001
0000
1000
0000
0100
0000
0010
0000
0001
0000
1010
0000
0100
0000
1000
0001
1000
0000
0010
0000
0100
0000
0011
0000
1000
0000
0001
0000
1000
0000
,
0000
0100
4004
3003
0000
0000
0000
0000
;

//---------------dance-single - ----------------
#NOTEDATA:;
#CHARTNAME:;
#STEPSTYPE:dance-single;
#DESCRIPTION:;
#CHARTSTYLE:;
#DIFFICULTY:Hard;
#METER:11;
#RADARVALUES:0.839798,1.031485,0.351310,0.726041,0.519158,753.000000,708.000000,45.000000,93.000000,0.000000,0.000000,1.000000,0.000000,0.000000,0.839798,1.031485,0.351310,0.726041,0.519158,753.000000,708.000000,45.000000,93.000000,0.000000,0.000000,1.000000,0.000000,0.000000;
#CREDIT:;
#NOTES:
0000
0000
0000
0000
,
0000
0000
0000
0000
,
0000
0000
0000
0000
,
1000
0100
0010
0001
1000
0001
0100
0010
,
1000
0010
0100
0001
1000
0001
0010
0100
,
1000
0010
0100
0001
0010
0100
0010
0001
,
1000
0000
0100
0000
1000
0000
0001
0000
0100
0010
0100
0000
0001
0000
0010
0000
,
0100
1000
0010
0100
0010
1000
0001
0100
,
0001
1000
0100
0001
0100
0010
0001
1000
,
0010
0100
0001
1000
0100
0010
0001
0100
,
0001
0000
1000
0000
0100
0000
1000
0000
0010
0100
0010
0100
0010
0000
1000
0000
,
0002
0000
0013
0100
2000
0000
3010
0100
,
0002
0023
2030
0000
,
3020
0230
2300
3020
,
0032
2003
3200
0000
,
0301
1000
0001
1000
0001
1000
0100
0000
0010
0000
0001
0000
1000
0000
0010
0100
,
0010
0000
1000
0001
1000
0001
1000
0000
0100
0000
0010
0000
0001
1000
0001
1000
,
0001
0100
0010
1000
0100
0010
0001
0100
,
0010
1000
0010
1000
0001
0010
0001
0010
0100
1000
0100
1000
0001
0100
0001
0100
,
0010
1000
0001
0000
0010
0000
0100
0000
1000
0000
1000
0000
0001
0000
0001
0000
,
1001
0000
1000
0010
0100
0010
1010
0000
,
0001
0010
0110
0100
1000
0001
0201
0000
,
0010
0000
0310
1000
0001
0000
0011
0000
,
1000
0000
0010
0100
0010
0000
1000
0000
0001
0000
0010
0000
0100
1000
0000
0100
,
2000
0000
0000
0000
3001
0100
0001
0000
1000
0000
0100
0000
0010
0000
0001
1000
,
0020
0000
0000
0000
0000
0000
0000
0000
0230
0000
0000
0000
0000
0000
0301
1000
,
0200
0000
0000
0000
0320
0000
0000
0000
0031
0000
0000
0001
0000
0000
0001
0000
,
1000
0000
0000
1000
0000
0000
1000
0000
0010
0100
0010
0100
0001
1000
0001
1000
,
0200
0000
0310
0001
0100
0001
0020
0000
,
0230
0000
0000
0000
1300
0000
0010
0000
0100
0000
0001
0000
0010
0000
0100
1000
,
0001
0000
0100
0000
0010
0000
1000
0000
0100
0000
1000
0000
0001
0000
0100
0010
,
1000
0000
0001
0000
0010
0000
0100
1000
0001
0000
0001
0000
0010
0000
0100
1000
,
0001
0000
0100
0001
1000
0000
0100
0000
0010
0000
0001
0000
1000
0000
0010
0100
,
0002
0000
0000
0000
0000
0000
0000
0000
0023
0000
0000
0000
0000
0000
0130
1000
,
0001
0000
0100
0000
0001
0000
0100
0000
0010
1000
0010
0000
0100
0000
0001
1000
,
0001
0000
0000
1000
0000
0000
0100
0000
0000
0000
0000
0000
0010
0000
0000
0001
0000
0000
0010
0000
0000
0001
0000
0000
1000
0000
0000
0000
0010
0000
0000
0000
0100
0000
0000
0000
0001
0000
0000
0000
0010
0000
0000
0000
0100
0000
0000
0000
,
1000
0001
0002
0000
0203
0300
0200
0300
,
0010
1000
0001
0000
0010
0001
1000
0000
0010
0000
0010
0000
0100
0000
0100
0000
,
0002
0000
0010
0000
1003
0010
0100
0100
,
0001
0000
0000
0001
0000
0000
0001
0000
1100
0000
0000
1000
0000
0000
1000
0000
,
0010
0100
0000
0100
0000
0000
0100
0000
0101
0000
0000
0001
0000
0000
0001
0000
,
0010
0100
0010
0100
1000
0000
0001
0000
0100
0000
0001
0000
0020
0000
0000
0030
,
0110
0000
1100
0000
0101
0000
0110
0110
,
1000
0001
1000
0000
0100
0000
0100
0000
0010
0000
0010
0000
0001
0000
1000
0010
,
0200
0000
0301
1000
0001
1000
0100
0000
0010
0000
0001
0000
1000
0010
1000
0000
,
0100
0000
0100
0000
0010
0001
0010
0001
1000
0000
0000
1000
0000
0000
1000
0000
,
0020
0000
0430
0300
0002
0000
0013
0010
,
0100
1000
0001
0100
0010
0010
2000
0000
,
3001
0010
0001
0000
1000
0000
0010
0000
0100
0000
0100
0000
0002
0000
0000
0000
,
0013
0100
0010
0000
0001
0000
1000
0000
0010
0000
0010
0000
0100
0000
0100
0000
,
0101
0000
1100
0000
0110
0000
0011
0011
,
1000
0010
1000
0000
0001
0000
0001
0000
0010
0100
0000
0000
1100
0000
1000
0000
,
0002
0000
0103
0010
0100
0010
1000
0000
0002
0000
0013
0100
1000
0100
0010
0001
,
2000
0000
0000
0000
0000
0000
0000
0000
0000
0000
0000
0000
0000
0000
0000
0000
0000
0000
0000
0000
0000
0000
0000
0000
0000
0000
0000
0000
0000
0000
0000
0000
0000
0000
0000
0000
0000
0000
0000
0000
0000
0000
0000
0000
0000
0000
0000
0000
0000
0000
0000
0000
0000
0000
0000
0000
0000
0000
0000
0000
0000
0000
0000
0000
0000
0000
0000
0000
0000
0000
0000
0000
0000
0000
0000
0000
0000
0000
0000
0000
0000
0000
0000
0000
3000
0000
0000
0000
0000
0000
0000
0000
0000
0000
0000
0000
0001
0000
0000
0000
0000
0000
0000
0000
0000
0000
1000
0000
0000
0000
0000
0000
0000
0000
0000
0001
0000
0000
0000
0000
0000
0000
0000
0000
0000
1000
0000
0000
0000
0000
0000
0000
0000
0000
0001
0000
0000
0000
0000
0000
0000
0000
0000
0000
1000
0000
0000
0000
0000
0000
0000
0000
0000
0000
0001
0000
0000
0000
0000
0000
0000
0000
0000
1000
0000
0000
0000
0000
0000
0000
0000
0000
0000
0001
0000
0000
0000
0000
0000
0000
0000
0000
1000
0000
0000
0000
0000
0000
0000
0000
0000
0000
,
0002
0000
0013
0100
2000
0000
3010
0100
,
0002
0023
2030
0000
,
3020
0230
0302
2003
,
3020
0032
2003
0000
,
3020
0230
0302
2003
,
3200
0320
2030
0000
,
3020
0000
0000
0000
0032
0000
2000
3003
,
1001
0000
1001
0000
0000
0000
0110
0000
1000
0010
1000
0010
0100
0001
0100
0001
,
2000
0000
3100
0010
0002
0000
0103
0010
,
2000
3200
0302
0000
,
0203
0320
2030
3002
,
0203
2300
3020
0230
,
0301
1000
0001
1000
0001
1000
0100
0000
0010
0000
0001
0000
1000
0000
0010
0100
,
0010
0000
1000
0001
1000
0001
1000
0000
0100
0000
0010
0000
0001
1000
0001
1000
,
0010
0010
0100
0100
0001
0001
1000
1000
,
0001
1000
0001
1000
0001
1000
0001
1000
0001
1000
0001
1000
0002
0000
0000
0000
,
0023
0000
0230
2300
3020
0000
0130
0001
,
0101
1100
0000
0110
0000
0011
0000
1001
,
0000
0110
1000
0001
0010
0100
1000
0010
,
1000
0100
1000
0001
0100
0100
0010
1000
,
0002
0000
0013
0100
1000
0100
0010
0001
,
0100
0000
0010
0000
1000
0000
0001
0010
2000
0000
0000
0000
3010
0000
0100
0000
,
1000
0001
0100
0010
1000
0100
0010
0011
,
0000
1100
0000
0000
0101
0000
1000
0100
1000
0000
0001
0000
0100
0010
0100
0010
,
2000
0000
3100
0010
0001
1000
1010
0001
,
0010
0100
1100
1000
0001
0010
0110
1000
,
0001
0000
0100
0000
0101
0000
1000
0000
0010
0000
0100
0000
1001
0000
0001
0100
,
0001
0000
1000
0000
1100
0000
0001
0000
0100
0010
0100
0010
1000
0000
0001
0010
,
0100
1000
0100
1000
0001
0000
0100
0000
0010
1000
0010
1000
0001
0000
0010
0000
,
0100
1000
0100
1000
0001
0100
0001
0100
0010
0000
0010
0000
0010
0000
1000
0000
,
1100
0000
0000
0101
0000
0000
0110
0000
0000
1001
0000
0000
1100
0000
0001
0000
,
0100
0010
0100
0000
0001
0000
1000
0000
0100
0000
0010
0000
0001
1000
0001
1000
,
0020
0000
0130
0001
0020
0000
0130
1000
,
0020
0000
0230
0000
0302
0000
0003
1001
,
2001
3200
0320
2030
,
3020
0032
2003
3020
,
0130
0001
1001
1000
0100
0010
0011
0001
,
1000
0000
0010
0100
0010
0000
1000
0000
0001
0000
0000
0001
0010
0000
0100
0000
,
1000
0000
1000
0000
0001
0100
0001
0000
0010
0000
0010
0000
0100
0000
0100
0000
,
1000
0001
1000
0001
0100
0010
0100
0010
1000
0001
0010
0100
1000
0001
1000
0010
,
0000
0100
0200
0300
0000
0000
0000
0000
;

//---------------dance-single - ----------------
#NOTEDATA:;
#CHARTNAME:;
#STEPSTYPE:dance-single;
#DESCRIPTION:;
#CHARTSTYLE:;
#DIFFICULTY:Medium;
#METER:9;
#RADARVALUES:0.665816,0.735799,0.124910,0.788496,0.140524,597.000000,581.000000,16.000000,101.000000,0.000000,0.000000,0.000000,0.000000,0.000000,0.665816,0.735799,0.124910,0.788496,0.140524,597.000000,581.000000,16.000000,101.000000,0.000000,0.000000,0.000000,0.000000,0.000000;
#CREDIT:;
#NOTES:
// measure 0
0000
0000
0000
0000
,  // measure 1
0000
0000
0000
0000
,  // measure 2
0000
0000
0000
0000
,  // measure 3
2000
0000
3010
0100
0001
0100
0010
1000
,  // measure 4
0002
0000
0013
0100
1000
0100
0010
0001
,  // measure 5
2000
0000
3010
0100
0001
1000
0100
0010
,  // measure 6
0002
0000
1003
0010
0100
0001
1000
0100
,  // measure 7
0020
0000
0031
1000
0001
0100
0010
1000
,  // measure 8
0002
0000
0013
0100
1000
0001
0100
0001
,  // measure 9
0020
0000
0130
1000
0001
0100
0010
1000
,  // measure 10
0002
0000
0013
0100
2000
0000
0000
0000
,  // measure 11
3020
0000
0230
0000
,  // measure 12
0302
0023
0230
0000
,  // measure 13
2300
3020
0230
2300
,  // measure 14
3200
0302
2003
0000
,  // measure 15
3100
0010
0001
0010
0100
1000
0001
0100
,  // measure 16
0001
0010
0100
1000
0010
0100
0001
0100
,  // measure 17
0010
1000
0001
0010
0100
1000
0001
0100
,  // measure 18
0010
0010
1000
1000
0001
0001
0010
0010
,  // measure 19
0200
0000
2300
0000
3001
0100
0001
0100
,  // measure 20
0110
0000
1000
0001
0010
0100
1000
0000
,  // measure 21
0010
0100
0001
0100
0010
1000
0001
0020
,  // measure 22
0000
0130
0000
1000
0001
0100
0001
0020
,  // measure 23
0000
0000
0130
1000
0100
0000
0010
0000
0001
0000
1000
0000
0010
0100
0000
0010
,  // measure 24
0100
0000
0001
0001
1000
0100
0010
0001
,  // measure 25
0202
0000
0000
0303
2200
0000
3300
0010
,  // measure 26
0220
0000
0330
0000
1001
0000
0000
0000
1000
0000
0000
1000
0000
0000
1000
0000
,  // measure 27
0001
0000
0000
0001
0000
0000
0001
0000
0010
0000
0100
0000
1000
0000
0001
0000
,  // measure 28
0200
0000
0310
1000
0100
1000
0020
0000
,  // measure 29
0230
0000
0301
0010
0100
1000
0100
0010
,  // measure 30
0001
1000
0001
0000
0100
0000
0010
0000
1000
0000
0001
0000
0010
0000
0200
0000
,  // measure 31
0000
0000
1300
0000
0001
0100
0001
0000
1000
0000
0100
0000
0010
0000
0002
0000
,  // measure 32
0000
0000
0103
0010
0200
0000
0000
0000
0301
0000
1000
0000
0100
0000
0010
0000
,  // measure 33
0002
0000
0000
0000
0203
0000
0000
0310
,  // measure 34
1000
0000
0001
0000
1000
0000
0001
0000
0010
0100
0010
0000
0001
0000
1000
0000
,  // measure 35
0010
0000
0000
0100
0000
0000
0010
0000
0000
0100
0000
0000
0001
0000
1000
0000
0001
0000
1000
0000
0001
0000
1000
0000
,  // measure 36
0002
0000
0000
0000
,  // measure 37
0013
0010
0100
0100
1000
1000
0002
0000
,  // measure 38
0203
0000
0010
0000
0301
0010
0100
1000
,  // measure 39
0001
0000
0000
0100
0000
0000
0010
0000
1000
0000
0000
0100
0000
0000
0010
0000
,  // measure 40
0001
1000
0000
0100
0000
0000
0010
0000
0001
0000
0000
0100
0000
0000
0010
0000
,  // measure 41
1000
1000
1000
0001
0010
0100
2000
0000
,  // measure 42
3001
0100
0001
0100
0001
0100
0001
1000
,  // measure 43
0100
0100
0010
0001
0010
0001
0010
0100
,  // measure 44
1000
0000
0010
0000
0100
0001
0100
0000
0010
0000
1000
0000
0002
0000
0000
0000
,  // measure 45
0013
0000
0100
0000
0010
0000
0100
0000
1000
0000
0000
1000
0000
0000
1000
0000
,  // measure 46
0002
0000
0203
0000
0320
0000
1030
1000
,  // measure 47
0001
0010
0100
0010
0001
1000
0010
0000
,  // measure 48
0100
0001
0100
0000
0010
0000
1000
0000
0001
0000
0010
0000
0100
0000
0000
0000
,  // measure 49
1000
0100
1000
0000
0001
0000
0100
0000
0010
0000
1000
0000
0002
0000
0000
0000
,  // measure 50
1003
0100
1000
0100
1000
0100
1000
0001
,  // measure 51
0100
0100
0010
1000
0010
1000
0010
0100
,  // measure 52
0001
0000
0010
0000
0100
1000
0100
0000
0010
0000
0001
1000
0001
0000
0100
0000
,  // measure 53
0020
0000
0230
0000
,  // measure 54
0302
0000
0023
0000
,  // measure 55
0230
2300
3020
0000
,  // measure 56
0230
2300
3200
0302
,  // measure 57
0023
0230
2300
0000
,  // measure 58
3002
0000
0203
0320
,  // measure 59
2030
3200
0320
0000
,  // measure 60
0032
0000
0203
0310
,  // measure 61
1000
1001
0000
1001
0001
0010
0100
1000
,  // measure 62
0020
0000
0130
0001
2000
0000
3100
0020
,  // measure 63
0000
0000
0032
0000
0203
0000
0310
1000
,  // measure 64
1001
0001
0010
0200
0000
1300
0001
0200
,  // measure 65
0000
0310
1000
0001
0010
0100
2000
0000
,  // measure 66
3010
0100
0010
0100
0001
1000
0100
1000
,  // measure 67
0010
0100
0001
0010
0100
1000
0001
0100
,  // measure 68
0010
0000
1000
0000
0010
0000
1000
0000
0001
0100
0001
0000
1000
0100
1000
0000
,  // measure 69
0001
1000
0001
1000
0001
1000
0020
0000
,  // measure 70
0230
0000
0301
0010
0200
0000
1300
0020
,  // measure 71
0100
0100
0000
0100
0000
0100
0000
0130
,  // measure 72
0000
0001
0010
0100
1000
0100
0010
0001
,  // measure 73
1000
0010
0100
0001
1000
0100
1000
0010
,  // measure 74
0200
0000
0301
0010
0100
1000
0001
0100
,  // measure 75
0001
1000
0100
0010
0002
0000
0103
0020
,  // measure 76
0000
1030
0100
0020
0000
0031
1000
0010
,  // measure 77
0000
0110
0000
0000
0001
0000
0010
0000
0100
0000
1000
0000
0001
1000
0001
0000
,  // measure 78
0200
0300
0110
0000
1000
0001
0010
0100
,  // measure 79
1000
0001
0100
0001
0010
0100
1000
0010
,  // measure 80
1000
0001
0100
0001
1000
0100
1000
0010
,  // measure 81
0100
0000
0001
0000
0010
0000
0100
0000
1000
0001
1000
0001
1000
0000
0010
0000
,  // measure 82
0100
0001
1000
0100
0010
0001
0100
0010
,  // measure 83
0001
0010
0100
0001
0010
0100
1000
0010
,  // measure 84
0110
0000
0000
1001
0000
0000
1100
0000
0000
0101
0000
0000
1000
0000
0001
0000
,  // measure 85
0010
0000
0100
0000
0100
0000
1000
0000
0001
0100
0001
0000
1000
0000
0100
0000
,  // measure 86
0020
0000
0032
0000
,  // measure 87
0203
0000
0320
0000
2030
0000
0000
3001
,  // measure 88
0002
0023
0230
2300
,  // measure 89
3020
0230
0302
2003
,  // measure 90
3100
0110
0001
1001
,  // measure 91
1000
0000
0010
0100
0010
0000
1000
0000
0001
0000
0010
0000
0100
0000
1000
0000
,  // measure 92
0001
0001
0100
0100
0010
0010
1000
1000
,  // measure 93
0001
0000
1000
0100
1000
0000
0001
0000
1000
0100
1000
0000
0001
0000
0100
0000
,  // measure 94
0000
0020
0030
0000
0000
0000
0000
0000
;
