#TITLE:Meet You;
#SUBTITLE:;
#ARTIST:DÉ DÉ MOUSE feat. Kizuna Ai;
#TITLETRANSLIT:;
#SUBTITLETRANSLIT:;
#ARTISTTRANSLIT:;
#GENRE:;
#CREDIT:;
#BANNER:banner.png;
#BACKGROUND:;
#LYRICSPATH:;
#CDTITLE:;
#MUSIC:Meet You.ogg;
#OFFSET:-0.113000;
#SAMPLESTART:91.754089;
#SAMPLELENGTH:17.109375;
#SELECTABLE:YES;
#BPMS:0.000000=128.000000
;
#STOPS:
;
#BGCHANGES:;
#KEYSOUNDS:;
#ATTACKS:;

//---------------dance-single - ----------------
#NOTES:
     dance-single:
     :
     Challenge:
     10:
     0.635485,0.683603,0.163439,0.227394,0.714159,626.000000,603.000000,23.000000,32.000000,44.000000,0.000000,0.635485,0.683603,0.163439,0.227394,0.714159,626.000000,603.000000,23.000000,32.000000,44.000000,0.000000:
// measure 0
0000
0000
0000
0000
,  // measure 1
0000
0000
0000
0000
,  // measure 2
2100
0000
0000
0000
0000
0000
0000
0000
0000
0000
0000
0000
3010
0000
0100
0021
,  // measure 3
0000
0000
0000
0000
0000
0000
1030
0100
,  // measure 4
1020
0000
0000
0000
0000
0000
0000
0000
0000
0000
0000
0000
0031
0000
0010
0101
,  // measure 5
2000
0000
0000
0000
0000
0000
3010
0100
,  // measure 6
0011
0000
0000
0000
0100
0000
0000
0000
0100
0000
0000
0000
0100
0000
0001
1100
,  // measure 7
0010
0000
1000
0000
1000
0000
1000
0001
,  // measure 8
1010
0000
0100
0000
0100
0000
1000
0000
1000
0001
0100
0010
1000
0001
0010
0100
,  // measure 9
1000
0000
0000
0000
0000
0000
0001
0100
,  // measure 10
0011
0000
1000
0000
0100
0000
00M1
0000
0002
0003
0010
0000
0100
0000
1000
0000
,  // measure 11
0101
0000
0000
0000
1000
0400
0000
M000
0000
0000
0300
1000
0101
0000
0010
0000
,  // measure 12
0001
0000
1000
0000
0001
0000
0100
1000
200M
3000
0010
0000
0100
0000
0001
0000
,  // measure 13
1100
0000
0000
0000
0001
0400
0000
000M
0000
0000
0300
0001
1100
0000
0010
0000
,  // measure 14
1000
0000
0001
0000
0100
0000
10M0
0000
2000
3000
0010
0000
0100
0000
0001
0000
,  // measure 15
1100
0000
0000
0000
0001
0400
0000
000M
0000
0000
0300
0001
1100
0000
0010
0000
,  // measure 16
1000
0000
0001
0000
1000
0000
0100
0001
M002
0003
0010
0000
0100
0000
1000
0000
,  // measure 17
0101
0000
0000
0000
1000
0400
0000
M000
0000
0000
0300
1000
0101
0000
0010
0000
,  // measure 18
0001
0000
1000
0000
0100
0000
0001
0100
0020
0030
0001
0100
0010
0000
1000
0000
,  // measure 19
0001
0000
0000
0000
1000
0400
0000
M000
0000
0000
0000
0000
0301
0000
1000
0000
,  // measure 20
0101
0000
0010
0000
0001
0000
0100
0010
2000
3000
0100
0010
1000
0000
0010
0000
,  // measure 21
0001
0000
1000
0010
1000
0400
0000
M000
0000
0000
0000
0000
0301
0000
0000
0000
,  // measure 22
1100
0000
0010
0000
1000
0000
0100
0010
0002
0003
0100
0010
0001
0000
0010
0000
,  // measure 23
1000
0100
0002
0000
0103
0010
0101
1000
,  // measure 24
0010
0000
0100
0000
1000
0000
0001
0010
2000
3000
0001
0010
1000
0000
0010
0000
,  // measure 25
0100
0000
0100
0000
1000
0000
1000
0001
0000
0000
0100
0000
0100
0000
0100
0000
,  // measure 26
0010
0000
0000
1000
0000
0100
0010
0000
0100
0000
0000
1000
0000
0001
1000
0100
,  // measure 27
01M0
0000
0001
0000
0000
0000
1000
0100
01M0
0000
0001
0000
0000
0000
1000
0010
,  // measure 28
0M10
0000
0001
0000
0000
1000
0010
0000
0100
0000
0000
0010
0000
1000
0001
0100
,  // measure 29
01M0
0000
1000
0000
0000
0000
0001
0100
01M0
0000
1000
0000
0000
0000
0001
0010
,  // measure 30
0M10
0000
1000
0000
0000
0001
0010
0000
0100
0000
0000
0010
0000
0001
1000
0100
,  // measure 31
00M1
0000
0001
0000
0000
0000
1000
0100
00M1
0000
0001
0000
0000
0000
1000
0010
,  // measure 32
0M01
0001
01M0
0100
1000
0010
0100
0001
,  // measure 33
1000
0100
1000
0010
0100
0001
0010
0100
0000
0000
0000
0000
0MM0
0000
0000
0000
,  // measure 34
1002
0000
0000
0000
0023
0000
0000
0000
0130
0000
0000
1000
0000
0010
0100
0000
,  // measure 35
2001
0000
0000
0000
3200
0000
0000
0000
0310
0000
0000
0001
0000
0100
0010
0000
,  // measure 36
1002
0000
0000
0000
0023
0000
0000
0000
0130
0000
0000
1000
0000
0010
0100
0000
,  // measure 37
2001
0000
0000
0000
3020
0000
0000
0000
0130
0001
0100
0001
1000
0100
1000
0100
,  // measure 38
0002
0000
0000
0000
2003
0000
0000
0000
3010
0000
0000
0001
0000
0100
0010
0000
,  // measure 39
1000
0100
1000
0100
0010
0001
0010
0001
2000
0000
0000
3010
0000
0100
0010
0000
,  // measure 40
0002
0000
0000
0000
2003
0000
0000
0000
3100
0000
0000
0001
0000
0010
0100
0000
,  // measure 41
2000
0000
3020
0000
0130
0000
0MM0
0001
,  // measure 42
0010
0000
0100
1000
0000
0100
1000
0000
0010
0000
0100
0001
0000
0100
0001
0000
,  // measure 43
1000
0000
0100
0010
0000
0100
1000
0000
0001
0000
0100
0010
0000
0100
0001
1000
,  // measure 44
0100
0000
0010
0001
0000
0001
1000
0000
0010
0000
0100
0001
0000
0001
1000
0000
,  // measure 45
1000
0000
0010
1000
0000
1000
0001
0000
0010
0000
0100
1000
0000
1000
0001
0100
,  // measure 46
0010
0000
1000
0100
00M0
0100
0001
0000
0010
0000
0001
0100
00M0
0100
1000
0000
,  // measure 47
0001
0000
1000
0010
0M00
0010
0001
0000
0100
0000
0001
0010
0M00
0010
1000
0001
,  // measure 48
0010
0010
0100
0100
1000
1000
0001
0001
,  // measure 49
0100
0010
1000
0100
1000
0001
0100
0010
2000
0000
0000
0000
0000
0000
3001
0010
,  // measure 50
0100
0000
1000
0001
1000
0010
0100
0000
0001
0000
1000
0100
0010
0100
1000
0000
,  // measure 51
0010
0000
0100
0001
0010
0100
1000
0000
0001
0000
0100
0010
1000
0001
0010
0000
,  // measure 52
0010
0000
0100
1000
0001
1000
0010
0000
0100
0000
0001
0010
0001
1000
0010
0000
,  // measure 53
0100
0000
0001
1000
0100
0010
0001
0000
1000
0000
0010
0100
0001
1000
0100
0000
,  // measure 54
0100
0000
0010
0001
0000
0001
1000
0010
0100
0000
0001
1000
0000
1000
0100
0010
,  // measure 55
0001
0000
1000
0010
0000
0010
0100
0001
1000
0000
0100
0010
0000
0010
0001
1000
,  // measure 56
0010
0000
0010
0100
0000
0010
1000
0001
0010
0000
0010
0100
0000
1000
0100
0010
,  // measure 57
0001
0000
0001
1000
0000
0010
0100
0001
1000
0000
1000
0100
0000
0010
0001
1000
,  // measure 58
0010
0000
0100
0000
0001
0010
0000
1000
0000
0010
0001
0000
1000
0100
01M0
0000
,  // measure 59
0001
0000
0010
0000
0100
1000
0001
0000
0100
0000
0000
0010
1000
0001
0010
0100
,  // measure 60
1000
0000
0010
0000
1000
0001
0100
1000
0000
0100
0001
0000
1000
0100
00M0
0100
,  // measure 61
0001
0000
0010
0100
1000
0000
0010
0100
0001
0000
1000
0001
0000
0001
1000
0010
,  // measure 62
0100
0001
0100
0001
1000
0010
0000
0001
0000
0010
1000
0000
0001
0100
01M0
0000
,  // measure 63
1000
0000
0010
0000
0100
0000
0001
1000
0100
0000
0010
0001
1000
0001
0100
0000
,  // measure 64
0010
0000
0001
0000
1000
0100
0001
1000
0000
0100
0010
0000
0001
0100
00M0
0100
,  // measure 65
1000
0001
1000
0001
0010
0100
0010
0100
0002
0003
M000
0001
0000
0010
0100
1000
,  // measure 66
0001
0000
1000
0000
0000
0000
0000
0000
0000
0000
0000
0000
0000
0000
1000
0100
,  // measure 67
01M0
0000
0001
0000
0000
0000
1000
0100
01M0
0000
0001
0000
0000
0000
1000
0010
,  // measure 68
0M10
0000
0001
0000
0000
0000
0000
0000
0000
0000
0000
0000
0000
0000
0001
0100
,  // measure 69
01M0
0000
1000
0000
0000
0000
0001
0100
01M0
0000
1000
0000
0000
0000
0001
0010
,  // measure 70
0M10
0000
1000
0000
0000
0000
0000
0000
0000
0000
0000
0000
0000
0000
1000
0100
,  // measure 71
00M1
0000
0001
0000
0000
0000
1000
0100
00M1
0000
0001
0000
0000
0000
1000
0010
,  // measure 72
0M01
0000
0001
0000
0000
0000
0000
0000
0000
0000
0000
0000
0000
0000
0001
0100
,  // measure 73
10M0
0000
1000
0000
0000
0000
0001
0100
10M0
0000
1000
0000
0000
0000
0002
2003
,  // measure 74
3000
0000
0000
0000
;

//---------------dance-single - ----------------
#NOTES:
     dance-single:
     :
     Hard:
     9:
     0.542091,0.578433,0.007106,0.383727,0.550719,534.000000,533.000000,1.000000,54.000000,0.000000,0.000000,0.542091,0.578433,0.007106,0.383727,0.550719,534.000000,533.000000,1.000000,54.000000,0.000000,0.000000:
0000
0000
0000
0000
,
0000
0000
0000
0000
,
1002
0000
0000
0000
0000
0000
0000
0000
0000
0000
0000
0000
0013
0000
0100
2000
,
0000
0000
0000
0000
0000
0000
3001
0100
,
0020
0000
0000
0000
0000
0000
1030
0001
,
0020
0000
0000
0000
0000
0000
0130
1000
,
0001
0000
0000
0000
0001
0000
0000
0000
0001
0000
0000
0000
0001
0000
1000
0010
,
0100
0000
0100
0000
0100
0000
0100
0001
,
1000
0000
1000
0000
0100
0000
0100
0000
0010
0001
0010
0000
0100
1000
0100
0000
,
0010
0000
0000
0000
0000
0000
0001
1000
,
0010
0100
0001
0010
1000
0010
0001
1000
,
0010
0000
0000
0000
0100
0001
0000
1000
0000
0100
0000
0000
0020
0000
0000
0000
,
0031
0000
1000
0000
0010
0000
0100
0001
2000
0000
0000
0000
3002
0000
0000
0000
,
0013
0000
0000
0000
0100
1000
0000
0001
0000
0010
0000
0000
0200
0000
0000
0000
,
0310
0001
1000
0100
0001
0100
1000
0001
,
0010
0000
0000
0000
0100
1000
0000
0001
0000
0100
0000
0000
0020
0000
0000
0000
,
1030
0000
0001
0000
0010
0000
0100
1000
0002
0000
0000
0000
2003
0000
0000
0000
,
3010
0000
0000
0000
0100
0001
0000
1000
0000
0010
0000
0000
0200
0000
0000
0000
,
0301
0000
1000
0000
0100
0000
0010
0001
1000
0000
0010
0000
0100
0000
0001
0000
,
1000
0000
0000
0000
0100
0010
0000
0001
0000
1000
0000
0000
0020
0000
0000
0000
,
1030
0000
0001
0000
0100
0000
0010
1000
0001
0000
0010
0000
0100
0000
1000
0000
,
0001
0000
0100
0010
0100
0010
0000
1000
0000
0001
0000
0000
2000
0000
0000
0000
,
3100
0000
0010
0000
0001
0000
1000
0010
0100
0000
0001
0000
1000
0000
0100
0000
,
0010
0100
0002
0000
0000
0103
1000
0001
,
0100
0000
0000
0000
0010
0000
1000
0001
0100
0000
0001
1000
0100
0000
0000
0000
,
0010
0000
0010
0000
0001
0000
1000
0001
0000
0000
1000
0000
0010
0000
0100
0000
,
0001
0000
0002
0000
1000
0000
0000
0000
1000
0000
0000
0000
1003
0000
0001
0100
,
0001
0000
1000
0000
0000
0000
0001
0100
0001
0000
1000
0000
0000
0000
0001
0010
,
0001
0000
2000
0000
0001
0000
0000
0000
0001
0000
0000
0000
3001
0000
1000
0010
,
1000
0000
0001
0000
0000
0000
1000
0010
1000
0000
0001
0000
0000
0000
1000
0100
,
1000
0000
0002
0000
1000
0000
0000
0000
1000
0000
0000
0000
1003
0000
0001
0100
,
0001
0000
1000
0000
0000
0000
0001
0100
0001
0000
1000
0000
0000
0000
0001
0010
,
0001
1000
0010
1000
0010
0100
0001
0100
,
0001
1000
0001
0000
0010
0100
0010
0000
0002
0000
2000
0000
3003
0000
0001
1000
,
0020
0000
0000
0000
2000
0000
0000
0000
3030
0000
0000
0001
0000
1000
0100
0000
,
0020
0000
0000
0000
0002
0000
0000
0000
0033
0000
0000
1000
0000
0001
0010
0000
,
0200
0000
0000
0000
2000
0000
0000
0000
3300
0000
0000
0001
0000
1000
0010
0000
,
0200
0000
0000
0000
0302
0000
0000
0000
1003
0100
1000
0000
0001
0100
0001
0000
,
0200
0000
0000
0000
0020
0000
0000
0000
0330
0000
0000
0001
0000
1000
0010
0000
,
0100
0000
0200
0000
0010
0000
0020
0000
0330
0000
0000
1000
0000
0001
0010
0000
,
0200
0000
0000
0000
0020
0000
0000
0000
0330
0000
0000
0001
0000
1000
0010
0000
,
0200
0000
0020
0000
0330
0000
0000
0001
,
2000
0000
0000
3100
0000
0010
0001
0000
2000
0000
0000
3010
0000
0100
0001
0000
,
2000
0000
0000
3100
0000
0010
0001
0000
2000
0000
0000
3010
0000
0100
0001
1000
,
0002
0000
0000
0013
0000
0100
1000
0000
0002
0000
0000
0103
0000
0010
1000
0000
,
0002
0000
0000
0013
0000
0100
1000
0000
0002
0000
0000
0103
0000
0010
1000
0001
,
2000
0000
0000
0000
3100
0010
0001
0000
2000
0000
0000
0000
3010
0100
0001
0000
,
2000
0000
0000
0000
3100
0010
0001
0000
2000
0000
0000
0000
3010
0100
0001
1000
,
0002
0000
0000
0000
0013
0100
1000
0000
0002
0000
0000
0000
0103
0010
1000
0000
,
0001
0010
0001
0000
1000
0100
1000
0000
0020
0000
0200
0000
0330
0000
0001
1000
,
0001
0000
0010
0100
0000
0010
0100
0000
1000
0000
0001
0100
0000
0001
0100
0000
,
0010
0000
1000
0001
0000
1000
0001
0000
0010
0000
0100
1000
0000
0100
1000
0000
,
0001
0000
0100
0010
0000
0100
0010
0000
1000
0000
0001
0010
0000
0001
0010
0000
,
0100
0000
1000
0001
0000
1000
0001
0000
0100
0000
0010
1000
0000
0010
1000
0000
,
0001
0000
0010
0100
0000
0100
1000
0000
0001
0000
0100
0010
0000
0010
1000
0000
,
0100
0000
0010
0001
0000
0001
1000
0000
0010
0000
0100
0001
0000
0001
1000
0000
,
1000
0000
0010
0100
0000
0100
0001
0000
1000
0000
0100
0010
0000
0010
0001
0000
,
0100
0000
0010
1000
0000
1000
0001
0000
0010
0000
0100
1000
0000
1000
0001
0000
,
0100
0000
0010
0000
1000
0001
0000
0010
0000
0100
1000
0000
0001
0000
0100
0000
,
0010
0000
1000
0000
0001
0100
0001
0000
1000
0000
0000
0100
0010
0000
0001
0000
,
1000
0000
0010
0000
0100
0000
0001
1000
0000
1000
0100
0000
0100
0010
0000
0010
,
0001
0100
1000
0100
0001
0010
1000
0010
,
0001
1000
0001
1000
0001
0010
0000
0100
0000
1000
0001
0000
0100
0000
0010
0000
,
1000
0000
0001
0000
0010
0000
0100
1000
0100
0000
0000
0010
0000
0001
1000
0000
,
0010
0000
0100
0000
0001
0000
1000
0100
0000
0100
0010
0000
0010
0001
0000
0001
,
1000
0000
0010
0100
0010
0000
1000
0001
1000
0000
0000
0100
0000
0010
0001
1000
,
0001
0000
0001
0000
0000
0000
0000
0000
0000
0000
0000
0000
0000
0000
1000
0100
,
1000
0000
0001
0000
0000
0000
1000
0100
1000
0000
0001
0000
0000
0000
1000
0010
,
1000
0000
0001
0000
0000
0000
0000
0000
0000
0000
0000
0000
0000
0000
0001
0010
,
0001
0000
1000
0000
0000
0000
0001
0010
0001
0000
1000
0000
0000
0000
0001
0100
,
0001
0000
1000
0000
0000
0000
0000
0000
0000
0000
0000
0000
0000
0000
1000
0100
,
1000
0000
0001
0000
0000
0000
1000
0100
1000
0000
0001
0000
0000
0000
1000
0010
,
1000
0000
0001
0000
0000
0000
0000
0000
0000
0000
0000
0000
0000
0000
0001
0010
,
0001
0000
1000
0000
0000
0000
0001
0010
0001
0000
1000
0000
0000
0000
0002
2003
,
3000
0000
0000
0000
;

//---------------dance-single - ----------------
#NOTES:
     dance-single:
     :
     Medium:
     7:
     0.392863,0.420679,0.092379,0.270030,0.078167,387.000000,374.000000,13.000000,38.000000,0.000000,0.000000,0.392863,0.420679,0.092379,0.270030,0.078167,387.000000,374.000000,13.000000,38.000000,0.000000,0.000000:
0000
0000
0000
0000
,
0000
0000
0000
0000
,
2000
0000
0000
0000
0000
0000
0000
0000
0000
0000
0000
0000
3001
0000
0000
0002
,
0000
0000
0000
0013
,
0020
0000
0000
0000
0000
0000
0130
1000
,
0200
0000
0000
1300
,
0001
0001
0100
0100
,
0010
0010
1000
1000
,
0001
0010
0001
0010
0100
1000
0100
1000
,
0001
0000
0000
0100
,
0100
0010
1000
0001
0000
0010
0001
1000
,
0100
0020
0000
0031
,
0001
0100
0010
1000
0000
0100
0010
0001
,
1000
0020
0000
0130
,
0100
0001
1000
0100
0000
1000
0001
0100
,
0010
2000
0000
3100
,
0100
0010
0001
1000
0000
0010
1000
0001
,
0010
0200
0000
1300
,
0001
0100
0010
1000
0001
1000
0010
0100
,
0001
0020
0000
0130
,
0100
1000
0001
0100
0010
0100
0001
1000
,
0100
0010
0020
0000
0000
0000
0031
0000
,
0001
0100
0010
1000
0100
1000
0010
0100
,
0001
1000
0200
0000
0000
0310
0001
1000
,
0001
0100
0010
1000
0000
0100
0010
0001
,
0000
0100
0010
1000
0000
0001
1000
0001
,
1000
1000
0000
0000
0000
0000
0000
0010
,
0010
0010
0000
0100
0100
0100
0000
0001
,
0001
0001
0000
0000
0000
0000
0000
1000
,
1000
1000
0000
0100
0100
0100
0000
0010
,
0010
0010
0000
0000
0000
0000
0000
0001
,
0001
0001
0000
1000
1000
1000
0000
0010
,
0010
0100
0010
0100
0001
1000
0001
1000
,
0100
0010
0001
0100
0020
0000
0030
0000
,
2000
0000
0000
0000
3200
0000
0000
0000
0010
0000
0000
0010
0000
0000
0310
0000
,
0002
0000
0000
0000
0203
0000
0000
0000
0010
0000
0000
0010
0000
0000
0310
0000
,
2000
0000
0000
0000
3002
0000
0000
0000
0100
0000
0000
0100
0000
0000
0103
0000
,
0020
0000
2030
0000
3100
0010
0001
1000
,
0020
0000
0000
0000
0230
0000
0000
0000
0001
0000
0000
0001
0000
0000
0301
0000
,
1000
0000
0100
0000
0010
0000
0002
0000
1000
0000
0000
1000
0000
0000
1003
0000
,
0020
0000
0000
0000
0230
0000
0000
0000
0001
0000
0000
0001
0000
0000
0301
0000
,
0020
0230
1300
0000
,
0001
0000
0000
0100
0000
0000
0010
0000
1000
0000
0000
0001
0000
0000
0010
0000
,
0100
0000
0000
1000
0000
0000
0100
0000
0010
0000
0000
0001
0000
0000
1000
0000
,
0010
0000
0000
0100
0000
0000
0010
0000
1000
0000
0000
0001
0000
0000
0010
0000
,
0100
0000
0000
0010
0000
0000
0001
0000
1000
0000
0000
0010
0000
0000
1000
0000
,
0001
0000
0100
0010
0100
0000
0001
1000
,
0001
0000
1000
0100
1000
0000
0001
0100
,
0010
1000
0010
1000
0001
0010
0001
0010
,
0100
1000
0001
0100
0020
0000
0000
0000
,
1030
1100
0001
0011
,
1000
0000
1010
0000
0010
0100
0010
0100
,
0001
1010
0010
0110
,
0001
0000
0000
0000
1001
0000
0000
0000
1000
0000
0010
0000
0000
0100
0000
0001
,
1000
1100
0001
0011
,
0010
0000
0110
0000
1000
0010
1000
0010
,
0100
0110
1000
1001
,
0001
1010
1000
0011
,
0100
0000
0100
0000
2000
0000
0000
3002
0000
0000
0103
0000
0010
0000
1000
0000
,
0002
0000
0013
0100
1000
0000
0001
0100
,
0010
0000
2000
0000
0001
0000
0000
0001
0000
0000
3001
0000
0020
0000
0000
0000
,
0130
0000
0001
0000
0100
0000
2000
0000
0001
0000
0000
0001
0000
0000
3001
0000
,
0200
0000
0000
0000
0310
0000
0000
1000
0000
0000
0001
0000
0010
0000
0100
0000
,
2000
0000
3001
0100
0010
0000
1000
0100
,
0010
0000
0002
0000
1000
0000
0000
1000
0000
0000
1003
0000
0010
0000
0100
0000
,
0001
1000
0001
1000
0100
0010
0100
0010
,
0001
0001
0000
0000
0000
0000
0000
1000
,
1000
1000
0000
0100
0100
0100
0000
0010
,
0010
0010
0000
0000
0000
0000
0000
0001
,
0001
0001
0000
0100
0100
0100
0000
0010
,
0010
0010
0000
0000
0000
0000
0000
1000
,
1000
1000
0000
0001
0001
0001
0000
0010
,
0010
0010
0000
0000
0000
0000
0000
0100
,
0100
0100
0000
1000
1000
1000
0000
0002
,
0003
0000
0000
0000
;
