#TITLE:Marigold [VIP Remix];
#SUBTITLE:;
#ARTIST:M2U;
#TITLETRANSLIT:;
#SUBTITLETRANSLIT:;
#ARTISTTRANSLIT:;
#GENRE:;
#CREDIT:;
#BANNER:banner.png;
#BACKGROUND:;
#LYRICSPATH:;
#CDTITLE:;
#MUSIC:Marigold [VIP Remix].ogg;
#OFFSET:0.710939;
#SAMPLESTART:55.553780;
#SAMPLELENGTH:18.750000;
#SELECTABLE:YES;
#BPMS:0.000000=160.000000
;
#STOPS:
;
#BGCHANGES:;
#KEYSOUNDS:;
#ATTACKS:;

//---------------dance-single - ----------------
#NOTES:
     dance-single:
     :
     Challenge:
     11:
     0.551824,1.075679,0.242264,1.137297,0.326384,574.000000,538.000000,36.000000,169.000000,15.000000,46.000000,0.551824,1.075679,0.242264,1.137297,0.326384,574.000000,538.000000,36.000000,169.000000,15.000000,46.000000:
0000
0000
0000
0000
,
0000
0000
0000
0000
,
0000
0000
0000
0000
,
0000
0000
0000
0000
,
0000
0000
0000
0000
,
0000
0000
0000
0000
,
0000
0000
0000
0000
,
0000
0000
0000
0000
,
0000
0000
0000
0000
,
0000
0000
0000
0000
,
0000
0000
0000
0000
0000
0000
0000
0000
0000
0000
0000
0000
0000
0000
0000
0000
0000
0000
0000
0000
0000
0000
0000
0000
0000
0000
0000
0000
0000
0000
0000
0000
0000
0000
0000
0000
0000
0000
0000
0000
0000
0000
0000
0000
0000
0000
0000
0000
0000
0000
0000
0000
0000
0000
0000
0000
0000
0000
0000
0000
0000
0000
0000
1000
,
0001
0000
0000
0000
1000
0010
0100
0001
4000
0000
0000
0000
3000
0000
0000
0000
,
0020
0000
0000
0000
0230
0000
0000
0000
0302
0000
0000
0100
0100
0000
0000
0000
,
2003
0000
0000
0100
0100
0000
0000
0000
3020
0000
0000
0000
0230
0000
0000
0000
,
0302
0000
0000
0010
0023
0000
0000
0000
0230
0000
0000
0000
0302
0000
0000
0000
,
0103
1000
0001
0000
0100
0010
1000
0010
0100
0001
1000
0000
0200
0000
0000
0000
,
0310
0000
0001
0000
0100
0000
0001
0000
0010
0100
1000
0001
0010
0100
1000
0001
,
0200
0000
0000
0000
0000
0000
0000
0000
0000
0000
0000
0000
0010
0000
0000
0000
0320
0000
0000
0000
0000
0000
0000
0000
0000
0000
0000
0000
0000
0000
0000
0000
2030
0000
0000
0000
0000
0000
0000
0000
0000
0000
0000
0000
0000
0000
0000
0000
3001
0000
0000
0000
0000
0000
0000
0000
0000
0000
0000
0000
0000
0000
0000
0001
,
1000
0000
0001
0000
0100
0000
0010
0000
1000
0000
0001
0010
0001
0000
1000
0000
,
0010
0000
0000
0000
0100
0000
0001
0000
0100
0000
0000
0000
0010
0000
0000
0000
1000
0000
0001
0000
0010
0000
0100
0000
1000
0000
0000
0000
0100
00M0
0100
0000
,
0001
0000
1000
0000
0100
0000
0010
0000
0001
0000
1000
0010
1000
0000
0001
0000
,
0010
0100
1000
0001
0100
0010
0100
4000
,
0000
0000
3000
0000
,
0002
0000
0010
0000
1003
0010
0100
0001
,
0020
0000
0000
0100
0031
0000
0000
0000
,
2000
0000
0000
0010
3001
0000
0200
0000
,
0320
0000
0000
0100
1030
0001
0010
0100
,
2000
0000
0010
0000
3001
0010
0100
1000
,
0020
0000
0000
0100
1030
0000
0000
0000
,
0200
0000
0000
0000
0310
0001
0010
0001
2000
0000
0000
0000
3010
1000
0010
1000
,
0001
0010
0100
1000
0010
0100
0010
1000
,
0002
0000
0000
0010
2003
0000
0000
0000
,
3020
0000
0000
0001
0230
0000
0000
1000
,
0320
0000
0000
0001
2030
0000
3200
0000
,
0320
0000
0001
0000
0130
1000
0010
0100
,
0002
0023
2030
3200
,
0302
0000
0000
0003
0002
0000
0000
0003
2000
0000
0000
3000
2000
0000
0000
3000
,
2002
3003
0000
0000
0001
0010
0100
1000
0020
0000
0000
0000
0000
0000
0000
0000
,
2200
0300
0000
0002
0203
0300
0000
0002
,
0203
3330
0000
0000
0000
0000
0002
0000
0020
0000
0000
0000
0000
0000
0200
0000
,
2300
3033
0000
0000
0000
0000
0000
0000
0002
0000
0000
0000
0000
0000
0103
0010
,
1000
0000
0000
0000
0001
0010
0100
0010
0002
0000
0000
0000
2003
0000
0000
0000
,
0020
0000
0000
0200
0302
0003
0000
0200
,
3332
0000
0000
0000
0000
0000
0020
0000
0230
0303
0000
0000
0000
0000
0000
0000
,
0022
0000
0000
0203
2330
0000
0000
0020
,
0200
0000
0300
0000
0000
0000
3032
0000
1103
0000
0001
1000
0001
1000
0001
1000
,
0200
0000
0000
0010
2300
0000
0000
0010
,
3002
0000
0000
0100
2003
0000
0000
0100
,
3012
0000
0000
0100
2013
0000
0000
0010
,
3102
0000
0000
0013
2100
0000
3020
0000
,
0130
0100
0001
0001
1000
1000
0100
0100
,
0010
0000
0010
0000
0001
0000
0001
0000
1000
0000
1000
0000
0010
0000
0100
0001
,
1000
1000
0100
0100
0010
0010
0001
0001
,
1000
1000
1000
1000
0010
0010
0100
0100
,
0001
1000
0100
1000
0001
0100
0010
1000
0010
0100
0001
1000
0001
0010
0100
1000
,
0001
0010
0001
1000
0100
1000
0001
1000
0010
0100
0001
1000
0001
0100
0010
1000
,
0001
0010
0001
0010
0100
1000
0100
4000
0004
0000
0000
0000
0000
0000
0000
3003
,
0020
0000
0000
1030
0200
0000
0020
0330
,
2001
0000
0000
0000
3020
0000
0230
0000
0304
0000
0003
0000
1000
0010
1200
0000
,
0000
0000
0002
0003
0302
0003
1000
0100
1010
0001
2000
3000
0040
0030
00M4
0003
,
1100
0000
0000
0000
0000
0000
0000
0000
0000
0000
0000
0000
0000
0000
0000
0000
0000
0000
0000
0000
0000
0000
0000
0000
0010
0000
0000
0000
0000
0000
0000
0000
0100
0000
0000
0000
0000
0000
0000
0000
0010
0000
0000
0000
0000
0000
0000
0000
0100
0000
0000
0000
0000
0000
0000
0000
0000
0000
0000
0000
0000
0000
0000
0000
0000
0000
0000
0000
0000
0000
0000
0000
0001
0000
0000
0000
0000
0000
0000
0000
0000
0000
0000
0000
1000
0000
0000
0000
0000
0000
0000
0000
0000
0000
0000
0000
0101
0000
0000
0000
0000
0000
0000
0000
0000
0000
0000
0000
0010
0000
0000
0000
0000
0000
0000
0000
0000
0000
0000
0000
0001
0000
0000
0000
0000
0000
0000
0000
0000
0000
0000
0000
1000
0000
0000
0000
0000
0000
0000
0000
0000
0000
0000
0000
0100
0000
0000
0000
0000
0000
00M0
0000
0000
0000
0000
0000
0100
0000
0000
0000
0000
0000
0000
0000
0000
0000
0000
0000
0001
0000
0000
0000
0000
0000
0000
0000
0000
0000
0000
0000
0100
0000
0000
0000
0000
0000
0000
0000
0000
0000
0000
0000
,
01M0
0100
0010
0000
0010
0000
1000
0001
1020
0000
0000
0000
0132
0000
0000
0000
,
1203
0000
0320
2030
3102
0010
1003
0102
,
0010
0000
1003
0000
0040
0030
00M4
0003
0100
0010
0100
0010
4000
3000
M400
0300
,
0002
0000
0000
0010
2003
0000
0000
0100
,
3002
0000
0000
0000
0000
0000
0103
0010
2100
0000
0000
0000
0202
3303
0000
0000
,
1002
0000
0000
0000
0023
0000
0230
0000
2300
0000
0100
0000
3001
0000
0100
0010
,
0100
0000
0000
0000
1000
0000
0000
0000
0100
0000
0000
0000
0001
0000
1000
0000
0100
00M0
0100
0000
0001
0000
1000
0000
0400
0000
0300
0000
0M04
0000
0003
0000
,
1100
0000
0000
0000
0000
0000
0000
0000
0000
0000
0000
0000
0000
0000
0000
0000
0000
0000
0000
0000
0000
0000
0000
0000
0100
0000
0000
0000
0000
0000
0000
0000
0000
0000
0000
0000
0000
0000
0000
0000
0000
0000
0000
0000
0000
0000
0000
0000
0040
0000
0000
0000
0000
0000
0000
0000
0030
0000
0000
0000
0000
0000
0000
0000
0000
0000
0000
0000
0000
0000
0000
0000
00M4
0000
0000
0000
0000
0000
0000
0000
0003
0000
0000
0000
0000
0000
0000
0000
0000
0000
0000
0000
0000
0000
0000
0000
0400
0000
0000
0000
0000
0000
0300
0000
0000
0000
0000
0000
0000
0000
0000
0000
0000
0000
0000
0000
0000
0000
0000
0000
1M00
0000
0000
0000
0000
0000
0000
0000
0000
0000
0000
0000
0000
0000
0000
0000
0000
0000
0000
0000
0000
0000
0000
0000
1000
0000
0000
0000
0000
0000
0000
0000
0000
0000
0000
0000
0000
0000
0000
0000
0000
0000
0000
0000
0000
0000
0000
0000
1000
0000
0000
0000
0000
0000
0000
0000
0000
0000
0000
0000
0000
0000
0000
0000
0000
0000
0000
0000
0000
0000
0000
0000
,
0100
000M
0100
0000
0010
0000
0000
0000
1000
0000
0100
00M0
0100
0000
0001
0000
2100
0000
0000
0000
0000
0000
0000
0000
3102
0000
0000
0000
0000
0000
0000
0000
,
1023
0000
0000
0000
0000
0000
0000
0000
0000
0000
0000
0000
0000
0000
0000
0000
0000
0000
0000
0000
0000
0000
0000
0000
0130
0000
0000
0000
0000
0000
0000
0000
1000
0000
0000
0000
0000
0000
0000
0000
0100
0000
0000
0000
0000
0000
0000
0000
1000
0000
0000
0000
0000
0000
0000
0000
0000
0000
0000
0000
0000
0000
0000
0000
0000
0000
0000
0000
0000
0000
0000
0000
0001
0000
0000
0000
0000
0000
0000
0000
0000
0000
0000
0000
0100
0000
0000
0000
0000
0000
0000
0000
0000
0000
0000
0000
0011
0000
0000
0000
0000
0000
0000
0000
0000
0000
0000
0000
1000
0000
0000
0000
0000
0000
0000
0000
0000
0000
0000
0000
0001
0000
0000
0000
0000
0000
0000
0000
0000
0000
0000
0000
1000
0000
0000
0000
0000
0000
0000
0000
0000
0000
0000
0000
0100
0000
0000
0000
0000
0000
00M0
0000
0000
0000
0000
0000
0100
0000
0000
0000
0000
0000
0000
0000
0000
0000
0000
0000
0001
0000
0000
0000
0000
0000
0000
0000
0000
0000
0000
0000
0100
0000
0000
0000
0000
0000
0000
0000
0000
0000
0000
0000
,
01M0
0100
0010
0000
0010
0000
1000
0001
1020
0000
0000
0000
0132
0000
0000
0000
,
2103
0000
0000
0000
3040
0030
00M4
0003
1010
0000
1010
0000
0400
0300
1000
0000
,
0001
0100
0001
0100
0010
1000
0002
0000
,
1023
0000
0100
0000
0031
1000
0010
0100
,
0002
0000
0000
0010
2003
0000
0000
0000
,
3020
0000
0000
0100
2030
0000
0000
0100
,
3002
0000
0000
0010
2003
0000
3020
0000
,
0230
0000
0000
0000
0301
0010
0100
1000
,
0020
0032
2003
3200
,
0302
0000
0000
0003
0002
0000
0000
0003
2000
0000
0000
3000
2000
0000
0000
3000
,
2002
3003
0000
0000
1000
0010
0100
0001
0020
0000
0000
0000
0000
0000
0000
0000
,
0202
0300
0000
2000
3200
0300
0000
2000
,
3200
0333
0000
0000
0000
0000
2000
0000
0020
0000
0000
0000
0000
0000
0200
0000
,
0302
3033
0000
0000
0000
0000
0000
0000
2000
0000
0000
0000
0000
0000
3100
0010
,
0001
0000
0000
0000
1000
0010
0100
0010
2000
0000
0000
0000
3002
0000
0000
0000
,
0020
0000
0000
0200
2300
3000
0000
0203
,
2330
0000
0000
0000
0000
0000
0020
0000
0230
3300
0000
0000
0000
0000
0000
0000
,
2020
0000
0000
3200
0332
0000
0000
0020
,
0200
0300
0000
2033
3101
0000
1000
0001
,
0200
0000
0000
0010
0302
0000
0000
0010
,
2003
0000
0000
0100
3002
0000
0000
1000
,
2003
0000
0000
0010
3020
0000
0000
0100
,
0230
0000
0000
0001
0302
0000
0000
0000
,
0013
0100
2000
0000
0000
3010
0100
0001
,
0100
0010
1000
0001
0010
0100
1000
0010
,
0200
0000
0000
0000
0000
0000
0000
0300
;

//---------------dance-single - ----------------
#NOTES:
     dance-single:
     :
     Hard:
     10:
     0.477799,0.814908,0.094214,0.740252,0.171604,497.000000,483.000000,14.000000,110.000000,0.000000,0.000000,0.477799,0.814908,0.094214,0.740252,0.171604,497.000000,483.000000,14.000000,110.000000,0.000000,0.000000:
0000
0000
0000
0000
,
0000
0000
0000
0000
,
0000
0000
0000
0000
,
0000
0000
0000
0000
,
0000
0000
0000
0000
,
0000
0000
0000
0000
,
0000
0000
0000
0000
,
0000
0000
0000
0000
,
0000
0000
0000
0000
,
0000
0000
0000
0000
,
0000
0000
0000
0000
,
1001
0000
0000
0000
0100
0010
0100
0010
0200
0000
0000
0000
0300
0000
0000
0000
,
0002
0000
0000
0000
0023
0000
0000
0000
0230
0000
0000
1300
0001
0000
0000
0000
,
0200
0000
0000
0301
1000
0000
0000
0000
0200
0000
0000
0000
0320
0000
0000
0000
,
0032
0000
0000
0103
0020
0000
0000
0000
2030
0000
0000
0000
3200
0000
0000
0000
,
0310
0001
0010
0000
0100
1000
0001
0100
0010
1000
0100
0000
0020
0000
0000
0000
,
0031
0000
0100
0000
0010
0000
1000
0000
0001
0010
0001
0010
0100
1000
0100
1000
,
0002
0000
0000
0103
0020
0000
0000
0000
2030
0000
0000
0000
3100
0000
0000
0000
,
0110
0001
0100
0010
1000
0100
0010
0001
,
1000
0000
0010
0000
0100
0000
0010
0000
1000
0001
1000
0001
1000
0000
0100
0010
,
0100
1000
0001
0100
0010
1000
0100
0010
,
0001
0100
0001
0010
0100
1000
0001
0200
,
0000
0000
0000
0000
0000
0300
0000
0000
,
0020
0000
0000
0000
1030
0001
0010
0100
,
2000
0000
0000
3001
0200
0000
0000
0000
,
0320
0000
0000
1030
0002
0000
0023
0000
,
0230
0000
0000
1300
0001
0100
0010
1000
,
0200
0000
0000
0000
0310
0001
0100
0010
,
2000
0000
0000
3100
0010
0000
0000
0000
,
0002
0203
2300
3020
,
0032
0000
0000
0000
1003
0010
0100
0001
,
0020
0000
0000
0130
2000
0000
0000
0000
,
3020
0000
0000
0130
0002
0000
0000
1003
,
0200
0000
0000
0310
0002
0000
0203
0000
,
0320
0000
0000
0000
1030
0001
0010
0100
,
0020
0032
0203
0320
,
1030
1000
0001
0001
,
1001
0000
0000
0000
0010
0100
0010
0100
0020
0000
0000
0000
0000
0000
0000
0000
,
2030
0000
0000
0100
3002
0000
0000
0100
,
2003
0000
0000
0010
3002
0000
0000
0010
,
2003
0000
0000
0000
3020
0000
0000
0100
,
1030
0000
0002
0023
,
0230
0000
0000
0010
2300
0000
0000
0010
,
3002
0000
0000
0100
2003
0000
0000
0000
,
3200
0000
0000
0010
2300
0000
0000
0010
,
3002
0000
0000
0100
2003
0000
0000
3100
,
0010
0000
0000
0010
0001
0000
0000
0001
,
1000
0000
0000
1000
0010
0000
0000
0010
,
0110
0000
0000
0100
0101
0000
0000
1000
,
1100
0000
0000
0001
0011
0000
2000
0000
,
3001
0100
0001
0100
0010
1000
0010
1000
,
0001
0010
0001
0010
0100
1000
0100
1000
,
0001
0100
0001
0100
0001
1000
0001
1000
,
0100
1000
0100
1000
0100
0010
0100
0010
,
0001
1000
0001
0100
0010
1000
0100
0010
,
0001
1000
0010
1000
0100
0010
0001
1000
,
0010
0100
0001
1000
0100
1000
0001
0100
0001
1000
0001
0010
0100
1000
0001
0100
,
0020
0000
0000
1030
0200
0000
0020
0330
,
2001
0000
0000
0000
3100
0000
0010
0000
0002
0000
0000
0000
0103
0010
2000
0000
,
0000
0000
0100
0000
3100
0000
0010
0001
0010
0001
1000
0000
0010
0000
0010
0000
,
0100
0000
0001
1000
0001
0000
0010
0100
0010
0000
0100
1000
0100
1000
0001
0000
,
0100
0001
1000
0000
1000
0000
0100
0010
0001
0000
0000
0000
1001
0000
0000
0000
,
0210
0000
0301
2000
0100
3001
2000
0100
,
3001
0000
2000
0000
3010
0000
0010
0000
0100
0001
0100
0001
1000
0000
0100
0000
,
0010
0000
0000
0010
0001
0000
0000
0001
,
1000
0000
0000
1000
0020
0000
0130
0000
,
1001
0000
0000
0000
1000
0000
0010
0000
2000
0000
0100
0000
3001
0000
0100
0010
,
0100
0000
0001
0000
0001
0000
1000
0100
0010
0001
1000
0100
0010
0000
0001
0000
,
0110
1000
0001
0100
0010
1000
1000
1000
,
0001
0010
0001
0000
1000
0100
1000
0100
0020
0000
0000
0000
0031
0000
0000
0000
,
1001
0000
1000
0001
1000
0000
0010
0100
0010
0000
1000
0001
1000
0001
0010
0000
,
0100
1000
0100
0000
0010
0000
0001
1000
0020
0000
0000
0000
0230
0000
0000
0000
,
0302
0000
0013
0010
0100
1000
0100
1000
,
0001
0100
0001
0100
0010
1000
0002
0000
,
0023
0000
0000
0000
0130
1000
0010
0100
,
0002
0000
0000
0013
0200
0000
0000
0000
,
2300
0000
0000
3010
0200
0000
0000
0301
,
0020
0000
0000
0130
2000
0000
3002
0000
,
0203
0000
0000
0000
0310
1000
0100
1000
,
0002
0203
0320
2030
,
3001
0001
1000
1000
,
1001
0000
0020
0000
,
2030
0000
0000
0100
3002
0000
0000
0010
,
2003
0000
0000
0010
3002
0000
0000
0100
,
2003
0000
0000
0000
3200
0000
0000
0010
,
1300
0000
0002
0203
,
0320
0000
0000
0100
2030
0000
0000
0100
,
3002
0000
0000
0010
0203
0000
0000
0000
,
0320
0000
0000
0100
2030
0000
0000
0100
,
3002
0000
0000
0010
2003
0000
0000
3010
,
0100
0000
0000
0010
0100
0000
0000
0010
,
0100
0000
0000
0010
0100
0000
0000
0001
,
1000
0000
0000
0001
1000
0000
0000
0001
,
1000
0000
0000
0001
2000
0000
0000
0000
,
3100
0010
0002
0000
0000
1003
0010
0100
,
0001
1000
0001
1000
0100
0010
0100
0010
,
0200
0000
0000
0000
0000
0000
0000
0300
;

//---------------dance-single - ----------------
#NOTES:
     dance-single:
     :
     Medium:
     8:
     0.395122,0.586734,0.060566,0.760441,0.030283,411.000000,402.000000,9.000000,113.000000,1.000000,0.000000,0.395122,0.586734,0.060566,0.760441,0.030283,411.000000,402.000000,9.000000,113.000000,1.000000,0.000000:
// measure 0
0000
0000
0000
0000
,  // measure 1
0000
0000
0000
0000
,  // measure 2
0000
0000
0000
0000
,  // measure 3
0000
0000
0000
0000
,  // measure 4
0000
0000
0000
0000
,  // measure 5
0000
0000
0000
0000
,  // measure 6
0000
0000
0000
0000
,  // measure 7
0000
0000
0000
0000
,  // measure 8
0000
0000
0000
0000
,  // measure 9
0000
0000
0000
0000
,  // measure 10
0000
0000
0000
0000
,  // measure 11
1001
0000
1000
0100
0020
0000
0030
0000
,  // measure 12
0002
0000
0000
0000
2003
0000
0000
0000
3020
0000
0000
0430
0300
0000
0000
0000
,  // measure 13
0020
0000
0000
0430
0300
0000
0000
0000
0002
0000
0000
0000
0023
0000
0000
0000
,  // measure 14
0230
0000
0000
0340
0030
0000
0000
0000
0002
0000
0000
0000
0203
0000
0000
0000
,  // measure 15
0310
1000
0100
0010
1000
0010
0002
0000
,  // measure 16
1003
0000
0010
0000
0100
0000
0001
0000
1000
0100
1000
0000
0001
0000
0100
0000
,  // measure 17
0020
2030
3200
0320
,  // measure 18
0031
1000
0001
1000
0010
0100
0010
0100
,  // measure 19
0001
0010
0001
0010
0100
1000
0002
0000
,  // measure 20
0103
0010
0100
0010
1000
0001
1000
0001
,  // measure 21
0010
0100
1000
0001
1000
0010
0100
0002
,  // measure 22
0000
0000
0000
0000
0000
0003
0000
0000
,  // measure 23
0020
0000
0000
0000
0000
0130
1000
0010
,  // measure 24
0200
0000
0000
0301
0020
0000
0000
0000
,  // measure 25
0230
0000
0000
1300
0002
0000
0203
0000
,  // measure 26
0320
0000
0030
1000
0002
0000
0000
0000
,  // measure 27
0023
0000
0000
0000
0000
0130
1000
0001
,  // measure 28
0200
0000
0000
0310
2000
0000
0000
0000
,  // measure 29
3002
0023
0230
2300
,  // measure 30
0002
0000
3000
0000
0000
0103
0010
1000
,  // measure 31
0002
0000
0000
0013
0200
0000
0000
0000
,  // measure 32
2300
0000
0000
3010
0200
0000
0000
0301
,  // measure 33
0020
0000
0000
0130
2000
0000
3020
0000
,  // measure 34
0230
0000
0000
0000
0000
0301
0010
0100
,  // measure 35
2000
3020
0230
0302
,  // measure 36
0013
0010
0100
0100
,  // measure 37
0110
0000
1002
0000
,  // measure 38
2003
0000
0000
3010
0020
0000
0000
0130
,  // measure 39
0200
0000
0000
0301
0002
0000
0000
0010
,  // measure 40
0023
0000
0000
0000
0230
0000
0000
1300
,  // measure 41
0001
0000
0200
0320
,  // measure 42
2030
0000
0000
3100
0200
0000
0000
0310
,  // measure 43
0020
0000
0000
0031
0002
0000
0000
0000
,  // measure 44
0203
0000
0000
0010
0320
0000
0000
1030
,  // measure 45
2000
0000
0000
3100
0200
0000
0000
0310
,  // measure 46
0001
0000
0000
0010
0001
0000
0000
1000
,  // measure 47
0010
0000
0000
1000
0010
0000
0000
1000
,  // measure 48
1001
0000
0000
0001
1001
0000
0000
0100
,  // measure 49
0110
0000
0000
0010
0110
0000
2000
0000
,  // measure 50
3001
0000
0100
0010
0100
0000
0001
1000
,  // measure 51
0001
0000
1000
0100
1000
0000
0001
0100
,  // measure 52
0001
0000
0010
0100
0010
0000
0100
1000
,  // measure 53
0100
0000
0010
0001
0010
0000
0200
0000
,  // measure 54
1300
0001
0100
0010
1000
0001
1000
0100
,  // measure 55
0010
0001
0010
0100
1000
0001
0100
0010
,  // measure 56
1000
0001
1000
0001
1000
0001
1000
0001
,  // measure 57
0020
0000
0000
0130
2000
0000
3002
0000
,  // measure 58
0023
0000
0130
1000
0020
0000
0130
0200
,  // measure 59
0000
0301
1000
0100
0100
0010
0001
1000
,  // measure 60
0010
0000
0100
0000
0100
0000
0001
1000
0001
0000
0100
0000
0010
0000
1000
0000
,  // measure 61
0100
0010
0001
0100
0010
0000
0010
0000
,  // measure 62
2000
0000
3100
0010
0001
0100
1000
0001
,  // measure 63
0010
0000
1000
0000
0001
0000
0010
0000
0100
1000
0100
0000
0010
0000
0001
0000
,  // measure 64
1000
0000
0000
0001
1000
0000
0000
0001
,  // measure 65
1000
0000
0000
0001
2000
0000
3020
0000
,  // measure 66
0230
0000
0301
0010
1000
0010
0001
1000
,  // measure 67
1000
0000
0010
0000
0100
0000
0001
0000
1000
0001
1000
0000
0100
0000
0010
0000
,  // measure 68
0002
0000
0103
0010
1000
0001
0001
0001
,  // measure 69
0010
0100
0010
0000
0001
0000
1000
0000
0020
0000
0000
0000
0230
0000
0000
0000
,  // measure 70
0301
0000
1000
0000
1000
0000
0001
0100
0001
0000
1000
0000
0100
0000
0010
0000
,  // measure 71
0001
0100
0010
1000
0002
0000
0023
0000
,  // measure 72
0230
0000
1300
0001
0100
0010
0100
0010
,  // measure 73
1000
0001
1000
0100
0010
0001
2000
0000
,  // measure 74
3020
0000
0000
0000
0000
0130
0010
1000
,  // measure 75
0002
0000
0000
0013
0200
0000
0000
0000
,  // measure 76
2300
0000
0000
3010
0200
0000
0000
0301
,  // measure 77
0020
0000
0000
0130
2000
0000
3020
0000
,  // measure 78
0230
0000
0000
0000
0000
0301
0010
0100
,  // measure 79
2000
3020
0230
0302
,  // measure 80
0013
0010
0100
0100
,  // measure 81
0110
0000
1002
0000
,  // measure 82
2003
0000
0000
3010
0020
0000
0000
0130
,  // measure 83
0200
0000
0000
0301
0002
0000
0000
0010
,  // measure 84
0023
0000
0000
0000
0230
0000
0000
1300
,  // measure 85
0001
0000
0200
0320
,  // measure 86
2030
0000
0000
3100
0200
0000
0000
0310
,  // measure 87
0020
0000
0000
0031
0002
0000
0000
0000
,  // measure 88
0203
0000
0000
0010
0320
0000
0000
1030
,  // measure 89
2000
0000
0000
3100
0200
0000
0000
0310
,  // measure 90
0001
0000
0000
0010
0001
0000
0000
1000
,  // measure 91
0010
0000
0000
1000
0010
0000
0000
1000
,  // measure 92
0001
0000
0000
1000
0001
0000
0000
1000
,  // measure 93
0001
0000
0000
1000
0002
0000
0000
0000
,  // measure 94
0203
0000
0000
0000
,  // measure 95
0000
0000
0000
0000
,  // measure 96
0300
0000
0000
0000
0000
0000
0000
00M0
;
