#VERSION:0.83;
#TITLE:Lose Control;
#SUBTITLE:;
#ARTIST:RiraN;
#TITLETRANSLIT:;
#SUBTITLETRANSLIT:;
#ARTISTTRANSLIT:;
#GENRE:;
#ORIGIN:;
#CREDIT:;
#BANNER:banner.png;
#BACKGROUND:;
#PREVIEWVID:;
#JACKET:;
#CDIMAGE:;
#DISCIMAGE:;
#LYRICSPATH:;
#CDTITLE:;
#MUSIC:Lose Control.ogg;
#OFFSET:-0.075000;
#SAMPLESTART:104.293556;
#SAMPLELENGTH:12.631584;
#SELECTABLE:YES;
#BPMS:0.000=152.000;
#STOPS:;
#DELAYS:;
#WARPS:;
#TIMESIGNATURES:0.000=4=4;
#TICKCOUNTS:0.000=4;
#COMBOS:0.000=1;
#SPEEDS:0.000=1.000=0.000=0;
#SCROLLS:0.000=1.000;
#FAKES:;
#LABELS:0.000=Song Start;
#BGCHANGES:;
#KEYSOUNDS:;
#ATTACKS:
;

//---------------dance-single - ----------------
#NOTEDATA:;
#CHARTNAME:;
#STEPSTYPE:dance-single;
#DESCRIPTION:;
#CHARTSTYLE:;
#DIFFICULTY:Challenge;
#METER:13;
#RADARVALUES:0.788735,1.121061,0.841637,0.424185,0.710342,820.000000,690.000000,125.000000,63.000000,66.000000,30.000000,7.000000,0.000000,0.000000,0.788735,1.121061,0.841637,0.424185,0.710342,820.000000,690.000000,125.000000,63.000000,66.000000,30.000000,7.000000,0.000000,0.000000;
#CREDIT:;
#NOTES:
0000
0000
0000
0000
,
0000
0000
0000
0000
,
0000
0000
0000
0000
,
0000
0000
0000
0000
,
0000
0000
0000
0000
,
0000
0000
0000
0000
,
1000
1000
0001
0001
,
0010
0010
0100
0100
,
0001
0001
1000
1000
,
0010
0010
0001
0001
,
1100
0000
0010
0000
2100
0000
0000
3102
0000
0000
1013
0000
0001
0000
1000
0000
,
0101
0000
0010
0000
0102
0000
0000
2103
0000
0000
3011
0000
1000
0000
0001
0000
,
1010
0000
0100
0000
1010
0000
0001
1200
0000
0000
0311
0000
1000
0000
1000
0000
,
0011
0000
0100
0000
0011
0000
1000
0201
0000
0000
1310
0000
0002
0000
0000
0000
,
1003
1000
0010
0010
0001
0001
1000
1000
,
0100
0100
0001
0001
0010
0010
0100
0100
,
1000
0001
0100
0001
1000
0100
0010
0001
0010
0100
1000
0010
0100
0001
0010
0100
,
0001
00M0
0001
0010
1000
0M00
1000
0000
0002
0000
0000
0000
1103
0000
0000
0000
,
0010
0100
0002
0000
0000
0000
0013
0010
,
0100
0000
1000
0100
0001
00M0
0001
0000
0020
0000
0000
0000
0032
0000
0000
0000
,
0103
0010
2000
0000
0000
0000
3010
0010
,
0100
0000
0000
0000
0001
0000
0100
0000
1000
0000
00M0
0000
1000
0000
0000
0000
0010
0M00
0010
0000
0010
0M00
0010
0000
0001
0000
0000
0000
0100
0000
0000
0000
,
0010
0010
2000
0000
0000
0000
3010
0010
,
0100
0000
0001
0100
1000
00M0
1000
0000
0020
0000
0000
0000
2030
0000
0000
0000
,
3100
0010
0002
0000
0000
0000
0013
0010
,
1000
0M00
1000
0100
0001
00M0
0001
0000
2000
0000
0000
0000
3101
0000
0000
0000
,
0010
1000
0001
0100
2000
0000
3020
0032
,
00M3
0000
0001
0100
1000
0000
1000
0000
0010
0000
1000
0010
0001
0M00
0001
0000
,
0100
0010
0001
0010
2000
0000
3200
0302
,
00M3
0000
0000
0000
0001
0000
0010
0000
1000
0000
0M00
0000
1000
0000
0000
0000
0100
00M0
0100
0000
0100
00M0
0100
0000
0002
0000
0000
0000
0000
0000
0000
0000
,
0023
0000
1030
0010
0002
0000
0203
2300
,
3M00
0000
1000
0010
0001
0M00
0001
0000
0100
0000
0001
0100
1000
00M0
1000
0000
,
0010
0100
1000
0100
0002
0000
0023
0230
,
0301
00M0
0001
0010
1000
0M00
1000
0000
0002
0000
0000
0000
1103
0000
0011
0000
,
1100
0000
0000
0000
0111
0000
0000
1000
0101
0000
1000
0000
0011
0000
0100
0000
,
0011
0000
0000
0000
1110
0000
0000
0001
1010
0000
0100
0000
1010
0000
0001
0000
,
1100
0000
0011
0000
1100
0000
0001
2010
0000
0000
3001
0000
1010
0000
0101
0000
,
1010
0000
0101
0000
1010
0000
0001
1100
0000
0000
0011
0000
1100
0000
0001
1000
,
0101
0000
0000
0000
1110
0000
0000
0001
1100
0000
0010
0000
1100
0000
0001
0000
,
1010
0000
0000
0000
1011
0000
0000
1101
0000
0000
1010
0000
0101
0000
1000
0001
,
1100
0000
0011
0000
1100
0000
0011
0000
1000
0001
0010
0100
1000
0001
0100
0010
,
0001
0M00
0001
0100
1000
00M0
1000
0000
0002
0000
0000
0000
1103
0000
0001
0000
,
4000
0000
3040
0000
,
0430
0000
0000
0000
,
0304
0000
0043
0000
,
0430
0000
0000
0000
,
2300
0001
3020
0100
,
2030
0001
0100
0010
,
3002
0010
0203
0010
,
0302
0010
1000
0100
,
1003
0000
0001
0100
1000
00M0
1000
0000
0010
0000
1000
0010
0001
0M00
0001
0000
,
0100
0000
1000
0000
0001
0010
1000
0100
0002
0000
0000
0000
0103
0000
0010
0000
,
0001
0000
1000
0100
0001
00M0
0001
0000
0010
0000
0001
0010
1000
0M00
1000
0000
,
0100
0000
1000
0100
0001
00M0
0001
0000
2000
0000
3000
0000
1000
0000
0010
0000
,
0100
0000
0001
0100
1000
00M0
1000
0000
0010
0000
1000
0010
0001
0M00
0001
0000
,
0100
0000
1000
0000
0001
0010
1000
0100
0002
0000
0000
0000
0103
0000
0010
0000
,
1000
0M00
1000
0000
0001
0010
0100
0010
1000
0M00
1000
0000
0001
0010
0100
0010
,
1000
0M00
1000
0000
0001
0010
0100
0010
2000
0000
0000
0000
3001
0000
0100
0000
,
1000
0000
0001
0100
1000
00M0
1000
0000
0001
0000
1000
0100
0001
00M0
0001
0000
,
1000
0000
0001
0100
1000
00M0
1000
0000
0001
0000
1000
0100
0001
00M0
0001
0000
,
1000
0000
0001
0010
1000
0M00
1000
0000
0001
0000
1000
0010
0001
0M00
0001
0000
,
1000
0000
0001
0010
1000
0M00
1000
0000
0001
0000
1000
0010
0002
0000
0000
0000
,
0013
0010
0100
0100
0001
0001
0010
0010
,
1000
1000
0001
0001
0100
0100
1000
1000
,
0001
0100
0010
0100
0001
1000
0100
0010
0100
1000
0001
0010
0100
1000
0010
0100
,
1000
00M0
1000
0010
0001
0M00
0001
0100
1000
00M0
1000
0002
0000
0000
0000
0000
,
1103
0000
0001
0100
1000
00M0
1000
0000
0011
0000
1000
0010
0001
0M00
0001
0000
,
1100
0000
0010
0000
0001
0010
1000
0100
0020
0000
0000
0000
0131
0000
1010
0000
,
0101
0000
1000
0100
0001
00M0
0001
0000
1010
0000
0001
0010
1000
0M00
1000
0000
,
0101
0000
1000
0100
0001
00M0
0001
0000
2100
0000
0000
0000
3011
0000
0011
0000
,
1100
0000
0001
0100
1000
00M0
1000
0000
0011
0000
1000
0010
0001
0M00
0001
0000
,
1100
0000
0010
0000
0001
0010
1000
0100
0020
0000
0000
0000
0131
0000
0010
0000
,
1000
0M00
1000
0000
0101
0010
0100
0010
1000
0M00
1000
0000
0101
0010
0100
0010
,
1000
0M00
1000
0000
0101
0010
0100
0010
2000
0000
0000
3001
0100
0000
1010
0000
,
0002
0000
0000
0000
0000
0000
0000
0000
0000
0000
0000
0000
1103
0000
0000
0000
0000
0000
0011
0000
0000
0000
0000
0000
1100
0000
0000
0011
0000
0000
1000
0000
0001
0000
1000
0000
0004
0000
0000
0000
0000
0000
0003
0000
0000
0000
0000
0000
,
1010
0000
0000
0000
0101
0000
0000
0000
1000
0000
0100
0000
0001
0000
0100
0000
2000
0000
0000
0000
0000
0000
3001
0100
0001
0000
0000
0000
1100
0000
0000
0000
,
0011
0000
1100
0000
0011
0100
0010
0100
1000
00M0
1000
0010
1100
0000
0011
0000
,
1100
0000
0000
0000
0000
0000
0001
0000
1000
0000
0001
0000
1000
0000
0000
0000
0000
0000
0011
0000
0000
0000
0000
0000
2100
0000
0000
0000
0000
0000
0000
0000
0000
3001
0000
0000
1010
0000
0000
0000
0000
0000
0101
0000
0000
0000
0000
0000
,
1010
0000
0101
0000
1000
0100
0001
0100
1000
0000
0001
0010
1000
0M00
1000
0000
,
0101
0000
0000
0000
1010
0000
0000
0000
0101
0000
0010
0000
1000
0000
0010
0000
0002
0000
0000
0000
0000
0000
1003
0010
1000
0000
0000
0000
0011
0000
0000
0000
,
1100
0000
0000
0000
0000
0000
0011
0000
0000
0000
0000
0000
1100
0000
0000
0010
0000
0000
0001
0000
0000
0010
0000
0000
1100
0000
0000
0000
0000
0000
0011
0000
0000
0100
0000
0000
0001
0000
1000
0000
0001
0000
1000
0000
0001
0000
1000
0000
,
0001
0000
0000
0000
0000
0000
0010
0000
0100
0000
0010
0000
0100
0000
0000
0000
0000
0000
1010
0000
0000
0101
0000
0000
2010
0000
0000
0000
0000
0000
0000
0000
0000
3001
0000
0000
1100
0000
0000
0000
0000
0000
0010
0000
0000
0000
0000
0000
,
2000
0000
0101
0101
3101
0000
0020
0000
,
0131
0000
1000
0100
0001
00M0
0001
0000
0010
0M00
0010
1000
0201
0000
0000
0000
,
1310
0000
0001
0010
1000
0M00
1000
0000
0011
0000
1000
0010
0001
0M00
0001
0000
,
1010
0000
0000
0000
0001
0000
0010
0000
1000
0000
0M00
0000
1000
0000
0000
0000
0100
00M0
0100
0000
0100
00M0
0100
0000
0002
0000
0000
0000
0000
0000
0000
0000
,
0013
0000
1000
0020
0101
0000
0101
0000
0131
1010
0101
1010
0002
0000
0000
0000
,
1103
0000
0001
0100
1000
00M0
1000
0000
0010
0M00
0010
0001
1200
0000
0000
0000
,
0311
0100
0010
0100
1000
00M0
1000
0000
0011
0100
0010
0100
1000
00M0
1000
0000
,
0011
0000
0000
0100
0000
0000
0010
0000
0000
0100
0000
0000
1000
0000
0000
00M0
0000
0000
1000
0000
0000
0000
0000
0000
0010
0000
0100
0000
0010
0000
0100
0000
0010
0000
0100
0000
0002
0000
0000
0000
0000
0000
1003
0000
0000
0100
0000
0000
,
1010
0000
0000
0000
;

//---------------dance-single - ----------------
#NOTEDATA:;
#CHARTNAME:;
#STEPSTYPE:dance-single;
#DESCRIPTION:;
#CHARTSTYLE:;
#DIFFICULTY:Hard;
#METER:10;
#RADARVALUES:0.670424,0.848371,0.249125,0.397253,0.430918,697.000000,660.000000,37.000000,59.000000,0.000000,0.000000,0.000000,0.000000,0.000000,0.670424,0.848371,0.249125,0.397253,0.430918,697.000000,660.000000,37.000000,59.000000,0.000000,0.000000,0.000000,0.000000,0.000000;
#CREDIT:;
#NOTES:
0000
0000
0000
0000
,
0000
0000
0000
0000
,
0000
0000
0000
0000
,
0000
0000
0000
0000
,
0000
0000
0000
0000
,
0000
0000
0000
0000
,
1000
1000
0100
0100
,
0010
0010
0001
0001
,
1000
1000
0010
0010
,
0100
0100
0001
0001
,
1001
0000
0000
0000
1020
0000
0000
0230
0000
0000
0301
0000
0010
0000
0100
0000
,
1100
0000
0000
0000
0201
0000
0000
0320
0000
0000
1030
0000
0001
0000
0010
0000
,
0110
0000
0100
0000
1100
0000
0001
0200
0000
0000
0310
0000
1000
0000
0001
0000
,
0011
0000
0010
0000
0110
0000
1000
0002
0000
0000
0103
0000
0220
0000
0330
0000
,
1000
0001
0010
0100
1000
0001
1000
0010
,
0100
0001
0010
0001
1000
0100
1000
0010
,
0100
0001
0100
0001
1000
0100
1000
0100
0010
0001
0010
0001
1000
0010
1000
0010
,
0200
0001
0001
0301
,
1000
0100
0002
0000
0000
0000
0103
0010
,
0001
0000
1000
0010
1000
0000
1000
0000
0020
0000
0000
0000
0230
0000
0000
0000
,
0301
0100
2000
0000
0000
0000
3100
0010
,
1000
0000
0001
0010
0001
0000
0001
0000
1000
0100
1000
0100
0010
0000
0001
0000
,
1000
0010
0002
0000
0000
0000
0013
0100
,
0001
0000
1000
0100
1000
0000
1000
0000
0200
0000
0000
0000
0320
0000
0000
0000
,
0031
0010
2000
0000
0000
0000
3010
0100
,
2000
0001
0001
3001
,
1000
0100
0001
0100
0020
0000
0031
0200
,
0000
0000
0310
1000
0010
0000
0100
0000
0100
0000
0001
0010
0001
0000
1000
0000
,
0001
0100
1000
0100
0020
0000
1030
0200
,
0000
0000
0310
0001
0010
0000
0100
0000
1000
0001
1000
0001
0200
0000
0000
0000
,
0310
0100
1000
0100
0002
0000
0013
2000
,
0000
0000
3010
0001
0010
0000
0100
0000
0100
0000
1000
0001
1000
0000
0100
0000
,
0010
0000
0100
0000
0001
0000
0100
0000
2000
0000
0000
3001
0100
0000
0010
0000
,
2000
0000
0001
0000
0001
0000
3001
0010
,
0110
0000
0000
0000
1001
0000
0000
1000
0010
0000
0100
0000
0010
0000
0100
0000
,
0101
0000
0000
0000
1100
0000
0000
0001
0010
0000
0100
0000
1000
0000
0100
0000
,
0110
0000
0010
0000
0011
0000
1000
0020
0000
0000
0130
0000
0001
0000
0100
0000
,
0110
0000
0010
0000
1010
0000
1000
0002
0000
0000
0013
0000
0100
0000
1000
0100
,
1000
0000
0000
0000
0101
0000
0000
0001
0100
0000
0010
0000
1000
0000
0001
0000
,
0011
0000
0000
0000
0110
0000
0000
1001
0000
0000
1000
0000
0100
0000
0010
0001
,
0010
0000
0010
0000
0100
0000
0100
0000
1000
0001
0100
0001
1000
0100
0010
0001
,
2000
0001
0001
3001
,
2000
0000
3020
0000
,
0230
0000
0000
0000
,
0302
0000
0023
0000
,
0230
0000
0000
0000
,
1300
1000
0010
0010
,
0100
0100
0001
0001
,
0010
0010
0100
0100
,
1000
1000
0001
0001
,
1000
0000
0001
0100
0001
0000
0010
0000
0001
0000
1000
0100
1000
0000
0010
0000
,
0100
0000
0100
0000
0010
1000
0001
1000
0200
0000
0000
0000
0310
0000
0010
0000
,
0001
0000
1000
0100
1000
0000
0010
0000
1000
0000
0001
0100
0001
0000
0010
0000
,
0100
0000
1000
0001
1000
0000
0010
0000
0200
0000
0000
0000
0001
0000
0001
0000
,
0301
0000
1000
0010
1000
0000
0100
0000
1000
0000
0001
0010
0001
0000
0100
0000
,
0010
0000
0010
0000
0100
0001
1000
0001
0020
0000
0000
0000
0130
0000
0100
0000
,
1000
0000
1000
0000
0001
0100
0001
0100
0010
0000
1000
0000
0001
0100
0001
0100
,
0010
0000
1000
0000
0001
0100
0001
0100
0020
0000
0000
0000
1030
0000
0100
0000
,
0010
0000
0001
1000
0001
0000
0100
0000
0010
0000
1000
0001
1000
0000
0100
0000
,
0010
0000
0001
1000
0001
0000
0100
0000
0010
0000
1000
0001
1000
0000
0010
0000
,
0100
0000
0001
1000
0001
0000
0010
0000
0100
0000
1000
0001
1000
0000
0010
0000
,
0100
0000
0001
1000
0001
0000
0010
0000
0100
0000
1000
0001
2000
0000
0000
0000
,
3010
0010
0100
0100
0001
0001
1000
1000
,
0100
0100
0010
0010
0001
0001
1000
1000
,
0010
0100
0001
0100
0010
0100
0001
1000
0100
0010
0100
1000
0100
0010
0100
1000
,
0001
0000
0001
0000
1001
0000
1000
0010
0100
0000
0010
0000
1001
0000
0000
0000
,
1001
0000
1000
0100
1000
0000
0001
0000
1001
0000
0001
0100
0001
0000
1000
0000
,
1001
0000
0001
0000
0010
0100
0010
0100
2000
0000
0000
0000
3010
0000
0100
0000
,
0110
0000
0001
1000
0001
0000
0010
0000
0110
0000
1000
0001
1000
0000
0010
0000
,
0110
0000
0001
1000
0001
0000
0010
0000
0200
0000
0000
0000
1300
0000
0001
0000
,
1001
0000
0001
0100
0001
0000
1000
0000
1001
0000
1000
0100
1000
0000
0001
0000
,
1001
0000
1000
0000
0010
0100
0010
0100
0002
0000
0000
0000
0013
0000
0100
0000
,
1100
0000
0001
0000
0100
0010
0100
0010
1000
0000
0001
0000
0100
0010
0100
0010
,
1000
0000
0001
0000
0100
0010
0100
0010
2000
0000
0000
3001
0010
0000
0100
0000
,
2000
0000
0000
0000
0001
0000
0001
0000
3001
0100
0001
0100
0020
0000
0000
0000
,
1030
0000
1001
0000
0001
0010
0100
0010
0002
0000
0000
1003
0010
0000
0100
0000
,
0001
0000
1001
0000
1000
0010
0100
0010
1000
0000
0001
0100
0001
0000
1000
0000
,
0100
0000
0010
0001
0010
0000
0100
0000
2000
0000
0000
3001
0100
0000
0010
0000
,
1010
0000
1000
0000
0001
0010
0001
0010
0100
0000
1000
0001
1000
0000
0010
0000
,
0100
0000
0100
0000
0001
1000
0001
1000
0200
0000
0000
0000
0310
0000
0010
0000
,
0001
0000
1000
0000
0001
0100
0001
0100
0010
0000
1000
0000
0001
0100
0001
0100
,
0010
0000
1000
0000
0001
0100
0001
0100
0020
0000
0000
1030
0001
0000
0010
0000
,
0200
0000
0010
0010
0310
0000
2002
3003
,
1000
0000
0100
0010
0100
0000
0001
0000
0100
0000
1000
0001
2000
0000
0000
0000
,
3001
0000
0100
0010
0100
0000
0001
0000
1000
0000
0100
0010
0100
0000
1000
0000
,
0001
0000
0100
0010
0100
0000
0001
0000
0010
0100
0010
0100
2000
0000
0000
0000
,
3002
0000
0000
0000
1000
0000
1000
0000
1003
0001
1000
0001
0200
0000
0000
0000
,
0301
0000
0100
0010
0100
0000
1000
0000
0100
0000
0001
1000
0002
0000
0000
0000
,
1003
0000
0100
0010
0100
0000
1000
0000
0001
0000
0100
0010
0100
0000
0001
0000
,
1000
0000
0100
0010
0100
0000
1000
0000
0001
0100
0001
0100
0010
0000
1000
0001
,
0010
0000
0000
0000
;

//---------------dance-single - ----------------
#NOTEDATA:;
#CHARTNAME:;
#STEPSTYPE:dance-single;
#DESCRIPTION:;
#CHARTSTYLE:;
#DIFFICULTY:Medium;
#METER:8;
#RADARVALUES:0.472279,0.545381,0.121196,0.491516,0.057231,491.000000,473.000000,18.000000,73.000000,0.000000,0.000000,0.000000,0.000000,0.000000,0.472279,0.545381,0.121196,0.491516,0.057231,491.000000,473.000000,18.000000,73.000000,0.000000,0.000000,0.000000,0.000000,0.000000;
#CREDIT:;
#NOTES:
// measure 0
0000
0000
0000
0000
,  // measure 1
0000
0000
0000
0000
,  // measure 2
0000
0000
0000
0000
,  // measure 3
0000
0000
0000
0000
,  // measure 4
0000
0000
0000
0000
,  // measure 5
0000
0000
0000
0000
,  // measure 6
2000
0000
3200
0000
,  // measure 7
0320
0000
0000
0000
,  // measure 8
0032
0000
0203
0000
,  // measure 9
0320
0000
0000
0000
,  // measure 10
2030
0000
0000
0000
3002
0000
0000
0023
0000
0000
0130
0000
1000
0000
0001
0000
,  // measure 11
0200
0000
0000
0000
0320
0000
0000
2030
0000
0000
3100
0000
0010
0000
0001
0000
,  // measure 12
1000
0000
0001
0000
2000
0000
0000
3020
0000
0000
0130
0000
0001
0000
1000
0000
,  // measure 13
0100
0000
0010
0000
0200
0000
0000
2300
0000
0000
0000
0000
3002
0000
0000
0000
,  // measure 14
0103
0010
1000
0010
1000
0001
0010
0001
,  // measure 15
0010
0100
1000
0100
1000
0001
0100
0001
,  // measure 16
0100
0010
1000
0001
1000
0100
0010
0001
,  // measure 17
2000
0000
0000
0000
0000
0000
3001
0100
,  // measure 18
0010
1000
0002
0000
0000
0000
0013
0010
,  // measure 19
0100
1000
1000
0001
0020
0000
0230
0000
,  // measure 20
0310
0001
2000
0000
0000
0000
3010
0010
,  // measure 21
0100
0001
0001
1000
0100
0010
0002
0000
,  // measure 22
1003
0010
0200
0000
0000
0000
0310
0010
,  // measure 23
1000
0001
0001
0010
0200
0000
2300
0000
,  // measure 24
3001
0010
0200
0000
0000
0000
0310
0010
,  // measure 25
0002
0000
0000
1003
,  // measure 26
0010
0100
0001
0100
0020
0000
1030
0002
,  // measure 27
0000
0013
0100
1000
0100
0010
0002
0000
,  // measure 28
0013
0100
1000
0100
0020
0000
0031
2000
,  // measure 29
0000
3010
0100
0001
0100
0010
2000
0000
,  // measure 30
3001
0010
0100
0010
0002
0000
1003
0020
,  // measure 31
0000
0130
0001
0010
0100
1000
0002
0000
,  // measure 32
1003
0010
0100
0010
2000
0000
3001
0010
,  // measure 33
0200
0000
0000
0310
,  // measure 34
2001
0000
0000
0000
0010
0000
0000
3010
0000
0000
0100
0000
0001
0000
0100
0000
,  // measure 35
0002
0000
0000
0000
0010
0000
0000
0013
0000
0000
0100
0000
1000
0000
0100
0000
,  // measure 36
1000
0000
0001
0000
0200
0000
0000
0310
0000
0000
1000
0000
0100
0000
0010
0000
,  // measure 37
0001
0000
1000
0000
0200
0000
0000
0310
0000
0000
0001
0000
1000
0000
0010
0000
,  // measure 38
0100
0000
0000
0000
0001
0000
0000
0010
0000
0000
0100
0000
1000
0000
0001
0000
,  // measure 39
0100
0000
0000
0000
0010
0000
0000
0110
0000
0000
1000
0000
0001
0000
1000
0000
,  // measure 40
0100
0010
0100
0010
0001
1000
0001
1000
,  // measure 41
0020
0000
0000
0130
,  // measure 42
0002
0000
0023
0000
,  // measure 43
0230
0000
0000
0000
,  // measure 44
2300
0000
3002
0000
,  // measure 45
0203
0000
0000
0000
,  // measure 46
0320
0000
2030
0000
,  // measure 47
3002
0000
0023
0000
,  // measure 48
0230
0000
2300
0000
,  // measure 49
3020
0000
0230
0000
,  // measure 50
0301
0100
0001
0010
0001
0100
0001
0010
,  // measure 51
0100
1000
0010
1000
0200
0000
0310
0001
,  // measure 52
1000
0100
1000
0010
1000
0100
1000
0010
,  // measure 53
0100
0001
0010
0001
0200
0000
0310
1000
,  // measure 54
0001
0100
0001
0010
0100
1000
0010
1000
,  // measure 55
0100
0010
0001
0100
0020
0000
1030
0100
,  // measure 56
0001
0100
1000
0001
0100
0010
0001
0010
,  // measure 57
1000
0001
0010
0100
2000
0000
3001
0100
,  // measure 58
0010
0000
0000
1000
0000
0000
0001
0000
0010
0000
0000
0100
0000
0000
1000
0000
,  // measure 59
0001
0000
0100
0000
0000
0010
0000
0000
1000
0000
0000
0100
0000
0000
0010
0000
,  // measure 60
0001
0000
0000
1000
0000
0000
0010
0000
0100
0000
0000
0001
0000
0000
0010
0000
,  // measure 61
0100
0000
0000
0010
0000
0000
0001
0000
1000
0000
0000
0000
0020
0000
0000
0000
,  // measure 62
0130
0001
0100
0001
1000
0100
1000
0100
,  // measure 63
0010
0001
0010
0001
1000
0010
1000
0010
,  // measure 64
0100
0001
0010
0100
1000
0001
0100
0010
,  // measure 65
2000
0000
0000
3000
,  // measure 66
1001
1010
0110
0101
,  // measure 67
1000
0100
0001
0100
2000
0000
3001
0100
,  // measure 68
0101
1100
0110
0011
,  // measure 69
1001
0000
1000
0010
0200
0000
0301
1000
,  // measure 70
1100
0011
0110
1100
,  // measure 71
0001
0100
1000
0100
0001
0000
1000
0100
,  // measure 72
0110
0000
0001
0010
1000
0000
0001
0100
,  // measure 73
1000
0000
0001
0100
1000
0000
0001
0010
,  // measure 74
1000
0000
0001
1000
0001
0000
0200
0000
,  // measure 75
0310
1000
0100
1000
0010
0000
0100
0001
,  // measure 76
1000
0100
0010
0001
1000
0010
0100
0010
,  // measure 77
1000
0001
0010
0100
2000
0000
3001
0100
,  // measure 78
0010
1000
0100
1000
0010
0100
0001
0010
,  // measure 79
0100
0010
1000
0010
0001
0000
1000
0010
,  // measure 80
0001
0010
1000
0100
0010
0100
0001
0100
,  // measure 81
1000
0001
0100
0010
1000
0000
0001
0010
,  // measure 82
0110
0000
1000
0001
1000
0000
0020
0000
,  // measure 83
0130
1000
0100
0001
1000
0100
0020
0000
,  // measure 84
0130
0001
0100
1000
0100
0001
0100
1000
,  // measure 85
0100
0001
0100
1000
0001
0100
0020
0000
,  // measure 86
1030
0000
0001
1000
0001
0000
0020
0000
,  // measure 87
0130
0001
0100
1000
0001
0100
0020
0000
,  // measure 88
0130
1000
0100
0001
0100
1000
0100
0001
,  // measure 89
0100
1000
0100
0001
1000
0100
0010
0100
,  // measure 90
1001
0000
0000
0000
;
