#VERSION:0.83;
#TITLE:Little Drop;
#SUBTITLE:;
#ARTIST:Dropgun;
#TITLETRANSLIT:;
#SUBTITLETRANSLIT:;
#ARTISTTRANSLIT:;
#GENRE:;
#ORIGIN:;
#CREDIT:;
#BANNER:;
#BACKGROUND:;
#PREVIEWVID:;
#JACKET:;
#CDIMAGE:;
#DISCIMAGE:;
#LYRICSPATH:;
#CDTITLE:;
#MUSIC:Little Drop.ogg;
#OFFSET:-0.185000;
#SAMPLESTART:57.558777;
#SAMPLELENGTH:15.652176;
#SELECTABLE:YES;
#BPMS:0.000=138.000;
#STOPS:;
#DELAYS:;
#WARPS:;
#TIMESIGNATURES:0.000=4=4;
#TICKCOUNTS:0.000=4;
#COMBOS:0.000=1;
#SPEEDS:0.000=1.000=0.000=0,
292.000=0.900=0.000=0,
292.021=1.000=0.667=0,
298.000=0.900=0.000=0,
298.021=1.000=0.667=0,
300.000=0.900=0.000=0,
300.021=1.000=0.667=0,
306.000=0.900=0.000=0,
306.021=1.000=0.667=0,
308.000=0.900=0.000=0,
308.021=1.000=0.667=0,
314.000=0.900=0.000=0,
314.021=1.000=0.667=0;
#SCROLLS:0.000=1.000;
#FAKES:;
#LABELS:0.000=Song Start;
#BGCHANGES:;
#KEYSOUNDS:;
#ATTACKS:
;

//---------------dance-single - ----------------
#NOTEDATA:;
#CHARTNAME:;
#STEPSTYPE:dance-single;
#DESCRIPTION:;
#CHARTSTYLE:;
#DIFFICULTY:Challenge;
#METER:11;
#RADARVALUES:0.708802,0.763623,0.374260,0.395646,1.208324,464.000000,429.000000,35.000000,37.000000,28.000000,6.000000,17.000000,0.000000,0.000000,0.708802,0.763623,0.374260,0.395646,1.208324,464.000000,429.000000,35.000000,37.000000,28.000000,6.000000,17.000000,0.000000,0.000000;
#CREDIT:;
#NOTES:
// measure 0
0000
0000
0000
0000
,  // measure 1
0000
0000
0000
0000
,  // measure 2
0000
0000
0000
0000
,  // measure 3
0000
0000
0000
0000
,  // measure 4
0000
0000
0000
0000
,  // measure 5
1000
0000
0010
0000
0010
0000
0100
0000
0001
0000
0000
0001
0000
0000
0001
0000
,  // measure 6
0000
1000
0000
0000
0010
0000
0010
0000
0100
0000
0001
0100
00M0
0100
1000
0000
,  // measure 7
0001
0000
0010
0000
0010
0000
0100
0000
1000
0000
0000
1000
0000
0000
1000
0000
,  // measure 8
0000
0001
0000
0000
0010
0000
0010
0000
0100
0000
1000
0100
00M0
0100
0001
0000
,  // measure 9
1000
0000
0000
0010
0000
0100
0010
0000
1000
0010
0000
0100
0010
0000
1000
0001
0000
0000
0100
0000
0100
0000
0000
0000
,  // measure 10
0001
0000
0000
0010
0000
0100
0010
0000
0001
0010
0000
0100
0010
0000
0001
1000
0000
0000
0100
0000
0100
0000
0000
0000
,  // measure 11
0010
0000
0000
0001
0000
1000
0100
0000
1000
0001
0000
1000
0010
0000
1000
0001
0000
0000
0100
0000
0100
0000
0000
0000
,  // measure 12
0010
0000
1000
0001
0000
1000
0100
0000
1000
0010
0000
1000
0001
0000
0000
0100
0000
0000
0010
0000
0010
0000
0000
0000
,  // measure 13
1000
0000
0000
0001
0000
1000
0010
0000
1000
0010
0000
1000
0010
0000
1000
0100
0000
0000
0010
0000
0010
0000
0000
0000
,  // measure 14
0001
0000
0000
1000
0000
0001
0010
0000
0001
0010
0000
0001
0010
0000
0001
0100
0000
0000
0010
0000
0010
0000
0000
0000
,  // measure 15
1000
0000
0000
0000
0000
0000
0001
0000
0000
0000
0010
0000
0100
0000
0000
0000
1000
0000
0100
0000
0000
0000
0010
0000
0001
0000
0000
0000
0010
0000
0100
0000
0000
0000
0000
0000
1000
0000
0000
0000
0001
0000
0100
0000
0000
00M0
0100
0000
,  // measure 16
1000
0000
0000
0000
0000
0000
0100
0000
0000
00M0
0100
0000
0001
0000
0000
0000
0000
0000
0010
0000
0000
0M00
0010
0000
1000
0000
0000
0000
0000
0000
0010
0000
0000
0M00
0010
0000
0001
0000
0000
0000
0000
0000
0100
0000
0000
00M0
0100
0000
,  // measure 17
2000
0000
3102
0010
0000
1003
0021
0000
,  // measure 18
0230
0000
0000
0301
2100
0000
0010
0000
0000
0000
3001
0000
1020
0000
0000
0000
,  // measure 19
0130
1000
0000
1000
0102
0000
0010
0000
0000
0000
1003
0000
0021
0000
0000
0000
,  // measure 20
0130
0001
0000
0001
2100
0000
0010
0000
0000
0000
3001
0000
1010
0000
0100
0000
,  // measure 21
0110
0000
0000
1000
0000
0001
0100
0000
0001
1000
0000
0001
0010
0000
0100
1000
0000
0000
0102
0000
1000
0000
0000
0000
,  // measure 22
1003
0000
0000
0001
0000
1000
0100
0000
1000
0001
0000
1000
0010
0000
0100
0001
0000
0000
2100
0000
0001
0000
0000
0000
,  // measure 23
3001
0000
0000
0010
0000
0100
1000
0000
0001
0100
0000
0010
1000
0000
0001
0010
0000
0000
0102
0000
1000
0000
0000
0000
,  // measure 24
2000
0000
0000
0000
0003
0000
3001
0010
,  // measure 25
0200
0000
0000
1300
0001
0100
0010
1000
0001
0010
0100
1000
,  // measure 26
0101
0000
0010
0000
0001
0000
1000
0000
0010
0000
1000
0000
0400
0300
M400
0300
0400
0300
1010
0000
0000
0000
0001
0000
,  // measure 27
0200
0000
0000
0300
0100
0000
0001
0000
1000
0000
0100
0000
0010
0000
0001
0000
1000
0000
0010
0000
0100
0000
0001
0000
,  // measure 28
1100
0010
1000
0001
0010
0100
1000
0000
0001
1100
00M0
0100
,  // measure 29
1010
0001
1000
0010
0100
0010
1000
0100
1000
0001
0100
0001
,  // measure 30
1100
0010
0100
0001
1000
0001
0010
0100
0010
0001
1000
0001
,  // measure 31
0400
03M0
0400
0300
1000
0000
0040
0M30
0040
0030
0001
0000
0400
03M0
0400
0300
1000
0000
0040
0M30
0040
0030
0001
0000
,  // measure 32
0400
03M0
0400
0300
0400
03M0
0400
0300
0400
03M0
0400
0300
1000
0000
0000
0001
0100
0001
0100
0000
0010
0000
1000
0000
,  // measure 33
0201
0000
1300
0010
0100
0001
1020
0000
0130
1000
0001
0010
,  // measure 34
0100
0000
01M0
0000
0100
0000
1000
0000
0010
0M00
0010
0000
0001
0000
0000
0000
0001
0000
0000
0000
1000
0000
0000
0000
,  // measure 35
0021
0000
0130
1000
0100
0001
1020
0000
0130
1000
0001
0010
,  // measure 36
0100
0000
01M0
0000
0100
0000
1000
0000
0010
0M00
0010
0000
0001
0000
0000
0000
1000
0000
0000
0000
0010
0000
0000
0000
,  // measure 37
1200
0000
0301
0010
0100
1000
0021
0000
0130
0001
1000
0010
,  // measure 38
0100
0000
01M0
0000
0100
0000
0001
0000
0010
0M00
0010
0000
1000
0000
0000
0000
1000
0000
0000
0000
0001
0000
0000
0000
,  // measure 39
1020
0000
0130
0001
0100
1000
0021
0000
0130
0001
1000
0010
,  // measure 40
0100
0000
0001
0000
0010
0000
0100
0000
1000
0001
1000
0001
1000
0000
0010
0000
0100
0001
1000
0000
1000
0000
1000
0000
,  // measure 41
0102
0000
0000
0000
0000
0000
2200
0000
3303
0001
1000
0010
,  // measure 42
0100
0000
01M0
0000
0100
0000
0001
0000
0010
0M00
0010
0000
1000
0000
0000
0000
1000
0000
0000
0000
0001
0000
0000
0000
,  // measure 43
2010
0000
0000
0000
0000
0000
0022
0000
3033
1000
0001
0010
,  // measure 44
0100
0000
01M0
0000
0100
0000
1000
0000
0010
0M00
0010
0000
0001
0000
0000
0000
1000
0000
0000
0000
0010
0000
0000
0000
,  // measure 45
2100
0000
0000
0000
0000
0000
0202
0000
3303
1000
0001
0010
,  // measure 46
0100
0000
01M0
0000
0100
0000
1000
0000
0010
0M00
0010
0000
0001
0000
0000
0000
0001
0000
0000
0000
1000
0000
0000
0000
,  // measure 47
0012
0000
0000
0000
0000
0000
2020
0000
3033
0001
1000
0010
,  // measure 48
0100
0000
0001
0000
0010
0000
0100
0000
1000
0001
1000
0001
1000
0000
0010
0000
0100
0001
1000
0000
1000
0000
2000
0000
,  // measure 49
0102
3003
0000
0000
;

//---------------dance-single - ----------------
#NOTEDATA:;
#CHARTNAME:;
#STEPSTYPE:dance-single;
#DESCRIPTION:;
#CHARTSTYLE:;
#DIFFICULTY:Hard;
#METER:10;
#RADARVALUES:0.583539,0.658296,0.171090,0.374260,0.898223,382.000000,366.000000,16.000000,35.000000,3.000000,4.000000,22.000000,0.000000,0.000000,0.583539,0.658296,0.171090,0.374260,0.898223,382.000000,366.000000,16.000000,35.000000,3.000000,4.000000,22.000000,0.000000,0.000000;
#CREDIT:;
#NOTES:
0000
0000
0000
0000
,
0000
0000
0000
0000
,
0000
0000
0000
0000
,
0000
0000
0000
0000
,
0000
0000
0000
0000
,
1000
0000
0010
0000
0010
0000
0100
0000
0001
0000
0000
0010
0000
0000
0100
0000
,
0000
1000
0000
0000
0001
0000
0001
0000
0100
0000
0010
1000
0000
0010
1000
0000
,
0001
0000
0010
0000
0010
0000
0100
0000
1000
0000
0000
0010
0000
0000
0100
0000
,
0000
0001
0000
0000
1000
0000
1000
0000
0100
0000
0010
0001
0000
0010
0001
0000
,
1000
0000
0000
0001
0000
0100
0001
0000
0000
1000
0000
0100
1000
0000
0000
0001
0000
0000
0200
0000
0020
0000
0000
0000
,
0330
0000
0000
0000
0000
0000
1000
0000
0000
0000
0010
0000
1000
0000
0000
0000
0000
0000
0001
0000
0000
0010
0000
0000
0001
0000
0000
0000
0000
0000
1000
0000
0000
0000
0000
0000
0200
0000
0000
0000
0020
0000
0000
0000
0000
0000
0000
0000
,
0330
0000
0000
0001
0000
0010
0001
0000
0000
1000
0000
0010
1000
0000
0000
0001
0000
0000
0020
0000
0200
0000
0000
0000
,
0330
0000
1000
0001
0000
0100
0001
0000
0000
1000
0000
0100
1000
0000
0000
0010
0000
0000
0200
0000
0002
0000
0000
0000
,
0303
0000
0000
1000
0000
0100
0040
0000
0000
0000
0000
0000
0000
0000
0030
0001
0000
0000
2000
0000
0020
0000
0000
0000
,
3030
0000
0000
0001
0000
0100
0040
0000
0000
0000
0000
0000
0000
0000
0030
0100
0000
0000
0020
0000
2000
0000
0000
0000
,
3030
0000
0000
0001
0000
0010
0001
0000
0000
1000
0000
0010
1000
0000
0000
0001
0000
0000
0010
0000
0100
1000
0000
0001
,
0100
0000
0000
0010
0000
1000
0001
0000
0000
0010
0000
0001
1000
0000
0000
0100
0000
1000
0001
0000
0000
0100
0000
0001
,
1000
0000
1100
0100
00M0
0100
0101
0000
,
1000
0100
0000
0100
1000
0000
0001
0000
0000
0000
0001
0000
0101
0000
0000
0000
,
1000
0000
0101
0100
00M0
0100
1100
0000
,
0001
0100
0000
0100
0001
0000
1000
0000
0000
0000
1000
0000
1100
0000
0001
0000
,
1000
0000
0000
0001
0000
0100
0001
0000
0000
1000
0000
0000
0100
0000
0000
0010
0000
0000
0011
0000
0000
0000
0000
0000
,
1000
0010
0000
0010
1000
0000
0001
0000
0010
0000
0100
0000
1100
0000
0000
0000
,
0001
0000
0000
1000
0000
0100
1000
0000
0000
0001
0000
0000
0100
0000
0000
0010
0000
0000
1010
0000
0000
0000
0000
0000
,
2002
0000
0000
0000
3003
0000
1000
0100
,
0020
0000
0000
0031
0100
0001
1000
0100
1000
0001
0100
0010
,
2000
0000
0000
0000
0000
0000
3100
0000
0010
0000
0001
0000
4000
3000
0004
0003
4000
3000
0004
0003
0000
0000
0100
0000
,
0110
0000
1000
0100
0000
0100
0010
0000
0010
0001
1000
0001
,
0200
0000
0310
1000
0001
1000
0100
0010
0001
0100
00M0
0100
,
1000
0001
1000
0001
0100
0001
1000
0100
1000
0010
1000
0010
,
0100
0001
0100
0001
0010
0001
1000
0010
1000
0100
0010
0001
,
4000
3000
0000
0000
4000
3000
0040
0030
0000
0000
0040
0030
0400
0300
0000
0000
0400
0300
0004
0003
0000
0000
0004
0003
,
4000
3000
0400
0300
4000
3000
0004
0003
0400
0300
0004
0003
4000
3000
0000
0000
0000
0000
0040
0000
0000
0000
0000
0000
,
0230
0000
0301
1000
0100
0010
0002
0000
0103
0010
1000
0001
,
0100
0010
0100
0001
1000
0001
0010
0000
0010
0000
0010
0000
,
0200
0000
1300
0001
0100
0010
2000
0000
3100
0010
0001
1000
,
0100
0010
0100
1000
0001
1000
0010
0000
0010
0000
0010
0000
,
0200
0000
0301
1000
0001
0010
0200
0000
1300
0001
1000
0010
,
0100
0001
0100
0010
1000
0001
0010
0000
0010
0000
0010
0000
,
0200
0000
1300
0001
1000
0010
0200
0000
0301
1000
0010
0100
,
0001
1000
0001
1000
0001
1000
0010
0100
0001
1000
0100
0010
,
0002
0000
2103
0000
,
3010
0100
0001
1000
0100
0010
0001
0000
0001
0000
0001
0000
,
2000
0000
3102
0000
,
0013
0100
1000
0001
0100
0010
1000
0000
1000
0000
1000
0000
,
0002
0000
0000
0000
0000
0000
1023
0000
0000
0130
1000
0001
,
0100
0010
0100
0001
1000
0100
0010
0000
0010
0000
0001
0000
,
2000
0000
0000
0000
0000
0000
3021
0000
0000
0130
0001
1000
,
0100
0010
0100
0010
0100
0010
0001
1000
0010
0100
0001
1000
,
2002
3003
0000
0000
;

//---------------dance-single - ----------------
#NOTEDATA:;
#CHARTNAME:;
#STEPSTYPE:dance-single;
#DESCRIPTION:;
#CHARTSTYLE:;
#DIFFICULTY:Medium;
#METER:7;
#RADARVALUES:0.410922,0.473973,0.021386,0.545350,0.347527,269.000000,267.000000,2.000000,51.000000,0.000000,0.000000,0.000000,0.000000,0.000000,0.410922,0.473973,0.021386,0.545350,0.347527,269.000000,267.000000,2.000000,51.000000,0.000000,0.000000,0.000000,0.000000,0.000000;
#CREDIT:;
#NOTES:
0000
0000
0000
0000
,
0000
0000
0000
0000
,
0000
0000
0000
0000
,
0000
0000
0000
0000
,
0000
0000
0000
0000
,
1000
0000
0100
0000
0010
0000
0001
0000
1000
0000
0000
0010
0000
0000
0100
0000
,
0000
0010
0000
0000
1000
0000
0001
0000
0010
0000
0000
0100
0000
0000
0010
0000
,
0001
0000
0100
0000
0010
0000
1000
0000
0001
0000
0000
0010
0000
0000
0100
0000
,
0000
0010
0000
0000
0001
0000
1000
0000
0010
0000
0000
0100
0000
0000
0010
0000
,
1000
0001
0001
0010
0010
0100
0200
0000
,
0300
1000
1000
0010
0010
0100
0200
0000
,
0300
0001
0001
1000
1000
0100
0200
0000
,
0300
0010
0010
0001
0001
1000
0020
0000
,
0030
0100
0100
0100
0100
0001
2000
3000
,
0000
0000
0100
0000
0100
0000
0100
0000
0100
0000
1000
0000
0002
0000
0000
0003
,
0000
0000
0100
0000
0100
0000
0100
0000
0100
0000
0010
0000
2000
3000
0200
0300
,
0002
0003
0200
0300
0020
0030
0002
0003
0200
0300
2000
3000
0200
0300
0020
0030
,
1000
0000
0001
0100
0000
0001
1000
0000
,
0100
0010
0001
1000
0000
0010
1000
0000
,
0001
0000
0010
0100
0000
0010
0001
0000
,
1000
0010
0100
0001
0000
1000
0100
0000
,
0010
0001
1000
0010
0100
0001
1000
0000
,
0100
0010
0001
0010
0100
1000
0010
0000
,
0100
0001
1000
0001
0010
0100
1000
0000
,
2002
0000
0000
0000
3003
0000
1000
0100
,
0020
0000
0000
0031
0000
0001
0100
0000
0100
0010
0000
0010
,
1000
0000
0000
0001
0000
0001
0020
0000
0000
0130
0000
0000
,
1000
0000
1000
0100
0000
0100
0010
0000
0010
0001
0000
0000
,
1000
0000
1000
0010
0000
0010
0100
0000
0100
0001
0000
0001
,
1000
0000
0000
0100
0000
0010
0000
0001
0000
1000
0000
1000
,
0001
0000
0000
0100
0000
0010
0000
1000
0000
0001
0000
0001
,
0100
0000
0100
0010
0000
0010
1000
0000
1000
0100
0000
0100
,
0010
0001
1000
0001
1000
0001
1000
0000
0000
0000
0000
0000
,
0002
0000
0000
0103
0000
0010
2000
0000
0000
3100
0000
0010
,
0002
0000
0000
2003
0000
0000
3010
0000
0010
0000
0010
0000
,
2000
0000
0000
3100
0000
0010
0002
0000
0000
0103
0000
0010
,
2000
0000
0000
3002
0000
0000
0013
0000
0010
0000
0010
0000
,
0200
0000
0000
1300
0000
0001
0200
0000
0000
0301
0000
1000
,
0200
0000
0000
0320
0000
0000
0031
0000
0001
0000
0001
0000
,
0200
0000
0000
0301
0000
1000
0200
0000
0000
1300
0000
0001
,
0200
0000
0000
0320
0000
0000
1030
0001
1000
0002
0000
0000
,
0023
0000
0000
0000
0000
0000
0230
0000
0000
1300
0000
0001
,
0010
0000
0100
1000
0000
0001
0100
0000
0100
0000
0100
0000
,
0020
0000
0000
0000
0000
0000
0230
0000
0000
0301
0000
1000
,
0010
0000
0100
0001
0000
1000
0100
0000
0100
0000
0100
0000
,
0020
0000
0000
0000
0000
0000
0032
0000
0000
1003
0000
1000
,
0100
0000
0100
0010
0000
0010
0001
0000
0001
0000
0100
0000
,
0020
0000
0000
0000
0000
0000
2030
0000
0000
3001
0000
0001
,
0200
0000
0000
0320
0000
0000
1030
0001
2000
0002
3003
0000
,
0220
0330
0000
0000
;
