#TITLE:Hate The Most;
#SUBTITLE:;
#ARTIST:RiraN;
#TITLETRANSLIT:;
#SUBTITLETRANSLIT:;
#ARTISTTRANSLIT:;
#GENRE:;
#CREDIT:;
#BANNER:banner.png;
#BACKGROUND:;
#LYRICSPATH:;
#CDTITLE:;
#MUSIC:Hate The Most.ogg;
#OFFSET:0.542183;
#SAMPLESTART:92.784805;
#SAMPLELENGTH:16.000000;
#SELECTABLE:YES;
#BPMS:0.000000=180.000000
;
#STOPS:
;
#BGCHANGES:;
#KEYSOUNDS:;
#ATTACKS:;

//---------------dance-single - ----------------
#NOTES:
     dance-single:
     :
     Challenge:
     12:
     0.916880,1.261501,0.866294,0.499542,0.556451,1015.000000,878.000000,137.000000,79.000000,64.000000,36.000000,0.916880,1.261501,0.866294,0.499542,0.556451,1015.000000,878.000000,137.000000,79.000000,64.000000,36.000000:
// measure 0
0000
0000
0000
0000
,  // measure 1
0000
0000
0000
0000
,  // measure 2
1000
0000
1000
0000
0001
0000
0001
0000
0100
0010
0000
0010
0100
0000
0000
0000
,  // measure 3
0001
1000
0001
0000
0010
0000
0100
1000
0001
0100
0001
0100
0001
0000
0000
0000
,  // measure 4
0010
0000
0010
0000
0100
0000
0100
0000
1000
0001
1000
0001
1000
0000
0000
0000
,  // measure 5
0010
0100
0010
0000
1000
0000
0001
0010
0100
1000
0100
1000
0100
0000
0000
0000
,  // measure 6
0010
0000
0010
0000
0001
0000
0001
0000
1000
0010
0000
0010
0100
0000
0001
0000
,  // measure 7
0010
0100
1000
0000
0001
0000
0100
0010
1000
0001
0100
0001
1000
0000
0100
0000
,  // measure 8
0010
0001
0010
0001
1000
0010
1000
0010
0100
0001
0100
0001
1000
0100
1000
0100
,  // measure 9
0010
0000
0000
0001
1000
0000
0000
0001
1000
0000
0000
0000
0002
0000
0000
0000
,  // measure 10
1203
0000
0000
0000
0310
0000
1000
0000
1000
0000
1000
0000
01M0
0100
0001
0000
,  // measure 11
1000
0100
0010
0100
1000
0100
0010
0000
0001
0000
0001
0000
01M0
0100
2000
0000
,  // measure 12
0001
0000
3001
0000
0000
0000
0001
0000
0010
0000
0010
0000
M100
0100
0001
0000
,  // measure 13
1000
0010
0100
0010
1000
0010
0100
0000
0001
0000
0001
0000
0M10
0010
2000
0000
,  // measure 14
3100
0000
0020
0000
0030
0000
0001
0000
0001
0000
0001
0000
01M0
0100
1000
0000
,  // measure 15
0001
0100
0010
0100
0001
0100
0010
0000
1000
0000
1000
0000
01M0
0100
0002
0000
,  // measure 16
1000
0000
1003
0000
0000
0000
1000
0000
1000
0000
0010
0000
010M
0100
1000
0000
,  // measure 17
0001
0000
0000
1000
0001
0000
0000
1000
0001
0000
0000
0000
2000
0000
0000
0000
,  // measure 18
3201
0000
0000
0000
0310
0000
0010
0000
0001
0000
0001
0000
1000
0000
0010
0100
,  // measure 19
0001
0000
M01M
0100
0001
0000
0010
0000
0100
0000
1000
0000
01M0
0100
0001
0000
,  // measure 20
0020
0000
0030
0000
0100
1000
0001
1000
0100
0000
0MM1
1000
0100
0000
0010
0000
,  // measure 21
0001
0000
0001
0000
1000
0000
1000
0000
0010
0000
1000
0000
01M0
0100
0001
0000
,  // measure 22
1000
0000
0000
0000
0001
0000
0001
0000
1000
0000
1000
0000
0100
0000
0010
0100
,  // measure 23
1000
0000
M01M
0100
1000
0000
0001
0000
0100
0000
0010
0000
010M
0100
1000
0000
,  // measure 24
0002
0000
0003
0000
0100
0001
1000
0001
0100
0010
0100
0010
1000
0001
1000
0001
,  // measure 25
0010
0000
0000
0100
0010
0000
0000
0100
0010
0000
0000
0000
0200
0000
0000
0000
,  // measure 26
2310
0000
3101
1000
0021
1000
1000
0001
,  // measure 27
0100
0100
0031
1000
0101
0010
0100
1000
,  // measure 28
0012
0000
1103
0001
1020
0001
0001
1000
,  // measure 29
0100
0000
0100
0000
1030
0000
0001
0000
1100
0011
1100
0000
0001
0000
1000
0000
,  // measure 30
0102
0000
1013
0001
2100
0010
0010
0100
,  // measure 31
0001
0000
3001
0000
1010
0000
0100
0000
1010
0101
1010
0101
1010
0000
0001
0000
,  // measure 32
1200
0000
0011
0000
0011
0000
0311
0000
1000
0001
1000
0100
0010
0001
0100
0010
,  // measure 33
1000
0001
1000
0001
0100
0100
0100
0000
,  // measure 34
0020
0000
0000
0000
0000
0000
1030
0100
,  // measure 35
0020
0000
0032
0000
2003
0000
3010
0200
,  // measure 36
0000
0000
0000
0000
0000
0000
0301
0010
,  // measure 37
0200
0000
2300
0000
3002
0000
0103
0020
,  // measure 38
0000
0000
0000
0000
0000
0000
1030
0001
,  // measure 39
0020
0000
0230
0000
2300
0000
3001
0200
,  // measure 40
0000
0000
0000
0000
0000
0310
1000
0002
,  // measure 41
0000
0000
0000
0000
,  // measure 42
1003
0000
0000
0000
0000
0000
0100
00M0
0100
0000
0001
0000
0000
0000
2000
0000
,  // measure 43
0000
0000
0000
0000
0000
0000
3100
00M0
0100
0000
0001
0000
0000
0000
2000
0000
,  // measure 44
0000
0000
0000
0000
0000
0000
3100
00M0
0100
0000
0001
0000
1000
0000
0010
0000
,  // measure 45
0100
0000
0100
0000
0010
0000
0100
0001
,  // measure 46
0000
0000
0000
0000
0000
0000
0100
00M0
0100
0000
1000
0000
0000
0000
0002
0000
,  // measure 47
0000
0000
0000
0000
0000
0000
0103
00M0
0100
0000
1000
0000
0000
0000
0002
0000
,  // measure 48
0000
0000
0000
0000
0000
0000
0103
00M0
0100
0000
1000
0000
0001
0000
0010
0000
,  // measure 49
0100
1000
0100
1000
0001
0100
0001
0100
0010
1000
0010
1000
0001
0010
0001
0010
,  // measure 50
0100
00M0
0100
0001
0010
0M00
0010
1000
,  // measure 51
0100
00M0
0100
0001
2000
0000
3002
0000
,  // measure 52
0103
00M0
0100
1000
0010
0M00
0010
0001
,  // measure 53
0100
00M0
0100
1000
0002
0000
2003
0000
,  // measure 54
3100
00M0
0100
0001
0010
0M00
0010
1000
,  // measure 55
0100
00M0
0100
0001
2000
0000
3002
0000
,  // measure 56
0103
00M0
0100
1000
0010
0M00
0010
0001
,  // measure 57
0100
00M0
0100
1000
0002
0000
2003
0000
,  // measure 58
3001
0000
0000
0000
0000
0000
0100
00M0
0100
0000
1000
0000
0000
0000
0002
0000
,  // measure 59
0000
0000
0000
0000
0000
0000
0103
00M0
0100
0000
1000
0000
0000
0000
0002
0000
,  // measure 60
0000
0000
0000
0000
0000
0000
0103
00M0
0100
0000
1000
0000
0001
0000
0010
0000
,  // measure 61
0100
0000
0100
0000
0010
0000
0100
1000
,  // measure 62
0001
0001
0100
0100
0010
0010
1000
1000
,  // measure 63
0001
0001
0010
0010
0100
0100
1000
1000
,  // measure 64
0001
0100
0001
0100
0010
1000
0010
1000
0001
0010
0100
1000
0001
1000
0010
0100
,  // measure 65
0001
0000
1000
0000
0001
0000
0000
1000
0001
0000
0100
0000
0120
0000
0000
0000
,  // measure 66
1130
0001
1100
0001
1100
0001
1100
0001
,  // measure 67
1010
0100
1010
0100
1010
0100
2010
0000
,  // measure 68
3101
1000
0101
1000
0101
1000
0101
1000
,  // measure 69
0011
0100
0011
0100
0011
0100
0011
1100
,  // measure 70
0011
1000
0011
1000
0011
1000
0011
1000
,  // measure 71
0101
0010
0101
0010
0101
0010
0102
0000
,  // measure 72
1013
0001
1010
0001
1010
0001
1010
0001
,  // measure 73
1100
0010
1100
0010
1100
0010
2000
0000
,  // measure 74
3101
0000
1000
0000
0011
0000
0100
00M0
0100
0000
1000
0000
0101
0000
0010
0000
,  // measure 75
0101
0000
1000
0000
0011
0000
0100
00M0
0100
0000
2000
0000
0011
0000
3011
0000
,  // measure 76
1100
0000
0001
0000
1010
0000
0100
00M0
0100
0000
0001
0000
1100
0000
0011
0000
,  // measure 77
2100
0000
0000
0000
3101
0000
1010
0000
0001
2000
0011
0000
3011
0000
1000
0001
,  // measure 78
1100
0000
0001
0000
1010
0000
0100
00M0
0100
0000
0001
0000
1100
0000
0010
0000
,  // measure 79
1100
0000
0001
0000
1000
0100
1010
0000
0101
0010
0101
0010
0101
0000
1000
0001
,  // measure 80
1100
0010
0100
0001
1000
0100
1000
0001
0100
0010
1000
0001
1000
0100
0010
0001
,  // measure 81
2000
0020
0200
3331
,  // measure 82
1000
0000
0000
0000
0001
0000
0100
00M0
0100
0000
1000
0000
0000
0000
0002
0000
,  // measure 83
0000
0000
0000
0000
1003
0000
0100
00M0
0100
0000
0001
0000
0000
0000
2000
0000
,  // measure 84
0000
0000
0000
0000
3001
0000
0100
00M0
0100
0000
1000
0000
0001
0000
0010
0000
,  // measure 85
0100
0000
0100
0000
0010
0000
0100
1000
,  // measure 86
0001
0001
0100
0100
0010
0010
1000
1000
,  // measure 87
0100
0100
0010
0010
0001
0001
1000
1000
,  // measure 88
0010
0100
0001
1000
0001
0010
0100
1000
0001
0100
0001
1000
0100
0010
0001
1000
,  // measure 89
0010
0000
0100
0000
0010
0000
0000
1000
0001
0000
0010
0000
0210
0000
0000
0000
,  // measure 90
1310
0000
0100
0000
1010
0000
0001
0000
1100
0000
0001
0000
0100
00M0
0100
0000
,  // measure 91
1010
0000
0001
0000
0010
0M00
0010
0000
1100
0000
0001
0000
2100
0000
0000
0000
,  // measure 92
3011
0000
0100
0000
0011
0000
1000
0000
0101
0000
1000
0000
0100
00M0
0100
0000
,  // measure 93
0011
0000
1000
0000
0010
0M00
0010
0000
0101
0000
2000
0000
0101
0000
3101
0000
,  // measure 94
1010
0000
0001
0000
0100
0000
0010
0000
1100
0000
0001
0000
0100
00M0
0100
0000
,  // measure 95
1010
0000
0001
0000
0010
0M00
0010
0000
1100
0000
0001
0000
2100
0000
0000
0000
,  // measure 96
3011
0000
1000
0000
0100
0000
0010
0000
0101
0000
1000
0000
0100
00M0
0100
0000
,  // measure 97
0011
0000
1000
0000
0010
0M00
0010
0000
0101
0000
1000
0000
0002
0000
0000
0000
,  // measure 98
1103
0000
0001
0000
1010
0000
0100
00M0
0100
0000
0001
0000
1100
0000
0010
0000
,  // measure 99
1100
0000
0001
0000
1010
0000
0100
00M0
0100
0000
0002
0000
1010
0000
1013
0000
,  // measure 100
0101
0000
1000
0000
0011
0000
0100
00M0
0100
0000
1000
0000
0101
0000
1010
0000
,  // measure 101
0102
0000
0000
0000
1103
0000
0011
0000
1000
0002
1010
0000
1013
0000
0001
1000
,  // measure 102
0101
0000
1000
0000
0011
0000
0100
00M0
0100
0000
1000
0000
0101
0000
0010
0000
,  // measure 103
0101
0000
1000
0000
0001
0100
0011
0000
1100
0010
1100
0010
1100
0000
0001
1000
,  // measure 104
0101
0010
0100
1000
0001
0100
0001
1000
0100
0010
0001
1000
0001
0100
0010
1000
,  // measure 105
0002
0020
0200
1333
,  // measure 106
0002
0000
1103
0011
1100
0000
0002
0000
,  // measure 107
1003
0000
1000
0000
0001
0100
0010
0100
1000
0000
100M
0010
0200
0000
0000
0000
,  // measure 108
0302
0000
0003
0000
1000
0010
0100
0010
M001
0000
0001
0100
0001
0100
0010
0100
,  // measure 109
100M
0000
1000
0000
0001
0100
0010
0100
100M
0000
1000
0010
0200
0000
0000
0000
,  // measure 110
0302
0000
0000
0000
1100
0000
1103
0000
0001
0010
0101
0000
2000
0000
0000
0000
,  // measure 111
3001
0000
0001
0000
1000
0100
0010
0100
M001
0000
0001
0010
0200
0000
0000
0000
,  // measure 112
2300
0000
0000
0000
3001
0010
0100
0010
100M
0000
1000
0100
1000
0100
0010
0100
,  // measure 113
M001
0000
0001
0000
1000
0100
0010
0100
M001
0000
0001
0010
0200
0000
0000
0000
,  // measure 114
1300
0000
0000
0000
;

//---------------dance-single - ----------------
#NOTES:
     dance-single:
     :
     Hard:
     11:
     0.814804,0.990230,0.746151,0.366752,0.354105,902.000000,784.000000,118.000000,58.000000,0.000000,0.000000,0.814804,0.990230,0.746151,0.366752,0.354105,902.000000,784.000000,118.000000,58.000000,0.000000,0.000000:
0000
0000
0000
0000
,
0000
0000
0000
0000
,
1000
0000
0010
0000
0100
0000
0001
0000
1000
0100
0000
1000
0100
0000
0000
0000
,
0010
0001
1000
0000
0010
0000
0100
0001
0100
0001
1000
0100
0010
0000
0000
0000
,
0001
0000
0001
0000
1000
0000
1000
0000
0010
0100
0010
0100
0010
0000
0000
0000
,
1000
0001
0010
0000
0100
0000
1000
0001
1000
0001
0100
0010
1000
0000
0000
0000
,
1001
0001
0010
0100
1000
0010
0100
0001
,
1001
1000
0010
0100
0001
0010
0100
1000
,
0001
0100
0001
0000
1000
0100
1000
0000
0010
0100
0010
0100
0010
0000
0000
0000
,
1001
0000
0000
0010
0100
0000
0000
0000
0110
0000
0000
0000
0000
0000
0000
0000
,
2000
0000
3100
0100
0200
0000
1000
0000
,
0010
0000
0000
0000
0001
0000
0000
0000
0320
0000
0000
0000
0031
1000
0001
0000
,
0002
0000
0103
0100
0200
0000
0310
0010
,
0020
0000
0000
0000
2030
0000
0000
0000
3002
0000
0000
0000
1003
0001
1000
0000
,
0002
0000
0103
0100
0200
0000
0001
0000
,
0010
0000
0000
0000
1000
0000
0000
0000
0320
0000
0000
0000
1030
0001
1000
0000
,
2000
0000
3100
0100
0200
0000
0310
0010
,
0010
0000
0000
0001
1000
0000
0000
0000
1001
0000
0000
0000
0000
0000
0000
0000
,
0110
0000
0000
0000
1000
0000
1000
0000
0100
0000
0100
0000
0010
0000
0001
0100
,
0001
0000
1000
0100
1000
0000
0001
0000
0010
0000
0100
0000
1000
0001
0100
0000
,
0020
0000
0000
0000
1030
0100
1000
0100
1000
0000
0001
0100
0001
0000
1000
0000
,
0010
0000
0100
0000
0001
0000
1000
0000
0100
0000
0010
0000
0001
1000
0010
0000
,
0200
0000
0000
0000
0301
0000
0001
0000
0010
0000
0010
0000
0100
0000
1000
0010
,
1000
0000
0001
0010
0001
0000
1000
0000
0100
0000
0010
0000
0001
1000
0010
0000
,
0100
0001
1000
0000
0100
1000
0001
0000
0100
0010
0100
0010
1000
0001
1000
0001
,
0010
0000
0000
0001
1000
0000
0000
0000
1001
0000
0000
0000
0000
0000
0000
0000
,
0110
0000
1010
0001
0011
0010
0100
1100
,
0001
0100
0110
0000
0110
0000
0001
0001
,
1001
0000
1100
0001
0101
0100
0010
1010
,
1000
0000
0001
0000
0011
0000
0010
0000
0001
1000
0001
0000
0100
0000
0100
0000
,
0110
0000
0101
0001
1010
1000
0001
0011
,
0010
0000
0100
0000
1100
0000
1000
0000
0001
0100
0001
0100
0010
0000
0010
0000
,
0110
0000
1000
0000
1000
0000
1000
0000
0001
0010
0100
1000
0001
0010
0100
1000
,
0001
0001
0001
0001
0100
0010
1000
0000
,
0002
0000
0000
0000
0000
0000
0010
0010
,
0010
0000
0010
0000
2003
0000
3100
2000
,
0000
0000
0000
0000
0000
0000
0010
0010
,
0010
0000
0010
0000
3002
0000
0103
0002
,
0000
0000
0000
0000
0000
0000
0010
0010
,
0010
0000
0013
0000
2000
0000
3100
2000
,
0000
0000
0000
0000
0000
3001
0100
0020
,
0000
0000
0000
0000
,
0230
0000
0000
0001
0001
0301
0000
2000
,
0000
0000
0000
0100
0100
3100
0000
0020
,
0000
0000
0000
0001
0001
0031
1000
0010
,
0100
0000
0100
0000
0001
0000
0010
0200
,
0000
0000
0000
1000
1000
1300
0000
0002
,
0000
0000
0000
0100
0100
0103
0000
0020
,
0000
0000
0000
1000
1000
1030
0001
0010
,
0001
0100
0001
0000
1000
0100
1000
0000
0001
0100
0010
1000
0001
1000
0100
0010
,
0001
0000
0001
0100
0010
0000
0010
1000
,
0001
0000
0001
0010
0200
0000
0000
0000
,
1300
0000
1000
0010
0100
0000
0100
0001
,
0010
0000
0010
0100
2000
0000
0000
0000
,
3010
0000
0010
0100
0001
0000
0001
1000
,
0100
0000
0100
0010
0002
0000
0000
0000
,
1003
0000
1000
0010
0100
0000
0100
0001
,
1000
0000
1000
0010
0200
0000
0000
0000
,
0301
0000
0001
1000
1000
1000
0000
0020
,
0000
0000
1030
0001
0001
0001
0000
0020
,
0000
0000
0031
1000
1000
1000
0010
0100
,
0001
0000
0001
0000
0010
0000
0100
1000
,
0001
0100
0001
0100
0010
1000
0010
1000
,
0001
0010
0001
0010
0100
1000
0100
1000
,
0001
0100
0001
0000
1000
0100
1000
0000
0010
0100
0010
0100
0001
1000
0100
0010
,
0001
0000
1000
0000
0001
0000
0000
0100
0010
0000
0000
0000
0110
0000
0000
0000
,
1001
0000
1000
0100
1100
0000
0001
0100
,
0101
0000
0010
0100
0110
0000
1001
0000
,
0110
0000
0101
0001
1000
0000
1100
1000
,
0001
0000
1001
0100
0010
0000
0110
0000
,
1001
0000
0001
0010
0110
0000
1000
0010
,
0110
0000
0001
1000
1001
0000
0110
0000
,
1001
0000
1010
0010
0100
0000
0011
0010
,
0100
0000
0110
1000
0002
0000
2000
3003
,
1010
0000
0011
1000
1010
0001
0000
0220
,
0000
0330
1010
0001
0011
1000
0000
0220
,
0000
0330
1100
1000
0101
0001
1100
0100
,
0110
0000
0000
0000
1001
0000
0001
0000
0010
0100
1000
0000
0001
0000
0100
0010
,
1000
0000
0101
1000
1100
0001
0000
0110
,
1001
0000
0000
0000
1000
0100
1000
0000
0001
0100
0001
0100
0010
0000
1000
0001
,
0010
0100
1000
0000
0001
0100
0010
0000
1000
0001
1000
0001
0010
0100
1000
0001
,
0200
0000
0020
0330
0110
0000
1001
0000
,
1000
0100
1000
0010
0010
0020
0100
1030
,
0001
0100
0001
0010
0010
0020
0100
0031
,
1000
0010
1000
0100
0100
0200
0010
1300
,
1001
0000
1010
0000
0101
0000
0110
1000
,
0001
0001
0010
0010
0100
0100
1000
1000
,
0001
0001
0100
0100
0010
0010
1000
1000
,
0001
0100
0001
0000
0010
0100
1000
0000
0001
0100
0001
0100
0010
1000
0001
0010
,
0100
0000
1000
0000
0001
0000
0000
1000
0001
0000
0100
0000
0110
0000
0000
0000
,
1001
0000
1100
1000
1001
0000
0101
0001
,
1001
0000
1010
0010
0110
0000
1001
0000
,
1100
0000
0110
0010
0011
0000
0110
0100
,
1100
0000
0101
0100
0110
0000
1010
0010
,
0011
0000
0110
0100
1100
0000
1001
0001
,
0101
0000
0110
0010
1010
0000
1001
0000
,
0011
0000
0110
0100
1100
0000
1010
0010
,
0110
0000
1001
0010
1001
0000
0110
0000
,
1001
1000
0100
0010
0011
0001
1001
1000
,
1010
0010
0100
0001
1001
1000
1100
0100
,
0110
0010
0001
1000
1010
0010
0110
0100
,
0101
0000
0000
0000
1100
0000
0001
0000
0100
0010
0100
0000
0110
0000
1000
0001
,
1000
0010
0100
0001
1001
1000
1100
0100
,
0110
0000
0000
0000
0001
1000
0001
0000
0010
0100
0010
0100
1000
0000
0001
0100
,
0001
1000
0100
0000
0010
0001
1000
0000
0010
0100
0010
0100
0001
1000
0001
1000
,
0200
0000
0020
0330
0110
0000
1001
0000
,
0100
0000
0010
0010
1001
0000
2000
0000
,
3100
0000
0100
0000
0010
0001
0010
0001
1000
0000
0010
0100
0002
0000
0000
0000
,
0023
0000
0000
0000
0130
1000
0100
1000
0001
0000
0100
0010
0100
0010
0100
0010
,
1000
0000
1000
0000
0001
0010
0001
0010
0100
0000
1000
0001
2000
0000
0000
0000
,
3020
0000
0000
0000
0100
0000
0100
0000
0130
0001
1000
0000
0002
0000
0000
0000
,
0103
0000
0100
0000
0010
1000
0010
1000
0001
0000
0010
0100
2000
0000
0000
0000
,
3020
0000
0000
0000
0130
0001
0100
0001
1000
0000
0100
0010
0100
0010
0100
0010
,
0001
0000
0001
0000
1000
0010
1000
0010
0100
0000
0001
1000
0001
0000
0000
0000
,
2002
0000
0000
0000
,
0000
0000
0000
0000
,
3003
0000
0000
0000
;

//---------------dance-single - ----------------
#NOTES:
     dance-single:
     :
     Medium:
     8:
     0.565485,0.660154,0.126466,0.354105,0.000000,626.000000,606.000000,20.000000,56.000000,0.000000,0.000000,0.565485,0.660154,0.126466,0.354105,0.000000,626.000000,606.000000,20.000000,56.000000,0.000000,0.000000:
0000
0000
0000
0000
,
0000
0000
0000
0000
,
1000
1000
0001
0001
0100
0010
0100
0000
,
0001
0001
1000
1000
0100
0010
0100
0000
,
1000
0010
0100
0001
1000
0001
1000
0000
,
0001
0010
0100
1000
0001
1000
0001
0000
,
1000
0010
1000
0010
0100
0001
0100
0001
,
1000
0100
1000
0100
0010
0001
0010
0001
,
1000
1000
0001
0001
0100
0100
0010
0010
,
0220
0000
0330
1001
,
1000
0000
0100
0010
0001
0000
0001
0000
,
1000
0010
0110
0000
,
0001
0000
0100
0010
1000
0000
0100
0010
,
0001
0001
1001
0000
,
0110
0000
1000
0001
0010
0000
0010
0000
,
0100
0100
1001
0000
,
0110
0000
0001
1000
0010
0000
0010
0100
,
2002
0000
3003
1001
,
0110
0000
1000
0100
1000
0100
0010
0001
,
0001
1000
1000
0010
0010
0000
0200
0000
,
0301
0000
0001
0100
0001
0100
0010
1000
,
1000
0001
0001
0010
0010
0000
0100
0000
,
1001
0000
1000
0010
1000
0010
0100
0001
,
0001
1000
1000
0100
0100
0000
0020
0000
,
0031
0000
0001
0010
0100
1000
0100
2000
,
0002
0000
3003
1001
,
0010
0000
1000
0100
2000
0000
0000
3020
,
0000
0130
0220
0330
,
1001
0000
0001
0100
0002
0000
0000
0023
,
0000
0000
0130
1000
0002
0000
1003
0010
,
0100
0000
0001
0010
2000
0000
0000
3020
,
0000
0230
2300
0000
,
3001
0100
0010
0010
1000
1000
0001
0001
,
0010
0100
0010
0100
1000
0001
1000
0000
,
2001
0000
0000
0000
0000
0000
3010
0100
,
0001
0000
1000
0000
0100
0000
0010
0002
,
0000
0000
0000
0000
0000
0003
0010
0100
,
1000
0000
0001
0000
0100
0000
0010
2000
,
0000
0000
0000
0000
0000
0000
3100
0010
,
0001
0000
1000
0000
0010
0000
0100
0002
,
0000
0000
0000
0000
0000
0013
0100
2000
,
0000
0000
0000
0000
,
3001
0000
0000
1000
0100
1000
0000
0002
,
0000
0003
0000
1000
0100
1000
0000
0002
,
0000
0003
0000
1000
0100
1000
0001
0100
,
0001
0000
0001
0000
0010
0000
0100
2000
,
0000
3000
0000
0001
0100
0001
0000
2000
,
0000
3000
0000
0001
0100
0001
0000
2000
,
0000
3000
0000
0001
0100
0001
1000
0100
,
1000
0000
1000
0000
0100
0000
0010
0001
,
1000
0000
0001
0100
0001
0000
1000
0100
,
1000
0000
0001
0010
0200
0000
0300
0000
,
0100
0000
1000
0100
1000
0000
0001
0100
,
0001
0000
1000
0010
0200
0000
0300
0000
,
0100
0000
0001
0100
0001
0000
1000
0100
,
1000
0000
0001
0010
0200
0000
0300
0000
,
0100
0000
1000
0100
1000
0000
0001
0100
,
0001
0000
1000
0010
0200
0000
0300
0000
,
0100
0000
0001
1000
0001
1000
0000
0200
,
0000
0300
1000
0001
1000
0001
0000
0200
,
0000
0300
0001
1000
0001
1000
0100
0010
,
0100
0000
0100
0000
1000
0000
0001
0100
,
0010
0000
1000
0001
0010
0000
0100
1000
,
0001
0000
0100
0010
1000
0000
0001
0010
,
0100
1000
0100
1000
0001
0100
0001
0100
,
0010
1000
0001
0000
0001
0000
0001
0000
,
1000
0000
0001
0100
0010
0000
1000
0001
,
0010
0000
0100
1000
0001
0000
1001
0000
,
1000
0000
0010
0100
0001
0000
1000
0100
,
0010
0000
0001
1000
0010
0000
0100
0010
,
0100
0000
0001
1000
0100
0000
0010
0001
,
0100
0000
0010
1000
0001
0000
0011
0000
,
0010
0000
0100
1000
0010
0000
0100
0001
,
1000
0000
0100
0010
0001
0000
2000
0000
,
3010
0000
0100
0001
1000
0100
0010
0002
,
0000
0003
1000
0010
0100
0010
1000
0002
,
0000
0003
0010
0100
1000
0001
0100
0001
,
0010
0000
0010
0000
0100
0000
1000
0001
,
0100
0000
0010
1000
0001
0010
0100
2000
,
0000
3000
0001
0100
0010
0100
0001
0020
,
0000
0030
0100
1000
0001
1000
0010
0100
,
0001
0000
0001
0000
0010
0000
0100
1000
,
0001
0000
1000
0001
1000
0001
0000
0200
,
0000
0300
0001
1000
0001
1000
0000
0200
,
0000
0300
1000
0001
1000
0001
0100
0010
,
1000
0000
1000
0000
0100
0000
0010
0001
,
1000
0000
0001
0010
0100
0000
1000
0001
,
0100
0000
0010
1000
0001
0000
0010
0100
,
1000
0100
1000
0100
0010
0001
0010
0001
,
1000
0010
0100
0000
0100
0000
0110
0000
,
0001
0000
1000
0100
0010
0000
0001
1000
,
0010
0000
0100
0001
1000
0000
1100
0000
,
0100
0000
0010
0001
1000
0000
0010
0100
,
0001
0000
0010
0100
1000
0000
0100
1000
,
0100
0000
0010
0001
1000
0000
0010
0100
,
0001
0000
0010
0100
1000
0000
1010
0000
,
0010
0000
0100
0001
1000
0000
0100
0010
,
0001
0000
1000
0010
0100
0000
0002
0000
,
1003
0000
0100
0001
0100
1000
0000
0020
,
0000
0030
0001
0010
1000
0100
0000
0020
,
0000
0030
0001
0100
1000
0100
0001
1000
,
0100
0000
0100
0000
0010
0000
0001
0100
,
1000
0000
0100
0001
0010
1000
0000
0020
,
0000
0030
0100
1000
0010
0001
0000
0020
,
0000
0030
0100
0001
0010
1000
0010
0001
,
1000
0000
1000
0000
0010
0000
0100
0001
,
1000
0000
0010
0100
0010
0000
2000
0000
,
3001
0100
1000
0100
0001
0100
0020
0000
,
2030
0000
3001
0100
1000
0100
0001
0100
,
1000
0100
0001
0100
1000
0100
0020
0000
,
1030
0000
0001
0010
0100
1000
0002
0000
,
1003
0100
0001
0100
1000
0100
0020
0000
,
0032
0000
1003
0100
0001
0100
1000
0100
,
0001
0100
1000
0100
0001
0100
0020
0000
,
0200
0000
0000
0000
,
0000
0000
0000
0000
,
0330
0000
0000
0000
;
