#VERSION:0.83;
#TITLE:God Mode 2.0;
#SUBTITLE:;
#ARTIST:Nato;
#TITLETRANSLIT:;
#SUBTITLETRANSLIT:;
#ARTISTTRANSLIT:;
#GENRE:;
#ORIGIN:;
#CREDIT:;
#BANNER:banner.png;
#BACKGROUND:;
#PREVIEWVID:;
#JACKET:;
#CDIMAGE:;
#DISCIMAGE:;
#LYRICSPATH:;
#CDTITLE:;
#MUSIC:God Mode 2.0.ogg;
#OFFSET:-0.622706;
#SAMPLESTART:75.722649;
#SAMPLELENGTH:19.354836;
#SELECTABLE:YES;
#BPMS:0.000=155.000;
#STOPS:;
#DELAYS:;
#WARPS:;
#TIMESIGNATURES:0.000=4=4;
#TICKCOUNTS:0.000=4;
#COMBOS:0.000=1;
#SPEEDS:0.000=1.000=0.000=0,
22.000=1.500=2.000=0,
52.000=1.300=2.000=0,
52.250=1.400=2.000=0,
52.500=1.200=2.000=0,
52.750=1.300=2.000=0,
53.000=1.100=2.000=0,
53.250=1.200=2.000=0,
53.500=1.000=2.000=0,
53.750=1.100=2.000=0,
54.000=0.900=2.000=0,
54.250=0.700=2.000=0,
54.750=1.500=1.250=0,
121.000=9999.000=0.000=0,
121.063=1.500=0.000=0,
121.250=9999.000=0.000=0,
121.313=1.500=0.000=0,
121.500=9999.000=0.000=0,
121.563=1.500=0.000=0,
122.750=9999.000=0.000=0,
122.813=1.500=0.000=0,
123.750=9999.000=0.000=0,
123.813=1.500=0.000=0,
124.000=9999.000=0.000=0,
124.063=1.500=0.000=0,
124.250=9999.000=0.000=0,
124.313=1.500=0.000=0,
126.250=9999.000=0.000=0,
126.313=1.500=0.000=0,
126.500=9999.000=0.000=0,
126.563=1.500=0.000=0,
126.750=2.000=1.250=0,
156.000=3.000=4.000=0,
194.250=5.000=1.000=0,
195.250=3.000=0.000=0,
195.271=5.000=0.750=0,
196.000=3.000=0.000=0,
196.021=5.000=0.500=0,
196.500=3.000=0.000=0,
196.521=5.000=1.000=0,
198.000=6.000=0.000=0,
198.250=7.000=0.000=0,
198.750=8.000=0.000=0,
199.000=9.000=0.000=0,
199.500=10.000=0.000=0,
230.500=8.000=0.250=0,
230.750=10.000=0.250=0,
231.250=8.000=0.250=0,
231.500=10.000=0.250=0,
248.750=8.000=0.000=0,
248.813=10.000=0.000=0,
248.875=8.000=0.000=0,
248.938=10.000=0.000=0,
249.000=8.000=0.000=0,
249.063=10.000=0.000=0,
249.125=8.000=0.000=0,
249.188=10.000=0.000=0,
249.250=8.000=0.000=0,
249.313=10.000=0.000=0,
249.375=8.000=0.000=0,
249.438=10.000=0.000=0,
254.000=20.000=2.000=0,
264.000=5.000=4.000=0;
#SCROLLS:0.000=1.000,
20.000=0.667,
38.000=0.000,
38.125=1.333,
38.250=0.000,
38.375=1.333,
38.500=0.000,
38.625=1.333,
38.750=0.000,
38.875=1.333,
39.000=0.000,
39.125=1.333,
39.250=0.000,
39.375=1.333,
39.500=0.000,
39.625=1.333,
39.750=0.000,
39.875=1.333,
40.000=0.667,
120.000=0.333,
192.000=0.100,
198.000=0.000,
198.125=0.200,
198.250=0.100,
198.750=0.000,
198.875=0.200,
199.000=0.100,
199.500=0.000,
199.625=0.200,
199.750=0.100,
230.000=0.075,
232.000=0.100,
241.000=0.000,
241.125=0.200,
241.250=0.000,
241.375=0.200,
241.500=0.000,
241.625=0.200,
241.750=0.100,
242.500=0.000,
242.625=0.200,
242.750=0.000,
242.875=0.200,
243.000=0.000,
243.125=0.200,
243.250=0.100,
250.750=0.000,
250.979=1.200,
251.000=0.100,
254.000=0.050,
260.000=0.000,
260.125=0.100,
260.250=0.050,
260.750=0.000,
260.875=0.100,
261.000=0.050,
261.500=0.000,
261.625=0.100,
261.750=0.050,
262.250=0.000,
262.375=0.100,
262.500=0.050,
263.000=0.000,
263.125=0.100,
263.250=0.050;
#FAKES:;
#LABELS:0.000=Song Start;
#BGCHANGES:;
#KEYSOUNDS:;
#ATTACKS:
;

//---------------dance-single - ----------------
#NOTEDATA:;
#CHARTNAME:;
#STEPSTYPE:dance-single;
#DESCRIPTION:;
#CHARTSTYLE:;
#DIFFICULTY:Challenge;
#METER:14;
#RADARVALUES:1.011183,1.230636,0.331514,0.394233,1.688932,790.000000,753.000000,37.000000,44.000000,29.000000,5.000000,11.000000,0.000000,0.000000,1.011183,1.230636,0.331514,0.394233,1.688932,790.000000,753.000000,37.000000,44.000000,29.000000,5.000000,11.000000,0.000000,0.000000;
#CREDIT:;
#NOTES:
// measure 0
0000
0000
0000
0000
,  // measure 1
0000
0000
0000
0000
,  // measure 2
1000
0000
0100
0000
1000
0000
0100
0000
0010
0000
0001
1000
0010
0000
0100
0000
,  // measure 3
0001
1000
0001
1000
0100
0010
0100
0002
,  // measure 4
0103
0000
0010
0000
0100
0000
0010
0000
0001
0000
0400
0300
0010
0000
0400
0300
,  // measure 5
2002
0000
0000
0000
0000
0000
0000
0000
0000
0000
0000
0000
0000
0000
0000
0000
0200
0000
3303
0000
0000
0000
1000
0001
1000
0000
0100
0000
0010
0000
0001
0000
,  // measure 6
1000
0100
0010
0100
0001
0100
0010
0100
2000
0000
3001
0100
0010
1000
0100
1000
,  // measure 7
0001
0100
0010
0100
1000
0100
0010
0100
0002
0000
0010
0000
0010
0000
0013
0001
,  // measure 8
1000
0100
0010
0100
0001
0100
0010
0100
1000
0000
0001
0100
0010
1000
0100
1000
,  // measure 9
0001
0100
0010
0100
1000
0100
0010
0100
0004
4000
0000
0000
0000
0000
0003
3000
,  // measure 10
0001
0100
0010
0100
1000
0100
0010
0100
0001
1000
0100
0010
0100
0001
0100
0010
,  // measure 11
0001
1000
0001
0100
0010
0100
1000
0100
0010
1000
0100
0001
0100
1000
0001
0100
,  // measure 12
1000
0100
0010
0001
1000
0100
0010
0001
1000
0100
0010
1000
0001
0010
0100
1000
,  // measure 13
0004
0000
0000
0000
0000
0000
0000
0000
1003
1000
0000
1001
0000
0000
0000
0000
,  // measure 14
0001
0100
0010
0100
1000
0100
0010
1000
0001
0010
0100
1000
0000
1001
0000
0000
,  // measure 15
1000
0000
0100
00M0
0100
0000
0001
0000
1000
0000
0010
0M00
0010
0000
0100
0000
1000
0000
0001
0000
0010
0000
0100
0000
0000
0000
0110
0000
0000
0000
0000
0000
,  // measure 16
0001
0100
1000
0001
0010
1000
0001
0000
1001
0000
0100
0010
0000
0110
0000
0000
,  // measure 17
1000
0100
0001
0100
0010
0000
0110
0000
1001
0000
0010
0100
0000
0110
0000
0000
,  // measure 18
1000
0001
0010
0100
0001
0100
0010
0001
1000
0000
0010
0100
0000
0110
0000
0000
,  // measure 19
0000
0000
1001
0000
0110
0000
1000
0100
0001
0000
0100
0010
0000
0110
0000
0000
,  // measure 20
0000
0000
1001
0000
0110
0000
1000
0010
0000
M010
0000
0010
1000
0000
1001
0000
,  // measure 21
0001
0010
0100
0002
0000
0000
1003
0000
0010
0001
1000
0100
0010
0000
0110
0000
,  // measure 22
1000
0000
0100
0000
0010
0000
0100
0000
1000
0000
0100
0000
0010
0000
0100
0000
0001
00M0
0001
0000
0010
0000
0100
0000
1000
0000
0001
0000
0100
0000
0010
0000
,  // measure 23
1000
0000
0001
0000
0100
0000
0001
0000
1000
0000
0001
0000
0100
0000
0010
0000
0001
0M00
0001
0000
0100
0000
0010
0000
1000
0000
0001
0000
0010
0000
0100
0000
,  // measure 24
1000
0000
0001
0000
0010
0000
0001
0000
1000
0000
0001
0000
0010
0000
0001
0000
0100
0000
1000
00M0
1000
0000
0010
0000
0001
0000
0010
0000
0100
0000
0010
0000
,  // measure 25
1000
0001
0010
1000
0000
0010
0001
0000
1001
0000
1000
0100
0001
0000
0110
0000
,  // measure 26
1000
0100
0001
0100
1000
0100
0001
0100
0010
1000
0001
0100
2000
0000
0000
0000
,  // measure 27
3001
0100
1000
0100
0001
0100
1000
0100
0020
0000
2030
0002
3000
0000
0000
0003
,  // measure 28
0010
0100
1000
0010
0001
0010
0100
0010
1000
0100
0001
0100
0010
0001
0100
1000
,  // measure 29
0200
0000
0000
0000
0301
1000
0001
1000
0001
0000
0010
0000
0100
0000
0001
0000
0100
0000
1000
0000
0001
0000
0010
0000
0100
0000
0100
00M0
0100
0000
0100
0000
,  // measure 30
0021
0000
0000
0000
0000
0000
0000
0000
0000
0000
0000
2030
0000
0000
0000
0000
,  // measure 31
0000
0000
0000
0000
0000
0000
0000
0000
0000
0000
0000
3002
0000
0000
0000
0000
,  // measure 32
1023
0000
0000
0000
,  // measure 33
0000
0230
2300
3020
,  // measure 34
0032
0000
0000
0000
,  // measure 35
2003
3200
0302
0023
,  // measure 36
0130
0000
1000
0001
0000
0000
1000
0001
0000
0000
1000
0001
0000
0000
1000
0001
,  // measure 37
0000
0000
1000
0001
0020
0000
0000
0000
0230
0000
0000
0000
2300
0000
0000
0000
,  // measure 38
3001
0000
0100
0010
0000
0000
0100
0010
0000
0000
0100
0010
0000
0000
0100
0010
,  // measure 39
2100
0000
0000
0000
0000
0000
0000
0000
3201
0000
0000
0000
0000
0000
0000
0000
1320
0000
0000
0000
0000
0000
0031
1000
0001
0000
0100
0000
0010
0000
1000
0000
,  // measure 40
0001
0100
01M0
0100
0001
0010
0M10
0010
0200
0000
1300
0010
0100
0001
0010
0001
,  // measure 41
1000
0100
01M0
0100
1000
0010
0M10
0010
0200
0000
0301
0010
0100
1000
0000
0001
,  // measure 42
0100
0010
0001
0010
0100
2000
0000
3100
0001
0000
1000
0100
0010
0001
0000
1000
,  // measure 43
0100
0000
0010
0000
1000
0000
0010
0000
0100
0000
0002
0000
0000
0000
0103
0000
1000
0000
0000
0000
0010
0000
0100
0000
0001
1000
0001
1000
0001
0000
0010
0000
,  // measure 44
0100
1000
0100
0001
0100
1000
0100
0001
0100
1000
0100
0010
0004
4000
0000
0003
,  // measure 45
3001
0100
1000
0100
0001
0100
1000
0100
0001
0100
1000
0100
0001
0100
1000
0100
,  // measure 46
0001
1000
0100
0010
1000
0001
0100
0010
0001
0100
0010
0001
1000
0100
0001
1000
,  // measure 47
0100
0010
0001
1000
0010
0100
0001
1000
0001
0010
0100
1000
0010
0100
0001
1000
0100
0010
0001
0010
0100
1000
0001
0100
,  // measure 48
0020
0000
0000
0000
,  // measure 49
0000
0000
0030
0000
0000
0000
0000
0000
1100
0010
0000
1100
0001
0000
1010
0100
,  // measure 50
1000
0010
0100
1000
0100
0001
1000
0100
0010
0100
0001
0100
0010
0001
1000
0010
,  // measure 51
0100
00M0
0100
0000
1000
0000
0001
0000
0100
00M0
0100
0000
1000
0000
0010
0M00
0010
0000
0001
0000
0100
0000
1000
0000
0100
0000
0010
0000
1000
0000
0001
0000
,  // measure 52
0100
00M0
0100
0000
1000
0000
0010
0M00
0010
0000
0001
0000
1000
0000
0010
0000
0100
0000
0010
0000
0001
0000
0010
0000
0100
00M0
0100
0000
1000
0000
0001
0000
,  // measure 53
0010
0M00
0010
0000
1000
0000
0100
00M0
0100
0000
0001
0000
0010
0000
0100
0000
0010
0000
1000
0000
0M00
0000
1000
0000
0100
0000
0010
0000
0001
0000
0100
0000
,  // measure 54
0010
0M00
0010
0000
0001
0000
0100
00M0
0100
0000
1000
0000
0010
0000
0100
0000
0001
0000
0010
0000
1000
0000
0010
0000
0100
0000
2000
0000
0000
0000
3100
0000
,  // measure 55
0001
0000
0100
0000
0010
0000
0001
0000
1000
0000
0010
0000
0100
0000
0001
0000
0010
0M00
0010
0000
1000
0000
0100
00M0
0100
0000
0001
0000
0010
0000
0100
0000
,  // measure 56
1000
0000
0100
00M0
0100
0000
0001
0000
0010
0M00
0010
0000
1000
0000
0002
0000
0000
0000
1003
0000
0100
0000
0010
0000
1000
0000
0010
0000
0001
0000
1000
0000
,  // measure 57
0010
0100
0001
0100
1000
0100
0010
0100
0002
0000
1003
0100
00M0
0100
0002
0000
,  // measure 58
1003
0100
0010
0100
0001
1000
0001
1000
0010
0001
0100
0010
0001
1000
0001
1000
,  // measure 59
0100
0001
0010
0100
0001
1000
0001
1000
0010
0001
0100
0010
0001
1000
0001
1000
,  // measure 60
0100
0001
0010
1000
0001
0100
1000
0002
0000
0000
1003
0010
0100
0002
0000
0000
,  // measure 61
1013
0000
0000
0000
0100
0000
0001
0000
0000
0000
0100
0000
1000
0000
0000
0000
0011
0000
0000
0000
0100
00M0
0100
0000
1000
0000
0001
0000
0010
0000
0100
0000
,  // measure 62
1000
0000
0001
0000
1000
0000
0001
0000
0000
0200
0000
0000
0000
0000
0000
0000
0000
0000
0310
0000
0000
1000
0000
0000
0001
0000
0010
0000
0001
0000
0010
0000
0000
0400
0000
0000
1300
0000
0000
0000
0000
0000
0001
0000
0000
0100
0000
0000
,  // measure 63
0011
1000
0000
0101
0010
0000
0101
1000
0010
0400
0000
0304
0000
0003
4000
0000
,  // measure 64
3001
0000
0000
0000
0000
0000
0000
0000
0000
0000
0000
0000
0100
0000
0000
0000
0000
0000
0000
0000
0000
0000
0000
0000
1000
0000
0000
0000
0000
0000
0000
0000
0000
0000
0000
0000
0001
0000
0000
0000
0000
0000
0000
0000
0000
0000
0000
0000
0010
0000
0000
0000
0000
0000
0000
0000
0000
0000
0000
0000
1000
0000
0000
0000
0000
0000
0000
0000
0000
0000
0000
0000
0100
0000
0000
0000
0000
0000
00M0
0000
0000
0000
0000
0000
0100
0000
0000
0000
0000
0000
0000
0000
0000
0000
0000
0000
0001
0000
0000
0000
0000
0000
1000
0000
0000
0000
0000
0000
0001
0000
0000
0000
0000
0000
1000
0000
0000
0000
0000
0000
0001
0000
0000
0000
0000
0000
0000
0000
0000
0000
0000
0000
0010
0000
0000
0000
0000
0000
0000
0000
0000
0000
0000
0000
0100
0000
0000
0000
0000
0000
0000
0000
0000
0000
0000
0000
1000
0000
0000
0000
0000
0000
0000
0000
0000
0000
0000
0000
0001
0000
0000
0000
0000
0000
0000
0000
0100
0000
0000
0000
0000
0000
0000
0000
0010
0000
0000
0000
0000
0000
0000
0000
,  // measure 65
1000
0001
0000
1010
0100
0000
1010
0001
0000
1100
0010
0000
1100
0001
0010
0000
,  // measure 66
0220
0000
0000
0000
,  // measure 67
0330
0000
0000
0000
;

//---------------dance-single - ----------------
#NOTEDATA:;
#CHARTNAME:;
#STEPSTYPE:dance-single;
#DESCRIPTION:;
#CHARTSTYLE:;
#DIFFICULTY:Hard;
#METER:11;
#RADARVALUES:0.872945,1.020527,0.161277,0.367354,1.281259,682.000000,664.000000,18.000000,41.000000,15.000000,3.000000,1.000000,0.000000,0.000000,0.872945,1.020527,0.161277,0.367354,1.281259,682.000000,664.000000,18.000000,41.000000,15.000000,3.000000,1.000000,0.000000,0.000000;
#CREDIT:;
#NOTES:
0000
0000
0000
0000
,
0000
0000
0000
0000
,
1000
0001
1000
0001
0100
0010
0100
0010
,
1000
0100
1000
0100
0010
0001
0010
0001
,
1000
0010
1000
0010
0100
0001
0100
0001
,
2000
0000
0002
3000
,
1003
0100
0010
0001
0010
0100
1000
0000
0001
0000
1000
0000
0010
0000
0100
0000
,
0001
0100
0010
1000
0010
0100
0001
0000
1000
0000
0100
0000
0100
0000
0100
0010
,
0001
1000
0010
0100
0010
1000
0001
0000
0010
0000
0100
0000
1000
0000
0001
0000
,
0100
0010
1000
0001
1000
0010
0100
0001
0010
0100
0010
0100
0010
0100
0010
0100
,
1000
0001
0100
0010
1000
0100
00M0
0100
0001
1000
0100
0010
0001
0100
00M0
0100
,
1000
0010
0100
0001
1000
0010
0M00
0010
0001
1000
0010
0100
0001
0010
0M00
0010
,
1000
0001
0100
0001
1000
0001
0100
0001
1000
0001
0100
0001
1000
0001
0100
0001
,
0020
0000
0000
0030
,
0001
0000
0010
0100
1000
0000
0010
0100
0001
0000
0010
0100
0000
0100
0000
0000
,
0010
0001
0100
00M0
0100
1000
0001
0000
0100
0000
0010
1000
0000
1000
0000
0000
,
0001
0010
0100
0010
1000
0010
0100
0000
1000
0000
0001
0100
0000
0100
0000
0000
,
0010
1000
0100
1000
0010
0000
0100
0000
0001
0000
0010
0100
0000
0100
0000
0000
,
2000
0000
3001
0100
0010
0100
0001
1000
0100
00M0
0100
0001
0000
0001
0000
0000
,
0010
0000
0100
0000
0100
0000
1000
0010
0001
0000
0010
0100
0000
0100
0000
0000
,
0001
0000
0010
0000
1000
0000
0010
0100
0000
0100
0000
0100
1000
0000
0001
0000
,
0010
0000
0100
0020
0000
0000
0031
0000
1000
0100
0001
0100
1000
0000
1000
0000
,
0010
0100
0001
0100
0020
0000
1030
0001
0010
0M00
0010
1000
0000
1000
0000
0000
,
0001
0000
0100
0010
1000
0000
0001
0000
0011
0000
0010
0100
0000
0100
0000
0000
,
1000
0001
0100
0001
1000
0000
1000
0200
0000
0000
0310
0001
0100
0000
0100
0000
,
0010
0000
1000
0100
00M0
0100
0001
0000
0001
0000
0010
0100
1000
0000
1000
0000
,
0001
0100
0010
0100
0001
0100
0010
0100
0001
1000
0100
1000
0002
0000
0000
0000
,
1003
0010
0100
0010
1000
0010
0100
0010
1000
0001
0010
0200
0000
0000
0000
0000
,
1300
0001
0100
0010
1000
0001
1000
0100
0010
0001
1000
0010
0100
0010
1000
0100
,
0020
0000
0000
0000
0000
0000
0031
0000
1000
0000
0001
0000
1000
0000
0000
0010
0000
0000
0100
0000
0000
0001
0000
0000
1000
0000
0000
0100
0000
0000
0001
0000
0000
0100
0000
0000
1000
0000
0000
0001
0000
0000
1000
0000
0000
0001
0000
0000
,
1200
0000
0000
0000
,
0000
0000
0000
0000
,
0312
0000
0000
0000
,
0000
2003
3200
0320
,
0032
0000
0000
0000
,
0023
0230
0320
2030
,
3020
0001
0001
0001
,
0031
2000
3020
0230
,
0302
0010
0010
0013
,
0110
1100
0101
1001
,
1000
0010
0100
0010
1000
0100
0010
0100
1000
0000
0001
0100
0010
1000
0000
1000
,
0001
0010
0100
0010
0001
0100
0010
0100
0001
0000
1000
0100
0010
0001
0000
0001
,
0100
0010
1000
0010
0100
0001
1000
0001
0010
0000
0100
1000
0001
0100
00M0
0100
,
1000
0000
0000
0001
0000
0000
0100
0000
0000
0001
0000
0000
1000
0000
0000
0100
0000
0000
0010
0000
0000
0100
0000
0000
1000
0000
0000
0000
0000
0000
0010
0000
0000
0100
0000
0000
0001
0000
1000
0000
0001
0000
2000
0000
0000
0000
0000
0000
,
3100
0010
0001
0010
0100
0010
0001
0010
0100
0010
0001
0010
0400
0000
0000
0000
,
1300
0010
0100
0010
1000
0010
0100
0010
1000
0010
0100
0010
1000
0010
0100
0010
,
1000
0001
1000
0001
0010
0100
0010
0100
1000
0100
1000
0100
0010
0001
0010
0001
,
1000
0010
0100
0001
1000
0001
0010
0100
1000
0010
1000
0001
0100
0010
1000
0001
,
0020
0000
0000
0000
,
0030
0000
0000
0000
0000
0000
0000
0000
0110
0000
0000
1100
0000
0000
1001
0000
,
0001
0100
0010
1000
0000
0001
0010
0000
0100
1000
0001
0000
0100
0010
0000
1000
,
0010
0100
0001
1000
0001
0010
0100
1000
0001
0100
0010
0001
0010
0100
0010
1000
,
0001
0010
0100
1000
0100
0010
0001
0000
1000
0010
0100
0010
1000
0001
0000
1000
,
0010
0100
1000
0100
0001
0010
0100
1000
0001
0100
0000
0010
1000
0001
1000
0100
,
0010
0001
0010
0100
1000
0001
0100
0000
0010
1000
0001
1000
0100
0010
0000
0001
,
1000
0010
1000
0100
0010
0001
1000
0001
0100
0010
1000
0100
1000
0001
0100
0010
,
1000
0100
0010
1000
0010
0001
1000
0010
0M00
0010
0001
0100
0010
1000
0001
1000
,
0100
0010
0100
0001
0100
0010
0100
1000
0001
0000
1000
0100
00M0
0100
0001
0000
,
0010
0100
1000
0001
0000
0100
0010
1000
0001
1000
0100
0000
0010
0001
0000
0001
,
1000
0010
0100
0010
1000
0001
0010
0100
0001
0100
1000
0001
1000
0010
0100
0001
,
1000
0100
0010
0001
0100
01M0
0100
0002
0000
0000
0103
01M0
0100
0020
0000
0000
,
1130
0000
0000
0000
0001
0000
0010
0000
0M00
0000
0010
0000
1000
0000
0000
0000
0001
0000
0000
0000
0100
00M0
0100
0000
1000
0000
0001
0000
0100
0000
0010
0000
,
1000
0001
0010
0200
0000
0000
0310
0001
1000
0010
0100
0002
2003
0000
0000
0000
,
3101
0010
0000
0101
1000
0000
0011
0100
0020
0000
0000
2030
0000
0000
3002
0000
,
0013
0000
0000
0100
0000
0000
1000
0000
0000
0001
0000
0000
1000
0000
0000
0010
0000
0000
0100
0000
0000
0010
0000
0000
1000
0000
0001
0000
1000
0000
0001
0000
0000
0010
0000
0000
0100
0000
0000
1000
0000
0000
0100
0000
0000
0010
0000
0000
,
0101
2000
3000
0011
0200
0300
0011
2000
3000
0101
0020
0030
1000
0010
0002
0000
,
2000
0000
0000
0000
,
3003
0000
0000
0000
;

//---------------dance-single - ----------------
#NOTEDATA:;
#CHARTNAME:;
#STEPSTYPE:dance-single;
#DESCRIPTION:;
#CHARTSTYLE:;
#DIFFICULTY:Medium;
#METER:10;
#RADARVALUES:0.606710,0.750388,0.089599,0.456952,0.725748,474.000000,464.000000,10.000000,51.000000,0.000000,0.000000,4.000000,0.000000,0.000000,0.606710,0.750388,0.089599,0.456952,0.725748,474.000000,464.000000,10.000000,51.000000,0.000000,0.000000,4.000000,0.000000,0.000000;
#CREDIT:;
#NOTES:
0000
0000
0000
0000
,
0000
0000
0000
0000
,
1001
0100
0000
0100
0000
0100
0000
0100
,
0000
0100
0000
0100
0000
0100
0000
0010
,
1001
0100
0000
0100
0000
0100
0000
0100
,
2002
0000
3003
0000
,
1000
0100
1000
0000
0001
0000
0100
0000
0010
0000
1000
0000
0100
0000
1000
0000
,
0010
0100
0010
0000
1000
0000
0001
0000
0010
0000
0100
0000
0100
0000
0100
1000
,
0001
0000
0100
0000
0010
1000
0010
0000
0100
0000
0001
0000
0010
0000
0100
0000
,
1000
0000
0001
0000
0010
0100
0010
0000
0004
0000
0000
0000
0000
0000
0000
0000
,
0013
0100
0010
0000
0001
1000
0000
0010
0000
1000
0001
0000
0010
0100
0000
1000
,
0000
0100
0010
0000
0001
0100
0000
0010
0000
0100
0001
0000
1000
0100
0000
0010
,
0001
1000
0010
0000
0100
0001
1000
0000
0100
0010
0000
0100
0010
0001
1000
0000
,
0004
0000
0000
0003
,
1000
0000
0100
0000
0010
0000
0100
0000
2000
0000
0000
3001
0000
0002
0000
0000
,
0013
0000
0100
0000
1000
0001
1000
0000
0020
0000
0000
0130
0000
0200
0000
0000
,
0301
1000
0001
0000
1000
0001
1000
0000
0200
0000
0000
0310
0000
0020
0000
0000
,
0031
1000
0001
0000
0100
0000
0010
0000
2000
0000
0000
3001
0000
0002
0000
0000
,
0000
0000
1003
0100
1000
0000
0001
0000
0200
0000
0000
0010
0000
0310
0000
0000
,
0000
0000
1000
0000
0100
0000
0010
0001
2000
0000
0000
0010
0000
3010
0000
0000
,
0000
0000
0100
0000
0001
0000
1000
0100
0000
0100
0000
0100
1000
0000
0001
0000
,
0100
0000
0010
2000
0000
0000
3001
0000
0100
0010
0100
0000
0100
0000
0110
0000
,
0000
0000
1000
0001
0100
0000
0010
1000
0001
0000
0010
0100
0000
2000
0000
0000
,
3001
0000
0100
0010
1000
0000
0001
0000
0010
0000
0100
1000
0000
0002
0000
0000
,
0000
0000
0103
0010
0100
0000
0001
2000
0000
0000
3100
0010
0001
0000
1000
0000
,
0001
0000
0100
0010
0000
0010
0100
0000
0001
0000
1000
0100
0010
0000
0001
0000
,
1000
0000
0010
0000
0010
0000
0100
0000
0100
0000
0001
1000
0002
0000
0000
0000
,
0013
0000
0100
0000
0100
0000
1000
0000
1000
0000
0001
0200
0000
0000
0000
0000
,
0310
0000
0010
0000
0010
0000
1000
0001
0010
0000
0010
0000
0100
0000
1000
0001
,
0100
0000
0010
1000
0100
0000
0010
0001
1000
0000
1000
0000
0001
0100
0001
0100
,
0020
0000
0000
0000
,
0000
0000
0000
0000
,
2030
0000
0000
0000
,
0000
3002
0023
0230
,
2300
0000
0000
0000
,
3020
0230
0320
2030
,
3002
0000
0000
0000
,
0000
0023
0230
2300
,
3020
0000
0000
0000
,
0130
0001
1000
1001
,
1000
0001
0020
0000
0000
0230
0000
0000
1300
0000
0001
0100
0010
2000
0000
0000
,
3001
0010
0200
0000
0000
2300
0000
0000
3010
0000
0100
0001
1000
0200
0000
0310
,
0001
1000
0020
0000
0000
0230
0000
0000
0301
0000
1000
0100
0010
0200
0000
1300
,
0001
0100
0020
0000
0000
2030
0000
0000
3001
0000
0010
0100
4000
0000
3000
0001
,
0100
0001
0100
0000
0010
1000
0000
1000
0001
0000
0010
0100
0040
0000
0030
0000
,
0001
1000
0010
0000
0100
0001
0000
0001
1000
0000
0100
0010
0100
0010
0000
0001
,
1000
0000
0010
0100
0010
0000
1000
0001
1000
0000
0001
0010
0001
0000
1000
0100
,
1000
0000
0001
0000
0100
0010
0000
0010
1000
0000
1000
0100
0000
0100
0010
0000
,
2002
0000
0000
0000
,
3003
0000
0000
0000
0000
0000
0000
0000
1010
0000
0000
0101
0000
0000
1001
0000
,
1000
0000
0001
0010
0000
0010
0100
0000
1000
0001
0100
0000
0000
0010
0000
0000
,
1000
0000
0001
0100
0001
0000
1000
0100
1000
0000
0000
0001
0000
0000
0100
0010
,
1000
0000
0000
0001
0000
0000
0020
0000
0000
0000
0100
0000
0000
0100
0000
0000
,
0130
1000
0001
0000
0000
0100
0000
0000
0010
1000
0000
1000
0001
0000
0010
0100
,
1000
0000
0000
0001
0000
0000
0100
0000
0010
1000
0001
0000
0000
0010
0000
0000
,
0100
1000
0000
1000
0001
0000
0100
0010
1000
0000
0000
0001
0000
0000
0010
0100
,
1000
0000
0001
0100
0000
0100
0001
1000
0000
1000
0100
0000
0010
0001
0000
0001
,
1000
0000
0010
0000
0100
0001
0000
0001
1000
0000
0100
0010
0000
0100
0010
0000
,
0001
0000
0000
1000
0000
0000
0010
0000
0100
0001
1000
0000
0000
0100
0000
0000
,
0010
0001
0000
0001
1000
0000
0010
0000
0100
0000
0000
0001
0000
0000
1000
0000
,
0100
0000
0010
0000
0001
1000
0001
1000
0000
0000
0001
1000
0001
2000
0000
0000
,
0010
0000
0000
0010
0000
0000
3010
0000
0100
0000
0001
1000
0001
0000
0010
0000
,
0100
0000
0000
0100
0000
0000
1000
0000
0010
0000
0000
0010
0000
0000
0000
0000
,
1000
0001
0000
0001
1000
0000
0010
0100
0002
0000
0000
0000
0000
0000
0000
0000
,
0013
0100
1000
0000
0001
0100
0010
0000
1000
0001
1000
0001
0010
0100
0010
0100
,
1000
0000
0000
1000
0000
0000
0001
0000
0000
0001
0000
0000
0100
0010
0100
0000
,
2002
0000
0000
0000
,
3003
0000
0000
0000
;
