#TITLE:Fall For Me (2021 Edit);
#SUBTITLE:;
#ARTIST:Twisted Melodiez;
#TITLETRANSLIT:;
#SUBTITLETRANSLIT:;
#ARTISTTRANSLIT:;
#GENRE:;
#CREDIT:;
#BANNER:banner.png;
#BACKGROUND:;
#LYRICSPATH:;
#CDTITLE:;
#MUSIC:Fall For Me.ogg;
#OFFSET:0.726000;
#SAMPLESTART:62.762653;
#SAMPLELENGTH:12.387096;
#SELECTABLE:YES;
#BPMS:0.000000=155.000000
;
#STOPS:
;
#BGCHANGES:;
#KEYSOUNDS:;
#ATTACKS:;

//---------------dance-single - ----------------
#NOTES:
     dance-single:
     :
     Challenge:
     12:
     0.736133,1.000882,0.719159,0.187607,0.512792,824.000000,708.000000,115.000000,30.000000,41.000000,12.000000,0.736133,1.000882,0.719159,0.187607,0.512792,824.000000,708.000000,115.000000,30.000000,41.000000,12.000000:
0000
0000
0000
0000
,
0000
0000
0000
0000
,
0000
0000
0000
0000
,
0000
0000
0000
0000
,
0000
0000
0000
0000
,
0000
0000
0000
0000
,
0000
0000
0000
0000
,
0000
0000
0000
0000
,
0000
0000
0000
0000
0001
0100
0010
1000
,
0001
0020
0100
0000
0031
1000
0010
0001
,
0010
0200
0001
0000
0310
1000
0001
0010
,
0100
2000
0001
0000
3010
0000
0100
0001
,
0020
0100
0000
0100
0000
0130
1000
0001
,
0100
0000
0020
0000
1000
0000
0000
0000
0130
0000
0001
0010
0100
0000
0001
0000
,
0100
0000
2000
0000
0010
0000
0000
0000
3001
0000
0100
0010
1000
0000
0100
0000
,
0010
0000
0001
0000
0010
0000
0001
0000
1000
0000
0010
0100
0010
0000
1000
0000
,
0002
0000
0003
0000
,
1000
0000
0100
0000
0010
0000
0100
0000
0001
00M0
0000
0001
0010
0000
0100
0000
,
1000
0000
0010
0000
0100
0000
0010
0000
0001
00M0
0000
0001
0100
0000
0010
0000
,
1000
0000
0100
0000
0010
0000
0100
0000
0001
00M0
0000
0001
0010
0000
0100
0000
,
1000
0001
1000
0001
0100
0010
1000
1000
,
0001
0000
0100
0000
0010
0000
0100
0000
1000
0M00
0000
1000
0010
0000
0100
0000
,
0001
0000
0010
0000
0100
0000
0010
0000
1000
0M00
0000
1000
0100
0000
0010
0000
,
0001
0000
0100
0000
1000
0000
0100
0000
0010
0000
1000
0001
1000
0000
0200
0000
,
0000
0000
0000
0000
0000
0000
0000
0000
0000
0000
0000
0000
0310
0000
0000
0000
0001
0000
0000
0000
0100
00M0
0100
0000
1000
0000
0000
0000
1000
0000
0000
0000
,
0001
0000
0100
0000
0010
0000
0100
0000
1000
0M00
1000
0010
0100
0000
0100
0000
,
0001
0000
0010
0000
0100
0000
0010
0000
1000
00M0
1000
0100
0010
0000
0010
0000
,
0001
0000
0100
0000
0010
0000
0100
0000
1000
0M00
1000
0010
0100
0000
0100
0000
,
0001
0000
0010
0000
0100
0000
0010
0000
0100
0000
1000
0001
1000
0000
0010
0000
,
1000
0000
0100
0000
0010
0000
0100
0000
0001
0M00
0001
0010
0100
0000
0100
0000
,
1000
0000
0010
0000
0100
0000
0010
0000
0001
00M0
0001
0100
0010
0000
0010
0000
,
1000
0000
0100
0000
0001
0000
0100
0000
0010
0000
0001
1000
0001
0000
0200
0000
,
0010
0000
0310
0000
1000
0000
1000
0000
0001
0000
0001
0010
0100
1000
0001
0100
,
0010
0000
0000
1000
0000
0000
1000
0000
0100
0010
0000
0000
0001
0000
0001
0000
,
0100
0000
0000
0010
0000
0000
0010
0000
1000
0100
00M0
0100
0001
1000
0001
1000
,
0001
0000
0000
0010
0000
0000
0010
0000
0100
1000
0000
0000
0001
0000
0001
0000
,
0100
0000
0000
0010
0000
0000
0010
0000
1000
0001
0000
0000
0010
0000
0010
0000
,
0100
1000
0001
0100
0010
1000
0001
1000
0100
0010
0001
1000
0100
1000
0001
0100
,
0001
1000
0010
0100
0001
1000
0001
0010
0100
1000
0001
0010
0100
0010
0001
1000
,
0001
0100
0001
0100
0010
1000
0010
1000
0001
0010
0001
0010
0100
1000
0100
1000
,
0002
0000
0000
1013
,
0101
0000
0000
0000
0010
0000
0000
0000
0101
0000
0000
0000
1000
0000
0000
0000
0011
0000
0000
0000
0100
00M0
0100
0000
1000
0000
0000
0000
0001
0000
0000
0000
,
1100
0000
0000
0000
0010
0000
0000
0000
1100
0000
0000
0000
0001
0000
0000
0000
1010
0000
0000
0000
0100
00M0
0100
0000
0001
0000
0000
0000
1000
0000
0000
0000
,
0011
0000
0000
0000
0100
0000
0000
0000
0011
0000
0000
0000
1000
0000
0000
0000
0101
0000
0000
0000
0010
0M00
0010
0000
1000
0000
0000
0000
0001
0000
0000
0000
,
1010
0000
0200
0000
0300
0000
1000
0000
0101
0000
1000
0000
0101
0000
1000
0001
,
1100
0000
0000
0000
0010
0000
0000
0000
1100
0000
0000
0000
0001
0000
0000
0000
1010
0000
0000
0000
0100
00M0
0100
0000
0001
0000
0000
0000
1000
0000
0000
0000
,
0101
0000
0000
0000
0010
0000
0000
0000
0101
0000
0000
0000
1000
0000
0000
0000
0011
0000
0000
0000
0100
00M0
0100
0000
1000
0000
0000
0000
0001
0000
0000
0000
,
1010
0000
0000
0000
0100
0000
0000
0000
1010
0000
0000
0000
0001
0000
0000
0000
1100
0000
0000
0000
0010
0M00
0010
0000
0001
0000
0000
0000
2000
0000
0000
0000
,
3011
0000
0000
0000
1100
0000
0011
0000
1100
0000
0000
0001
1010
0000
0101
0000
,
1010
0000
0000
0000
0100
0000
0000
0000
1010
0000
0000
0000
0001
0000
0000
0000
1100
0000
0000
0000
0010
0M00
0010
0000
0001
0000
0000
0000
1000
0000
0000
0000
,
0011
0000
0000
0000
0100
0000
0000
0000
0011
0000
0000
0000
1000
0000
0000
0000
0101
0000
0000
0000
0010
0M00
0010
0000
1000
0000
0000
0000
0001
0000
0000
0000
,
1100
0000
0000
0000
0010
0000
0000
0000
1100
0000
0000
0000
0001
0000
0000
0000
1010
0000
0000
0000
0100
00M0
0100
0000
0001
0000
0000
0000
1000
0000
0000
0000
,
0101
0000
0020
0000
0030
0000
0001
0000
1010
0000
0101
1010
0101
0000
1000
0000
,
0011
0000
0000
0000
0100
0000
0000
0000
0011
0000
0000
0000
1000
0000
0000
0000
0101
0000
0000
0000
0010
0M00
0010
0000
1000
0000
0000
0000
0001
0000
0000
0000
,
1010
0000
0000
0000
0100
0000
0000
0000
1010
0000
0000
0000
0001
0000
0000
0000
1100
0000
0000
0000
0010
0M00
0010
0000
0001
0000
0000
0000
1000
0000
0000
0000
,
0101
0000
0000
0000
0010
0000
0000
0000
0101
0000
0000
0000
1000
0000
0000
0000
0011
0000
0000
0000
0100
00M0
0100
0000
1000
0000
0000
0000
0002
0000
0000
0000
,
0000
0000
2103
0000
0000
0000
3101
0000
0010
0000
0001
1000
0011
0000
1100
0000
,
0012
0000
0000
0000
,
2003
0000
0000
0000
,
3200
0000
0000
0000
,
0320
0000
0032
0000
,
0203
0000
0000
0000
,
0320
0000
0000
0000
,
1030
1000
0001
0001
,
1002
0000
0000
0000
,
0013
0000
0100
0000
0100
0000
1000
0000
0001
0000
1000
0100
0001
00M0
0001
0000
,
0010
0000
0100
0000
0100
0000
1000
0000
0001
0000
1000
0100
0001
00M0
0001
0000
,
0010
0000
0100
0000
0100
0000
1000
0000
0001
0000
1000
0100
0001
00M0
0001
0000
,
0010
1000
0010
0100
1000
0001
0100
0010
,
0010
0000
0100
0000
0100
0000
0001
0000
1000
0000
0001
0100
1000
00M0
1000
0000
,
0010
0000
0100
0000
0100
0000
0001
0000
1000
0000
0001
0100
1000
00M0
1000
0000
,
0010
0000
0100
0000
1000
0000
0100
0000
0001
0000
1000
0010
0001
0M00
0001
0000
,
0100
0000
0010
0000
1000
0000
0001
0000
0001
0000
1000
0100
0010
0000
0010
0000
,
0001
0001
1000
1000
,
0010
0000
0000
0000
0010
0000
0000
0000
0100
0000
0000
0000
0001
1000
0001
1000
,
0100
0000
0000
0100
0010
0000
0001
0000
1000
0000
0000
1000
0010
0000
0100
0000
,
0001
0000
0000
0001
0010
0000
0100
0000
1000
0000
0000
1000
0001
0000
0001
0000
,
0010
0100
1000
0001
0000
0100
0010
1000
0001
1000
0100
0010
0000
0001
1000
0001
,
0100
0010
1000
0001
0000
0010
0100
1000
0100
0010
0001
2000
0000
0000
0000
0000
,
3010
0100
0001
1000
0100
0010
0001
0010
0100
1000
0001
0100
0001
1000
0010
1000
,
0002
0000
0000
0000
,
1013
0000
0100
0000
1010
0000
0001
0000
1100
0000
0001
0100
1000
00M0
1000
0000
,
0011
0000
0100
0000
0011
0000
1000
0000
0101
0000
1000
0100
0001
00M0
0001
0000
,
1010
0000
0100
0000
1010
0000
0001
0000
1100
0000
0001
0100
1000
00M0
1000
0000
,
0010
0000
0001
0000
0010
0000
1000
0000
0010
0000
1100
0011
2100
0000
3101
1010
,
0101
0000
1000
0000
0101
0000
1000
0000
0011
0000
1000
0010
0001
0M00
0001
0000
,
1100
0000
0010
0000
1100
0000
0001
0000
1010
0000
0001
0010
1000
0M00
1000
0000
,
0101
0000
0010
0000
0101
0000
1000
0000
0011
0000
1000
0010
0001
0M00
0002
0000
,
1100
0000
0000
0000
1013
0000
0101
0000
1010
0000
0001
1000
0011
0000
1100
0000
,
0011
0000
0100
0000
0011
0000
1000
0000
0101
0000
1000
0100
0001
00M0
0001
0000
,
1010
0000
0100
0000
1010
0000
0001
0000
1100
0000
0001
0100
1000
00M0
1000
0000
,
0011
0000
0100
0000
0011
0000
1000
0000
0101
0000
1000
0100
0001
00M0
0001
0000
,
0010
1000
0010
0001
1000
0010
0100
0001
,
1100
0011
1100
0000
0011
0000
1000
0000
0101
0000
1000
0100
0001
00M0
0001
0000
,
1010
0000
0100
0000
1010
0000
0001
0000
1100
0000
0001
0100
1000
00M0
1000
0000
,
0011
0000
0100
0000
0011
0000
1000
0000
0101
0000
1000
0100
0001
0000
1200
0000
,
0000
0000
0321
0000
0000
0000
0131
1010
0102
0000
1103
0011
1100
0000
0001
0000
,
1101
0000
0000
0000
;

//---------------dance-single - ----------------
#NOTES:
     dance-single:
     :
     Hard:
     9:
     0.608382,0.758244,0.275156,0.262649,0.253269,681.000000,637.000000,44.000000,42.000000,0.000000,0.000000,0.608382,0.758244,0.275156,0.262649,0.253269,681.000000,637.000000,44.000000,42.000000,0.000000,0.000000:
// measure 0
0000
0000
0000
0000
,  // measure 1
0000
0000
0000
0000
,  // measure 2
0000
0000
0000
0000
,  // measure 3
0000
0000
0000
0000
,  // measure 4
0000
0000
0000
0000
,  // measure 5
0000
0000
0000
0000
,  // measure 6
0000
0000
0000
0000
,  // measure 7
0000
0000
0000
0000
,  // measure 8
0000
0000
0000
0000
,  // measure 9
1000
0100
0020
0000
0000
0031
0100
0010
,  // measure 10
1000
0100
0020
0000
0000
0031
0100
0010
,  // measure 11
1000
0100
0020
0030
0020
0030
0001
0100
,  // measure 12
0010
2000
3000
2000
3000
2000
3100
0010
,  // measure 13
0001
0000
0100
0000
0020
0000
0000
0000
0000
0000
1030
0001
1000
0000
0100
0000
,  // measure 14
1000
0000
0010
0000
0200
0000
0000
0000
0000
0000
0301
1000
0001
0000
0010
0000
,  // measure 15
0100
0000
1000
0000
0100
0000
1000
0000
0010
0000
0100
0001
0020
0000
0200
0000
,  // measure 16
0000
0330
0000
0000
,  // measure 17
1000
0000
0100
0000
0010
0000
0100
0000
1000
0000
0001
0100
0001
0000
1000
0000
,  // measure 18
0001
0000
0100
0000
0010
0000
0100
0000
0001
0000
1000
0100
1000
0000
0001
0000
,  // measure 19
0010
0000
0100
0000
1000
0000
0100
0000
0010
0000
0001
1000
0001
0000
0100
0000
,  // measure 20
0010
1000
0100
1000
0001
0100
0100
0100
,  // measure 21
0001
0000
0100
0000
0010
0000
0100
0000
0001
0000
1000
0100
1000
0000
0001
0000
,  // measure 22
1000
0000
0100
0000
0010
0000
0100
0000
1000
0000
0001
0100
0001
0000
1000
0000
,  // measure 23
0010
0000
0100
0000
0001
0000
0100
0000
0010
0000
1000
0001
1000
0000
0200
0000
,  // measure 24
0000
0000
0000
0000
0000
0000
0310
0000
0010
0000
0001
1000
0001
0000
0100
0000
,  // measure 25
0010
0000
1000
0000
0100
0000
1000
0000
0010
0000
0100
0001
1000
0000
0100
0000
,  // measure 26
0010
0000
0001
0000
0100
0000
0001
0000
0010
0000
0100
1000
0001
0000
0100
0000
,  // measure 27
0010
0000
1000
0000
0010
0000
0100
0000
0001
0000
1000
0100
1000
0000
0001
0000
,  // measure 28
0100
0010
1000
0100
0010
0001
0100
0010
,  // measure 29
0100
0000
0001
0000
0010
0000
0001
0000
0100
0000
0010
1000
0001
0000
0010
0000
,  // measure 30
0100
0000
1000
0000
0010
0000
1000
0000
0100
0000
0010
0001
1000
0000
0010
0000
,  // measure 31
0100
0000
0001
0000
0100
0000
0001
0000
1000
0000
0100
0010
0100
0000
0001
0000
,  // measure 32
0100
0000
1000
0000
0001
0000
0100
0000
0010
0000
1000
0000
0001
1000
0001
1000
,  // measure 33
0002
0000
0000
0000
,  // measure 34
0203
0000
0000
0000
,  // measure 35
0320
0000
0000
0000
,  // measure 36
2030
0000
0000
0000
,  // measure 37
3001
0010
0001
0010
0100
1000
0100
1000
,  // measure 38
0001
0100
0001
0100
0010
1000
0010
1000
,  // measure 39
0001
0010
0100
0010
0001
1000
0001
0100
0010
1000
0001
1000
0100
0010
0001
1000
,  // measure 40
0200
0000
0000
0000
,  // measure 41
1300
0000
0001
0000
0100
0000
0010
0000
0110
0000
1000
0001
0010
0000
0100
0000
,  // measure 42
0010
0000
0001
0000
0100
0000
0010
0000
1010
0000
0001
0010
0100
0000
1000
0000
,  // measure 43
0001
0000
0100
0000
0010
0000
1000
0000
1100
0000
0001
0100
0010
0000
1000
0000
,  // measure 44
0100
0001
0100
1000
0001
0100
0010
1000
,  // measure 45
0001
0000
0010
0000
0100
0000
1000
0000
1001
0000
0001
0100
0010
0000
1000
0000
,  // measure 46
0100
0000
0010
0000
0100
0000
1000
0000
1010
0000
0001
0100
0010
0000
1000
0000
,  // measure 47
0001
0000
0010
0000
0100
0000
0010
0000
0011
0000
1000
0001
0100
0000
0020
0000
,  // measure 48
0000
0000
0000
0000
0130
0000
0001
0000
1000
0000
0100
0010
0100
0000
1000
0000
,  // measure 49
0001
0000
1000
0000
0100
0000
0010
0000
0110
0000
0001
1000
0010
0000
0100
0000
,  // measure 50
0010
0000
1000
0000
0100
0000
0010
0000
0011
0000
1000
0010
0100
0000
0001
0000
,  // measure 51
1000
0000
0100
0000
0010
0000
0001
0000
0101
0000
1000
0100
0010
0000
0001
0000
,  // measure 52
0100
1000
0100
0001
1000
0100
0010
0001
,  // measure 53
1000
0000
0010
0000
0100
0000
0001
0000
1001
0000
1000
0100
0010
0000
0001
0000
,  // measure 54
0100
0000
0010
0000
0100
0000
0001
0000
0011
0000
1000
0100
0010
0000
0001
0000
,  // measure 55
1000
0000
0010
0000
0100
0000
0010
0000
1010
0000
0001
1000
0100
0000
0010
0000
,  // measure 56
0000
0000
0110
0000
0000
0000
1001
0000
0001
0000
0010
0100
1000
0000
0001
0000
,  // measure 57
2001
0000
0000
0000
,  // measure 58
3020
0000
0000
0000
,  // measure 59
0230
0000
0000
0000
,  // measure 60
0302
0000
0000
0000
,  // measure 61
0023
0000
0000
0000
,  // measure 62
0230
0000
0000
0000
,  // measure 63
1300
0010
0100
0001
,  // measure 64
2000
0000
0000
0000
,  // measure 65
3100
0000
0010
0000
0001
0000
0010
0000
0100
0000
1000
0001
1000
0000
0010
0000
,  // measure 66
0100
0000
0010
0000
1000
0000
0010
0000
0100
0000
0001
1000
0001
0000
0010
0000
,  // measure 67
0100
0000
1000
0000
0100
0000
0010
0000
0001
0000
0100
0010
0100
0000
0001
0000
,  // measure 68
0010
0100
0010
1000
0010
0100
1000
0001
,  // measure 69
0100
0000
0010
0000
1000
0000
0010
0000
0100
0000
0001
1000
0001
0000
0010
0000
,  // measure 70
0100
0000
0010
0000
0001
0000
0010
0000
0100
0000
1000
0001
1000
0000
0010
0000
,  // measure 71
0100
0000
0001
0000
0100
0000
0010
0000
1000
0000
0100
0010
0100
0000
1000
0000
,  // measure 72
0010
0000
0100
0000
0010
0000
0001
0000
0010
0000
1000
0001
1000
0000
0100
0000
,  // measure 73
0020
0030
0020
0030
0002
0003
0002
0003
,  // measure 74
2000
0000
3000
0000
2000
0000
3000
0000
0020
0000
0030
0000
1000
0001
1000
0001
,  // measure 75
0020
0030
0020
0030
0200
0300
0200
0300
,  // measure 76
2000
0000
3000
0000
2000
0000
3000
0000
0002
0000
0003
0000
0100
0010
0100
0010
,  // measure 77
1000
0000
0000
1000
0000
0000
0100
0000
0010
0000
0000
0010
0000
0000
0001
0000
,  // measure 78
0100
0000
0000
0100
0000
0000
0010
0000
1000
0000
0000
2000
0000
0000
0000
0000
,  // measure 79
3001
0010
0001
0010
0100
1000
0100
1000
0001
0100
0001
0100
0010
1000
0010
1000
,  // measure 80
0002
0000
0000
0003
,  // measure 81
1100
0000
0001
0000
0100
0000
0010
0000
1010
0000
0001
0010
0001
0000
1000
0000
,  // measure 82
1010
0000
0100
0000
0001
0000
1000
0000
1100
0000
0010
0001
0010
0000
0100
0000
,  // measure 83
1100
0000
0001
0000
0100
0000
0010
0000
1010
0000
1000
0100
1000
0000
0001
0000
,  // measure 84
0100
0000
1000
0000
0100
0000
0010
0000
1000
0000
0001
1000
0001
0000
0001
1000
,  // measure 85
0001
0000
0100
0000
0010
0000
0100
0000
0101
0000
1000
0100
1000
0000
0010
0000
,  // measure 86
0110
0000
0100
0000
0001
0000
1000
0000
1100
0000
0001
0100
0001
0000
0010
0000
,  // measure 87
0110
0000
0100
0000
1000
0000
0001
0000
0110
0000
1000
0001
1000
0000
0200
0000
,  // measure 88
0000
0000
0300
0000
0110
0000
1001
0000
0110
0000
1000
0001
1000
0000
0010
0000
,  // measure 89
0110
0000
0100
0000
0001
0000
1000
0000
1100
0000
0010
0001
1000
0000
0010
0000
,  // measure 90
0110
0000
0100
0000
0001
0000
1000
0000
1100
0000
0001
0100
0010
0000
1000
0000
,  // measure 91
1100
0000
0001
0000
0100
0000
0010
0000
1010
0000
0001
0010
0100
0000
1000
0000
,  // measure 92
0010
0001
0010
0100
0001
0010
0100
1000
,  // measure 93
0010
0100
0001
0000
0100
0000
0010
0000
1010
0000
0001
1000
0010
0000
0100
0000
,  // measure 94
0101
0000
1000
0000
0100
0000
0010
0000
0110
0000
0001
1000
0010
0000
0100
0000
,  // measure 95
0101
0000
0001
0000
1001
0000
1000
0000
1100
0000
0100
0010
0001
0000
1001
0000
,  // measure 96
0000
0000
0110
0000
0000
0000
1000
0100
0001
0000
0001
0100
1000
0000
0001
0000
,  // measure 97
1001
0000
0000
0000
;

//---------------dance-single - ----------------
#NOTES:
     dance-single:
     :
     Medium:
     7:
     0.420775,0.485276,0.281410,0.237635,0.000000,471.000000,426.000000,45.000000,38.000000,0.000000,0.000000,0.420775,0.485276,0.281410,0.237635,0.000000,471.000000,426.000000,45.000000,38.000000,0.000000,0.000000:
0000
0000
0000
0000
,
0000
0000
0000
0000
,
0000
0000
0000
0000
,
0000
0000
0000
0000
,
0000
0000
0000
0000
,
0000
0000
0000
0000
,
0000
0000
0000
0000
,
0000
0000
0000
0000
,
0000
0000
0000
0000
,
1000
0100
0020
0000
0000
0000
0031
0100
,
0010
1000
0002
0000
0000
0000
0013
0100
,
1000
0010
0200
0300
0200
0000
0310
1000
,
0001
0020
0030
0020
0030
0010
0100
1000
,
0001
0100
0020
0000
0000
0000
1030
0001
,
0010
0100
2000
0000
0000
0000
3010
0100
,
0001
1000
0001
1000
0100
0010
0001
2000
,
0000
0000
0000
0000
,
3001
0100
0001
0100
0010
0000
1000
0100
,
0010
0001
0010
0001
1000
0000
0010
0100
,
0001
1000
0001
1000
0100
0000
0010
0001
,
1000
0010
0100
0001
1000
0100
0010
0001
,
1000
0010
1000
0010
0100
0000
0001
1000
,
0100
0010
0100
0010
0001
0000
1000
0010
,
0100
0001
0100
0001
1000
0100
0010
0002
,
0000
0000
0000
0000
1003
0010
0100
0001
,
1000
0100
1000
0100
0010
0000
0001
1000
,
0001
0100
0001
0100
0010
0000
1000
0001
,
0010
0100
0010
0100
1000
0000
0001
0100
,
0001
0010
0100
1000
0001
0100
0010
1000
,
0001
0010
0001
0010
0100
0000
1000
0001
,
0100
0010
0100
0010
1000
0000
0001
0010
,
0100
1000
0100
1000
0001
0100
0001
2000
,
0000
0000
0000
0000
3100
0010
0001
1000
,
0020
0000
0000
0000
,
0230
0000
0000
0000
,
0302
0000
0000
0000
,
2003
0000
0000
0000
,
3100
0100
0010
0010
,
0001
0001
1000
1000
,
0010
0100
0010
0100
0010
0100
0010
0100
,
0002
0000
0000
0003
,
1001
0000
1100
0000
0101
0000
1000
0100
,
0010
0000
0011
0000
0110
0000
1000
0001
,
0100
0000
0110
0000
1010
0000
0001
1000
,
0100
0010
0000
0010
0000
0010
0001
1000
,
0010
0000
0110
0000
0101
0000
1000
0100
,
0010
0000
0011
0000
1010
0000
0100
0001
,
1000
0000
1000
0000
0100
0000
0010
0002
,
0000
0000
0003
0000
1000
0000
0001
0100
,
0010
0000
1010
0000
1001
0000
0001
0100
,
0010
0000
1010
0000
1001
0000
1000
0100
,
0010
0000
0110
0000
0011
0000
1000
0010
,
0100
0001
0000
0001
0000
0001
1000
0100
,
0010
0000
0011
0000
1001
0000
1000
0010
,
0100
0000
0110
0000
0101
0000
1000
0100
,
0010
0000
0010
0000
0001
0000
0001
1000
,
0000
1000
0000
1000
0000
0010
0100
0010
,
0200
0000
0000
0000
,
0302
0000
0000
0000
,
2003
0000
0000
0000
,
3200
0000
0000
0000
,
0320
0000
0000
0000
,
0032
0000
0000
0000
,
2003
0000
0000
0000
,
3001
0000
0000
0000
,
1000
0100
1000
0100
0010
0000
0001
1000
,
0001
0100
0001
0100
0010
0000
1000
0001
,
0010
0100
0010
0100
1000
0000
0001
0100
,
0010
1000
0001
0010
0100
1000
0001
0100
,
0010
1000
0010
1000
0001
0000
0010
0100
,
1000
0100
1000
0100
0010
0000
0001
1000
,
0001
0100
0001
0100
0010
1000
0001
0020
,
0000
0000
0000
0000
0130
1000
0100
1000
,
0002
0000
0203
0000
,
0320
0000
1030
1000
,
0002
0000
0023
0000
,
0230
0000
1300
1000
,
0002
0000
0000
0103
0020
0000
0000
1030
,
0002
0000
0000
0013
0200
0000
0000
0000
,
1300
0001
1000
0001
1000
0001
1000
0001
,
0200
0000
0000
0300
,
0110
0000
1010
0000
1001
0000
0001
0010
,
0100
0000
1100
0000
0101
0000
1000
0010
,
0100
0000
0101
0000
1100
0000
0001
0010
,
0100
1000
0000
1000
0000
0001
0100
0010
,
1000
0000
1010
0000
0110
0000
0001
1000
,
0100
0000
0110
0000
0011
0000
1000
0010
,
0100
0000
0110
0000
0101
0000
1000
0200
,
0000
0000
0000
0310
0001
0010
0001
1000
,
0010
0000
0110
0000
0101
0000
1000
0100
,
0010
0000
0011
0000
1001
0000
1000
0010
,
0100
0000
0101
0000
1100
0000
0001
0010
,
0100
1000
0000
1000
0000
0001
0100
0010
,
1000
0000
1010
0000
0110
0000
0001
1000
,
0100
0000
0110
0000
0011
0000
1000
0010
,
0100
0001
0100
0001
1000
0100
0010
0002
,
0000
0000
0003
1000
0001
1000
0001
1000
,
1001
0000
0000
0000
;
