#VERSION:0.83;
#TITLE:Daydream;
#SUBTITLE:Full Song;
#ARTIST:RiraN;
#TITLETRANSLIT:;
#SUBTITLETRANSLIT:;
#ARTISTTRANSLIT:;
#GENRE:;
#ORIGIN:;
#CREDIT:;
#BANNER:banner.png;
#BACKGROUND:;
#PREVIEWVID:;
#JACKET:;
#CDIMAGE:;
#DISCIMAGE:;
#LYRICSPATH:;
#CDTITLE:;
#MUSIC:Daydream.ogg;
#OFFSET:-0.120000;
#SAMPLESTART:168.120468;
#SAMPLELENGTH:15.199997;
#SELECTABLE:YES;
#BPMS:0.000=150.000;
#STOPS:;
#DELAYS:;
#WARPS:;
#TIMESIGNATURES:0.000=4=4;
#TICKCOUNTS:0.000=4;
#COMBOS:0.000=1;
#SPEEDS:0.000=1.000=0.000=0,
360.000=2.000=32.000=0,
616.000=1.000=8.000=0;
#SCROLLS:0.000=1.000,
47.000=0.000,
47.063=2.000,
47.125=0.000,
47.188=2.000,
47.250=0.000,
47.313=2.000,
47.375=0.000,
47.438=2.000,
47.500=1.000,
296.000=0.500,
335.000=0.000,
335.063=1.000,
335.125=0.000,
335.188=1.000,
335.250=0.000,
335.313=1.000,
335.375=0.000,
335.438=1.000,
335.500=0.500,
575.000=0.000,
575.063=1.000,
575.125=0.000,
575.188=1.000,
575.250=0.000,
575.313=1.000,
575.375=0.000,
575.438=1.000,
575.500=0.500;
#FAKES:;
#LABELS:0.000=Song Start;
#BGCHANGES:;
#KEYSOUNDS:;
#ATTACKS:
;

//---------------dance-single - ----------------
#NOTEDATA:;
#CHARTNAME:;
#STEPSTYPE:dance-single;
#DESCRIPTION:;
#CHARTSTYLE:;
#DIFFICULTY:Challenge;
#METER:11;
#RADARVALUES:0.777782,0.925205,0.802635,0.778912,0.448764,1377.000000,1170.000000,203.000000,197.000000,35.000000,65.000000,0.000000,0.000000,0.000000,0.777782,0.925205,0.802635,0.778912,0.448764,1377.000000,1170.000000,203.000000,197.000000,35.000000,65.000000,0.000000,0.000000,0.000000;
#CREDIT:;
#NOTES:
// measure 0
0000
0000
0000
0000
,  // measure 1
0000
0000
0000
0000
,  // measure 2
1000
0010
0100
0002
0000
2003
0000
3200
,  // measure 3
0000
0000
0310
0000
0001
0000
1000
0000
0010
0000
0100
0000
0010
0000
1000
0001
,  // measure 4
0010
0200
0000
2300
0000
3020
0000
0230
,  // measure 5
0000
0000
0301
0000
1000
0000
0100
0000
0010
0000
0001
0000
0010
0000
0100
1000
,  // measure 6
0001
0100
0010
2000
0000
3002
0000
0023
,  // measure 7
0000
0000
0130
0000
1000
0000
0001
0000
0100
0000
0010
0000
0100
0000
0001
1000
,  // measure 8
0100
0020
0000
0032
0000
2003
0000
3020
,  // measure 9
0000
0130
0001
1000
0100
0100
0010
0010
,  // measure 10
0001
1000
0010
1000
0200
0300
0110
0000
,  // measure 11
0010
0000
0001
0000
0100
0000
0001
0000
0010
0000
0001
0000
0100
01M0
1000
0000
,  // measure 12
0010
1000
0100
1000
0020
0030
0110
0000
,  // measure 13
1000
1000
0001
0001
0020
0030
0110
0000
,  // measure 14
1000
1000
0001
0001
,  // measure 15
0100
0100
0010
0010
,  // measure 16
1000
1000
0001
0001
,  // measure 17
0010
0000
0010
0000
0100
0000
0100
1000
,  // measure 18
0001
0000
0000
0002
0000
0000
0010
0000
0000
0020
0000
0000
0200
0000
0000
0000
,  // measure 19
0333
0000
1000
0000
0100
0000
0100
0000
0010
0000
0001
1000
0001
0000
0100
0000
,  // measure 20
0010
0000
0000
0020
0000
0000
0100
0000
0000
0200
0000
0000
0002
0000
0000
0000
,  // measure 21
0333
0000
1000
0000
1000
0000
1000
0000
0001
0000
0010
0100
0010
0000
0001
0000
,  // measure 22
1000
0000
0000
2000
0000
0000
0010
0000
0000
0020
0000
0000
0200
0000
0000
0000
,  // measure 23
3330
0000
0001
0000
0100
0000
0100
0000
0010
0000
1000
0001
1000
0000
0100
0000
,  // measure 24
0010
0000
0000
0020
0000
0000
0100
0000
0000
0200
0000
0000
2000
0000
0000
0000
,  // measure 25
3330
0000
0001
0000
0001
0000
0001
0000
1000
0000
0010
0100
0010
0000
1000
0000
,  // measure 26
0102
0000
0000
0000
1003
0010
1000
0010
0100
0000
0001
0000
0020
0000
0000
0000
,  // measure 27
0130
0000
0100
0000
1000
0001
1000
0001
0100
0000
0010
0000
2000
0000
0000
0000
,  // measure 28
3102
0000
0000
0000
0013
0100
0010
0100
1000
0000
0001
0000
0100
0000
0010
0000
,  // measure 29
2000
0000
3002
0023
0230
0300
0220
0330
,  // measure 30
1001
0001
0100
0100
0010
0010
1000
1000
,  // measure 31
0001
0001
0010
0010
0100
0100
1000
1000
,  // measure 32
0001
0100
0001
1000
0100
1000
0001
0010
0100
1000
0001
1000
0010
0100
0010
1000
,  // measure 33
0001
0000
0000
0001
1000
0000
0100
0000
0010
0001
1000
0000
1001
0000
0000
0000
,  // measure 34
2010
0000
0000
0000
3100
01M0
0100
0100
0001
0000
1000
0000
0100
0000
0010
0000
,  // measure 35
0001
0000
0001
0000
0100
01M0
0100
0100
1000
0000
0001
0000
0100
0000
0100
0000
,  // measure 36
0012
0000
0000
0000
0103
01M0
0100
0100
1000
0000
0001
0000
0100
0000
0010
0000
,  // measure 37
1000
0000
1000
0000
0100
01M0
0100
0100
0001
0000
1000
0000
0102
0000
0000
0000
,  // measure 38
2103
0000
0000
0000
3010
0M10
0010
0010
0001
0000
1000
0000
0010
0000
0100
0000
,  // measure 39
0001
0000
0001
0000
0010
0M10
0010
0010
1000
0000
0001
0000
0100
0000
0001
0000
,  // measure 40
2010
0000
0000
0000
3100
010M
0100
0100
0010
0000
1000
0000
0100
0000
0010
0000
,  // measure 41
1001
0000
0000
0001
1000
0000
0010
0000
0100
0001
1000
0000
1001
0000
0000
0000
,  // measure 42
0102
0000
1203
0000
0321
0000
0000
1100
,  // measure 43
0001
2130
0000
3101
2010
0000
3021
0000
,  // measure 44
2130
0000
3201
0000
1320
0000
0000
0101
,  // measure 45
1000
0132
0000
1103
0001
0010
0101
0000
,  // measure 46
1000
1000
0010
0010
0100
0100
0001
0001
,  // measure 47
1000
1000
0100
0100
0010
0010
0001
0001
,  // measure 48
1000
0010
1000
0001
0010
0100
1000
0001
0100
0001
1000
0100
0010
0001
1000
0010
,  // measure 49
1000
0000
0000
1000
0001
0000
0010
0000
0100
1000
0001
1000
0001
1000
0000
0000
,  // measure 50
0021
0000
0000
0000
1030
0100
01M0
0001
2000
0000
3200
0000
0320
0000
0000
0000
,  // measure 51
0131
0000
1000
0000
0001
0100
01M0
1000
0002
0000
0023
0000
0000
0230
0000
0000
,  // measure 52
1320
0000
0000
0000
0031
0100
01M0
1000
0002
0000
0103
01M0
1000
0000
0001
0000
,  // measure 53
0200
0000
0000
0000
0310
0000
1000
0000
0002
0000
0003
2000
0000
3100
0010
0000
,  // measure 54
1001
0001
0100
0100
0010
0010
1000
1000
,  // measure 55
0001
0001
0010
0010
0100
0100
1000
1000
,  // measure 56
0001
0100
0010
0100
0001
1000
0100
0010
0001
1000
0001
0100
0010
1000
0100
1000
,  // measure 57
0001
0000
0000
0001
1000
0000
0010
0000
0100
0001
1000
0000
1001
0000
0000
0000
,  // measure 58
2100
0000
0000
0000
3100
01M0
0100
0100
0001
1000
0100
1000
0002
0000
0203
0000
,  // measure 59
0300
0000
0020
0000
0130
01M0
0100
0100
1000
0001
0100
0001
0000
0001
1000
0000
,  // measure 60
0102
0000
0000
0000
0103
01M0
0100
0100
1000
0001
0100
0001
2000
0000
3200
0000
,  // measure 61
0300
0000
0020
0000
0130
01M0
0100
0100
0001
1000
0001
0010
0M00
0010
1000
0000
,  // measure 62
0012
0000
0000
0000
0103
01M0
0100
0100
1000
0001
0100
0001
2000
0000
3200
0000
,  // measure 63
0300
0000
0020
0000
0130
01M0
0100
0100
0001
1000
0100
1000
0000
1000
0001
0000
,  // measure 64
2010
0000
0000
0000
3100
01M0
0100
0100
0001
1000
0100
1000
0002
0000
0203
0000
,  // measure 65
0301
0000
0000
0001
1000
0000
0100
0000
0010
0001
1000
0001
1000
0001
0000
0000
,  // measure 66
2010
0000
0000
0000
3101
0010
0001
1000
0021
0000
0000
0000
0000
0000
1100
0000
,  // measure 67
0001
0000
2130
0000
3001
0100
0010
1000
0101
0000
1000
0001
0000
0001
1000
0000
,  // measure 68
0012
0000
0000
0000
1103
0010
1000
0001
1020
0000
0000
0000
0000
0000
0101
0000
,  // measure 69
1000
0000
0132
0000
1003
0100
0010
0001
1100
0000
0001
0100
00M0
0100
1000
0000
,  // measure 70
0102
0000
0000
0000
1013
0100
1000
0001
2100
0000
0000
0000
0000
0000
0011
0000
,  // measure 71
0100
0000
3011
0000
1000
0010
0100
0001
1100
0000
0001
1000
0000
1000
0001
0000
,  // measure 72
1000
0010
0100
0001
1000
0100
0010
0100
1000
0001
0100
0001
1000
0010
0100
0001
,  // measure 73
1000
0000
0000
1000
0001
0000
0100
0000
0010
1000
0001
0000
1001
0000
0000
0000
,  // measure 74
0MM2
0000
0000
2003
0000
0000
3010
0200
,  // measure 75
0000
0000
0310
0000
1000
0000
0001
0000
0010
0000
0100
0000
0010
0000
0001
1000
,  // measure 76
0020
0000
0000
0230
0000
0302
0000
0023
,  // measure 77
0000
0000
0130
0000
1000
0000
0001
0000
0100
0000
0010
0000
1000
0000
0001
0010
,  // measure 78
0200
0000
0000
2300
0000
3002
0000
0203
,  // measure 79
0000
0000
0310
0000
1000
0000
0001
0000
0010
0000
0100
0000
1000
0000
0001
0100
,  // measure 80
0010
2000
0000
3200
0000
0320
0000
0032
,  // measure 81
0000
0103
0010
1000
0100
0100
0010
0001
,  // measure 82
1000
0001
0010
0001
0200
0300
0110
0000
,  // measure 83
0010
0000
1000
0000
0100
0000
1000
0000
0010
0000
1000
0000
0100
01M0
0001
0000
,  // measure 84
0010
0001
0100
0001
0020
0030
0110
0000
,  // measure 85
0001
0001
1000
1000
0020
0030
0110
0000
,  // measure 86
0001
0001
1000
1000
,  // measure 87
0100
0100
0010
0010
,  // measure 88
0001
0001
1000
1000
,  // measure 89
0010
0000
0010
0000
0100
0000
0100
0001
,  // measure 90
1000
0000
1100
0000
0000
0001
0101
0000
,  // measure 91
1000
0000
0000
0000
1010
0000
0001
0100
0010
0100
0001
0000
1100
0000
0000
0000
,  // measure 92
0001
0000
0011
0000
0000
1000
1010
0000
,  // measure 93
0100
0000
0000
0000
0110
0000
0001
0100
0001
1000
0100
0010
0001
0000
1000
0000
,  // measure 94
0100
0000
0101
0000
0000
1000
1100
0000
,  // measure 95
0001
0000
0000
0000
0011
0000
1000
0100
0010
0100
1000
0000
0101
0000
0000
0000
,  // measure 96
1000
0000
1010
0000
0000
0001
0011
0000
,  // measure 97
0100
0000
0000
0000
0110
0000
1000
0100
1000
0001
0100
0010
1000
0000
0001
0000
,  // measure 98
0200
0300
0200
0300
0200
0300
0200
0300
,  // measure 99
0002
0003
0002
0003
0002
0003
0002
0003
,  // measure 100
0020
0030
0020
0030
0020
0030
0020
0030
,  // measure 101
0200
0300
0200
0300
0200
0300
0200
0300
,  // measure 102
1000
1000
0001
0001
0100
0100
0010
0010
,  // measure 103
1000
1000
0001
0001
0010
0010
0100
0100
,  // measure 104
1000
0001
1000
0010
0100
0001
1000
0100
0010
0001
1000
0100
1000
0001
0100
0001
,  // measure 105
1000
0000
0010
0000
0010
0000
0010
0000
0100
0000
0001
1000
0001
0000
0010
0000
,  // measure 106
0102
0003
0000
0020
0131
0000
2000
3000
0011
0200
0300
0000
0021
0000
0000
0000
,  // measure 107
1130
0000
0001
0000
1000
0000
1000
0000
0101
0000
0010
0001
1000
0000
0010
0000
,  // measure 108
2100
3000
0000
0020
1130
0000
0002
0003
1010
0200
0300
0000
1020
0000
0000
0000
,  // measure 109
0131
0000
1000
0000
0001
0000
0001
0000
1100
0000
0010
1000
0001
0000
0001
0000
,  // measure 110
2010
3000
0000
0200
1310
0000
0002
0003
1100
0020
0030
0000
1200
0000
0000
0000
,  // measure 111
0311
0000
1000
0000
0001
0000
0001
0000
1010
0000
0100
1000
0001
0000
0100
0000
,  // measure 112
0012
0003
0000
0200
0311
0000
2000
3000
0101
0020
0030
0000
0201
0000
0000
0000
,  // measure 113
1310
0000
0001
0000
1000
0000
1000
0000
0011
0000
0100
0001
1000
0000
0100
0000
,  // measure 114
2010
0000
0011
0011
3012
0000
M000
0000
,  // measure 115
1013
0000
0100
0000
1010
0000
0001
0000
1100
0000
0010
1000
0011
0000
1100
0000
,  // measure 116
0011
1000
0101
0010
0101
1000
0011
0200
,  // measure 117
0011
0000
0011
0000
0311
0000
1000
0000
0101
0000
0010
0100
1010
0000
0101
0000
,  // measure 118
2010
3000
0000
0200
1310
0000
0002
0003
1100
0020
0030
0000
1200
0000
0000
0000
,  // measure 119
0311
0000
1000
0000
0001
0000
0001
0000
1010
0000
0100
1000
0101
0000
0010
0000
,  // measure 120
0102
0003
0000
0020
0131
0000
2000
3000
0011
0200
0300
0000
0021
0000
0000
0000
,  // measure 121
1130
0000
0001
0000
1000
0000
1000
0000
0101
0000
0010
0001
1010
0000
0100
0000
,  // measure 122
2000
3000
2000
3000
2000
3000
2000
3000
,  // measure 123
0020
0030
0020
0030
0020
0030
0020
0030
,  // measure 124
0200
0300
0200
0300
0200
0300
0200
0300
,  // measure 125
0002
0003
0002
0003
0002
0003
0002
0003
,  // measure 126
0010
0010
0100
0100
1000
1000
0001
0001
,  // measure 127
0100
0100
0010
0010
1000
1000
0001
0001
,  // measure 128
0010
0100
1000
0001
1000
0010
0100
0001
1000
0100
1000
0001
0100
0010
1000
0001
,  // measure 129
0010
0000
0100
0000
0100
0000
0100
0000
1000
0000
0001
0100
0001
0000
1000
0000
,  // measure 130
0101
1000
0101
0010
0101
1000
0011
0200
,  // measure 131
0000
0000
0310
0000
1100
0000
0001
0000
1010
0000
0001
1000
0101
0000
0000
0000
,  // measure 132
1010
0001
1010
0100
1010
0001
1100
0020
,  // measure 133
0000
0000
0130
0000
0011
0000
1000
0000
0101
0000
0010
0002
1010
0000
1013
0000
,  // measure 134
0101
1000
0011
0100
0011
1000
0101
0020
,  // measure 135
0000
0000
0031
0000
1100
0000
0010
0000
1100
0000
0001
0100
0011
0000
1000
0000
,  // measure 136
0101
0010
0101
1000
0011
0100
0011
2000
,  // measure 137
0000
0000
3001
0000
1010
0000
0001
0000
1100
0000
0010
0100
0011
0000
1100
0000
,  // measure 138
0002
0000
1010
1010
2013
0000
000M
0000
,  // measure 139
3011
0000
0100
0000
0011
0000
1000
0000
0101
0000
0010
0001
1010
0000
0101
0000
,  // measure 140
1010
0001
1100
0010
1100
0001
1010
0200
,  // measure 141
1010
0000
1010
0000
1310
0000
0001
0000
1100
0000
0010
0100
0011
0000
1100
0000
,  // measure 142
0011
1000
0101
1000
0022
0033
1111
0000
,  // measure 143
1100
0000
0001
0000
1010
0000
0001
0000
1100
0000
0011
0000
0100
01M0
1000
0000
,  // measure 144
0101
1000
0011
1000
0202
0303
1111
0000
,  // measure 145
0101
0000
0101
0000
0101
0000
1000
0000
0011
0000
0100
0010
1100
0000
0001
0000
,  // measure 146
2000
0000
0101
0101
3201
0000
0320
0000
,  // measure 147
0031
0000
0001
0100
1000
00M0
1000
0000
0020
0000
0000
0000
0230
0000
0000
0000
,  // measure 148
0301
0100
1000
00M0
1000
0000
0001
0100
0010
0100
1000
00M0
1000
0000
0001
0100
,  // measure 149
1000
000M
1000
0010
0100
0000
0100
0000
0002
0000
0000
0000
0013
0000
0010
0100
,  // measure 150
1000
0002
1100
1100
1203
0000
0320
0000
,  // measure 151
1030
0000
1000
0100
0001
00M0
0001
0000
0020
0000
0000
0000
0230
0000
0000
0000
,  // measure 152
1300
0100
0001
00M0
0001
0000
1000
0100
0010
0100
0001
00M0
0001
0000
1000
0100
,  // measure 153
0001
M000
0001
0010
0100
1000
0100
0010
0002
0000
0000
0000
0103
0000
0100
0010
,  // measure 154
2000
0000
0000
0000
,  // measure 155
0000
0000
0000
0000
,  // measure 156
3000
0000
0000
0000
;

//---------------dance-single - ----------------
#NOTEDATA:;
#CHARTNAME:;
#STEPSTYPE:dance-single;
#DESCRIPTION:;
#CHARTSTYLE:;
#DIFFICULTY:Hard;
#METER:10;
#RADARVALUES:0.655212,0.740164,0.383525,0.502141,0.302471,1160.000000,1063.000000,97.000000,127.000000,1.000000,0.000000,0.000000,0.000000,0.000000,0.655212,0.740164,0.383525,0.502141,0.302471,1160.000000,1063.000000,97.000000,127.000000,1.000000,0.000000,0.000000,0.000000,0.000000;
#CREDIT:;
#NOTES:
0000
0000
0000
0000
,
0000
0000
0000
0000
,
1000
0001
0000
0200
0000
0320
0000
2030
,
0000
0000
3001
0000
0010
0000
0100
0000
1000
0000
0001
0000
0100
0000
0010
1000
,
0010
0200
0000
0302
0000
0023
0000
0230
,
0000
0000
1300
0000
0001
0000
0100
0000
0010
0000
1000
0000
0001
0000
1000
0100
,
1000
1000
0100
0100
,
0010
0010
0001
0001
,
1000
1000
0010
0010
,
0100
0100
0001
0001
,
1000
0010
0100
0010
2000
0000
0002
3003
,
1000
0000
0010
0000
0100
0000
0010
0000
1000
0000
0001
0000
1000
0100
1000
0000
,
0001
0010
0100
0010
0002
0000
2000
3003
,
0001
0100
1000
0100
0002
0000
2000
0000
,
3003
0000
0000
0001
0010
0010
0100
1000
,
0001
0000
0100
0010
0100
0010
2000
0000
,
3000
0000
0000
0000
0000
0000
0001
0010
0001
0000
1000
0000
0010
0000
0200
0000
,
0300
0100
0001
1000
0100
0100
0010
0001
,
1001
0000
0000
1001
0000
0000
1010
0000
0000
1010
0000
0000
0220
0000
0330
0000
,
0000
0000
0001
0000
1000
0000
1000
0000
0010
0000
0100
0001
0100
0000
0010
0000
,
1010
0000
0000
1010
0000
0000
0101
0000
0000
0101
0000
0000
2002
0000
3003
0000
,
0000
0000
1000
0000
0100
0000
1000
0000
0001
0000
0010
0100
0010
0000
0001
0000
,
1001
0000
0000
1001
0000
0000
0011
0000
0000
0011
0000
0000
0220
0000
0330
0000
,
0000
0000
1000
0000
0100
0000
0100
0000
0010
0000
0001
1000
0001
0000
0100
0000
,
0110
0000
0000
0110
0000
0000
1010
0000
0000
1010
0000
0000
2002
0000
3003
0000
,
0000
0000
0001
0000
0010
0000
0001
0000
0100
0000
0010
1000
0010
0000
0100
0000
,
0002
0000
0000
0000
1003
0010
1000
0000
0001
0000
0010
0000
0200
0000
0000
0000
,
1300
0000
0001
0000
0100
0010
0100
0000
0001
0000
1000
0000
0200
0000
0000
0000
,
0320
0000
0000
0000
0031
1000
0001
0000
0100
0000
0010
0000
1000
0000
0001
0000
,
0020
0000
0230
2300
3002
2003
3002
0003
,
1001
0001
0010
0100
1000
0001
0100
0001
,
0010
0100
1000
0001
0100
0010
1000
0001
,
0010
0100
0010
0000
0001
0100
0001
0000
1000
0100
1000
0000
0010
0100
0010
0000
,
1000
1000
1000
1000
1000
0100
0010
0000
,
2001
0000
0000
0000
3010
0100
0010
0100
0010
0000
1000
0000
0001
0000
0010
0000
,
0100
0000
1000
0000
0001
0100
0001
0100
0001
0000
0010
0000
0100
0000
1000
0000
,
0002
0000
0000
0000
0103
0010
0100
0010
0100
0000
0001
0000
1000
0000
0100
0000
,
0010
0000
0001
0000
1000
0100
1000
0100
1000
0000
0010
0000
0110
0000
0000
0000
,
1002
0000
0000
0000
0013
0100
0010
0100
0010
0000
0001
0000
1000
0000
0010
0000
,
0100
0000
0001
0000
1000
0100
1000
0100
1000
0000
0010
0000
0100
0000
0001
0000
,
2000
0000
0000
0000
3100
0010
0100
0010
0100
0000
1000
0000
0001
0000
0100
0000
,
0001
0001
0001
0001
0001
0100
0010
0000
,
2002
3003
2200
3300
0021
0000
0000
1000
,
0000
0100
0000
0031
2002
3003
2020
3030
,
0220
0330
2002
3003
0201
0000
0000
1000
,
0000
0010
0000
0301
1000
0100
0110
0000
,
1000
0001
0100
0010
1000
0001
1000
0100
,
0010
0001
0100
0010
1000
0001
1000
0100
,
0010
0001
0010
0000
0100
1000
0100
0000
1000
0001
1000
0000
0010
0100
0010
0000
,
1000
1000
1000
1000
1000
0100
0010
0000
,
1001
0000
0000
0000
1000
0010
2000
0000
3200
0000
0302
0000
0203
0000
2300
0000
,
3000
0000
1000
0000
0001
0010
0002
0000
0203
0000
1300
0100
0000
0100
0001
0000
,
2000
0000
0000
0000
3100
0010
0200
0000
0302
0000
0203
0000
0320
0000
0032
0000
,
2003
0000
3020
0230
0320
0230
0320
0030
,
1000
0100
1000
0100
0010
0001
0010
0001
,
1000
0010
1000
0010
0100
0001
0100
0001
,
1000
0100
1000
0000
0001
0100
0001
0000
1000
0010
1000
0000
0001
0010
0001
0000
,
0100
0100
0100
0100
0100
0010
1000
0000
,
1001
0000
0000
0000
0001
0010
0001
0010
0100
1000
0001
0000
0100
0000
0100
0000
,
0000
0000
0010
0000
1000
0001
1000
0001
0010
0000
0100
1000
0000
1000
0001
0000
,
0001
0000
0000
0000
1000
0010
1000
0010
0100
0001
1000
0000
0100
0000
0100
0000
,
0000
0000
0010
0000
0001
1000
0001
1000
0010
0000
0100
0001
0000
0001
1000
0000
,
1000
0000
0000
0000
0100
0010
0100
0010
0001
1000
0010
0000
0100
0000
0100
0000
,
0000
0000
0001
0000
0010
0100
0010
0100
1000
0000
0001
0100
0000
0100
0010
0000
,
0010
0000
0000
0000
1000
0001
1000
0001
0010
0100
1000
0000
0001
0000
0001
0000
,
0100
0000
0100
0000
0100
0000
0100
0000
0100
0000
0010
1000
0001
1000
0000
0000
,
0100
0000
0000
0000
0010
0001
1000
0001
0200
0000
0000
0000
0000
0000
1000
0000
,
0000
0000
0010
0000
0000
0000
0301
0000
1000
0100
0010
0001
0000
0001
0100
0000
,
0100
0000
0000
0000
0010
1000
0001
1000
0200
0000
0000
0000
0000
0000
0001
0000
,
0000
0000
0010
0000
0000
0000
1300
0000
0001
0100
0010
1000
0000
1000
0001
0000
,
0010
0000
0000
0000
0100
1000
0001
1000
0020
0000
0000
0000
0000
0000
0001
0000
,
0000
0000
0100
0000
0000
0000
1030
0000
0001
0010
0100
1000
0000
0001
0100
0000
,
0010
1000
0001
0000
0010
0100
1000
0000
0001
0100
0001
0000
1000
0100
1000
0000
,
0010
0010
0010
0010
0010
0100
0001
0000
,
20M0
0000
0000
3200
0000
0000
0310
0002
,
0000
0000
0000
0000
0000
0000
0000
0000
0000
0000
0000
0000
0000
0000
1003
0010
,
2000
0000
0000
3200
0000
0320
0000
0032
,
0000
0000
0000
0000
0000
0000
0000
0000
0000
0000
0000
0000
0000
0000
0103
0010
,
0200
0000
0000
0302
0000
0023
0000
0230
,
0000
0000
0000
0000
0000
0000
0000
0000
0000
0000
0000
0000
0000
0000
1300
0001
,
1000
0020
0000
0230
0000
0302
0000
2003
,
0000
0000
0000
0000
,
3001
0010
0100
0010
0002
0000
2000
3003
,
0001
0000
0010
0000
0100
0000
0010
0000
0001
0000
1000
0000
0001
0100
0001
0000
,
1000
0010
0100
0010
2000
0000
0002
3003
,
1000
0100
0001
0100
2000
0000
0002
0000
,
3003
0000
0000
1000
0010
0010
0100
0001
,
1000
0000
0100
0010
0100
0010
0002
0000
,
0003
0000
0000
0000
0000
0000
1000
0010
1000
0000
0001
0000
0010
0000
0200
0000
,
0300
0100
1000
0001
0100
0100
0010
1000
,
0001
0000
0000
0000
1000
0000
0001
0010
0001
0000
1000
0000
0010
0000
0100
0000
,
0001
1000
0100
1000
0020
0000
0230
0000
,
0001
0001
0000
0010
0000
0010
0000
2000
,
0000
0000
0000
3000
,
0310
0000
1000
0001
0010
0001
0100
0001
,
0010
0000
0100
1000
0001
1000
0010
0000
,
0100
0000
0000
0000
0001
0000
1000
0100
1000
0000
0010
0000
0100
0000
0002
0000
,
0003
0001
0010
0010
0100
1000
0001
0100
,
0010
0010
0010
0010
,
1000
1000
1000
1000
,
0001
0001
0001
0001
,
0010
0010
0010
0010
,
0100
0000
0000
0100
0000
0000
1000
0000
0001
0000
0000
0001
0000
0000
0100
0000
,
0010
0000
0000
0010
0000
0000
1000
0000
0100
0000
0000
0100
0000
0000
0010
0000
,
0001
1000
0000
0001
0100
0001
0000
1000
0100
1000
0000
0010
0100
0010
0000
1000
,
0001
0100
1000
0100
0002
0000
2000
3003
,
1010
0000
0000
1010
0000
0000
0011
0000
0000
0011
0000
0000
0110
0000
0000
0000
,
1100
0000
0001
0000
0100
0000
0100
0000
0110
0000
1000
0001
1000
0000
0100
0000
,
0110
0000
0000
0110
0000
0000
0011
0000
0000
0011
0000
0000
1010
0000
0000
0000
,
0110
0000
0100
0000
0001
0000
0001
0000
1001
0000
1000
0100
1000
0000
0010
0000
,
0101
0000
0000
0101
0000
0000
1010
0000
0000
1010
0000
0000
1001
0000
0000
0000
,
0011
0000
0010
0000
0100
0000
0100
0000
1100
0000
0001
0100
0001
0000
1000
0000
,
1010
0000
0000
1010
0000
0000
0110
0000
0000
0110
0000
0000
0101
0000
0000
0000
,
1100
0000
0100
0000
0010
0000
0010
0000
0011
0000
1000
0100
1000
0000
0001
0000
,
0200
0000
0010
0010
0310
0000
0000
0000
,
1001
0000
1000
0000
0010
0000
0100
0000
0101
0000
1000
0100
1000
0000
0001
0000
,
0110
1000
0001
0010
0110
0100
1000
0001
,
0100
0000
0100
0000
0100
0000
0010
0000
1000
0000
0001
0010
0001
0000
0100
0000
,
0110
0010
1000
0001
0110
0100
1000
0001
,
0100
0000
0100
0000
0100
0000
0010
0000
1000
0000
0001
0010
0001
0000
0100
0000
,
0110
0010
1000
0001
0011
0010
0100
1000
,
0010
0000
0010
0000
0010
0000
0100
0000
0001
0000
1000
0100
1000
0000
0010
0000
,
0100
0100
0100
0100
,
0001
0001
0001
0001
,
0010
0010
0010
0010
,
0100
0100
0100
0100
,
1000
0010
1000
0010
0100
0001
0100
0001
,
1000
0100
1000
0100
0010
0001
0010
0001
,
1000
0010
0100
0000
0001
1000
0100
0000
0010
0001
1000
0000
0010
0100
0001
0000
,
1000
1000
1000
1000
0010
0000
0110
0000
,
1001
1000
0010
0100
0101
1000
0100
0020
,
0000
0000
0031
0000
1000
0000
0010
0000
0110
0000
0001
1000
0001
0000
0000
0000
,
0011
0010
0100
1000
1001
0001
0100
0020
,
0000
0000
1030
0000
0001
0000
0010
0000
0110
0000
1000
0100
1000
0000
1000
0000
,
1010
0001
0100
0010
1010
1000
0001
0020
,
0000
0000
0130
0000
1000
0000
1000
0000
0001
0000
0100
0010
0100
0000
0001
0000
,
1001
1000
0100
0010
0011
1000
0010
0200
,
0000
0000
0301
0000
1000
0000
0001
0000
0010
0000
0100
1000
0100
0000
0200
0000
,
0000
0000
1000
1000
2300
0000
0002
3003
,
1010
0000
0010
0000
0100
0000
0001
0000
0011
0000
1000
0010
1000
0000
0001
0000
,
0011
0010
0100
1000
1001
0001
0100
0010
,
1000
0000
1000
0000
1000
0000
0001
0000
0010
0000
0100
1000
0100
0000
0100
0000
,
1100
0100
0110
0010
0011
0000
1001
0000
,
0101
0000
0100
0000
0110
0000
0010
0000
1010
0000
0001
0000
0100
0001
0100
0000
,
0101
0100
0110
0010
1010
0000
1002
0000
,
1000
1000
1000
1003
0020
0000
0200
0330
,
0002
0000
1000
1000
1003
0000
0020
0000
,
1030
0000
1000
0100
1000
0000
0001
0000
0200
0000
0000
0000
0320
0000
0000
0000
,
1030
0100
1000
0000
0001
0000
1000
0100
1000
0100
1000
0000
0001
0000
1000
0100
,
1000
0000
0001
0100
0001
0000
0010
0000
0200
0000
0000
0000
2300
0000
0000
0000
,
3020
0230
0001
0001
0301
0000
0020
0000
,
0031
0000
0001
0100
0001
0000
1000
0000
0200
0000
0000
0000
0320
0000
0000
0000
,
0031
0100
0001
0000
1000
0000
0001
0100
0001
0100
0001
0000
1000
0000
0001
0100
,
0001
0000
1000
0100
1000
0000
0010
0000
0200
0000
0000
0000
0302
0000
0000
0000
,
2003
0000
0000
0000
,
0000
0000
0000
0000
,
3000
0000
0000
0000
;

//---------------dance-single - ----------------
#NOTEDATA:;
#CHARTNAME:;
#STEPSTYPE:dance-single;
#DESCRIPTION:;
#CHARTSTYLE:;
#DIFFICULTY:Medium;
#METER:8;
#RADARVALUES:0.477853,0.555123,0.359802,0.474464,0.041516,846.000000,755.000000,91.000000,120.000000,0.000000,0.000000,0.000000,0.000000,0.000000,0.477853,0.555123,0.359802,0.474464,0.041516,846.000000,755.000000,91.000000,120.000000,0.000000,0.000000,0.000000,0.000000,0.000000;
#CREDIT:;
#NOTES:
0000
0000
0000
0000
,
0000
0000
0000
0000
,
2000
0000
0000
3200
0000
0320
0000
0032
,
0000
0000
0000
0000
,
0203
0000
0000
0320
0000
2030
0000
3200
,
0000
0000
0000
0000
,
0310
0001
1000
0020
0000
0230
0000
0302
,
0000
0000
0000
0000
,
2003
0000
0000
3200
0000
0320
0000
0032
,
0000
0000
0000
0000
,
1003
0001
2000
0000
3020
0000
0230
0000
,
0301
1000
0002
0000
0023
0000
0230
0000
,
1300
0001
2000
0000
3020
0000
0230
0000
,
0301
1000
0001
1000
0002
0003
2002
0000
,
3003
0000
0000
0001
1000
0100
1000
0100
,
1000
0000
0001
0010
0001
0010
0001
0000
,
0000
0000
0000
0000
1000
0010
1000
0010
,
0000
0100
0001
0100
0001
1000
0001
1000
,
0100
0000
0000
0100
0000
0000
0010
0000
0000
0010
0000
0000
0002
0000
0000
0000
,
0000
1003
0100
1000
0020
0000
0230
0000
,
0301
0000
0000
0001
0000
0000
0010
0000
0000
0010
0000
0000
0200
0000
0000
0000
,
0000
1300
0010
1000
0001
0100
0020
0000
,
0130
0000
0000
0100
0000
0000
0010
0000
0000
0010
0000
0000
2000
0000
0000
0000
,
0000
3001
0100
0001
0020
0000
0230
0000
,
1300
0000
0000
1000
0000
0000
0010
0000
0000
0010
0000
0000
0200
0000
0000
0000
,
0000
0301
0010
0001
1000
0100
0010
0100
,
2000
0000
3001
0100
0001
0100
0002
0000
,
0013
0100
1000
0100
1000
0010
2000
0000
,
3002
0000
1003
0100
1000
0100
2000
0000
,
3010
0100
0001
0100
0001
0010
0200
0000
,
1300
0001
0100
0010
1000
0001
0020
0000
,
0130
1000
0001
0100
0001
0010
0200
0000
,
1300
1000
0010
0010
0100
0100
0001
0001
,
0010
0100
0010
0100
0010
0100
0110
0000
,
1001
0000
1000
0100
1000
0001
0200
0000
,
0310
0010
1000
0001
1000
0100
0010
0001
,
1001
0000
0001
0100
0001
1000
0200
0000
,
0310
0010
0001
1000
0001
0100
0110
0000
,
1001
0000
1000
0010
0100
0001
1000
0001
,
0010
0100
1000
0010
0100
0001
1000
0001
,
1001
0000
0001
0010
0100
1000
0001
1000
,
0010
0100
0010
0100
0010
0100
0110
0000
,
2001
0000
3200
0000
0320
0000
0000
0001
,
0000
0001
0000
0031
0200
0000
0310
0000
,
1002
0000
0203
0000
0320
0000
0000
1000
,
0000
1000
0000
1030
0100
0010
0001
0000
,
2001
0000
3020
0000
0230
0000
0000
1000
,
0000
1000
0000
1300
0200
0000
0302
0000
,
1003
1000
0100
0100
0010
0010
0001
0001
,
0100
0010
0100
0010
0100
0010
0110
0000
,
1001
0000
1000
0100
1000
0100
0010
0001
,
0000
0000
1000
0000
0001
0000
0100
0000
0001
0000
0000
0001
0000
0000
0001
0000
,
1000
0000
0001
0100
0001
0100
0010
1000
,
0000
0000
0001
0000
1000
0000
0100
0000
1000
0000
0000
1000
0000
0000
1000
0000
,
0001
0100
0010
1000
0001
1000
0200
0000
,
0310
0001
1000
0001
0100
0010
2000
0000
,
3001
0001
0010
0010
0100
0100
1000
1000
,
0010
0100
0010
0100
0010
0100
0110
0000
,
1001
0000
1000
0100
1000
0100
0010
0010
,
0000
0000
0001
0000
0100
0000
0100
0000
0010
0000
0000
0010
0000
0000
0010
0000
,
1000
0000
0001
0100
0001
0100
0010
0010
,
0000
0000
1000
0000
0100
0000
0100
0000
0010
0000
0000
0010
0000
0000
0010
0000
,
0001
0000
1000
0010
1000
0010
0100
0100
,
0000
0000
0001
0000
0100
0000
0100
0000
0010
0000
0000
0010
0000
0000
0010
0000
,
1000
0000
0001
0010
0001
0010
0100
0100
,
1000
0001
1000
0001
1000
0020
0000
0000
,
0230
0000
1000
0000
0320
0000
0000
0001
,
0000
0100
0000
1030
0002
0000
0023
0000
,
0230
0000
0001
0000
0320
0000
0000
1000
,
0000
0100
0000
0031
2000
0000
3020
0000
,
0230
0000
1000
0000
0302
0000
0000
0023
,
0000
0230
0000
0301
0020
0000
0032
0000
,
1003
0010
1000
0010
0100
0001
0100
0001
,
1000
0001
1000
0001
1000
0001
1001
0000
,
0002
0000
0000
0000
,
0000
0000
0000
0000
,
0203
0000
0000
0000
,
0000
0000
0000
0000
,
0320
0000
0000
0000
,
0000
0000
0000
0000
,
2030
0000
0000
0000
,
0000
0000
0000
0000
,
3001
1000
0002
0000
0023
0000
0230
0000
,
1300
0001
2000
0000
3020
0000
0230
0000
,
0301
1000
0002
0000
0023
0000
0230
0000
,
1300
0001
1000
0001
2000
3000
2002
0000
,
3003
0000
0000
1000
0001
0100
0001
0100
,
0001
0000
1000
0010
1000
0010
1000
0000
,
0000
0000
0000
0000
0001
0010
0001
0010
,
0000
0100
1000
0100
1000
0001
1000
0001
,
1000
0000
1000
0000
0000
0001
0001
0000
,
0010
0000
0010
0100
1000
0001
1000
0000
,
0001
0000
0001
0000
0000
1000
1000
0000
,
0010
0000
0010
0100
0001
1000
0001
0010
,
0100
0000
0100
0000
0000
1000
1000
0000
,
0001
0000
0001
0100
1000
0100
0001
0000
,
0100
0000
0100
0000
0000
0001
0001
0000
,
1000
0000
1000
0100
0001
0100
1000
0000
,
0002
0000
0000
0000
,
0203
0000
0000
0000
,
0320
0000
0000
0000
,
2030
0000
0000
0000
,
3001
0001
0010
0010
,
0100
0100
1000
1000
,
0001
0100
0000
0000
0001
0100
0000
0000
0010
1000
0000
0000
0010
1000
0000
0000
,
0001
1000
0001
1000
0001
0000
2002
3003
,
1100
0101
0110
1010
,
0101
0000
1100
0000
0001
1000
0001
0000
,
0011
0110
1100
1001
,
0101
0000
0110
0000
1000
0001
1000
0001
,
1000
1100
0110
0011
,
1010
0000
0110
0000
1000
0001
1000
0000
,
0011
0110
1001
1010
,
0110
0000
0101
0000
1000
0010
1000
0010
,
0200
0000
0301
1000
0001
0000
0000
0000
,
1100
0000
0011
0000
1000
0010
1000
0010
,
0100
0101
1100
1010
,
0001
0010
0001
0010
0100
1000
0001
0000
,
1001
1100
1010
0101
,
1000
0001
1000
0000
0010
0100
0010
1000
,
0001
0011
0110
1001
,
0010
0100
0010
0000
1001
0000
1100
0000
,
0002
0000
0000
0000
,
0203
0000
0000
0000
,
0320
0000
0000
0000
,
2030
0000
0000
0000
,
3001
0001
1000
1000
,
0100
0100
0010
0010
,
0001
0010
0000
0000
0001
0010
0000
0000
0100
1000
0000
0000
0100
1000
0000
0000
,
0001
1000
0001
1000
0001
0000
1001
0000
,
0110
1010
0101
1100
,
0011
0000
1010
0000
0001
1000
0001
0000
,
1010
0101
1100
0011
,
1001
0000
1010
0000
0010
0100
0010
0100
,
0110
0101
1100
1010
,
0011
0000
0101
0000
1000
0001
1000
0000
,
1010
0011
1100
0101
,
0110
0000
1001
0000
1000
0001
1000
0001
,
2000
0000
0100
0100
3200
0000
0020
0330
,
1001
0000
1100
0000
0001
0010
0001
0010
,
0011
0110
1100
1001
,
1000
0010
1000
0000
0110
0000
0101
0000
,
1000
0100
0001
0100
1000
0000
1001
0000
,
0001
0100
1000
0100
0001
1000
0001
1000
,
0001
0100
1000
0100
0001
0000
1001
0000
,
1000
0001
1000
0001
1000
0000
1001
0000
,
0002
0000
0010
0010
0023
0000
0230
0000
,
1300
0100
0010
0100
0002
0000
0203
0000
,
1300
0100
0001
0100
1000
0100
0001
0100
,
1000
0100
0010
0100
0002
0000
0203
0000
,
2300
0000
0010
0010
3020
0000
0230
0000
,
0301
0100
0010
0100
2000
0000
3200
0000
,
0301
0100
1000
0100
0001
0100
1000
0100
,
0001
0100
0010
0100
2000
0000
3200
0000
,
0302
0000
0000
0000
,
0000
0000
0000
0000
,
0003
0000
0000
0000
;
