#VERSION:0.83;
#TITLE:Crocus;
#SUBTITLE:;
#ARTIST:RiraN;
#TITLETRANSLIT:;
#SUBTITLETRANSLIT:;
#ARTISTTRANSLIT:;
#GENRE:;
#ORIGIN:;
#CREDIT:;
#BANNER:banner.png;
#BACKGROUND:;
#PREVIEWVID:;
#JACKET:;
#CDIMAGE:;
#DISCIMAGE:;
#LYRICSPATH:;
#CDTITLE:;
#MUSIC:Crocus.ogg;
#OFFSET:0.731605;
#SAMPLESTART:77.657478;
#SAMPLELENGTH:19.199997;
#SELECTABLE:YES;
#BPMS:0.000=150.000;
#STOPS:;
#DELAYS:;
#WARPS:;
#TIMESIGNATURES:0.000=4=4;
#TICKCOUNTS:0.000=4;
#COMBOS:0.000=1;
#SPEEDS:0.000=1.000=0.000=0;
#SCROLLS:0.000=1.000;
#FAKES:;
#LABELS:0.000=Song Start;
#BGCHANGES:;
#KEYSOUNDS:;
#ATTACKS:
;

//---------------dance-single - ----------------
#NOTEDATA:;
#CHARTNAME:;
#STEPSTYPE:dance-single;
#DESCRIPTION:;
#CHARTSTYLE:;
#DIFFICULTY:Challenge;
#METER:11;
#RADARVALUES:0.793159,0.888885,0.793159,0.747575,0.743017,609.000000,522.000000,87.000000,82.000000,0.000000,18.000000,0.000000,0.000000,0.000000,0.793159,0.888885,0.793159,0.747575,0.743017,609.000000,522.000000,87.000000,82.000000,0.000000,18.000000,0.000000,0.000000,0.000000;
#CREDIT:;
#NOTES:
// measure 0
0000
0000
0000
0000
,  // measure 1
0000
0000
0000
0000
,  // measure 2
0000
0000
0000
0000
,  // measure 3
0000
0000
0000
0000
,  // measure 4
0000
0000
0000
0000
,  // measure 5
1000
0002
0003
0002
0003
0200
0300
0200
,  // measure 6
0300
0020
0030
0020
0030
2000
3000
2000
,  // measure 7
3001
0020
0030
0020
0030
0200
0300
0200
,  // measure 8
0300
0000
2000
0000
3000
0000
2000
0000
3000
0000
0010
0100
0001
0100
0010
1000
,  // measure 9
0001
0010
0100
1000
0100
0010
0001
0000
0100
0010
1000
0001
0100
0001
1000
0010
,  // measure 10
0000
0100
0001
1000
0010
1000
0001
0100
0000
0001
0010
0100
1000
0100
0010
0001
,  // measure 11
0000
1000
0001
0100
0010
0100
0001
1000
0000
0100
0010
0001
1000
0001
0010
0100
,  // measure 12
0000
1000
0010
0100
0001
0100
0010
1000
0000
0001
0010
0100
1000
0100
0010
0001
,  // measure 13
1000
0010
0100
0001
0100
0010
1000
0000
0001
1000
0100
0010
0100
1000
0001
0100
,  // measure 14
0000
0010
1000
0001
0100
0001
1000
0010
0000
0100
0001
1000
0100
1000
0001
0100
,  // measure 15
0000
0001
0100
0010
1000
0010
0100
0001
0000
1000
0100
0010
0001
0010
0100
1000
,  // measure 16
0001
0000
0000
0001
0010
0000
0100
0000
2000
0000
0000
0001
0000
0000
3001
0000
,  // measure 17
1200
0000
0000
0010
0000
0000
0302
0000
0000
0000
1000
0000
1000
0000
1003
0000
,  // measure 18
0100
0000
0000
0100
0010
0000
0002
0000
1000
0000
0000
1000
0000
0000
1003
0000
,  // measure 19
0020
0000
0000
0100
0000
0000
2030
0000
0000
0000
0100
0000
0001
0000
3001
0000
,  // measure 20
0010
0000
0000
0010
0100
0000
2000
0000
0010
0000
0000
3010
0000
0000
1000
0000
,  // measure 21
0201
0000
0000
0010
0000
0000
2300
0000
0000
0000
0001
0000
0001
0000
3001
0000
,  // measure 22
0100
0000
0000
0100
0010
0000
2000
0000
0001
0000
0000
0001
0000
0000
3001
0000
,  // measure 23
0020
0000
0000
0100
0000
0000
0032
0000
0000
0000
0100
0000
1000
0000
1003
0000
,  // measure 24
0010
0000
0000
0010
0100
0000
0002
0000
0010
0000
0000
0013
0000
0000
0001
0000
,  // measure 25
1100
0000
0010
0000
0100
0000
0001
1000
0100
1000
0001
0000
0100
0000
0010
0000
,  // measure 26
1000
0000
0000
1000
0100
0000
0010
0001
1000
0001
0010
0000
0100
0000
1000
0000
,  // measure 27
0001
0000
0001
0000
0100
0000
0010
1000
0001
1000
0010
0000
0100
0000
0001
0000
,  // measure 28
0010
0000
0000
0010
0100
0000
1000
0001
0100
0001
1000
0000
0100
0000
0010
0000
,  // measure 29
0101
0000
0010
0000
0100
0000
1000
0001
0100
0001
1000
0000
0100
0000
0010
0000
,  // measure 30
0001
0000
0000
0001
0100
0000
0010
1000
0001
1000
0010
0000
0100
0000
0001
0000
,  // measure 31
1000
0000
1000
0000
0100
0000
0010
0001
1000
0001
0010
0000
0100
0000
1000
0000
,  // measure 32
0010
0000
0000
0010
0100
0000
0001
1000
0100
1000
0001
0000
0100
0000
0010
0000
,  // measure 33
1200
0001
0001
0301
,  // measure 34
1000
0000
0000
1000
0100
0000
0010
0000
0002
0000
0000
0100
0000
0000
1003
0000
,  // measure 35
0201
1000
1000
1300
,  // measure 36
0001
0000
0000
0001
0100
0000
0010
0000
2000
0000
0000
0100
0000
0000
3001
0000
,  // measure 37
1200
0000
0000
0010
0000
0000
0302
0000
0000
0000
1000
0000
1000
0000
1003
0000
,  // measure 38
0201
0000
0000
0010
0000
0000
2300
0000
0000
0000
0001
0000
0001
0000
3001
0000
,  // measure 39
1100
0010
0100
0001
1000
0100
1000
0001
1010
0100
1000
0001
1000
0010
0100
0001
,  // measure 40
1100
0000
0000
1000
0010
0000
0020
0000
0001
0000
0000
0100
0000
0000
1030
0000
,  // measure 41
0011
0000
0100
0000
0011
0000
1000
0000
0101
0020
0000
0001
0000
0000
0031
0000
,  // measure 42
1100
0000
0010
0100
0001
1000
0001
0020
0000
0000
0230
0000
2300
0000
3002
0000
,  // measure 43
1013
0000
0100
0000
1010
0000
0001
0000
1100
0020
0000
1000
0000
0000
1030
0000
,  // measure 44
0101
0000
0010
0001
1000
0010
0100
0002
0000
0000
2003
0000
3101
0000
1010
0000
,  // measure 45
0101
0000
0010
0000
0101
0000
1000
0000
0011
0200
0000
1000
0000
0000
0310
0000
,  // measure 46
1100
0000
0001
0010
0100
0010
0001
2000
0000
0000
3020
0000
0230
0000
0302
0000
,  // measure 47
1103
0000
0010
0000
1100
0000
0001
0000
1010
0200
0000
0001
0000
0000
0310
0000
,  // measure 48
0101
0000
1000
0010
0100
0010
1000
0002
0000
0000
0023
0000
0230
0000
2300
0000
,  // measure 49
3101
0000
1000
0000
0011
0000
0100
0000
0011
2000
0000
0100
0000
0000
3001
0000
,  // measure 50
1010
0000
0100
0010
0001
1000
0010
0200
0000
0000
2300
0000
3200
0000
0320
0000
,  // measure 51
1130
0000
0001
0000
1010
0000
0100
0000
1010
0002
0000
0100
0000
0000
1003
0000
,  // measure 52
0011
0000
0100
0010
1000
0001
0010
0200
0000
0000
0302
0000
0203
0000
0320
0000
,  // measure 53
0131
0000
1000
0000
0011
0000
1000
0000
0101
0020
0000
1000
0000
0000
0031
0000
,  // measure 54
1100
0000
0010
0100
0001
1000
0001
0020
0000
0000
0230
0000
2300
0000
3020
0000
,  // measure 55
1130
0000
0001
0000
1010
0000
0001
0000
1100
0020
0000
0001
0000
0000
1030
0000
,  // measure 56
0101
0000
0010
0100
1000
0001
1000
0020
0000
0000
0230
0000
0302
0000
0023
0000
,  // measure 57
0131
0000
0000
1000
0011
0000
0100
0000
0011
1000
0000
0101
0000
0000
1010
0000
,  // measure 58
0101
0000
0000
1000
0011
0000
0200
0000
0011
0000
0000
0011
0000
0000
0311
0000
,  // measure 59
1100
0000
0000
0001
1010
0000
0100
0000
1010
0001
1000
0000
0011
0000
1100
0000
,  // measure 60
0011
0000
0000
1000
0101
0000
2010
0000
0101
0000
0000
0101
0000
0000
3011
0000
,  // measure 61
1100
0000
0000
0010
1100
0000
0001
0000
1010
0000
0000
0101
0000
0000
1010
0000
,  // measure 62
0101
0000
0000
1000
0011
0000
2000
0000
0101
0000
0000
3101
0000
0000
1010
0000
,  // measure 63
0101
0000
0000
1000
0011
0000
0100
0000
0011
0000
1000
0000
0101
0000
1010
0000
,  // measure 64
0101
0000
0000
1000
0011
0000
1100
0000
0012
0000
0000
2023
0000
0000
0202
0000
,  // measure 65
3333
0000
0000
0000
;

//---------------dance-single - ----------------
#NOTEDATA:;
#CHARTNAME:;
#STEPSTYPE:dance-single;
#DESCRIPTION:;
#CHARTSTYLE:;
#DIFFICULTY:Hard;
#METER:10;
#RADARVALUES:0.722829,0.739313,0.592590,0.164102,0.574356,555.000000,490.000000,65.000000,18.000000,8.000000,0.000000,0.000000,0.000000,0.000000,0.722829,0.739313,0.592590,0.164102,0.574356,555.000000,490.000000,65.000000,18.000000,8.000000,0.000000,0.000000,0.000000,0.000000;
#CREDIT:;
#NOTES:
0000
0000
0000
0000
,
0000
0000
0000
0000
,
0000
0000
0000
0000
,
0000
0000
0000
0000
,
0000
0000
0000
0000
,
1000
0100
0010
0001
0000
1000
0010
0100
,
0001
0000
0010
0000
0100
0000
1000
0000
0000
0000
0001
0100
0001
0000
1000
0000
,
0100
0010
0001
1000
0000
0010
0100
0001
,
0010
0000
0100
0000
0001
0000
0100
0000
1000
0000
0001
0100
0001
0000
0010
0000
,
0100
1000
0100
1000
0001
0000
0100
0000
0010
1000
0010
1000
0001
0000
0000
0001
,
0000
0000
0010
0100
1000
0000
0000
1000
0000
0000
0001
0100
0010
0000
0000
0010
,
0000
0000
1000
0001
0010
0000
0000
0010
0000
0000
0100
1000
0001
0000
0000
0001
,
0000
0000
0100
0010
1000
0000
0000
1000
0000
0000
0100
0010
0001
0000
0000
0001
,
1000
0010
1000
0010
0100
0000
0001
0000
0010
0100
0010
0100
1000
0000
0000
1000
,
0000
0000
0010
0100
0001
0000
0000
0001
0000
0000
0010
0100
1000
0000
0000
1000
,
0000
0000
0010
0100
0001
0000
0000
0001
0000
0000
1000
0010
0100
0000
0000
0100
,
0001
0000
0000
0001
1000
0000
1000
0000
0200
0000
0000
0010
0000
0000
0310
0000
,
1001
0000
0000
1010
0000
0000
0110
0000
0000
0000
0001
0000
0001
0000
0001
0000
,
0010
0000
0000
0010
0100
0000
1000
0000
0010
0000
0000
0010
0000
0000
0100
0000
,
0101
0000
0000
1100
0000
0000
0011
0000
0000
0000
1000
0000
1000
0000
1000
0000
,
0010
0000
0000
0010
0100
0000
0001
0000
0010
0000
0000
0010
0000
0000
0100
0000
,
1001
0000
0000
1010
0000
0000
0110
0000
0000
0000
0001
0000
0001
0000
0001
0000
,
1000
0000
0000
1000
0010
0000
0100
0000
0001
0000
0000
0001
0000
0000
0010
0000
,
0110
0000
0000
1100
0000
0000
0101
0000
0000
0000
1000
0000
1000
0000
1000
0000
,
0010
0000
0000
0010
0100
0000
0001
0000
1000
0000
0000
1000
0000
0000
0100
0000
,
0010
0000
0001
0000
1000
0000
0010
0100
0010
0100
0010
0000
1000
0000
0001
0000
,
0010
0000
0100
0000
1000
0000
0001
0100
0001
0100
0001
0000
1000
0000
0100
0000
,
0010
0000
0001
0000
1000
0000
0001
0100
0001
0100
0001
0000
0010
0000
0100
0000
,
1000
0000
0010
0000
0100
0000
0001
1000
0001
1000
0001
0000
0010
0000
0100
0000
,
0110
0000
1000
0000
0001
0000
0100
0010
0100
0010
0100
0000
0001
0000
1000
0000
,
0100
0000
0010
0000
0001
0000
1000
0100
1000
0100
1000
0000
0010
0000
0100
0000
,
0001
0000
1000
0000
0100
0000
0010
0001
0010
0001
0010
0000
0100
0000
1000
0000
,
0001
0000
0100
0000
0010
0000
1000
0001
1000
0001
1000
0000
0100
0000
0010
0000
,
1001
0000
0000
0001
0100
0000
0010
0000
1000
0000
0001
0000
1000
0000
0001
0000
,
0010
0000
0000
0010
0100
0000
1000
0000
0001
0000
0100
0000
0010
0000
0100
0000
,
1001
0000
0000
1000
0100
0000
0010
0000
0001
0000
1000
0000
0001
0000
1000
0000
,
0010
0000
0000
0010
0100
0000
0001
0000
1000
0000
0100
0000
0010
0000
0100
0000
,
1001
0000
0000
1000
0010
0000
0001
0000
0010
0000
0100
0000
0001
0000
1000
0000
,
1001
0000
0000
0001
0010
0000
1000
0000
0010
0000
0100
0000
1000
0000
0001
0000
,
0101
0000
0000
0100
0010
0000
1000
0000
1100
0000
0000
0100
0010
0000
0001
0000
,
0101
0000
0000
0100
0010
0000
2000
0000
0001
0000
0000
0001
0000
0000
3001
0000
,
0110
0000
0000
0000
1100
0000
0001
0000
1000
0010
0M00
0020
0000
0030
0001
0000
,
1000
0000
0010
0100
0001
1000
0001
2000
0000
0000
3100
0000
0010
0000
0001
0000
,
1001
0000
0000
0000
0101
0000
1000
0000
0001
0010
0M00
0020
0000
0000
1030
0000
,
0001
0000
0010
0100
1000
0001
1000
0002
0000
0000
0103
0000
0010
0000
1000
0000
,
1100
0000
0000
0000
0101
0000
1000
0000
0010
0100
M000
0200
0000
0000
1300
0000
,
0001
0000
0010
0100
1000
0001
1000
0002
0000
0000
0103
0000
0010
0000
1000
0000
,
1001
0000
0000
0000
1100
0000
0001
0000
0100
0010
000M
0020
0000
0000
0031
0000
,
1000
0000
0010
0100
0001
1000
0001
2000
0000
0000
3100
0000
0010
0000
0001
0000
,
0101
0000
0000
0000
0110
0000
1000
0000
0001
0010
0M00
0020
0000
0000
0130
0000
,
0001
0000
0010
0100
1000
0010
1000
0020
0000
0000
0130
0000
0001
0000
1000
0000
,
1010
0000
0000
0000
0110
0000
0001
0000
1000
0010
0M00
0020
0000
0000
0130
0000
,
1000
0000
0010
0100
0001
0010
0001
0020
0000
0000
0130
0000
1000
0000
0001
0000
,
0011
0000
0000
0000
0110
0000
1000
0000
0010
0001
0M00
0002
0000
0000
0103
0000
,
0010
0000
0001
0010
1000
0001
1000
0002
0000
0000
0013
0000
0100
0000
1000
0000
,
1100
0000
0000
0000
0110
0000
0001
0000
0010
1000
0M00
2000
0000
0000
3100
0000
,
0010
0000
1000
0010
0001
1000
0001
2000
0000
0000
3010
0000
0100
0000
0001
0000
,
1001
0000
0000
1000
0100
0000
0010
0000
0011
0000
0000
1001
0000
0000
0010
0000
,
0110
0000
0000
0001
0010
0000
0100
0000
1100
0000
0000
1001
0000
0000
0100
0000
,
0110
0000
0000
0001
1000
0000
0100
0000
0110
0000
0000
0000
0011
0000
0001
0000
,
1001
0000
0000
1000
0010
0000
0110
0000
0101
0000
0000
1100
0000
0000
0110
0000
,
1001
0000
0000
1000
0100
0000
0010
0000
0011
0000
0000
1010
0000
0000
0100
0000
,
0101
0000
0000
1000
0100
0000
0010
0000
0011
0000
0000
1010
0000
0000
0001
0000
,
0101
0000
0000
1000
0100
0000
0010
0000
0110
0000
0001
0000
1100
0000
0110
0000
,
0011
0000
0000
1000
0010
0000
0110
0000
0101
0000
0000
1100
0000
0000
1001
0000
;

//---------------dance-single - ----------------
#NOTEDATA:;
#CHARTNAME:;
#STEPSTYPE:dance-single;
#DESCRIPTION:;
#CHARTSTYLE:;
#DIFFICULTY:Medium;
#METER:8;
#RADARVALUES:0.497515,0.473160,0.045584,0.018234,0.214244,382.000000,377.000000,5.000000,2.000000,0.000000,0.000000,0.000000,0.000000,0.000000,0.497515,0.473160,0.045584,0.018234,0.214244,382.000000,377.000000,5.000000,2.000000,0.000000,0.000000,0.000000,0.000000,0.000000;
#CREDIT:;
#NOTES:
0000
0000
0000
0000
,
0000
0000
0000
0000
,
0000
0000
0000
0000
,
0000
0000
0000
0000
,
0000
0000
0000
0000
,
1000
1000
0001
0001
,
0100
0100
0010
0010
,
1000
1000
0100
0100
,
0010
0010
0001
0001
,
1000
0000
0010
0000
0100
0000
0000
0000
0001
0000
0010
0000
0100
0000
0000
0100
,
0000
0000
1000
0000
0010
0000
0000
0010
0000
0000
0100
0000
0001
0000
0000
0001
,
0000
0000
0010
0000
0100
0000
0000
0100
0000
0000
1000
0000
0001
0000
0000
0001
,
0000
0000
0100
0000
0010
0000
0000
0010
0000
0000
1000
0000
0001
0000
0000
0001
,
0010
0000
0100
0000
1000
0000
0000
0000
0001
0000
0100
0000
0010
0000
0000
0010
,
0000
0000
1000
0000
0100
0000
0000
0100
0000
0000
0010
0000
0001
0000
0000
0001
,
0000
0000
1000
0000
0010
0000
0000
0010
0000
0000
0100
0000
0001
0000
1000
0000
,
0100
0000
0000
0000
0020
0000
0000
0000
0001
0000
0000
0001
0000
0000
0031
0000
,
1000
0000
0000
0010
0000
0000
0100
0000
0000
0000
0001
0000
1000
0000
0100
0000
,
0010
0000
0000
0000
0001
0000
1000
0000
0010
0000
0000
0100
0000
0000
0001
0000
,
0010
0000
0000
0100
0000
0000
1000
0000
0000
0000
0001
0000
0100
0000
0001
0000
,
1000
0000
0000
0000
0100
0000
0010
0000
0001
0000
0000
1000
0000
0000
0010
0000
,
0100
0000
0000
0001
0000
0000
1000
0000
0000
0000
0001
0000
0010
0000
0100
0000
,
1000
0000
0000
0000
0001
0000
0100
0000
0010
0000
0000
1000
0000
0000
0001
0000
,
0010
0000
0000
0100
0000
0000
1000
0000
0000
0000
0001
0000
0100
0000
0001
0000
,
0010
0000
0000
0000
0100
0000
1000
0000
0001
0000
0000
0100
0000
0000
0010
0000
,
1000
0001
0100
0001
1000
0001
0010
0000
,
0100
1000
0001
1000
0010
1000
0001
0000
,
0010
0100
1000
0100
0010
0100
1000
0000
,
0001
0100
0010
0100
0001
0100
0010
0000
,
1000
0001
0010
0100
1000
0001
0100
0000
,
0010
1000
0100
1000
0001
0100
0010
0000
,
1000
0001
0010
0100
0010
0001
0100
0000
,
0010
1000
0100
0010
0001
1000
0010
0100
,
0001
0000
0000
0010
0000
0000
0100
0000
0000
0000
1000
0000
0001
0000
0100
0000
,
0010
0000
0000
1000
0000
0000
0001
0000
0010
0000
0000
0100
0000
0000
1000
0000
,
0001
0000
0000
0100
0000
0000
0010
0000
0000
0000
1000
0000
0001
0000
0010
0000
,
0100
0000
0000
0100
0000
0000
1000
0000
0010
0000
0000
0100
0000
0000
0001
0000
,
0010
0000
0000
0100
0000
0000
1000
0000
0000
0000
0010
0000
0100
0000
0010
0000
,
1000
0000
0000
0001
0000
0000
0010
0000
0000
0000
0100
0000
1000
0000
0001
0000
,
0100
0000
0000
0010
0000
0000
1000
0000
0100
0000
0000
0010
0000
0000
0001
0000
,
1000
0000
0000
0000
0020
0000
0000
0000
0100
0000
0000
0100
0000
0000
0130
0000
,
0001
0000
0000
0000
1000
0000
0100
0000
0010
0000
0000
0010
0000
0000
0010
0000
,
0001
1000
0010
0100
0010
1000
0001
0010
,
0100
0000
0000
0000
1000
0000
0001
0000
0100
0000
0000
0100
0000
0000
0100
0000
,
0010
1000
0100
0010
0001
1000
0001
0100
,
0010
0000
0000
0000
1000
0000
0001
0000
0010
0000
0000
0010
0000
0000
0010
0000
,
0100
1000
0001
0100
0010
1000
0001
0010
,
0100
0000
0000
0000
1000
0000
0010
0000
0100
0000
0000
0100
0000
0000
0100
0000
,
0001
1000
0100
0010
0001
1000
0010
1000
,
1000
0000
0000
0000
0100
0000
0010
0000
0001
0000
0000
0001
0000
0000
0001
0000
,
0100
0010
1000
0001
1000
0100
0010
0001
,
1000
0000
0000
0000
0010
0000
0100
0000
0010
0000
0000
0010
0000
0000
0010
0000
,
1000
0001
0010
0100
1000
0010
1000
0001
,
0010
0000
0000
0000
0100
0000
1000
0000
0100
0000
0000
0100
0000
0000
0100
0000
,
0010
0001
1000
0001
0100
0010
1000
0001
,
0010
0000
0000
0000
0100
0000
1000
0000
0001
0000
0000
0001
0000
0000
0001
0000
,
0100
0010
1000
0001
1000
0100
0010
0001
,
1000
0000
0000
1000
0000
0000
0010
0000
0000
0000
0100
0000
0001
0000
1000
0000
,
0100
0000
0000
0000
0010
0000
0001
0000
1000
0000
0000
1000
0000
0000
0010
0000
,
0100
0000
0000
0100
0000
0000
0001
0000
0000
0000
0010
0000
0100
0000
1000
0000
,
0001
0000
0000
0000
1000
0000
0010
0000
0110
0000
0000
1001
0000
0000
0001
0000
,
0100
0000
0000
0100
0000
0000
0010
0000
0000
0000
1000
0000
0001
0000
0010
0000
,
0100
0000
0000
0000
1000
0000
0010
0000
0100
0000
0000
0100
0000
0000
0001
0000
,
0010
0000
0000
0010
0000
0000
1000
0000
0000
0000
0001
0000
0100
0000
1000
0000
,
0001
0000
0000
0000
0100
0000
0010
0000
1001
0000
0000
0110
0000
0000
1001
0000
;
