#TITLE:Blue;
#SUBTITLE:;
#ARTIST:RiraN;
#TITLETRANSLIT:;
#SUBTITLETRANSLIT:;
#ARTISTTRANSLIT:;
#GENRE:;
#CREDIT:;
#BANNER:banner.png;
#BACKGROUND:;
#LYRICSPATH:;
#CDTITLE:;
#MUSIC:Blue.ogg;
#OFFSET:-0.098438;
#SAMPLESTART:53.076492;
#SAMPLELENGTH:18.701294;
#SELECTABLE:YES;
#BPMS:0.000000=154.000000
;
#STOPS:
;
#BGCHANGES:;
#KEYSOUNDS:;
#ATTACKS:;

//---------------dance-single - ----------------
#NOTES:
     dance-single:
     :
     Challenge:
     10:
     0.670228,0.681695,0.291145,0.715385,0.341056,564.000000,529.000000,35.000000,86.000000,8.000000,4.000000,0.670228,0.681695,0.291145,0.715385,0.341056,564.000000,529.000000,35.000000,86.000000,8.000000,4.000000:
// measure 0
0000
0000
0000
0000
,  // measure 1
0000
0000
0000
0000
,  // measure 2
1002
0000
0000
1000
0000
0000
0010
0000
0023
0000
0000
0000
0130
0000
2000
0000
,  // measure 3
0001
0000
0000
0001
0000
0000
0010
0000
3020
0000
0130
0000
0001
0000
2000
0000
,  // measure 4
0100
0000
0000
0100
0000
0000
0001
0000
3002
0000
0000
0000
0103
0000
0020
0000
,  // measure 5
1000
0000
0000
1000
0000
0000
0100
0000
0230
0000
0301
0000
0010
0000
0200
0000
,  // measure 6
1000
0000
0000
1000
0000
0000
0010
0000
0320
0000
0000
0000
0031
0000
2000
0000
,  // measure 7
0010
0000
0000
0010
0000
0000
0100
0000
3200
0000
0310
0000
0001
0000
2000
0000
,  // measure 8
0010
0000
0000
0010
0000
0000
0001
0000
3002
0000
0000
0000
0013
0000
0200
0000
,  // measure 9
0001
0000
0000
0001
0000
0000
0010
0000
0320
0000
0031
0000
1000
0000
0010
0000
,  // measure 10
0100
0000
0001
1000
0001
0000
0010
0000
0100
0000
1000
0000
0001
0000
0100
0000
,  // measure 11
0010
0000
1000
0001
1000
0000
0100
0000
0010
0000
0001
0000
0100
0000
0010
0000
,  // measure 12
1000
0000
0001
0010
0001
0000
0100
0000
0010
0000
1000
0000
0001
0000
0010
0000
,  // measure 13
0100
0000
1000
0010
1000
0000
0001
0000
0010
0000
0100
0000
1000
0000
0001
0000
,  // measure 14
0100
0000
0010
1000
0001
0000
0010
0000
0100
0000
1000
0000
0010
0000
0100
0000
,  // measure 15
0001
0000
1000
0100
0010
0000
0001
0000
1000
0000
0010
0000
1000
0000
0100
0000
,  // measure 16
0010
0000
0001
1000
0100
0000
0010
0000
0100
0000
1000
0000
0001
0000
0100
0000
,  // measure 17
0010
0000
0100
0001
0010
0000
1000
0000
0010
0000
0100
0000
1000
0000
0001
0000
,  // measure 18
0200
0000
0000
0000
0310
0000
1000
0000
0102
0000
0010
0100
1003
0000
0001
0000
,  // measure 19
1100
0000
0010
0000
0100
0000
0001
0000
1020
0001
0000
0000
0031
0000
1000
0000
,  // measure 20
0010
0000
0100
0000
0001
0000
1000
0000
0201
0000
0000
0010
0000
0000
0310
0000
,  // measure 21
0001
0000
1000
0010
0100
0000
0010
0000
0001
0000
0010
0000
2000
0000
0000
0000
,  // measure 22
3200
0000
0000
0000
0310
0000
0001
0000
2100
0000
0010
0100
3001
0000
1000
0000
,  // measure 23
0101
0000
0010
0000
0100
0000
1000
0000
0021
1000
0000
0000
1030
0000
0001
0000
,  // measure 24
0010
0000
0100
0000
1000
0000
0001
0000
1200
0000
0000
0010
0000
0000
0310
0000
,  // measure 25
1000
0100
0010
0001
2100
0000
0002
0000
,  // measure 26
3203
0000
0310
1000
0102
0010
0013
0100
,  // measure 27
2000
0000
0010
0000
3001
0000
0100
0000
0012
1000
0000
0000
1003
0000
0001
0000
,  // measure 28
0100
0010
0100
0001
2100
0010
3010
0100
,  // measure 29
0021
0000
1000
0001
0130
0000
0001
0000
2010
0000
0000
0100
0000
0000
3100
0000
,  // measure 30
0010
0010
0101
1000
,  // measure 31
0001
0000
0001
0000
1100
0000
0010
0100
,  // measure 32
0001
0001
0010
0010
0100
0100
1000
1000
,  // measure 33
0002
0203
0320
0230
2300
3200
0320
0230
,  // measure 34
0302
0000
0000
0000
0010
0000
0013
0000
0100
1000
0001
1000
0010
1000
0001
1000
,  // measure 35
0200
0000
0000
0000
0000
0000
0010
0000
0000
0310
0000
0000
0001
0000
0100
0000
0010
0000
1000
0000
0100
0000
0010
0000
,  // measure 36
0002
0000
0000
0000
0010
0000
0013
0000
M100
0100
0001
0000
0M10
0010
1000
0000
,  // measure 37
2000
0000
0000
0000
0000
0000
0100
0000
0000
3100
0000
0000
1000
0000
0010
0000
0001
0000
1000
0000
0100
0000
0001
0000
,  // measure 38
2000
0000
0000
0000
0010
0000
3010
0000
0100
0001
1000
0001
0010
0001
1000
0001
,  // measure 39
0200
0000
0000
0000
0010
0000
0310
0000
0002
0000
0000
0000
0043
0000
0000
0030
,  // measure 40
2000
0000
0000
0000
0010
0000
3010
0000
010M
0100
1000
0000
0M10
0010
0001
0000
,  // measure 41
0002
0000
0000
0000
0000
0000
0100
0000
0000
0103
0000
0000
0001
0000
0010
0000
1000
0000
0001
0000
0100
0000
1000
0000
,  // measure 42
0002
0000
0000
0000
0100
0000
0103
0000
0010
0100
1000
0100
0010
0100
0001
1000
,  // measure 43
0200
0000
0000
0000
0000
0000
0010
0000
0000
0310
0000
0000
1000
0000
0010
0000
0001
0000
1000
0000
0010
0000
0001
0000
,  // measure 44
0020
0000
0000
0000
0100
0000
0130
0000
0001
0M10
0010
0000
1000
01M0
0100
0000
,  // measure 45
0002
0000
0000
0000
0000
0000
0010
0000
0000
0013
0000
0000
0100
0000
1000
0000
1000
0000
0001
0000
0100
0000
0100
0000
,  // measure 46
0020
0000
0000
0000
1000
0000
1030
0000
0100
0010
1000
0010
0100
0010
0001
1000
,  // measure 47
0020
0000
0000
0000
0100
0000
0130
0000
2000
0000
0000
0000
3400
0000
0000
0300
,  // measure 48
0020
0000
0000
0000
1000
0000
1030
0000
0001
01M0
0100
0000
1000
0M10
0010
0000
,  // measure 49
0001
0000
2000
0000
0010
0000
3002
0000
0013
0000
0100
0010
0000
0010
0100
0000
,  // measure 50
1000
0000
1000
0000
1000
0000
1000
0100
,  // measure 51
0000
0100
0000
0100
0010
0000
0001
0000
,  // measure 52
1000
0000
0010
0000
0010
0000
0010
0100
,  // measure 53
0000
0100
0000
0100
0001
0000
0010
0000
,  // measure 54
0200
0000
0000
1300
0101
0000
0000
0000
,  // measure 55
2000
0000
3011
0000
,  // measure 56
0002
0000
1013
0000
,  // measure 57
0002
0000
1103
0010
,  // measure 58
1000
0000
0000
0000
1000
0000
0100
0000
1010
0000
0001
1000
0010
0000
0100
0000
,  // measure 59
0001
0000
1000
0000
0001
0000
0010
0000
0102
0000
0000
1000
0000
0000
1003
0000
,  // measure 60
0001
0000
0000
0000
0001
0000
0100
0000
0011
0000
1000
0001
0010
0000
0100
0000
,  // measure 61
1000
0000
0001
0000
1000
0000
0010
0000
2100
0000
0000
0001
0000
0000
3001
0000
,  // measure 62
0010
0000
0100
0000
1000
0000
0001
0000
1100
0000
0010
0100
0001
0000
1000
0000
,  // measure 63
0100
0000
0010
0000
0001
0000
0100
0000
0021
0000
0000
1000
0000
0000
1030
0000
,  // measure 64
0001
0000
0100
0000
0010
0000
1000
0000
0101
0000
0010
0001
0100
0000
0010
0000
,  // measure 65
2000
0001
0000
3002
0010
0000
0203
0000
,  // measure 66
0310
0000
0010
1000
0102
0010
0013
0100
,  // measure 67
2000
0000
0010
0000
3001
0000
0100
0000
0012
1000
0000
0000
1003
0000
0001
0000
,  // measure 68
0100
0010
0100
0001
2100
0010
3010
0100
,  // measure 69
0021
0000
1000
0001
0130
0000
0001
0000
2010
0000
0000
0100
0000
0000
3100
0000
,  // measure 70
0010
0010
0101
1000
,  // measure 71
0001
0000
0001
0000
1100
0000
0010
0100
,  // measure 72
0001
0001
0010
0010
0100
0100
0001
0001
,  // measure 73
2000
3020
0032
2003
3020
0032
2003
3200
,  // measure 74
0302
0000
0003
0000
;

//---------------dance-single - ----------------
#NOTES:
     dance-single:
     :
     Hard:
     9:
     0.650026,0.619723,0.108140,0.274508,0.299463,547.000000,534.000000,13.000000,33.000000,0.000000,0.000000,0.650026,0.619723,0.108140,0.274508,0.299463,547.000000,534.000000,13.000000,33.000000,0.000000,0.000000:
0000
0000
0000
0000
,
0000
0000
0000
0000
,
1001
0000
0000
1000
0000
0000
0010
0000
0100
0000
0000
0000
0001
0000
1000
0000
,
1001
0000
0000
0001
0000
0000
0010
0000
0100
0000
0000
0000
1000
0000
0001
0000
,
1001
0000
0000
1000
0000
0000
0100
0000
0010
0000
0000
0000
0001
0000
1000
0000
,
1001
0000
0000
0001
0000
0000
0100
0000
0010
0000
1000
0000
0001
0000
1000
0000
,
0110
0000
0000
0010
0000
0000
0001
0000
1000
0000
0000
0000
0010
0000
0100
0000
,
0110
0000
0000
0010
0000
0000
1000
0000
0001
0000
0000
0000
0010
0000
0100
0000
,
0110
0000
0000
0010
0000
0000
0001
0000
0100
0000
0000
0000
0010
0000
0100
0000
,
0110
0000
0000
0010
0000
0000
1000
0000
0100
0000
0001
0000
0100
0000
0010
0000
,
0001
1000
0001
0000
0100
0000
0010
0000
1000
0000
0001
0000
1000
0000
0100
0000
,
0010
0001
0010
0000
0100
0000
1000
0000
0001
0000
1000
0000
0010
0000
0100
0000
,
0001
1000
0001
0000
0010
0000
0100
0000
1000
0000
0010
0000
0100
0000
0001
0000
,
0010
0100
0010
0000
0001
0000
1000
0000
0010
0000
0100
0000
0001
0000
0010
0000
,
0100
1000
0100
0000
0010
0000
0001
0000
1000
0000
0010
0000
0100
0000
0001
0000
,
0010
0100
0010
0000
0001
0000
1000
0000
0010
0000
0100
0000
0001
0000
1000
0000
,
0100
0010
0100
0000
1000
0000
0001
0000
0100
0000
0010
0000
1000
0000
0100
0000
,
0010
0001
0010
0000
0100
0000
1000
0000
0001
0000
1000
0000
0010
0000
0100
0000
,
0002
0000
0013
0100
1000
0001
1000
0010
,
0100
0000
0001
0000
0020
0000
0100
0000
0000
0100
0000
0000
0130
0000
1000
0000
,
0001
0100
0010
0100
0001
0010
0100
1000
,
0010
0000
1000
0001
0010
0000
0100
0000
0001
0000
0100
0000
0010
0000
0001
0000
,
1000
0010
0100
0001
0010
0100
1000
0010
,
0100
0000
0001
0000
0020
0000
0100
0000
0000
0100
0000
0000
0130
0000
1000
0000
,
0010
0100
0001
0010
0100
1000
0100
0001
,
0100
0010
0001
1000
0010
0100
0001
0001
,
1000
0000
0000
0000
0010
0000
0100
0000
0001
0000
1000
0100
1000
0000
0010
0000
,
0100
0000
0001
0000
1000
0000
0001
0000
0010
0100
0010
0100
0000
0000
1000
0000
,
0001
0000
0100
0000
0010
0000
1000
0000
0001
0000
0010
0100
0010
0000
0001
0000
,
1000
0000
0010
0000
0100
0000
0001
0000
1000
0100
1000
0100
0000
0000
0010
0000
,
0001
0000
0001
0000
1001
0000
1000
0010
,
0100
0000
0100
0000
0110
0000
0001
1000
,
0100
0010
0100
0010
0001
1000
0001
1000
,
0010
0010
0100
0100
0001
0001
1000
1000
,
0200
0000
0000
0000
0310
0000
0010
0000
0001
0100
0010
0000
0010
0100
0001
0000
,
2000
0000
0000
0000
0000
0000
3100
0000
0000
0100
0000
0000
0010
0000
0001
0000
0010
0000
0001
0000
1000
0000
0010
0000
,
2000
0000
0000
0000
3010
0000
0010
0000
0100
0001
1000
0000
0100
0010
0001
0000
,
0200
0000
0000
0000
0000
0000
0010
0000
0000
0310
0000
0000
1000
0000
0100
0000
1000
0000
0001
0000
0100
0000
0001
0000
,
0200
0000
0000
0000
0010
0000
0310
0000
1000
0100
0010
0000
0010
0100
1000
0000
,
0002
0000
0103
0100
0020
0000
2030
3000
,
0200
0000
0000
0000
0010
0000
0310
0000
0001
1000
0001
0000
0100
0010
1000
0000
,
0002
0000
0000
0000
0000
0000
0010
0000
0000
0013
0000
0000
0100
0000
0010
0000
0100
0000
0001
0000
1000
0000
0001
0000
,
2000
0000
0000
0000
0010
0000
3010
0000
0100
0001
1000
0000
1000
0001
0010
0000
,
0200
0000
0000
0000
0000
0000
1000
0000
0000
1300
0000
0000
0001
0000
0100
0000
0001
0000
1000
0000
0100
0000
1000
0000
,
0200
0000
0000
0000
0010
0000
0310
0000
0001
0100
0001
0000
1000
0100
1000
0000
,
0020
0000
0000
0000
0000
0000
0100
0000
0000
0130
0000
0000
0001
0000
0100
0000
0001
0000
0100
0000
0010
0000
1000
0000
,
0020
0000
0000
0000
0100
0000
0130
0000
0001
0010
1000
0000
1000
0010
0001
0000
,
2000
0000
0010
3010
0200
0000
0302
0003
,
0020
0000
0000
0000
0100
0000
0130
0000
1000
0001
0100
0000
0010
1000
0010
0000
,
0100
0000
0001
0000
0010
0000
0020
0000
0100
0000
0000
0100
0000
0000
0130
0000
,
1000
0000
1000
0000
1000
0000
1000
0001
,
0000
0001
0000
0001
0100
0000
0010
0000
,
1000
0000
1000
0000
1000
0000
1000
0100
,
0000
0100
0000
0100
0010
0000
0001
0000
,
0100
0000
0100
0000
0100
0000
0100
0010
,
0000
0010
0000
0010
1000
0000
0001
0000
,
0010
0000
0010
0000
0010
0000
0010
0001
,
0000
0001
0000
0001
1000
0000
0010
0000
,
1000
0000
0000
0000
1000
0000
0000
0000
1000
0000
0001
0010
0100
0000
1000
0000
,
0000
1000
0010
0100
0001
0000
1001
0000
,
0001
0000
0000
0000
0001
0000
0000
0000
0001
0000
1000
0010
0100
0000
0001
0000
,
0000
0000
0001
0000
0010
0000
0200
0000
1000
0000
0000
1000
0000
0000
1300
0000
,
0010
0000
0000
0000
0010
0000
0000
0000
0010
0000
0100
0001
1000
0000
0100
0000
,
0000
0000
0010
0000
0000
0000
0001
0000
1000
0000
0010
0100
0010
0000
1000
0000
,
0100
0000
0000
0000
0100
0000
0000
0000
0100
0000
0010
0001
1000
0000
0010
0000
,
0000
0100
0000
0001
1001
0000
0110
0000
,
1000
0000
0001
0000
0010
0000
0100
0000
0010
0000
0001
1000
0010
0000
0100
0000
,
0001
0000
0010
0000
0100
0000
1000
0000
0001
0100
0010
0000
1000
0000
0001
0000
,
0010
0000
0100
0000
1000
0000
0010
0000
0100
0000
0001
1000
0100
0000
0010
0000
,
0001
0000
1000
0001
0100
0000
0010
0000
1000
0000
1000
0000
0001
0000
0001
0000
,
0010
0100
0010
0100
1000
0001
1000
0001
,
0100
0010
0100
0010
0001
1000
0100
0001
,
0010
0010
0100
0100
1000
1000
0001
0001
,
2000
3020
0230
0320
0032
0023
0230
0320
,
2030
0000
3000
0000
;

//---------------dance-single - ----------------
#NOTES:
     dance-single:
     :
     Medium:
     7:
     0.521684,0.524997,0.158050,0.582290,0.004159,439.000000,420.000000,19.000000,70.000000,0.000000,0.000000,0.521684,0.524997,0.158050,0.582290,0.004159,439.000000,420.000000,19.000000,70.000000,0.000000,0.000000:
0000
0000
0000
0000
,
0000
0000
0000
0000
,
2000
0000
0000
3000
0000
0000
0100
0000
0010
0000
0000
0000
0001
0000
1000
0000
,
0002
0000
0000
0003
0000
0000
0100
0000
0010
0000
0000
0000
1000
0000
0001
0000
,
2000
0000
0000
3000
0000
0000
0010
0000
0100
0000
0000
0000
0001
0000
1000
0000
,
0002
0000
0000
0003
0000
0000
0010
0000
0100
0000
0000
0000
1000
0000
0010
0000
,
0200
0000
0000
0300
0000
0000
0001
0000
1000
0000
0000
0000
0100
0000
0010
0000
,
0200
0000
0000
0300
0000
0000
1000
0000
0001
0000
0000
0000
0100
0000
0010
0000
,
0200
0000
0000
0300
0000
0000
0001
0000
0010
0000
0000
0000
0100
0000
1000
0000
,
0020
0000
0000
0030
0000
0000
0100
0000
0001
0000
1000
0000
0100
0000
0010
0000
,
0001
1000
0100
1000
0001
0000
0100
0010
,
1000
0001
0010
0100
1000
0000
0001
0100
,
0010
1000
0100
1000
0010
0000
0100
0001
,
1000
0001
0010
0100
1000
0000
0001
0100
,
0010
1000
0001
1000
0100
0000
0010
0001
,
0100
0001
0010
0100
1000
0000
0001
0100
,
0010
1000
0001
1000
0100
0000
0010
0001
,
1000
0010
1000
0100
0010
0001
1000
0001
,
2000
0000
0000
3010
0110
0000
0000
0000
,
0001
0010
0011
0000
,
0200
0000
0000
1300
1001
0000
0000
0000
,
0010
0100
0110
0000
,
0002
0000
0000
0013
0110
0000
0000
0000
,
1000
0010
1010
0000
,
0200
0000
0000
0301
1001
0000
0000
0000
,
1000
0010
1000
0010
0100
0001
0100
0001
,
1000
0000
0100
0010
0001
0010
0100
1000
,
0001
0000
0100
0010
1000
0010
0100
0001
,
0010
0000
0100
1000
0001
1000
0010
0000
,
0100
0001
0100
0010
0000
1000
0001
0010
,
0100
0000
1000
0001
0100
0001
0010
0000
,
0100
1000
0001
0100
0000
0010
1000
0001
,
0010
0100
0010
0100
1000
0001
1000
0001
,
0100
0010
1000
0001
0010
0100
1000
0010
,
0200
0000
0301
1000
0200
0320
0032
2003
,
3020
0000
0130
0001
2002
3003
2200
3300
,
0020
0000
0031
1000
0010
0010
0100
0100
,
0002
0000
0013
0100
2200
3300
0202
0303
,
0020
0000
1030
0001
0020
0230
2300
3020
,
0230
0000
0301
0010
0200
0000
0320
0030
,
0002
0000
1003
0010
0100
0100
0001
0001
,
0020
0000
0100
0130
2200
3300
2002
3003
,
0200
0000
0310
1000
0002
0023
0230
2300
,
3020
0000
0130
0001
2200
3300
0220
0330
,
0002
0000
1003
0010
0100
0100
0001
0001
,
0020
0000
0130
1000
2002
3003
0202
0303
,
0020
0000
1030
0100
0020
0032
0203
0320
,
2030
0000
3001
0010
0200
0000
2300
3000
,
0020
0000
0130
0001
0010
0010
0001
0001
,
1000
0000
0010
0000
0100
0000
0010
0000
2000
0000
0000
0001
0000
0000
3001
0000
,
0010
0000
0010
0000
0010
0000
0010
0100
,
0000
1000
0000
0001
0100
0000
0010
0000
,
1000
0000
1000
0000
1000
0000
1000
0100
,
0000
0010
0000
0001
0100
0000
0010
0000
,
1000
0000
1000
0000
1000
0000
0001
0010
,
0000
0100
0000
1000
0010
0000
0100
0000
,
0001
0000
0001
0000
0001
0000
0001
0010
,
0000
0100
0000
1000
0010
0000
0100
0000
,
0001
0000
0001
1000
0100
0000
0010
0001
,
0000
1000
0000
0010
0100
0000
0100
0000
,
0001
0000
0001
0010
0100
0000
1000
0010
,
0000
0100
0000
0001
1000
0000
1000
0000
,
0100
0000
0100
0010
0001
0000
1000
0010
,
0000
0100
0000
0001
0010
0000
0010
0000
,
0100
0000
0100
1000
0001
0000
0100
0010
,
0000
1000
0000
0001
1001
0000
0110
0000
,
1000
0000
0001
0010
0100
0010
0001
1000
,
0010
0100
0001
1000
0100
1000
0100
0010
,
0001
1000
0001
0100
0010
1000
0100
1000
,
0001
0100
0010
1000
0000
0001
0010
0100
,
1000
0001
0100
0001
0010
0100
1000
0001
,
0100
0010
1000
0001
1000
0100
0010
0001
,
1000
0010
1000
0010
0100
0001
0100
0001
,
1000
0100
0010
0001
1000
0010
0100
0002
,
2000
3003
0000
0000
;
