#TITLE:Barracuda;
#SUBTITLE:;
#ARTIST:Noisestorm;
#TITLETRANSLIT:;
#SUBTITLETRANSLIT:;
#ARTISTTRANSLIT:;
#GENRE:;
#CREDIT:;
#BANNER:;
#BACKGROUND:;
#LYRICSPATH:;
#CDTITLE:;
#MUSIC:Barracuda.ogg;
#OFFSET:1.300000;
#SAMPLESTART:43.015728;
#SAMPLELENGTH:16.615383;
#LASTBEATHINT:0.628812;
#SELECTABLE:YES;
#BPMS:0.000000=130.000000
;
#STOPS:
;
#BGCHANGES:;
#KEYSOUNDS:;
#ATTACKS:;

//---------------dance-single - ----------------
#NOTES:
     dance-single:
     :
     Challenge:
     12:
     0.826485,0.923143,1.007720,0.458872,0.859261,643.000000,530.000000,112.000000,51.000000,25.000000,79.000000,0.826485,0.923143,1.007720,0.458872,0.859261,643.000000,530.000000,112.000000,51.000000,25.000000,79.000000:
0000
0000
0000
0000
,
0000
0000
0000
0000
,
0000
0000
0000
0000
,
0000
0000
0000
0000
,
0000
0000
0000
0000
,
1000
0001
1020
0001
1000
0130
2010
0000
,
3001
1000
0021
1000
0001
0130
0012
0000
,
0103
0000
0100
0000
1000
0000
0001
0000
1010
0000
0000
0000
0100
0000
0100
0000
0001
0000
0100
0000
0001
0000
0100
0000
0011
0000
1000
0000
0001
1000
0001
1000
,
0001
0100
0100
1000
0101
0000
0010
0001
0100
0100
0100
0010
2100
0000
0000
0000
,
3102
0000
1020
0100
0000
0130
1013
0001
,
2100
0000
0000
0000
0021
0000
0100
0000
0000
0000
0130
0000
3011
1100
0000
0000
,
0021
0000
1200
0001
0000
0301
2130
0000
,
3102
0000
0000
0000
1010
0000
0103
1010
0001
1100
0010
0000
1100
0011
0000
0000
,
2100
0000
0021
0100
0000
0130
3011
1000
,
0102
0000
0000
0000
1020
0000
0100
0000
0000
0000
0130
0000
1013
0101
0000
0000
,
1020
0000
0000
0000
0000
0000
0000
0000
0201
0000
0000
0000
1000
0000
0000
0000
0000
0000
0000
0000
1300
0000
0000
0000
0132
0000
0000
0000
1003
0001
1000
0001
,
2000
0000
0020
0200
0302
0203
0002
3333
,
1001
0000
0000
1000
0101
0000
0010
0001
0100
0010
0010
0000
0100
0010
0010
0000
,
1001
0000
0000
0001
1100
0000
0010
1000
0100
0010
0010
0000
0100
0010
0010
0000
,
1001
0000
0000
1000
0011
0000
0100
0001
0010
0100
0100
0000
0010
0100
0100
0000
,
1001
0000
0000
0001
1010
0000
0100
1000
0010
0100
0100
0000
0010
0100
0100
0000
,
1101
0001
1100
0001
1010
0100
1010
0100
,
1010
0101
1000
0101
1000
0011
0100
0011
,
1100
0000
0011
0000
1010
0000
0101
0000
1000
0100
0100
0001
1000
0010
0010
0001
,
2000
0000
3011
0000
,
M100
0100
0100
0100
0100
0100
0010
0000
0M10
0000
1000
0001
0000
0100
0100
1000
,
0001
0100
0100
0000
1000
0000
0010
0010
0001
1000
0100
00M0
0100
0001
1000
0000
,
0100
0100
0100
0100
0100
0100
0010
0000
0M10
0000
0001
1000
0000
0100
0100
0001
,
1000
0100
1000
0100
00M0
0100
0001
0010
0M00
0010
1000
0000
0002
0000
0000
0000
,
0103
0100
0100
0100
0100
0100
0010
0000
0M10
0000
1000
0001
0000
0100
0100
1000
,
0001
0100
0100
0000
1000
0000
0010
0010
0001
1000
0100
00M0
0100
0001
1000
0000
,
0001
0000
0100
0000
00M0
0000
0100
0000
1010
0000
0000
0000
0001
0000
0010
0000
0M00
0000
0010
0000
1000
0000
0001
0000
1010
0000
0100
0000
1000
0001
1000
0001
,
1000
0100
0010
0001
1010
0100
1000
0001
0100
0010
0010
0001
1100
0000
0010
1000
,
0100
0100
0100
0100
0100
0100
0010
0000
0M10
0000
0001
1000
0000
0100
0100
0001
,
1000
0100
0100
0000
0001
0000
0010
0010
1000
0001
0100
00M0
0100
1000
0001
0000
,
0100
0100
0100
0100
0100
0100
0010
0000
0M10
0000
1000
0001
0000
0100
0100
1000
,
0001
0100
0001
0100
00M0
0100
1000
0010
0M00
0010
0001
0000
2000
0000
0000
0000
,
3100
0100
0100
0100
0100
0100
0010
0000
0M10
0000
0001
1000
0000
0100
0100
0001
,
1000
0100
0100
0000
0001
0000
0010
0010
1000
0001
0100
00M0
0100
1000
0001
0000
,
1000
0000
0100
0000
00M0
0000
0100
0000
0011
0000
0000
0000
1000
0000
0010
0000
0M00
0000
0010
0000
0001
0000
1000
0000
0011
0000
0100
0000
0001
1000
0001
1000
,
0001
0010
0010
0010
0001
0100
0100
0100
0010
0010
0010
1000
0100
0100
0100
1000
,
0102
0000
0000
0000
1020
0000
0100
0000
0000
0000
0130
0000
1013
0000
0001
1000
,
0021
0000
0000
0000
1200
0000
0001
0000
0000
0000
0331
0000
1100
0011
0000
0000
,
1020
0000
0000
0000
0201
0000
1000
0000
0000
0000
1300
0000
0131
0000
1000
0001
,
1000
0010
0100
0001
1010
0000
0100
1010
0000
0101
1000
0001
1100
0000
0001
1000
,
0021
0000
0000
0000
2100
0000
0001
0000
0100
0000
3001
0000
1130
0000
0001
1000
,
0102
0000
0000
0000
1020
0000
0100
0000
1000
0000
0130
0000
1013
0101
0000
0000
,
1000
0000
0010
0000
0M00
0000
0010
0000
0101
0000
0000
0000
1000
0000
0100
0000
00M0
0000
0100
0000
0001
0000
0000
0000
0010
0000
0100
0000
1000
0001
1000
0001
,
1000
0100
0010
0001
1010
0100
1000
0001
0100
0010
0010
0001
1100
0010
1000
0001
,
1020
0000
0000
0000
0102
0000
1000
0000
0100
0000
1033
0000
0101
0000
1000
0001
,
2100
0000
0000
0000
0021
0000
0100
0000
0001
0000
0130
0000
3011
1100
0000
0000
,
0102
0000
0000
0000
1020
0000
0100
0000
1000
0000
0130
0000
1013
0000
0001
1000
,
0011
0100
0100
1000
0101
0000
1000
0011
0000
1100
0001
1000
0101
0000
0010
0100
,
1020
0000
0000
0000
0102
0000
1000
0000
0100
0000
1003
0000
0131
0000
1000
0001
,
2100
0000
0000
0000
0021
0000
0100
0000
0001
0000
0130
0000
3011
1100
0000
0000
,
0001
0000
0010
0000
0M00
0000
0010
0000
1100
0000
0000
0000
0001
0000
0100
0000
00M0
0000
0100
0000
1000
0000
0000
0000
0011
0000
0100
0000
0001
1000
0001
1000
,
0001
0010
0M00
0010
1000
0000
1000
0100
00M0
0100
0001
0000
2002
0000
0000
0000
,
3113
0000
0000
0000
;

//---------------dance-single - ----------------
#NOTES:
     dance-single:
     :
     Hard:
     10:
     0.595120,0.718000,0.188947,0.629825,0.526354,463.000000,442.000000,21.000000,70.000000,2.000000,0.000000,0.595120,0.718000,0.188947,0.629825,0.526354,463.000000,442.000000,21.000000,70.000000,2.000000,0.000000:
0000
0000
0000
0000
,
0000
0000
0000
0000
,
0000
0000
0000
0000
,
0000
0000
0000
0000
,
0000
0000
0000
0000
,
1000
0010
1010
0001
0010
0100
0002
0000
,
0103
1000
1001
0001
0100
0010
0002
0000
,
0013
1000
0001
1000
0001
0000
0010
0100
1000
0100
1000
0001
0100
0000
0040
0000
,
1030
0000
0001
0100
0001
0000
1000
0100
1000
0000
0010
0000
0110
0000
0000
0000
,
1002
0000
0103
1002
0000
0103
0010
0100
,
2001
0000
0000
0000
3100
0000
2001
0000
0000
0000
0100
0000
3001
1000
0000
0000
,
0110
0000
0000
0000
0001
0000
0110
0000
0000
0000
1000
0000
0001
0000
0010
0100
,
2000
0000
0000
0000
3001
0000
0100
0010
0000
0010
0100
0000
0001
1000
0000
0000
,
2001
0000
3100
2001
0000
3100
0010
0100
,
1002
0000
0000
0000
0103
0000
1002
0000
0000
0000
0100
0000
1003
0001
0000
0000
,
0110
0000
1000
0110
0000
0001
1000
0400
,
0320
0000
0032
0203
2300
3200
0320
0000
,
1030
0000
0000
1000
0100
0000
0010
0000
0001
0100
0001
0000
1000
0100
1000
0000
,
0001
0000
0000
0001
0100
0000
0010
0000
1000
0100
1000
0000
0001
0100
0001
0000
,
1000
0000
0000
1000
0010
0000
0100
0000
0001
0010
0001
0000
1000
0010
1000
0000
,
0001
0000
0000
0001
0010
0000
0100
0000
1000
0010
1000
0000
0001
0010
0001
0000
,
0100
0100
0010
0010
1000
1000
0001
0001
,
0010
0010
0100
0100
1000
1000
0001
0001
,
0100
0000
0010
0000
0100
0000
0010
0000
1000
0100
1000
0100
0010
0001
0010
0001
,
2000
0000
3001
0000
,
1000
0100
1000
0100
1000
0100
0010
0000
0020
0000
0000
0032
0000
0000
1003
0000
,
0001
0100
0001
0000
1000
0000
1000
0000
0001
0100
0001
0000
1000
0100
1000
0000
,
0001
0100
0001
0100
0001
0100
0010
0000
0020
0000
0000
2030
0000
0000
3001
0000
,
0010
0000
0010
0100
0000
0100
1000
0001
0000
0001
0100
0000
0020
0000
0000
0000
,
1030
0001
1000
0001
1000
0001
0010
0000
0020
0000
0000
0230
0000
0000
1300
0001
,
1000
0000
0010
0000
0010
0000
1000
0001
1000
0000
0100
0000
1000
0001
1000
0000
,
0020
0000
0230
2300
3002
0023
2030
0000
,
3002
0000
0003
0001
1000
0000
2000
0000
3000
1000
0001
0000
1001
0000
0000
0000
,
0001
0100
0001
0100
0001
0100
0010
0000
0020
0000
0000
2030
0000
0000
3001
0100
,
0001
0000
1000
0000
1000
0000
0001
0010
0001
0000
1000
0000
0001
0100
0001
0000
,
1000
0100
1000
0100
1000
0100
0010
0000
0020
0000
0000
0032
0000
0000
1003
0000
,
0010
0000
0010
0100
0000
0100
0001
1000
0000
1000
0100
0000
0020
0000
0000
0000
,
0031
1000
0001
1000
0001
1000
0010
0000
0020
0000
0000
0032
0000
0000
1003
0001
,
1000
0000
0010
0000
0010
0000
1000
0001
1000
0000
0100
0000
1000
0001
1000
0000
,
0010
0100
0000
0100
0001
0000
0001
1000
0000
1000
0100
0000
0110
0000
0004
0000
,
1003
0010
1000
0010
0100
0001
0100
0001
1000
0100
1000
0100
0010
0001
0010
0001
,
2000
0000
0001
0010
0001
3200
0320
0000
,
0032
0000
0000
0000
1000
0000
0010
0000
1000
0000
0203
0000
0310
1000
0000
0000
,
2000
0000
0001
0010
0001
3200
0320
0000
,
0031
1000
0001
1000
0001
0000
0100
0010
0000
0010
1000
0001
1000
0000
0000
0000
,
0200
0000
0001
0010
1000
0320
0032
0000
,
0203
0000
0000
0000
1000
0000
0010
0000
0001
0000
0320
0000
1030
0001
0000
0000
,
1000
0100
0000
0100
0010
0000
0010
0001
0000
0001
1000
0000
1001
0000
0004
0000
,
0103
0010
0000
0010
1000
0000
1000
0100
0000
0100
0010
0000
0110
0000
0000
0000
,
0200
0000
0001
0010
1000
0320
0032
0000
,
0203
0000
0000
0000
1000
0000
0010
0000
0001
0000
0320
0000
1030
0002
0000
0000
,
0203
0000
1000
0010
0001
0320
2030
0000
,
3200
0000
0000
0000
0310
0000
0010
0001
0000
1000
0010
0100
0002
0000
0000
0000
,
0203
0000
0010
1000
0010
0302
0023
0000
,
0230
0000
0000
0000
0010
0000
0001
0000
0010
0000
2300
0000
3010
0200
0000
0000
,
0301
1000
0000
1000
0100
0000
0100
0010
0000
0010
0001
0000
1000
0010
0100
0001
,
1000
0100
00M0
0100
0001
0000
1000
0100
00M0
0100
0001
0000
1001
0000
0000
0000
,
0110
0000
0000
0000
;

//---------------dance-single - ----------------
#NOTES:
     dance-single:
     :
     Medium:
     8:
     0.421597,0.461572,0.062982,0.881755,0.094474,328.000000,321.000000,7.000000,98.000000,0.000000,0.000000,0.421597,0.461572,0.062982,0.881755,0.094474,328.000000,321.000000,7.000000,98.000000,0.000000,0.000000:
// measure 0
0000
0000
0000
0000
,  // measure 1
0000
0000
0000
0000
,  // measure 2
0000
0000
0000
0000
,  // measure 3
0000
0000
0000
0000
,  // measure 4
0000
0000
0000
0000
,  // measure 5
2000
0000
0000
3200
0302
0203
2300
0000
,  // measure 6
3002
0000
0000
0203
2300
3200
0302
0000
,  // measure 7
2003
0000
0000
3020
0032
0023
0230
0000
,  // measure 8
0302
0000
0023
0230
0302
0203
2300
0000
,  // measure 9
3002
0000
0100
2003
0000
0100
3002
0000
,  // measure 10
2003
0000
0100
3002
0000
0100
2003
0000
,  // measure 11
3200
0000
0010
0320
0000
0001
0031
0000
,  // measure 12
1000
0000
0000
0000
0010
0000
0000
0010
0000
0000
0010
0000
1001
0000
0000
0000
,  // measure 13
2000
0000
0010
3002
0000
0010
2003
0000
,  // measure 14
3002
0000
0010
2003
0000
0010
3002
0000
,  // measure 15
0203
0000
0010
0320
0000
1000
1030
0000
,  // measure 16
0002
0000
0023
2030
3002
0203
2300
0000
,  // measure 17
3001
0000
0000
0001
0100
0000
0010
0000
2000
0000
3200
0000
0302
0000
0203
0000
,  // measure 18
1300
0000
0000
1000
0100
0000
0010
0000
0002
0000
0203
0000
2300
0000
3200
0000
,  // measure 19
0301
0000
0000
0001
0010
0000
0100
0000
2000
0000
3020
0000
0032
0000
0023
0000
,  // measure 20
1030
0000
0000
1000
0010
0000
0100
0000
0002
0000
0023
0000
2030
0000
3020
0000
,  // measure 21
0031
0100
0001
0100
0010
1000
0010
1000
,  // measure 22
0001
0010
0001
0010
0100
1000
0100
1000
,  // measure 23
0001
0100
0010
1000
0001
0001
0001
0001
,  // measure 24
2000
0000
3100
0000
,  // measure 25
0040
0000
0000
0000
0000
0000
0031
0000
0001
0000
0000
0001
0000
0000
0010
0000
,  // measure 26
0100
0100
1000
0100
0100
0010
0001
1000
,  // measure 27
0040
0000
0000
0000
0000
0000
1030
0000
1000
0000
0000
1000
0000
0000
0010
0000
,  // measure 28
0200
0000
0000
0000
0301
0000
0010
0100
0000
0010
0100
0000
2000
0000
0000
0000
,  // measure 29
3040
0000
0000
0000
0000
0000
0130
0000
0100
0000
0000
0100
0000
0000
0001
0000
,  // measure 30
0010
0010
0100
0010
0010
0001
1000
0010
,  // measure 31
0200
0000
2300
3002
0023
0230
0302
0000
,  // measure 32
0023
0000
0000
0000
,  // measure 33
0430
0000
0000
0000
0000
0000
1300
0000
1000
0000
0000
1000
0000
0000
0100
0000
,  // measure 34
0010
0010
0001
0010
0010
0100
1000
0001
,  // measure 35
0400
0000
0000
0000
0000
0000
0301
0000
0001
0000
0000
0001
0000
0000
0100
0000
,  // measure 36
0020
0000
0000
0000
1030
0000
0100
0010
0000
0100
0010
0000
0002
0000
0000
0000
,  // measure 37
0403
0000
0000
0000
0000
0000
0310
0000
0010
0000
0000
0010
0000
0000
1000
0000
,  // measure 38
0100
0100
0010
0100
0100
1000
0001
0100
,  // measure 39
0020
0000
0032
2003
3200
0320
2030
0000
,  // measure 40
3200
0000
0000
0000
,  // measure 41
0320
0000
0031
0100
0010
0100
2000
0000
,  // measure 42
3200
0000
0301
0010
0100
0010
2000
0000
,  // measure 43
3020
0000
0031
0100
0010
0100
2000
0000
,  // measure 44
3200
0000
0301
0010
1000
0010
0001
1000
,  // measure 45
0020
0000
1030
0100
0010
0100
0002
0000
,  // measure 46
0203
0000
1300
0010
0100
0010
0002
0000
,  // measure 47
0023
0000
1030
0100
0010
0100
0002
0000
,  // measure 48
0103
1000
0001
0100
0010
1000
0001
0010
,  // measure 49
0100
1000
1100
0001
0100
0010
2000
0000
,  // measure 50
3001
0100
0101
1000
0100
0010
0002
0000
,  // measure 51
1003
0010
0110
0001
1000
0100
0020
0000
,  // measure 52
0031
1000
1010
0001
0010
0100
0002
0000
,  // measure 53
0103
0010
0011
1000
0010
0100
0002
0000
,  // measure 54
1003
0010
0110
1000
0001
0010
0200
0000
,  // measure 55
1300
0000
0000
0001
0100
0000
0010
0000
0000
1000
0100
0000
0010
0000
0100
0000
,  // measure 56
1000
0001
0000
1000
0001
0000
1000
0001
0000
1000
0001
0000
0200
0000
0000
0000
,  // measure 57
0310
0000
0000
0000
;
