#TITLE:07734;
#SUBTITLE:;
#ARTIST:Satoru Kosaki & mito feat. meg rock;
#TITLETRANSLIT:;
#SUBTITLETRANSLIT:;
#ARTISTTRANSLIT:;
#GENRE:;
#CREDIT:;
#BANNER:banner.png;
#BACKGROUND:;
#LYRICSPATH:;
#CDTITLE:;
#MUSIC:07734.ogg;
#OFFSET:1.460165;
#SAMPLESTART:136.274170;
#SAMPLELENGTH:14.608688;
#LASTBEATHINT:0.863240;
#SELECTABLE:YES;
#BPMS:0.000000=115.000000
;
#STOPS:
;
#BGCHANGES:;
#KEYSOUNDS:;
#ATTACKS:;

//---------------dance-single - ----------------
#NOTES:
     dance-single:
     :
     Challenge:
     12:
     0.687887,1.254506,0.320578,0.929021,0.968276,736.000000,687.000000,49.000000,142.000000,5.000000,32.000000,0.687887,1.254506,0.320578,0.929021,0.968276,736.000000,687.000000,49.000000,142.000000,5.000000,32.000000:
// measure 0
0000
0000
0000
0000
,  // measure 1
0000
0000
0000
0000
,  // measure 2
0000
0000
0000
0000
,  // measure 3
0000
0000
0000
0000
,  // measure 4
0000
0000
0000
0000
,  // measure 5
2100
0000
0000
0001
0000
0000
0010
0000
0000
0001
0000
0000
3100
0000
1010
0000
,  // measure 6
0102
0000
0000
1000
0000
0000
0010
0000
0000
1000
0000
0000
0103
0000
0011
0000
,  // measure 7
2100
0000
0000
0001
0000
0000
0010
0000
0000
0001
0000
0000
3100
0000
1010
0000
,  // measure 8
0001
0100
0000
0100
0000
0100
0000
0100
0010
0000
0010
0000
1001
0000
0000
0000
,  // measure 9
2000
0000
0000
0100
3100
0000
0000
0000
0020
0000
0002
0000
1033
0000
0000
0000
,  // measure 10
0002
0000
0103
0000
0020
2000
3031
0000
,  // measure 11
0200
0000
0000
0010
0310
0000
2000
0000
0002
0000
3103
0000
0010
0000
0001
1000
,  // measure 12
0020
0000
0000
0000
0000
0000
0130
0000
0001
0000
1000
0000
0200
0000
0000
0020
0000
0000
2000
0000
0000
3330
0000
0000
,  // measure 13
0002
0000
0000
0100
0103
0000
0000
0000
0020
0000
2000
0000
3031
0000
0000
0000
,  // measure 14
2000
0000
3100
0000
0020
2000
3031
0000
,  // measure 15
0200
0000
0000
0010
0310
0000
0002
0000
2000
0000
3103
0000
0020
0000
0000
0000
,  // measure 16
0032
0000
0000
0203
2300
3200
0320
0000
,  // measure 17
1030
0000
0000
1000
0000
0000
1000
0000
0001
0000
0000
0010
0200
0000
0300
0000
,  // measure 18
2000
0000
0000
0010
3010
0000
0100
0000
0002
0000
0003
0000
1000
0000
0100
0000
,  // measure 19
0010
0000
0000
0001
0100
0000
0010
0000
0002
0000
0000
0000
0023
0000
0030
0000
,  // measure 20
2000
0000
0000
0001
3001
0000
0010
0000
0200
0000
0000
1300
0101
0000
0100
0000
,  // measure 21
1001
0000
1000
0010
0200
0000
1000
0000
0310
0000
1000
0001
0020
0000
1000
0000
,  // measure 22
0230
0000
0000
1000
1300
0000
0001
0000
0200
0000
0310
1000
0100
0000
0010
0000
,  // measure 23
1001
0000
0001
0010
0200
0000
0001
0000
0310
0000
0001
1000
0020
0000
0001
0000
,  // measure 24
0230
0000
0000
0001
0301
0000
1000
0000
0200
0000
0000
0000
0310
001M
1000
0000
,  // measure 25
0200
0000
0000
0302
0000
0000
0203
0000
2300
0000
0000
0000
3012
0000
0000
0000
,  // measure 26
0203
0000
0000
2300
0000
0000
3200
0000
0302
0000
0000
0000
1023
0000
0000
0000
,  // measure 27
0230
0000
0000
0302
0000
0000
0203
0000
0320
0000
0000
0000
0132
0000
0000
0000
,  // measure 28
0203
0000
0000
2300
0000
0000
3200
0000
0320
0000
0000
0000
2130
0000
0000
0000
,  // measure 29
3001
0010
0100
0002
0000
0000
0103
0000
2000
0000
0000
0000
3012
0000
0000
0000
,  // measure 30
1003
0010
0100
2000
0000
0000
3100
0000
0002
0000
0000
0000
1023
0000
0000
0000
,  // measure 31
0130
0010
0100
0002
0000
0000
0203
0000
0320
0000
0000
2030
0000
0000
3020
0000
,  // measure 32
0130
0000
0100
0000
1000
0000
1000
0000
0001
0100
0010
1000
0001
1000
0100
0010
,  // measure 33
0002
0000
0000
0003
2000
0020
3130
0000
,  // measure 34
0002
0000
0000
0000
0013
0100
1000
0100
0020
0000
0002
0000
1033
0001
0100
0010
,  // measure 35
2000
0000
0000
0100
3100
0000
0020
0000
0002
0000
1033
0000
0100
1000
0001
0100
,  // measure 36
0020
0000
0000
0000
0130
0001
1000
0001
0020
0000
0200
0000
2000
0000
3330
0000
,  // measure 37
0002
0000
0000
0100
0103
0010
1000
0001
0020
0000
0200
0000
1330
0001
0100
0001
,  // measure 38
0010
0100
1000
0100
0020
0000
0031
1000
0020
0000
0200
0000
0331
0000
1000
0100
,  // measure 39
0020
0000
0000
0001
0031
0000
2000
0000
0020
0000
3130
0000
0001
0000
0010
0000
,  // measure 40
0200
0000
0300
2000
0020
0200
0002
3333
,  // measure 41
1001
0000
0000
0000
0000
0000
1000
0100
0010
0100
1000
0001
0200
0000
0000
0310
1000
0001
2000
0000
0000
3102
0000
0000
,  // measure 42
0000
0000
0000
0000
0000
0000
0000
0000
0000
0000
0000
0000
0000
0000
0000
0000
0000
0000
0000
0000
0000
0000
0000
0000
0013
0000
0000
0000
0000
0000
0000
0000
0100
0000
0000
0000
0000
0000
0000
0000
0010
0000
0000
0000
0000
0000
0000
0000
0100
0000
0000
0000
0000
0000
0000
0000
0000
0000
0000
0000
1000
0000
0000
0000
0000
0000
0000
0000
0000
0000
0000
0000
0010
0000
0000
0000
0000
0000
0000
0000
0000
0000
0000
0000
0010
0000
0000
0000
0000
0000
0000
0000
0000
0000
0000
0000
0100
0000
0000
0000
0000
0000
0000
0000
0000
0000
0000
0000
0100
0000
0000
0000
0000
0000
0000
0000
0000
0000
0000
0000
0001
0000
0000
0000
0000
0000
1000
0000
0000
0000
0000
0000
0001
0000
0000
0000
0000
0000
1000
0000
0000
0000
0000
0000
0200
0000
0000
0000
0000
0000
0000
0000
0000
0000
0000
0000
0000
0000
0000
0000
0000
0000
0000
0000
0000
0000
0000
0000
0000
0000
0000
0000
0000
0000
0000
0000
0000
0000
0000
0000
0000
0000
0000
0000
0000
0000
0000
0000
0000
0000
0000
0000
,  // measure 43
1320
0000
0032
0000
2103
0000
0000
3012
,  // measure 44
0000
0000
1000
0013
1000
0001
0010
0100
2000
3000
0001
0100
0010
1000
0010
0100
0001
1000
0200
0000
0000
0000
0000
0000
,  // measure 45
1300
0001
1000
0000
0200
0000
0300
0000
0020
0000
0030
0000
0001
1000
0001
0000
0200
0000
0300
0000
0020
0000
0030
0000
1000
0000
0100
0000
00M0
0000
0100
0000
,  // measure 46
0001
0000
4000
3000
0000
0000
0400
0300
0000
0000
0040
0030
0000
0000
0004
0003
2000
0000
0000
0000
3000
0000
0000
0000
0012
0000
0000
0000
0000
0000
0000
0000
,  // measure 47
1003
0100
1000
0000
0001
0000
0000
0000
0001
0000
0000
0000
1000
0100
1000
0000
0001
0000
0000
0000
0001
0000
0000
0000
0020
0000
0000
0000
0000
0000
0000
0000
,  // measure 48
0000
0000
0000
0000
0100
0000
0000
0000
0130
0000
0000
0000
1000
0001
1000
0001
1000
0000
0010
0000
0000
0000
0010
0000
2100
0000
0000
0000
0000
0000
0000
0000
,  // measure 49
3001
0100
0001
0000
1000
0000
0000
0000
1000
0000
0000
0000
0001
0100
0001
0000
1000
0000
0000
0000
1000
0000
0000
0000
0010
0000
0100
0000
00M0
0000
0100
0000
,  // measure 50
1000
0000
0004
0003
0000
0000
0040
0030
0000
0000
0400
0300
0000
0000
4000
3000
0010
0000
0000
0000
0000
0000
0010
0000
1200
0000
0000
0000
0000
0000
0000
0000
,  // measure 51
0301
1000
0001
0000
0020
0000
0030
0000
0200
0000
0300
0000
1000
0001
1000
0000
0020
0000
0030
0000
0200
0000
03M0
0000
0200
0000
0000
0000
0000
0000
0000
0000
,  // measure 52
0000
0000
0000
0000
1000
0000
0000
0000
1300
0000
0000
0000
0001
1000
0001
1000
0200
0000
0000
0000
0000
0000
0000
0000
0020
0000
0000
0000
0330
0000
0000
0000
,  // measure 53
0001
1000
0001
0000
0100
0000
0000
0000
0100
0000
0000
0000
0001
1000
0001
0000
0100
0000
0000
0000
0100
0000
0000
0000
0010
1000
0010
1000
0001
0000
0010
0000
,  // measure 54
0200
0000
0000
0000
0000
0000
0000
0000
0000
0000
0000
0000
1000
0000
0000
0000
0000
0000
0000
0000
0000
0000
0000
0000
0000
0000
0000
0000
0000
0000
0000
0000
0000
0000
0000
0000
1000
0000
0000
0000
0000
0000
0000
0000
0000
0000
0000
0000
0000
0000
0000
0000
0000
0000
0000
0000
0000
0000
0000
0000
1300
0000
0000
0000
0000
0000
0000
0000
0000
0000
0000
0000
0001
0000
0000
0000
0000
0000
0100
0000
0000
0000
0000
0000
0001
0000
0000
0000
0000
0000
0100
0000
0000
0000
0000
0000
0010
0000
0000
0000
0000
0000
0000
0000
1000
0000
0000
0000
0000
0000
0000
0000
0001
0000
0000
0000
0000
0000
0000
0000
0010
0000
0000
0000
0000
0000
0000
0000
0100
0000
0000
0000
0000
0000
0000
0000
1000
0000
0000
0000
0000
0000
0000
0000
0020
0000
0000
0000
0000
0000
0000
0000
0000
0000
0000
0000
0000
0000
0000
0000
0000
0000
0000
0000
0000
0000
0000
0000
0000
0000
0000
0000
0000
0000
0000
0000
0000
0000
0000
0000
0000
0000
0000
0000
0000
0000
0000
0000
0000
0000
0000
0000
,  // measure 55
1030
0001
1000
0000
0100
0000
0000
0000
0100
0000
0000
0000
1000
0001
1000
0000
0100
0010
0100
0010
0001
0000
1000
0000
0020
0000
0100
0000
0001
0000
0100
0000
,  // measure 56
0001
0000
0130
0000
0001
1000
0001
1000
0001
0000
0010
0000
0100
0000
0100
0000
1000
0001
1000
0000
0010
0000
0100
0000
0012
0000
0000
0000
0000
0000
0000
0000
,  // measure 57
1003
0100
1000
0000
0001
0100
0001
0100
0001
0000
1000
0000
0010
0100
0010
0000
1000
0000
0001
0000
0010
0000
0100
0000
1000
0000
0010
0000
0100
0001
0100
0001
,  // measure 58
1000
0000
0100
0000
00M0
0000
0100
0001
1000
0000
0100
0000
0010
0001
0010
0001
1000
0000
0010
0000
0100
0000
0001
0000
2100
0000
0000
0000
0000
0000
0000
0000
,  // measure 59
3001
0100
0001
0000
1000
0100
1000
0100
1000
0000
0001
0000
0010
0100
0010
0000
0001
0000
1000
0000
0010
0000
0100
0000
0001
1000
0001
0000
0010
0100
0010
0100
,  // measure 60
1000
0000
0001
0000
0100
0000
0010
1000
0001
0000
0010
0000
0400
0000
4300
0000
3001
0000
0100
0010
0100
0000
0001
0000
1000
0000
0100
0000
0010
0000
0001
0000
,  // measure 61
1100
0000
0010
0000
0100
0001
0100
0001
1000
0000
0100
0000
1000
0000
0001
0100
0010
0000
1000
0000
0001
0000
0010
0000
0100
1000
0100
1000
0001
0000
0100
0000
,  // measure 62
0010
1000
0010
0000
0100
0000
0010
1000
0010
0000
0100
0000
0001
1000
0001
1000
0100
0010
0100
0010
0001
0000
1000
0000
0010
0000
0100
0000
0010
0000
1000
0000
,  // measure 63
0001
0010
0001
0000
1000
0000
0010
0100
0010
0100
0010
0000
1000
0000
0001
0000
0001
0000
0010
0100
0010
0000
0001
0000
1010
0000
0101
0000
1010
0000
0101
0000
,  // measure 64
1010
0000
0000
0000
0000
0000
0000
0000
0001
0000
0000
0000
0000
0000
0000
0000
1000
0000
0000
0000
0000
0000
0000
0000
0010
0000
0000
0000
0000
0000
0000
0000
0100
0000
0000
0000
0000
0000
0000
0000
0001
0000
0000
0000
0000
0000
0000
0000
1000
0000
0000
0000
0000
0000
0000
0000
0100
0000
0000
0000
0000
0000
0000
0000
1000
0000
0000
0000
0000
0000
0000
0000
0001
0000
0000
0000
0000
0000
0000
0000
0100
0000
0000
0000
0000
0000
0000
0000
0010
0000
0000
0000
0000
0000
0000
0000
1000
0000
0000
0000
0000
0000
0000
0000
0001
0000
0000
0000
0000
0000
0000
0000
1000
0000
0000
0000
0000
0000
0000
0000
0100
0000
0000
0000
0000
0000
0000
0000
0010
0000
0000
0000
0000
0000
0000
0000
0001
0000
0000
0000
0000
0000
0000
0000
1000
0000
0000
0000
0000
0000
0010
0000
0000
0000
0000
0000
1000
0000
0000
0000
0000
0000
0010
0000
0000
0000
0000
0000
0100
0000
0000
0000
0000
0000
0001
0000
0000
0000
0000
0000
0100
0000
0000
0000
0000
0000
0001
0000
0000
0000
0000
0000
,  // measure 65
1000
0000
0100
0000
0010
0001
0010
0001
1000
0000
1000
0000
0010
0000
0010
0000
0100
0000
0100
0000
0001
1000
0001
1000
0100
0000
0010
0000
0001
0000
0001
0000
,  // measure 66
2010
0000
0000
0001
0000
0000
0100
0000
0000
0001
0000
0000
3010
0000
0100
0000
,  // measure 67
0012
0000
0000
1000
0000
0000
0100
0000
0000
1000
0000
0000
0013
0000
0100
0000
,  // measure 68
2010
0000
0000
0001
0000
0000
0100
0000
0000
0001
0000
0000
3010
0000
0100
0000
,  // measure 69
0012
0000
0000
1000
0000
0000
0010
0000
0000
1000
0000
0000
0103
0000
0011
0000
,  // measure 70
2100
0000
0000
0001
0000
0000
0011
0000
0000
0001
0000
0000
3101
0000
1010
0000
,  // measure 71
0102
0000
0000
1000
0000
0000
1010
0000
0000
1000
0000
0000
1103
0000
0011
0000
,  // measure 72
2100
0000
0000
0001
0000
0000
0011
0000
0000
0001
0000
0000
3101
0000
1010
0000
,  // measure 73
0004
0000
0000
0003
;

//---------------dance-single - ----------------
#NOTES:
     dance-single:
     :
     Hard:
     10:
     0.528066,0.844379,0.353290,0.543020,0.539748,565.000000,511.000000,54.000000,83.000000,25.000000,33.000000,0.528066,0.844379,0.353290,0.543020,0.539748,565.000000,511.000000,54.000000,83.000000,25.000000,33.000000:
0000
0000
0000
0000
,
0000
0000
0000
0000
,
0000
0000
0000
0000
,
0000
0000
0000
0000
,
0000
0000
0000
0000
,
1001
0000
0000
1100
0000
0000
0101
0000
0000
1010
0000
0000
0001
0000
0010
0000
,
0110
0000
0000
1100
0000
0000
0101
0000
0000
0110
0000
0000
1000
0000
0001
0000
,
0011
0000
0000
0110
0000
0000
1100
0000
0000
1010
0000
0000
0001
0000
1000
0000
,
0200
0000
0000
0310
,
0022
0000
0000
0000
0103
2030
0000
0000
,
0020
0000
0000
0000
3100
0032
0000
0000
,
2000
0000
0000
0010
3100
0023
0000
0000
,
0200
0000
0000
0000
0001
1300
0031
0000
,
2020
0000
0000
0000
3100
0032
0000
0000
,
0020
0000
0000
0000
0103
2030
0000
0000
,
0002
0000
0000
0010
0103
3020
0000
0000
,
0200
0000
0000
1000
0001
1030
0302
0000
,
1003
0000
0000
0010
0000
0000
0100
0000
0002
0000
0000
0013
0100
0000
0000
0000
,
2000
0000
0000
3010
0100
0000
0000
0000
0002
0000
0000
0000
0013
0000
0100
0000
,
1000
0000
0000
0001
0000
0000
0100
0000
0020
0000
0000
0000
1030
0000
0000
0000
,
0002
0000
0000
0013
0100
0000
0000
0000
1000
0000
0000
0001
1100
0000
0010
0000
,
0100
0000
0001
1000
0000
1000
0100
0000
0010
0000
0001
1000
0020
0000
0000
0000
,
0230
0000
0000
0301
1000
0000
0000
0000
0200
0000
0000
0000
0310
0000
0001
0000
,
1000
0000
0010
0100
0000
0100
0001
0000
0010
0000
0100
1000
0001
0000
0100
0000
,
0020
0000
0000
1030
0001
0000
0010
0000
0002
0000
0000
0000
0103
01M0
1000
0000
,
0002
0000
0000
0020
0000
0000
0200
0000
2000
0000
0000
0000
3333
0000
0000
0000
,
2000
0000
0000
0020
0000
0000
0200
0000
0002
0000
0000
0000
3333
0000
0000
0000
,
0020
0000
0000
0002
0000
0000
2000
0000
0200
0000
0000
0000
3333
0000
0000
0000
,
0020
0000
0000
2000
0000
0000
0002
0000
0200
0000
0000
0000
3333
0000
0000
0000
,
0001
1000
0002
0020
0000
0000
0200
0000
2000
0000
0000
0000
3333
0000
0000
0000
,
1000
0001
2000
0020
0000
0000
0200
0000
0002
0000
0000
0000
3333
0000
0000
0000
,
0001
1000
0002
0020
0000
0000
0133
0000
1000
0001
2000
0020
0000
0000
3130
0000
,
0001
0000
0001
0000
1000
0000
1000
0000
0100
0010
0100
0010
0001
1000
0001
1000
,
0020
0000
0000
0000
0100
0130
1001
0000
,
1000
0000
1000
0000
0001
0100
0001
0100
0001
0000
1000
0000
0010
0100
0010
0100
,
0010
0000
1000
0001
0010
0000
0100
0000
1000
0000
0010
0000
0100
0001
0100
0001
,
0100
0000
0010
0000
1000
0001
1000
0001
1000
0000
0100
0000
0020
0000
0000
0031
,
1000
0000
0010
0100
0001
0000
1000
0000
0100
0000
0010
0000
0001
1000
0001
1000
,
0001
0000
0100
0000
0010
0000
1000
0001
0010
0000
0100
0000
1000
0010
1000
0010
,
1000
0000
0001
0010
0100
0000
1000
0000
0010
0000
0100
0000
0001
1000
0001
1000
,
0200
0000
0000
0000
0000
0000
0000
0000
0320
0000
0032
0000
2000
0000
0000
3003
,
1001
0000
4000
0000
3021
0000
0000
1230
,
0000
0000
0301
1000
0100
0010
0100
0010
0001
1000
0001
1000
0021
0000
0000
0000
,
2130
0000
0000
0000
3102
0000
0000
1023
,
0000
0430
0000
0000
0000
0000
2300
0000
,
3001
0100
01M0
0000
1000
0000
0001
0100
01M0
0000
1000
0000
0001
0100
00M0
0100
,
1000
0001
0000
0100
0000
0010
0000
1000
0001
0000
0000
1000
0102
0000
0000
0000
,
1003
0100
01M0
0000
0001
0000
1000
0100
01M0
0000
0001
0000
0020
0000
0000
0000
,
0000
0100
0130
1000
0002
0000
2103
0000
,
3001
0100
01M0
0000
1000
0000
0001
0100
01M0
0000
1000
0000
0001
0010
0M00
0010
,
1000
0001
0000
0010
0000
0100
0000
1000
0001
0000
0000
1000
0102
0000
0000
0000
,
1003
0100
01M0
0000
0001
0000
1000
0100
01M0
0000
0001
0000
0020
0000
0000
0000
,
0000
0100
0230
0000
0000
0000
0000
0000
,
1300
0010
0M10
0000
0001
0000
1000
0100
01M0
0000
0001
0000
1000
0100
0001
0100
,
1000
0001
0000
0100
0000
0010
1000
0001
1000
0100
0010
0001
2000
0000
0000
0000
,
3001
0010
0M10
0000
1000
0000
0001
0100
01M0
0000
1000
0000
0002
0000
0010
0000
,
0023
0000
0100
0000
0130
0000
1000
0001
0100
0010
0100
0001
2000
0000
0000
0000
,
3010
0M10
0001
0000
1000
0000
0100
01M0
0001
0000
1000
0000
0010
0100
1000
0100
,
0010
1000
0000
0001
0000
0010
0100
1000
0001
0100
0010
1000
0002
0000
0000
0000
,
0013
0M10
1000
0000
0001
0000
0100
01M0
1000
0000
0001
0000
0020
0000
0000
0000
,
0000
0000
0100
0000
0130
0000
1000
0001
0100
0010
0100
0010
1000
0000
0001
0010
,
0100
0000
01M0
0001
0000
1000
0100
00M0
0100
0001
0000
1000
0100
00M0
0100
0000
,
0010
0000
0M10
0001
0000
1000
0010
0M00
0010
0001
0000
1000
0010
0M00
0010
0000
,
0100
1000
0100
1000
0001
0100
0001
0100
0010
1000
0010
1000
0001
0010
0001
0010
,
0100
0000
0000
1000
0000
0000
0001
0000
0000
0100
0000
0000
0010
0000
0000
1000
0000
0000
0001
0000
0000
1000
0000
0000
0100
0000
0000
0010
0000
0000
0001
0000
0000
1000
0000
0000
0010
0000
0100
0000
0001
0000
1000
0000
0001
0000
0010
0000
,
0100
1000
0004
0000
0103
0010
0100
0010
1000
0001
1000
0001
0010
0100
0010
0100
,
1010
0000
0000
0011
0000
0000
0110
0000
0000
1100
0000
0000
0010
0000
0100
0000
,
0110
0000
0000
0101
0000
0000
1100
0000
0000
0110
0000
0000
0001
0000
1000
0000
,
1010
0000
0000
0110
0000
0000
0101
0000
0000
1001
0000
0000
1000
0000
0100
0000
,
0110
0000
0000
0011
0000
0000
1010
0000
0000
0110
0000
0000
0001
0000
1000
0000
,
1100
0000
0000
0110
0000
0000
0101
0000
0000
0110
0000
0000
1000
0000
0001
0000
,
0101
0000
0000
0110
0000
0000
1100
0000
0000
0110
0000
0000
0001
0000
1000
0000
,
1010
0000
0000
0110
0000
0000
0011
0000
0000
0110
0000
0000
1000
0000
0001
0000
,
0020
0000
0000
0030
;

//---------------dance-single - ----------------
#NOTES:
     dance-single:
     :
     Medium:
     8:
     0.375721,0.530753,0.065424,0.660783,0.274781,402.000000,392.000000,10.000000,101.000000,0.000000,0.000000,0.375721,0.530753,0.065424,0.660783,0.274781,402.000000,392.000000,10.000000,101.000000,0.000000,0.000000:
0000
0000
0000
0000
,
0000
0000
0000
0000
,
0000
0000
0000
0000
,
0000
0000
0000
0000
,
0000
0000
0000
0000
,
2001
0000
0000
0001
0000
0000
0010
0000
0000
3010
0000
0000
0100
0000
0002
0000
,
0010
0000
0000
0010
0000
0000
0100
0000
0000
0103
0000
0000
0010
0000
2000
0000
,
0100
0000
0000
0100
0000
0000
0001
0000
0000
3001
0000
0000
0100
0000
0010
0000
,
2000
0000
0000
3002
,
0023
0000
0000
0000
0100
0130
0000
0000
,
2000
0000
0000
0000
0010
3010
0000
0000
,
0002
0000
0000
0010
0010
0013
0000
0000
,
0200
0000
0000
0000
1000
1000
0320
0000
,
0032
0000
0000
0000
0100
0103
0000
0000
,
0020
0000
0000
0000
1000
1030
0000
0000
,
0200
0000
0000
0010
0010
0310
0000
0000
,
0002
0000
0000
0100
0100
0100
2003
0000
,
3010
0000
0000
0100
0000
0000
0001
0000
0020
0000
0000
0000
0230
0000
0000
0000
,
1300
0000
0000
1000
0100
0000
0000
0000
0010
0000
0000
0000
0002
0000
0003
0000
,
0010
0000
0000
0100
0000
0000
1000
0000
0020
0000
0000
0000
0230
0000
0000
0000
,
0301
0000
0000
0001
0100
0000
0000
0000
0010
0000
0000
0000
2000
0000
3000
0000
,
0100
0000
0000
0010
0000
0000
0001
0000
0100
0000
0000
0010
0000
0000
1000
0000
,
0001
0000
0000
0001
0100
0000
0000
0000
0020
0000
0000
0000
1030
0000
0001
0000
,
0100
0000
0000
0010
0000
0000
1000
0000
0100
0000
0000
0010
0000
0000
0001
0000
,
1000
0000
0000
1000
0100
0000
0000
0000
0020
0000
0000
0000
0031
1000
0001
0000
,
0200
0000
0000
0320
0000
0000
2030
0000
3002
0000
0000
0000
0023
0000
0000
0000
,
0230
0000
0000
2300
0000
0000
3002
0000
0203
0000
0000
0000
0320
0000
0000
0000
,
2030
0000
0000
3002
0000
0000
0023
0000
0230
0000
0000
0000
2300
0000
0000
0000
,
3020
0000
0000
0230
0000
0000
0302
0000
2003
0000
0000
0000
3200
0000
0000
0000
,
0310
0000
0010
0002
0000
0000
2003
0000
3020
0000
0000
0000
0230
0000
0000
0000
,
0301
0000
0001
0020
0000
0000
0230
0000
2300
0000
0000
0000
3002
0000
0000
0000
,
0103
0000
0100
0020
0000
0000
2030
0000
3001
0000
0001
0020
0000
0000
0230
0000
,
1300
0000
1000
0000
0001
0000
0001
0000
0100
0000
0100
0000
0010
0000
1000
0001
,
2000
0000
0000
0000
0100
3100
0020
0000
,
0032
0000
0000
0000
0100
0103
0000
0000
,
0020
0000
0000
1000
1000
0130
0000
0000
,
0002
0000
0000
0000
0010
0010
2003
0000
,
3020
0000
0000
0000
0100
0130
0000
0000
,
0002
0000
0000
0000
0010
0013
0000
0000
,
0200
0000
0000
0000
1000
1000
0320
0000
,
0032
0000
0000
0100
0100
0100
2003
0000
,
3020
0000
0000
0000
0230
0000
0300
2002
,
0000
0000
0000
0000
0000
3003
0110
0000
,
2001
0000
0000
0000
3002
0000
0003
0220
,
0000
0000
0000
0000
0000
0330
2000
0000
,
3001
0000
0001
0000
0010
0000
1000
0000
1000
0000
0010
0000
0001
1000
0000
1000
,
0001
0000
0000
0100
0000
0100
0000
0100
0000
0000
0000
0000
0110
0000
0000
0000
,
1000
1000
0010
0001
0001
0010
0200
0000
,
0000
1000
1300
0100
0001
0000
2002
3003
,
1000
0000
1000
0000
0010
0000
0001
0000
0001
0000
0010
0000
1000
0001
0000
0001
,
1000
0000
0000
0100
0000
0100
0000
0100
0000
0000
0000
0000
0110
0000
0000
0000
,
0001
0001
0010
1000
1000
0010
0200
0000
,
0000
0001
0301
0100
2000
0000
0002
3003
,
1000
0000
1000
0000
0100
0000
0001
0000
0001
0000
0100
0000
1000
0001
1000
0001
,
1000
0100
0000
0100
0000
0010
0001
1000
0001
1000
0001
0000
0220
0000
0330
0000
,
0001
0001
0100
1000
1000
0100
0020
0000
,
0000
0000
0001
0000
1030
0000
0001
0000
0010
0100
0010
0100
0020
0000
0000
0000
,
0031
0000
0001
0000
0100
0000
1000
0000
1000
0000
0100
0000
0001
1000
0001
1000
,
0001
0000
0000
0100
0000
0010
1000
0001
1000
0000
0000
0000
0220
0000
0330
0000
,
1000
1000
0100
0001
0001
0100
0020
0000
,
0000
0000
1000
0000
0031
0000
1000
0010
0100
0001
0100
0001
2000
0000
0000
0000
,
3001
0000
0001
0100
0000
0100
0010
0000
0010
1000
0000
1000
0002
0000
0000
0000
,
1003
0000
1000
0100
0000
0100
0010
0000
0010
0001
0000
0001
2000
0000
0000
0000
,
3010
0100
0000
0100
0001
0000
0001
1000
0000
1000
0100
0000
0010
0001
0010
0001
,
1000
0000
1000
0000
0010
0000
0010
0000
0100
0000
0100
0000
0001
1000
0001
2000
,
0000
0000
3100
0010
0100
0000
1000
0000
0001
0000
0001
0000
0100
0000
0200
0000
,
0010
0000
0000
0010
0000
0000
0001
0000
0000
0301
0000
0000
0010
0000
0200
0000
,
1000
0000
0000
1000
0000
0000
0010
0000
0000
0310
0000
0000
0001
0000
2000
0000
,
0010
0000
0000
0010
0000
0000
0001
0000
0000
3001
0000
0000
0010
0000
0200
0000
,
0001
0000
0000
0001
0000
0000
0010
0000
0000
0310
0000
0000
0001
0000
0020
0000
,
0100
0000
0000
0100
0000
0000
0001
0000
0000
0031
0000
0000
1000
0000
0020
0000
,
0100
0000
0000
0100
0000
0000
1000
0000
0000
1030
0000
0000
0001
0000
0020
0000
,
1000
0000
0000
1000
0000
0000
0100
0000
0000
0130
0000
0000
1000
0000
0010
0000
,
0200
0000
0000
0300
;
