#TITLE:Groundhog (Beat Juggle);
#SUBTITLE:;
#ARTIST:Noisia;
#TITLETRANSLIT:;
#SUBTITLETRANSLIT:;
#ARTISTTRANSLIT:;
#GENRE:Progressive House;
#CREDIT:Kimo;
#BANNER:Black or White - banner.png;
#BACKGROUND:Shockrocker-bg.png;
#LYRICSPATH:;
#CDTITLE:cdtitle.png;
#MUSIC:Groundhog (Beat Juggle).ogg;
#OFFSET:0.000;
#SAMPLESTART:28.440;
#SAMPLELENGTH:11.980;
#SELECTABLE:YES;
#BPMS:0.000=135.000;
#STOPS:;
#TIMESIGNATURES:0.000=4=4
;
#BGCHANGES:;
#KEYSOUNDS:;
#ATTACKS:;

//---------------dance-single - Kimo----------------
#NOTES:
     dance-single:
     Kimo:
     Challenge:
     19:
     0.728,1.000,0.874,0.404,0.691,984.000,225.000,104.000,23.000,18.000,33.000,-1.000,-1.000,0.728,1.000,0.874,0.404,0.691,984.000,225.000,104.000,23.000,18.000,33.000,-1.000,-1.000: // measure 1
0000
0000
0000
0000
,  // measure 2
0000
0000
0000
0000
,  // measure 3
0000
0000
0000
0000
,  // measure 4
0000
0000
0000
0000
,  // measure 5
0000
0000
0000
0000
,  // measure 6
0000
0000
0000
0000
,  // measure 7
0000
0000
0000
0000
,  // measure 8
0000
0000
0000
0000
,  // measure 9
1002
1000
1000
1003
,  // measure 10
2001
0001
0001
3001
,  // measure 11
1002
1000
1000
1003
,  // measure 12
2001
0001
0001
3001
,  // measure 13
0210
0010
0010
0310
,  // measure 14
0120
0100
0100
0130
,  // measure 15
0210
0010
0010
0310
,  // measure 16
0120
0100
0100
0130
,  // measure 17
1010
0000
0100
0001
0100
0010
1000
0100
0000
0000
0011
0000
0000
1010
0000
0000
,  // measure 18
0011
0000
0100
0010
1000
0100
1000
0010
0000
0000
0101
0000
0110
0000
0000
0000
,  // measure 19
1010
0000
0100
0010
0001
1000
0010
0100
0010
0010
0110
0000
0000
1010
0000
0000
,  // measure 20
0110
0000
0100
0001
0010
0001
0100
0010
0000
0000
1010
0000
0101
0000
0000
0000
,  // measure 21
1001
0000
1000
0001
0010
0100
0010
0001
0000
0000
0011
0000
0000
1001
0000
0000
,  // measure 22
1100
0000
1000
0100
0010
0001
1000
0001
1000
0001
1000
0000
1001
0000
0000
0000
,  // measure 23
0110
0000
0010
1000
0100
1000
0010
0100
0000
0000
0101
0000
0000
1100
0000
0000
,  // measure 24
0101
0000
0000
1100
0000
0000
0101
0000
0000
1100
0000
0000
0101
0000
0000
0000
,  // measure 25
1001
0000
0001
1000
0100
1000
0010
0100
0000
0000
0110
0000
0000
0101
0000
0000
,  // measure 26
0011
0000
0001
0010
0001
0010
0001
0100
0000
0000
1010
0000
0101
0000
0000
0000
,  // measure 27
0110
0000
0010
1000
0100
0010
0001
0010
0001
0100
0010
0000
0000
0110
0000
0000
,  // measure 28
1010
0000
1000
0010
0100
0010
1000
0100
0000
0000
1100
0000
0011
0000
0000
0000
,  // measure 29
0101
0000
1000
0100
0001
0010
0100
0010
0000
0000
0110
0000
0000
0011
0000
0000
,  // measure 30
1001
0000
1000
0010
0001
0010
1000
0100
1000
0100
1000
0000
1100
0000
0000
0000
,  // measure 31
0011
0000
0001
1000
0001
0010
0001
0100
0000
0000
0101
0000
0000
1010
0000
0000
,  // measure 32
0101
0000
0000
0011
0000
0000
1100
0000
0000
1010
0000
0000
0101
0000
0000
0000
,  // measure 33
2002
0000
0000
0000
,  // measure 34
0000
0000
0000
3003
,  // measure 35
0220
0000
0000
0000
,  // measure 36
0000
0000
0000
0330
,  // measure 37
2001
0001
0001
3001
,  // measure 38
1002
1000
1000
1003
,  // measure 39
0110
0000
1001
0000
,  // measure 40
0110
0000
0000
0000
1001
0000
0000
0000
0110
0000
0000
0010
1000
0000
0100
0000
,  // measure 41
0040
0004
0000
0000
0033
0000
0001
1000
0000
0001
0000
1000
0010
0000
2020
0000
,  // measure 42
0101
0000
0000
0000
0000
0000
0000
0000
0000
0000
0000
0000
0000
0000
0000
0000
0000
0000
0000
0000
0000
0000
0000
3030
0010
0000
0000
0000
0000
0000
0000
0000
0000
0000
0000
0000
1000
0000
0000
0000
0000
0000
0000
0000
0000
0000
0000
0000
0010
0000
0000
0000
0000
0000
0000
0000
0000
0000
0000
0000
0000
0000
0000
0000
0000
0000
0000
0000
0000
0000
0000
0000
1000
0000
0000
0000
0000
0000
0000
0000
0000
0000
0000
0000
0100
0000
0000
0000
0000
0000
0000
0000
0000
0000
0000
0000
1000
0000
0000
0000
0000
0000
0000
0000
0000
0000
0000
0000
0010
0000
0000
0000
0000
0000
0000
0000
0000
0000
0000
0000
0000
0000
0000
0000
0000
0000
0000
0000
0000
0000
0000
0000
1000
0000
0000
0000
0000
0000
0000
0000
0000
0000
0000
0000
0010
0000
0000
0000
0000
0000
0000
0000
0000
0000
0000
0000
0000
0000
0000
0000
0000
0000
0000
0000
0000
0000
0000
0000
1010
0000
0000
0000
0000
0000
0000
0000
0000
0000
0000
0000
0000
0000
0000
0000
0000
0000
0000
0000
0000
0000
0000
0000
,  // measure 43
0101
0000
0000
0000
0000
0000
0000
0000
0000
0000
0000
0000
0000
0000
0000
0000
0000
0000
0000
0000
0000
0000
0000
0000
0044
0000
0000
0000
0000
0000
0000
0000
0000
0000
0000
0000
0000
0000
0000
0000
0000
0000
0000
0000
0000
0000
0000
0000
0000
0000
0000
0000
0000
0000
0000
0000
0000
0000
0000
0000
0000
0000
0000
0000
0000
0000
0000
0000
0000
0000
0000
0033
0011
0000
0000
0000
0000
0000
0000
0000
0000
0000
0000
0000
0000
0000
0000
0000
0000
0000
0000
0000
0000
0000
0000
0000
0011
0000
0000
0000
0000
0000
0000
0000
0000
0000
0000
0000
0000
0000
0000
0000
0000
0000
0000
0000
0000
0000
0000
0000
1000
0000
0000
0000
0000
0000
0000
0000
0000
0000
0000
0000
0010
0000
0000
0000
0000
0000
0000
0000
0000
0000
0000
0000
0100
0000
0000
0000
0000
0000
0000
0000
0000
0000
0000
0000
0000
0000
0000
0000
0000
0000
0000
0000
0000
0000
0000
0000
0110
0000
0000
0000
0000
0000
0000
0000
0000
0000
0000
0000
0000
0000
0000
0000
0000
0000
0000
0000
0000
0000
0000
0000
,  // measure 44
0010
0000
1000
0000
0010
0000
1000
0000
0010
0000
1000
0000
0010
0000
0000
0000
0000
0000
0100
0000
0000
0001
0000
0000
0010
0000
0000
0001
0000
0000
0000
0000
0000
0000
0000
0000
0011
0000
0000
0000
0000
0000
0101
0000
0000
0000
0000
0000
,  // measure 45
4040
0000
0000
0000
0000
0000
0000
0000
0000
0000
0000
0000
0000
0000
0000
3030
1010
0000
0000
0000
0000
0000
0000
0000
0100
0000
0000
0000
0001
0000
0000
0000
0000
0000
0000
0000
0010
0000
0000
0000
0000
0000
0000
0000
0100
0000
0000
0000
0010
0000
0000
0000
0000
0000
0000
0000
0002
0000
0000
0000
0000
0000
0000
0000
,  // measure 46
2003
0000
3001
1000
0001
0000
1000
0010
0100
0001
0000
0000
0101
0000
1010
0000
,  // measure 47
1100
1100
1010
1010
0101
0101
0011
0011
,  // measure 48
1001
0000
1001
0000
0110
0000
0010
2000
0000
0000
0000
0000
3100
0000
0000
0000
,  // measure 49
0044
0000
0000
0000
0000
0000
0000
0000
0000
0000
0000
0000
0000
0000
0000
0033
0011
0000
0000
0000
0000
0000
0000
0000
0001
0000
0000
0000
0100
0000
0000
0000
0000
0000
0000
0000
0010
0000
0000
0000
0000
0000
0000
0000
1000
0000
0000
0000
0100
0000
0000
0000
0000
0000
0000
0000
1100
0000
0000
0000
0000
0000
0000
0000
,  // measure 50
1010
0000
0100
0001
0010
0000
0001
0100
0010
1000
0000
0100
0010
0000
0110
0000
,  // measure 51
4004
0000
0000
0000
0000
0000
0000
0000
0000
0000
0000
0000
0000
0000
0000
0000
0000
0000
0000
0000
0000
0000
0000
3003
1001
0000
0000
0000
0000
0000
0000
0000
1001
0000
0000
0000
0000
0000
0000
0000
0001
0000
0000
0000
1000
0000
0000
0000
0001
0000
0000
0000
0000
0000
0000
0000
1001
0000
0000
0000
0000
0000
0000
0000
,  // measure 52
1000
0000
0010
0000
1000
0000
0010
0000
0100
0000
0010
0000
0100
0000
0000
0000
0000
0000
0001
0000
0000
0010
0000
0000
0100
0000
0000
0010
0000
0000
0000
0000
0000
0100
0000
0000
0001
0000
0000
0000
0000
0000
0202
0000
0000
0000
0000
0000
,  // measure 53
4040
0000
0000
3030
1313
0000
0001
1000
0000
0100
0000
1000
0010
0000
0202
0000
,  // measure 54
0010
0000
1000
0010
1303
0000
0001
0100
0010
1000
0000
0200
0000
0000
0310
0000
,  // measure 55
0011
0000
0001
0100
0010
0000
1000
0100
1000
0000
0000
0001
1000
0000
0010
1000
,  // measure 56
0010
0000
0100
0001
0100
0010
0000
0220
0000
0000
0330
0000
1002
0000
1003
0000
,  // measure 57
2002
0000
0000
0000
,  // measure 58
0000
0000
0000
3003
,  // measure 59
0220
0000
0000
0000
,  // measure 60
0000
0000
0000
0330
,  // measure 61
2002
0000
0000
0000
,  // measure 62
0000
0000
0000
3003
,  // measure 63
0200
0000
0000
00L0
0000
00L0
0000
00L0
,  // measure 64
0000
0000
0000
0300
,  // measure 65
1002
1000
1000
1003
,  // measure 66
2001
0001
0001
3001
,  // measure 67
0210
0010
0010
0310
,  // measure 68
0120
0100
0100
0130
,  // measure 69
1002
1000
1000
1003
,  // measure 70
2001
0001
0001
3001
,  // measure 71
0210
0010
0010
0310
,  // measure 72
0120
0100
0100
0130
,  // measure 73
2001
0000
0000
000L
0000
0000
300L
0000
1002
0000
0000
L000
0000
0000
L003
0000
,  // measure 74
2001
0000
0000
000L
0000
0000
300L
0000
2002
0000
0000
0000
0000
0000
3003
0000
,  // measure 75
0210
0000
0000
00L0
0000
0000
03L0
0000
0120
0000
0000
0L00
0000
0000
0L30
0000
,  // measure 76
0210
0000
0000
00L0
0000
0000
03L0
0000
0210
0000
00L0
0000
0020
0000
0330
0000
,  // measure 77
1020
0000
0000
L000
0000
0000
L030
0000
0201
0000
0000
000L
0000
0000
030L
0000
,  // measure 78
0012
0000
0000
00L0
0000
0000
00L3
0000
2002
0000
0000
0000
0000
0000
3003
0000
,  // measure 79
2000
300L
0002
L003
2000
300L
0002
L003
,  // measure 80
2000
300L
0002
L003
2000
300L
0002
L003
,  // measure 81
0010
0000
0000
L000
0000
0000
1000
0000
0100
0000
0000
L000
0000
0000
1000
0000
,  // measure 82
0010
0000
0000
L000
0000
0000
1000
0000
0200
0000
0000
0000
0000
0000
1300
0001
,  // measure 83
0100
0000
0000
0L00
0000
0000
000L
0000
0010
0000
0000
00L0
0000
0000
0001
0000
,  // measure 84
0100
0000
0000
0L00
0000
0000
000L
0000
0002
0000
1000
0000
L000
0000
0003
0000
,  // measure 85
1000
0000
0000
0100
0000
0000
0L00
0000
0010
0000
0000
0001
0000
0000
000L
0000
,  // measure 86
0100
0000
0000
0010
0000
0000
00L0
0000
1000
0000
0100
0000
LL00
0000
0000
0000
,  // measure 87
1100
LL00
1010
L0L0
0101
0L0L
0011
00LL
,  // measure 88
1001
L00L
0110
0LL0
1001
L00L
0110
0LL0
,  // measure 89
0010
00L0
0010
00L0
0010
00L0
0010
00L0
0010
00L0
0010
00L0
,  // measure 90
0100
0L00
0100
0L00
0100
0L00
0100
0L00
0010
0100
0000
0000
,  // measure 91
0001
000L
0001
000L
0001
000L
0001
000L
0001
000L
0001
000L
,  // measure 92
1000
L000
1000
L000
1000
L000
1000
L000
0001
1000
0000
0000
,  // measure 93
0010
00L0
0010
00L0
0010
00L0
1000
L000
1000
L000
1000
L000
,  // measure 94
0001
000L
0001
000L
0001
000L
0001
000L
1000
0001
0000
0000
,  // measure 95
0100
0L00
0100
0L00
0100
0L00
0010
00L0
0010
00L0
0010
00L0
,  // measure 96
1000
0000
L000
0000
1000
0000
L000
0000
1000
0000
L000
0000
2000
0000
0000
0000
0000
0000
0000
0000
0000
3000
0000
0000
,  // measure 97
0011
0000
0011
00LL
0000
0000
0101
0000
0101
0L0L
0000
0000
,  // measure 98
1010
0000
1010
L0L0
0000
0000
2002
3000
L003
000L
0000
0000
,  // measure 99
1001
0000
0110
0LL0
0000
0000
0110
0000
1001
L00L
0000
0000
,  // measure 100
0011
0000
1100
LL00
0000
0000
1010
0000
0000
0101
0L00
0000
,  // measure 101
0001
000L
1000
L000
0000
0000
0010
00L0
0100
0L00
0000
0000
,  // measure 102
0001
0000
000L
0000
0010
0000
00L0
0000
0000
0000
0000
0000
0100
0000
0L00
0000
1000
0000
0002
0000
0000
0003
0000
0000
,  // measure 103
1000
L000
0010
00L0
0000
0000
0100
0L00
0001
000L
0000
0000
,  // measure 104
0010
00L0
0100
0L00
0000
0000
1000
L000
1000
L000
1000
L000
,  // measure 105
2002
0000
0000
0000
,  // measure 106
0000
0000
0000
3003
,  // measure 107
0220
0000
0000
0000
,  // measure 108
0000
0000
0000
0330
,  // measure 109
2002
0000
0000
0000
,  // measure 110
0000
0000
0000
3003
,  // measure 111
0220
0000
0000
0000
,  // measure 112
0000
0000
0000
0330
,  // measure 113
1001
0000
0010
1000
0100
0000
4400
0000
3311
0000
0001
0100
0010
0000
0404
0000
,  // measure 114
1313
0000
0000
0000
0000
0000
0010
0000
1000
0000
0100
0000
1000
0000
0000
0000
0000
0000
L000
0000
0000
0000
0000
0000
1000
0000
0000
0000
0000
0000
0001
0000
0000
0100
0000
0000
0001
0000
0000
0000
0000
0000
0404
0000
0000
0000
0000
0000
,  // measure 115
1313
0000
0001
1000
0010
0000
4040
0000
3131
0000
0001
000L
0001
000L
1001
0000
,  // measure 116
1100
0000
1000
0001
0100
0000
0404
0000
1313
L0L0
0000
1010
L0L0
0000
4004
0000
,  // measure 117
3113
0000
0010
1000
0100
0000
4400
0000
3311
0000
0001
0100
0001
0000
0404
0000
,  // measure 118
1313
0000
0000
0000
0000
0000
0010
0000
0100
0000
0001
0000
0010
0000
0000
00L0
0000
0000
4001
0000
0000
0000
0000
0000
3101
0000
0000
0000
0000
0000
0001
0000
0000
1000
0000
0000
0100
0000
0000
0000
0000
0000
1100
0000
0000
0000
0000
0000
,  // measure 119
1010
0000
0100
0001
0010
0000
0011
0000
0101
0000
1000
L000
1000
L000
1001
0000
,  // measure 120
0101
0000
0001
1000
0100
0000
0110
0000
0010
0001
0100
0010
1000
0100
0010
0001
,  // measure 121
1000
L000
1000
L000
0001
000L
0001
000L
1000
L000
1000
L000
0001
000L
0001
000L
,  // measure 122
0100
0L00
0100
0L00
0010
00L0
0010
00L0
0100
0L00
0100
0L00
0010
00L0
0010
00L0
,  // measure 123
1000
L000
0001
000L
1000
L000
0001
000L
1000
L000
0001
000L
1000
L000
0001
000L
,  // measure 124
0100
0L00
0010
00L0
0100
0L00
0010
00L0
0100
0L00
0010
00L0
0100
0L00
0010
00L0
,  // measure 125
1000
L000
0100
0L00
0010
00L0
0001
000L
0001
000L
0010
00L0
0100
0L00
1000
L000
,  // measure 126
1000
L000
0010
00L0
0100
0L00
0001
000L
0001
000L
0100
0L00
0010
00L0
1000
L000
,  // measure 127
4004
0000
0000
0000
,  // measure 128
3003
0000
0000
0000
0000
0000
0000
0000
0000
0000
0000
0000
0000
0000
0000
0000
0000
0000
0000
0000
0000
0000
0000
0000
0000
0000
0000
0000
0000
0000
0000
0000
0000
0000
0000
0000
0000
0000
0000
0000
0000
0000
0000
0000
0000
0000
0000
0000
0000
0000
0000
0000
0000
0000
0000
0000
M000
0000
0000
0000
0000
0000
0000
0000
MM00
0000
0000
0000
0000
0000
0000
0000
MMM0
0000
0000
0000
0000
0000
0000
0000
00MM
0000
0000
0000
0MM0
0000
0000
0000
M00M
0000
0000
0000
0000
0000
0000
0000
MMM0
0000
0000
0000
0000
0000
0000
0000
00MM
0000
0000
0000
0M00
0000
0000
0000
00MM
0000
0000
0000
0000
0000
0000
0000
000M
0000
0000
0000
0000
0000
00M0
0000
000M
0000
0000
0000
0000
0000
0000
0000
0000
0000
0000
0000
0000
0000
0000
0000
0000
0000
0000
0000
0000
0000
0000
0000
0000
0000
0000
0000
0000
0000
0000
0000
0000
0000
0000
0000
0000
0000
0000
0000
0000
0000
0000
0000
0000
0000
0000
0000
0000
0000
0000
0000
0000
0000
0000
0000
0000
0000
0000
0000
0000
0000
0000
0000
,  // measure 129
0001
0000
0000
0000
000L
0000
0000
0000
1000
0000
0000
0000
L000
0000
0000
0000
4400
0000
0000
0000
0000
0000
0000
3300
LL00
0000
0000
0000
0000
0000
0000
0000
2200
0000
0000
0000
0000
0000
0000
0000
0000
0000
0000
3300
LL00
0000
0000
0000
0000
0000
0000
0000
0000
0000
0000
0000
1000
0000
0000
0000
0001
0000
0000
0000
,  // measure 130
0010
0000
0000
0000
00L0
0000
0000
0000
0001
0000
0000
0000
000L
0000
0000
0000
2000
0000
0000
0000
0000
0000
0000
3000
L000
0000
0000
0000
0000
0000
0000
0000
1000
0000
0000
0000
L000
0000
0000
0000
0000
0000
0000
0000
1000
0000
0000
0000
0000
0000
0000
0000
0000
0000
0000
0000
0001
0000
0000
0000
0100
0000
0000
0000
,  // measure 131
0010
0000
0000
0000
0100
0000
0000
0000
0002
0000
0000
0000
0000
0000
0000
0003
000L
0000
0000
0000
0000
0000
0000
0000
1000
0000
0000
0000
0000
0000
0000
0000
0001
0000
0000
0000
0000
0000
0000
0000
0200
0000
0000
0000
0000
0000
0000
0300
0L00
0000
0000
0000
0000
0000
0000
0000
0000
0000
0000
0000
0000
0000
0000
0000
,  // measure 132
0010
0000
1000
0000
0001
0000
0100
0000
0010
0000
0100
0000
0001
1000
0001
1000
,  // measure 133
0001
0000
0000
0000
0010
0000
0000
0000
0001
0010
0001
0010
0001
0000
0000
0000
0000
0000
0010
0001
0020
0000
0000
0000
0031
0000
0000
0000
0010
0000
0001
0000
,  // measure 134
1000
0000
0000
0000
0100
1000
0100
0000
1000
0100
1000
0100
1000
0000
0000
0000
0000
0000
0100
1000
0200
0000
0000
0000
1300
0000
0000
0000
0000
0000
0000
0000
,  // measure 135
1001
0000
0000
0000
0000
0000
0000
0000
0001
1000
0001
1000
0001
0000
0000
0000
0000
0000
1000
0010
2000
0000
0000
0000
3010
0000
0000
0000
0000
0000
0000
0000
,  // measure 136
0101
0001
0011
0100
1100
1000
1010
0100
,  // measure 137
0001
0010
0000
0100
1000
0000
0010
0000
1000
0100
0000
0010
0001
0000
0011
0000
,  // measure 138
0001
1000
0000
0010
0100
0000
0010
0000
1000
0001
0000
0100
0001
0000
0101
0000
,  // measure 139
0001
0010
0000
0010
0001
0000
0011
0000
0010
0001
0000
0001
0010
0000
0011
0000
,  // measure 140
0101
0001
0000
0001
0101
0000
0011
0000
1100
1000
0000
0100
1100
0000
1010
0000
,  // measure 141
0202
0000
0000
0000
0000
0000
0000
0000
0000
0010
0000
0000
1303
0000
0000
0000
0000
0000
0001
0000
0000
0100
0000
0000
0001
0000
0000
0000
000L
0000
0000
0000
0100
0000
0000
0000
0L00
0000
0000
0000
0000
0000
0001
0000
0000
0000
0000
0000
,  // measure 142
0100
0000
0000
0001
1000
0000
0001
000L
0001
0010
0100
1000
0100
0000
1000
0000
,  // measure 143
1100
0000
0000
0000
0000
0000
0000
0000
0000
0000
0000
0000
0100
0000
0000
0000
0010
0000
0000
0000
0000
0000
0000
0000
0001
0000
0000
0000
0100
0000
0000
0000
0010
0000
0000
0000
0000
0000
0000
0000
1000
0000
0000
0000
0100
0000
0000
0000
0010
0000
0000
0000
0000
0000
0000
0000
0001
0000
0000
0000
0200
0300
0000
0000
,  // measure 144
0020
0000
0030
0000
0200
0000
0000
0300
0020
0000
0000
0000
0230
0000
0000
0000
0020
0300
0000
0000
0200
0000
0030
0000
0020
0000
0000
0300
0200
0000
0000
0030
0020
0000
0000
0300
0200
0000
0000
0030
0020
0000
0000
0300
0200
0000
0000
0030
0020
0000
0000
0000
0000
0000
0000
0300
0200
0000
0000
0000
0000
0000
0000
0030
,  // measure 145
0310
0000
0000
0000
;
