#TITLE:comet;
#SUBTITLE:;
#ARTIST:*Luna feat. 星街すいせい;
#TITLETRANSLIT:;
#SUBTITLETRANSLIT:;
#ARTISTTRANSLIT:*Luna feat. Hoshimachi Suisei;
#GENRE:;
#CREDIT:;
#BANNER:comet.png;
#BACKGROUND:comet-bg.png;
#LYRICSPATH:;
#CDTITLE:;
#MUSIC:comet.ogg;
#OFFSET:-0.100000;
#SAMPLESTART:50.432003;
#SAMPLELENGTH:12.000000;
#SELECTABLE:YES;
#BPMS:0.000000=162.000000
,200.000000=81.000000
,213.000000=162.000000
,283.000000=81.000000
,284.000000=162.000000
;
#STOPS:
;
#BGCHANGES:;
#KEYSOUNDS:;
#ATTACKS:;

//---------------dance-single - ----------------
#NOTES:
     dance-single:
     :
     Challenge:
     14:
     0.653728,0.808634,0.921210,0.838826,0.292091,611.000000,488.000000,123.000000,112.000000,0.000000,0.000000,0.653728,0.808634,0.921210,0.838826,0.292091,611.000000,488.000000,123.000000,112.000000,0.000000,0.000000:
0000
0000
0000
0000
,
0000
0000
0000
0000
,
0000
0000
0000
0000
,
0000
0000
0000
0000
,
0000
0000
0000
0000
,
0001
0000
1000
0000
0010
0000
0100
0000
0001
0000
0000
0001
0000
0000
0001
0000
,
0100
0000
0001
0000
0010
0000
0100
0000
1000
0000
0000
1000
0000
0000
1000
0000
,
0002
0000
0000
0000
1003
0000
0000
0000
1100
0000
0000
0110
0000
0000
2002
0000
,
0000
0000
3003
0000
0001
1000
0010
0100
,
0102
0000
0000
0000
2003
0000
3100
0000
0110
0000
0000
0011
0000
0000
2001
0000
,
0000
3010
0001
0010
1010
1000
0100
0001
,
0201
0000
0310
0001
1001
0000
2010
0000
,
0000
0000
3001
0000
0000
0100
0000
0000
1010
0000
0000
0101
0000
0000
1100
0000
,
0120
0000
0000
0000
0032
0000
1003
0000
1010
0000
0000
0101
0000
0000
0120
0000
,
0000
1030
0100
0020
0000
0031
0100
1000
,
1200
0000
0301
1000
1100
0000
0120
0000
,
0000
0000
0031
0000
1000
0000
0001
0100
0010
0000
1000
0000
0001
0000
0000
0000
,
0021
0000
0000
0000
1030
0000
0001
0000
0100
0000
0000
0100
0000
0000
0100
0000
,
2000
0000
0000
0000
3001
0000
0100
0000
0010
0000
0000
0010
0000
0000
0010
0000
,
2000
0000
3001
0100
1000
0100
0020
0000
,
0000
0000
1030
0000
0001
0000
0010
0000
0100
0000
0000
0100
0000
0000
0100
0000
,
0020
0000
0031
2000
0000
3020
0000
0032
,
0000
1003
0200
0000
0301
1000
0100
0020
,
0000
0031
0100
0000
0010
1000
0002
0000
,
0000
0000
0000
0023
0000
0130
1000
0001
,
0100
0000
0000
0000
0010
0000
0000
0000
0101
0000
0000
1010
0000
0000
0102
0000
,
0000
0000
1003
0000
0100
0000
0010
0001
1000
0000
0000
1000
0000
0000
1000
0000
,
0002
0000
0000
0000
1003
0000
0000
0000
0011
0000
0000
1100
0000
0000
0012
0000
,
0000
2000
0000
3003
,
0101
0101
1100
1100
,
0110
0110
1001
1001
,
0001
0000
0100
0000
0001
0000
1000
0100
1000
0000
0001
0000
0010
0000
0100
1000
,
0001
0100
0001
0000
1000
0100
1000
0000
0001
0100
0001
0100
0010
1000
0001
0100
,
0020
0100
0100
0130
,
0102
0000
0000
0000
1003
0000
0100
0000
0110
0000
0000
0011
0000
0000
2001
0000
,
0000
0000
3010
0000
0100
0010
1000
0000
0001
1000
0000
1000
0001
0000
0010
0000
,
0011
0000
0001
0000
1000
0000
0010
0000
1010
0000
0000
0101
0000
0000
0110
0000
,
0100
0000
0001
0000
1000
0000
0100
0000
0110
0000
0000
0011
0000
0000
1001
0000
,
2000
0000
0000
0000
3020
0000
0130
0000
0101
0000
0000
1010
0000
0000
1200
0000
,
0000
0000
0310
0000
0001
0000
1000
0000
1100
0000
0000
0011
0000
0000
0101
0000
,
0100
1000
0001
0010
0200
0000
0302
0000
,
0000
0000
0023
0000
0000
0000
0000
0000
0230
0000
0000
1000
0000
0000
1300
0000
,
1002
0000
0000
0000
0103
0000
0010
0000
1010
0000
0000
1100
0000
0000
0012
0000
,
0000
0000
1003
0000
0010
0100
0001
0000
1000
0001
0000
0001
1000
0000
0100
0000
,
0110
0000
0010
0000
0001
0000
1000
0000
1010
0000
0000
0101
0000
0000
0011
0000
,
0010
0000
0001
0000
1000
0000
0010
0000
1010
0000
0000
0110
0000
0000
0101
0000
,
0002
0000
0000
0000
2003
0000
3100
0000
0110
0000
0000
0011
0000
0000
2010
0000
,
0000
0000
3001
0000
0100
0000
0010
0000
1010
0000
0000
1100
0000
0000
0101
0000
,
0001
0100
1000
0001
0020
0000
2030
0000
,
0000
3002
0000
0000
1000
0000
1003
0000
,
1020
0000
0000
0000
0001
0000
0000
0100
0000
0100
0100
0000
1030
0000
0001
0000
,
0021
0000
0000
0000
1000
0000
0000
0001
0000
0001
0001
0000
0230
0000
0000
0000
,
2300
0000
0000
0000
0001
0000
0000
0010
0000
0010
0010
0000
0002
0000
0000
0000
,
0000
0000
3003
0000
1001
0000
0000
0110
,
0000
1002
0103
2010
,
3001
0000
0010
0000
0110
0000
0000
1100
0000
0000
0102
0000
0000
0000
1003
0000
,
0010
0100
0001
0000
1000
0100
0000
0010
0001
0000
1000
0000
1010
0000
0010
0000
,
0100
0000
0001
0000
1001
0000
0000
0011
0000
0000
0110
0000
0100
0000
1000
0000
,
0001
0000
0100
0000
0101
0000
0000
1010
0000
0000
1100
0000
0200
0000
0000
0000
,
0320
0000
0031
0000
1001
0000
0000
1100
0000
0000
0012
0000
0000
0000
1003
0000
,
0010
0000
0100
0000
0101
0000
0000
1010
0000
0000
1100
0000
0100
0000
0001
0000
,
1000
0010
0002
0000
0203
0000
0000
0320
,
0000
0000
1030
0001
1000
0001
0200
0320
,
2030
0000
3002
0000
0023
0000
0000
0100
0000
0000
0130
0000
0000
0000
1000
0000
,
0001
0100
0010
0000
0020
0000
0000
0100
0000
0000
0130
0000
0002
0000
2003
0000
,
3200
0000
0320
0000
0032
0000
0000
1000
0000
0000
1003
0000
1010
0000
0000
1001
,
0000
0000
1100
0000
0011
0000
0000
1001
0000
0000
0101
0000
0002
0000
0000
0000
,
0203
0000
0310
0000
2000
0000
0000
0010
0000
0000
3010
0000
0000
0000
0100
0000
,
0001
1000
0100
0000
0200
0000
0000
0010
0000
0000
0310
0000
0002
0000
2003
0000
,
3020
0230
0301
0000
2000
0000
0000
3200
,
0000
0000
0000
0000
0302
0000
0000
0100
0000
0000
0103
0000
0010
0000
0000
0000
,
0002
0000
0000
1000
0000
0000
1003
0000
0000
0000
0010
0000
0100
0001
1000
0000
,
2000
0000
0000
0010
0000
0000
3010
0000
0200
0000
0320
0000
0032
0000
0023
0000
,
2030
0000
0000
0001
0000
0000
3001
0000
0011
0000
0000
1001
0000
0000
0101
0000
,
1010
0000
0000
1001
0000
0000
1100
0000
0200
0000
0000
0000
0320
0000
0031
0000
,
2000
0000
0000
0010
0000
0000
3010
0000
0000
0000
1000
0000
0001
0100
0010
0000
,
0020
0000
0000
0100
0000
0000
0130
0000
0002
0000
2003
0000
3200
0000
0302
0000
,
0103
0000
0020
0000
0000
0032
0000
0000
,
1003
0000
0110
0000
1002
0000
2003
3100
,
0110
0000
0000
1100
0000
0000
1002
0000
0000
0000
0103
0000
1000
0000
0100
0000
,
0101
0001
0010
1000
1020
0000
0031
1000
,
1010
0000
0000
0000
0102
0000
0000
0000
0000
0000
1003
0000
0000
0100
0000
0000
,
0011
0000
0000
1100
0000
0000
0101
0000
0120
0000
0000
0000
2030
0000
3001
0000
,
0101
0000
0000
1010
0000
0000
1200
0000
0000
0000
0310
0000
0001
0000
0200
0000
,
0000
1300
0001
0010
2010
0000
3001
0010
,
0110
0000
0000
0000
2100
0000
0000
0000
0000
0000
3001
0000
0100
0000
0010
1000
,
0100
0010
0001
0001
0000
0000
0000
0000
;

//---------------dance-single - ----------------
#NOTES:
     dance-single:
     :
     Hard:
     12:
     0.469700,0.582216,0.471839,0.501797,0.198472,439.000000,376.000000,63.000000,67.000000,0.000000,0.000000,0.469700,0.582216,0.471839,0.501797,0.198472,439.000000,376.000000,63.000000,67.000000,0.000000,0.000000:
0000
0000
0000
0000
,
0000
0000
0000
0000
,
0000
0000
0000
0000
,
0000
0000
0000
0000
,
0000
0000
0000
0000
,
0001
0000
0000
0000
0100
0000
0000
0000
0010
0000
0000
0010
0000
0000
0010
0000
,
1000
0000
0000
0000
0001
0000
0000
0000
0010
0000
0000
0010
0000
0000
0010
0000
,
0200
0000
0000
0000
1300
0000
0000
0000
0001
0000
0000
1000
0000
0000
2002
0000
,
0000
0000
0000
3003
,
0002
0000
0000
0000
1003
0000
0000
0000
0010
0000
0000
0010
0000
0000
0020
0000
,
0000
0000
1030
0000
0001
0010
0001
0000
,
2000
0000
3010
0100
0001
0000
1001
0000
,
0000
0000
1000
0000
0000
0001
0000
0000
0100
0000
0000
0100
0000
0000
0100
0000
,
0020
0000
0000
0000
1030
0000
0000
0000
0001
0000
0000
0100
0000
0000
0202
0000
,
0000
0000
0303
0000
0001
1000
0100
0010
,
0100
0000
1000
0010
0100
0000
0200
0000
,
0000
0301
1000
0100
0010
0001
0100
0000
,
0020
0000
0000
0000
1030
0000
0000
0001
,
0000
0000
0001
0000
1000
0000
0000
0000
0100
0000
0000
0100
0000
0000
0100
0000
,
0020
0000
0000
0031
1000
0000
0000
0010
,
0000
0100
0100
0000
1001
0000
1000
0000
,
0020
0000
0000
0000
0130
0000
0000
0001
,
0000
0000
0001
0000
0010
0000
0000
0000
0001
0000
0000
0001
0000
0000
0001
0000
,
2000
0000
0000
3010
0200
0000
0020
0000
,
0000
0000
0000
0330
,
0010
0000
0000
0000
1000
0000
0000
0000
1100
0000
0000
1100
0000
0000
2200
0000
,
0000
0000
0000
0000
3300
0000
0000
0000
0100
0000
0000
0100
0000
0000
0100
0000
,
0010
0000
0000
0000
0001
0000
0000
0000
0101
0000
0000
0101
0000
0000
0102
0000
,
0000
2000
0000
3003
,
1000
1000
0010
0010
,
0001
0001
0100
0100
,
1000
0010
0100
0000
0001
0100
0010
0000
,
1000
0100
0010
0001
0100
1000
0100
0001
,
2000
0001
0001
3001
,
2000
0000
0000
0000
3010
0000
0000
0000
0101
0000
0000
0101
0000
0000
0102
0000
,
0000
0000
0000
0000
1003
0000
0000
0000
0100
0000
0000
0100
0000
0000
0100
0000
,
0020
0000
0000
0000
0031
0000
0000
0000
1001
0000
0000
1001
0000
0000
1001
0000
,
1000
0000
0000
0000
0010
0000
0100
0000
0001
0000
0000
0001
0000
0000
0001
0000
,
2000
0000
0000
0000
3100
0000
0000
0000
0110
0000
0000
0110
0000
0000
0120
0000
,
0000
0000
0000
0000
0031
0000
0000
0000
0101
0000
0000
0101
0000
0000
0101
0000
,
0200
0000
0310
1000
0001
0000
2000
0000
,
0000
3020
0000
0000
0200
0000
0330
0000
,
0200
0000
0000
0000
0310
0000
0000
0000
1010
0000
0000
1010
0000
0000
2010
0000
,
0000
0000
0000
0000
3001
0000
0000
0000
0010
0000
0000
0010
0000
0000
0010
0000
,
0002
0000
0000
0000
0103
0000
0000
0000
1010
0000
0000
1010
0000
0000
1010
0000
,
1000
0000
0000
0000
0001
0000
1000
0000
0010
0000
0000
0010
0000
0000
0010
0000
,
2000
0000
0000
0000
3001
0000
0000
0000
0011
0000
0000
0011
0000
0000
0012
0000
,
0000
0000
0000
0000
1003
0000
0000
0000
1010
0000
0000
1010
0000
0000
1010
0000
,
0020
0000
0130
0001
1000
0000
0200
0000
,
0000
2300
0000
0000
0010
0000
3010
0000
,
0200
0000
0000
0000
0301
0000
0000
1000
0000
1000
0100
0000
0010
0000
0000
0000
,
0002
0000
0000
0000
0103
0000
0000
0010
0000
0010
1000
0000
0001
0000
0000
0000
,
2000
3002
0203
0020
,
0000
0000
0330
0000
1001
0000
0000
0110
,
0000
2002
3003
0002
,
1003
0000
0000
0000
1100
0000
0000
0110
0000
0000
2100
0000
0000
0000
0000
0000
,
3001
0000
0000
0000
0100
0000
0000
0100
0000
0000
0100
0000
0020
0000
0000
0000
,
1030
0000
0000
0000
1001
0000
0000
0011
0000
0000
1001
0000
1000
0000
0000
0000
,
0010
0000
0100
0000
0001
0000
0000
0001
0000
0000
0001
0000
2000
0000
0000
0000
,
3100
0000
0000
0000
0110
0000
0000
0011
0000
0000
0210
0000
0000
0000
0000
0000
,
1300
0000
0000
0000
1001
0000
0000
1010
0000
0000
1001
0000
0002
0000
0000
0000
,
0013
0100
1000
0000
0002
0000
0000
0203
,
0000
0000
0010
0000
0310
0000
1000
0001
,
0010
0000
0100
0000
1000
0000
0000
1000
0000
0000
1000
0000
0000
0000
0001
0000
,
0100
0000
0010
0000
0100
0000
0000
0100
0000
0000
0100
0000
0010
0000
1000
0000
,
0010
0000
0001
0000
0010
0000
0000
0010
0000
0000
0010
0000
1000
0000
0000
1000
,
0000
0000
1000
0000
1001
0000
0000
1001
0000
0000
1001
0000
0002
0000
0000
0000
,
1003
0000
0000
0000
0010
0000
0000
0010
0000
0000
0010
0000
0000
0000
1000
0000
,
0010
0000
0100
0000
0001
0000
0000
0001
0000
0000
0001
0000
1000
0000
0000
0000
,
0001
0000
1001
0000
2000
0000
0000
3020
,
0000
0000
0000
0000
0130
0000
0000
0100
0000
0000
0100
0000
0000
0000
0000
0000
,
0001
0000
0000
0001
0000
0000
0001
0000
0000
0000
0100
0000
0010
0000
1000
0000
,
0001
0000
0000
0001
0000
0000
0001
0000
0010
0000
0100
0000
1000
0000
0001
0000
,
0100
0000
0000
0100
0000
0000
0100
0000
0010
0000
0000
0010
0000
0000
0010
0000
,
1010
0000
0000
1010
0000
0000
1010
0000
2000
0000
0000
0000
3001
0000
0000
0000
,
0011
0000
0000
0011
0000
0000
0011
0000
0000
0000
0010
0000
0001
0000
0100
0000
,
0010
0000
0000
0010
0000
0000
0010
0000
1000
0000
0000
0000
0001
0000
0000
0000
,
1001
0000
2000
0000
0000
3020
0000
0000
,
0130
1001
0002
1003
,
0010
0000
0000
0010
0000
0000
0020
0000
0000
0000
0000
0000
1030
0000
0000
0000
,
0001
0010
0001
0000
2000
0000
3100
0010
,
0001
0000
0000
0000
1001
0000
0000
0000
0000
0000
1000
0000
0000
0010
0000
0000
,
0100
0000
0000
0100
0000
0000
0100
0000
0002
0000
0000
0000
1003
0000
0000
0000
,
0100
0000
0000
1000
0000
0000
2200
0000
0000
0000
0000
0000
3300
0000
0000
0000
,
0100
0010
0001
1000
0001
0000
0100
0010
,
1000
0000
2000
0000
0000
3001
0010
0100
,
1000
0001
0100
0100
0000
0000
0000
0000
;

//---------------dance-single - ----------------
#NOTES:
     dance-single:
     :
     Medium:
     8:
     0.313490,0.387582,0.059916,0.381965,0.116087,293.000000,285.000000,8.000000,51.000000,0.000000,0.000000,0.313490,0.387582,0.059916,0.381965,0.116087,293.000000,285.000000,8.000000,51.000000,0.000000,0.000000:
0000
0000
0000
0000
,
0000
0000
0000
0000
,
0000
0000
0000
0000
,
0000
0000
0000
0000
,
0000
0000
0000
0000
,
1000
0010
0100
0000
,
0001
0010
0100
0000
,
1000
0000
0001
0000
1000
0000
0000
2002
,
0000
0000
0000
3003
,
0002
0000
0000
0000
0003
0000
0000
0000
1000
0000
0000
1000
0000
0000
1000
0000
,
0000
0000
0010
0000
0100
0000
0001
1000
,
0002
0000
0000
0203
0000
0000
0320
0000
,
0000
0000
1030
0000
0000
0001
0000
0000
1000
0000
0000
0001
0000
0000
1000
0000
,
0020
0000
0000
0000
0030
0000
0000
0000
0100
0000
0000
0100
0000
0000
0100
0000
,
0000
0000
0000
0000
0001
0000
1000
0100
,
1000
0001
0100
0020
,
0000
0000
0000
0030
,
2000
0000
3001
0000
,
0100
0100
0010
0000
,
2000
0000
3001
0000
,
1000
1000
0100
0000
,
0020
0000
0031
0000
,
1000
1000
0001
0000
,
0200
0000
0320
0000
,
0200
0000
0000
0330
,
0010
0000
0000
0000
1000
0000
0000
0000
0010
0000
0000
1000
0000
0000
0020
0000
,
0000
0000
0100
0130
,
0100
0000
0000
0000
0001
0000
0000
0000
0100
0000
0000
0001
0000
0000
0200
0000
,
0000
0020
0000
0330
,
0010
0010
1000
1000
,
0001
0001
0010
0010
,
0001
1000
0010
0100
,
0001
1000
0001
0000
1000
0001
1000
0000
,
2002
0000
0000
3003
,
0001
0000
0000
0000
1000
0000
0000
0000
0010
0000
0000
0010
0000
0000
0010
0000
,
0000
1000
0001
1001
,
1000
0000
0000
0000
0100
0000
0000
0000
0010
0000
0000
0001
0000
0000
0010
0000
,
0001
0000
0000
0000
1000
0000
0000
0000
0010
0000
0000
0010
0000
0000
0010
0000
,
0200
0000
0000
0000
0300
0000
0000
0000
0001
0000
0000
1000
0000
0000
0001
0000
,
0000
0000
0000
0000
0010
0000
0000
0000
0100
0000
0000
0010
0000
0000
0100
0000
,
2000
0000
3001
0200
,
0000
0320
0000
0000
0230
0000
0300
0000
,
0010
0000
0000
0000
1000
0000
0000
0000
0001
0000
0000
0001
0000
0000
0001
0000
,
0000
1000
0010
1010
,
1000
0000
0000
0000
0001
0000
0000
0000
0100
0000
0000
0001
0000
0000
0100
0000
,
0001
0000
0000
0000
0100
0000
0000
0000
0001
0000
0000
0001
0000
0000
0001
0000
,
2000
0000
0000
0000
3000
0000
0000
0000
0100
0000
0000
0100
0000
0000
0100
0000
,
0000
0000
0000
0000
0010
0000
0000
0000
0001
0000
0000
0001
0000
0000
0001
0000
,
2000
0000
3010
0200
,
0000
0302
0000
0000
0203
0000
0300
0000
,
0020
1000
1000
1030
,
0002
0100
0100
0103
,
0010
1000
0002
2000
,
0000
0000
3003
0000
0001
0000
0000
1000
,
0000
0002
0003
1000
,
0010
0000
0000
0000
0100
0000
0000
0100
0000
0000
0100
0000
0000
0000
0000
0000
,
0001
0010
0011
0001
,
1000
0000
0000
0000
0100
0000
0000
0010
0000
0000
0100
0000
0010
0000
0000
0000
,
0001
0000
0000
0000
1000
0000
0000
1000
0000
0000
1000
0000
0020
0000
0000
0000
,
0030
0000
0000
0000
0100
0000
0000
0100
0000
0000
0100
0000
0000
0000
0000
0000
,
0010
0000
0000
0000
1000
0000
0000
1000
0000
0000
1000
0000
0002
0000
0000
0000
,
0000
0000
0013
0000
0200
0000
0000
2300
,
0000
3200
0300
0010
,
0001
0000
0000
0000
0010
0000
0000
0010
0000
0000
0010
0000
0000
0000
0000
0000
,
0001
1000
0010
0100
,
0001
0000
0000
0000
0100
0000
0000
0100
0000
0000
0100
0000
0010
0000
0000
0000
,
1000
0001
0100
0020
,
0030
0000
0000
0000
1000
0000
0000
1000
0000
0000
1000
0000
0000
0000
0000
0000
,
0001
1000
0100
0010
,
0001
0000
1001
0000
2000
0000
0000
3020
,
0000
2030
3000
0000
,
0001
0000
0000
0001
0000
0000
0001
0000
0000
0000
0000
0000
1000
0000
0000
0000
,
0100
0010
0001
1000
,
0010
0000
0000
0010
0000
0000
0010
0000
0100
0000
0000
0000
0001
0000
0000
0000
,
1000
0100
0010
0001
,
1000
0000
0000
1000
0000
0000
1000
0000
0000
0000
0000
0000
0010
0000
0000
0000
,
0100
0001
1000
0010
,
1010
0000
2000
0000
0000
3002
0000
0000
,
1003
1000
0020
0030
,
1000
0000
0000
1000
0000
0000
1000
0000
0000
0000
0000
0000
0001
0000
0000
0000
,
0100
0000
0010
1000
0020
0000
0000
0230
,
0000
0000
0000
0000
0302
0000
0000
0000
0000
0000
1003
0000
0000
0001
0000
0000
,
1000
0000
0000
0001
0000
0000
1000
0000
0020
0000
0000
0000
0030
0000
0000
0000
,
1000
0000
0000
1000
0000
0000
1000
0000
0000
0000
0000
0000
0000
0000
0000
0000
,
0001
0000
1000
0100
1000
0000
0001
0000
,
0100
0020
0030
1000
,
0001
1001
0000
0000
;

//---------------dance-single - ----------------
#NOTES:
     dance-single:
     :
     Easy:
     5:
     0.230035,0.258388,0.149790,0.067406,0.000000,215.000000,195.000000,20.000000,9.000000,0.000000,0.000000,0.230035,0.258388,0.149790,0.067406,0.000000,215.000000,195.000000,20.000000,9.000000,0.000000,0.000000:
0000
0000
0000
0000
,
0000
0000
0000
0000
,
0000
0000
0000
0000
,
0000
0000
0000
0000
,
0000
0000
0000
0000
,
1000
0000
1000
0000
,
0001
0000
0001
0000
,
0100
0000
0100
0000
,
0220
0000
0330
0000
,
0010
0000
1000
1000
,
1000
0000
1001
0000
,
0001
0000
0100
0000
,
0010
0000
1000
1000
,
1000
0000
0001
0000
,
0010
0010
0010
0000
,
0001
0000
1001
0000
,
1000
0000
0010
0010
,
0010
0000
0100
0000
,
0001
0000
1000
0000
,
1000
0000
0001
0000
,
0010
0000
0001
0000
,
0001
0000
0100
0000
,
0010
0000
1000
0000
,
1000
0000
0010
0000
,
0100
0000
0100
0000
,
0001
0000
1000
1000
,
1000
0000
1001
0000
,
0001
0000
0010
0010
,
0010
0000
0110
0000
,
0100
0000
1000
0000
,
0100
0000
0010
0000
,
0001
0000
0100
0000
,
1000
0000
0010
0000
,
0002
0000
0003
0000
,
1000
0000
0010
0010
,
0010
0000
0110
0000
,
0100
0000
0001
0001
,
0001
0000
1000
1000
,
1000
0000
1001
0000
,
0001
0000
0010
0000
,
0100
0100
0100
0000
,
1000
0000
1001
0000
,
0001
0000
1000
1000
,
1000
0000
1001
0000
,
0001
0000
0100
0100
,
0100
0000
0010
0010
,
0010
0000
0110
0000
,
0100
0000
0001
0000
,
1000
1000
1000
0000
,
0001
0000
1001
0000
,
2000
3000
0002
0003
,
2000
3000
0020
0030
,
0200
0300
0002
0000
,
0000
0000
0003
0000
1000
0000
0000
0001
,
0000
1000
1000
1000
,
0000
0001
0001
0001
,
0000
1001
0000
1000
,
0000
0010
0010
0010
,
0000
0100
0100
0100
,
0000
1001
0000
0001
,
0000
1000
0000
0100
,
0100
0100
0000
0010
,
0000
0010
0000
0001
,
0001
0001
0000
1000
,
0000
1001
0000
0001
,
0001
0001
0000
0100
,
0100
0100
0100
0010
,
0010
0010
0000
1000
,
0000
1001
0000
0001
,
0001
0001
0000
0010
,
0000
0110
0000
0000
,
0100
0000
1000
0000
,
1001
0000
0001
0001
,
0001
0000
1000
1000
,
1000
1000
0010
0010
,
0010
0000
0100
0000
,
1001
0000
0001
0001
,
0001
0000
0010
0000
,
0100
0100
0010
0000
,
0001
0001
0001
0000
,
1001
0000
1000
0000
,
0010
0000
0100
0000
,
0001
0001
0001
0000
,
1000
0000
0100
0100
,
0100
0000
1000
0000
,
1001
0000
0001
0000
,
0100
0100
0000
0000
;

//---------------dance-single - ----------------
#NOTES:
     dance-single:
     :
     Beginner:
     2:
     0.120902,0.161025,0.044937,0.104853,0.000000,113.000000,107.000000,6.000000,14.000000,0.000000,0.000000,0.120902,0.161025,0.044937,0.104853,0.000000,113.000000,107.000000,6.000000,14.000000,0.000000,0.000000:
0000
0000
0000
0000
,
0000
0000
0000
0000
,
0000
0000
0000
0000
,
0000
0000
0000
0000
,
0000
0000
0000
0000
,
1000
0000
0000
0000
,
0001
0000
0000
0000
,
0100
0000
0010
0000
,
0200
0000
0300
0000
,
0001
0000
0001
0000
,
2000
0000
3000
0000
,
0100
0000
0010
0000
,
0010
0000
0000
0000
,
0001
0000
1000
0000
,
2000
0000
3000
0000
,
0010
0000
0010
0000
,
0100
0000
0000
0000
,
0001
0000
0000
0000
,
1000
0000
0000
0000
,
0100
0000
0000
0000
,
0010
0000
0000
0000
,
0001
0000
0000
0000
,
1000
0000
0000
0000
,
0020
0000
0000
0000
,
0030
0000
0000
0000
,
0100
0000
0100
0000
,
0010
0000
0000
0000
,
0010
0000
0010
0000
,
0100
0000
0000
0000
,
0001
0000
0000
0000
,
1000
0000
0000
0000
,
0001
0000
0001
0000
,
1000
0000
1000
0000
,
0020
0000
0030
0000
,
0100
0000
0100
0000
,
0001
0000
0000
0000
,
1000
0000
1000
0000
,
0010
0000
0000
0000
,
0110
0000
0000
0000
,
0100
0000
0100
0000
,
0001
0000
0000
0000
,
2000
0000
3000
0000
,
0100
0000
0100
0000
,
0010
0000
0000
0000
,
0001
0000
0001
0000
,
1000
0000
0000
0000
,
1001
0000
0000
0000
,
0001
0000
0001
0000
,
1000
0000
0000
0000
,
0200
0000
0300
0000
,
0020
0000
0000
0030
,
0002
0000
0000
0003
,
2000
0000
0000
0000
,
0000
3000
0000
0000
,
0000
0000
1001
0000
,
0000
0001
0000
0100
,
0000
0000
0000
0010
,
0000
0010
0000
0100
,
0000
0000
0000
1001
,
0000
0000
0000
0001
,
0000
0001
0000
1000
,
0000
0000
0000
0100
,
0000
0100
0000
0010
,
0000
0000
0000
0001
,
0000
1000
0000
0001
,
0000
0000
0000
0200
,
0000
0000
0000
0300
,
0000
0000
0000
0010
,
0000
0100
0000
0010
,
0000
0000
0000
0100
,
0000
0100
0000
0010
,
0000
0000
1000
0000
,
0001
0000
1000
0000
,
0000
0000
0200
0000
,
0000
0000
0300
0000
,
0000
0000
1000
0000
,
0001
0000
1000
0000
,
0000
0000
0010
0000
,
0010
0000
0100
0000
,
0100
0000
0002
0000
,
0003
0000
1000
0000
,
1000
0000
0100
0000
,
0000
0000
0110
0000
,
0010
0000
0020
0000
,
0030
0000
0001
0000
,
0001
0000
1000
0000
,
1001
0000
0000
0000
;

//---------------dance-double - ----------------
#NOTES:
     dance-double:
     :
     Challenge:
     14:
     0.641958,0.711598,0.891252,0.831336,0.273367,600.000000,481.000000,119.000000,111.000000,0.000000,0.000000,0.641958,0.711598,0.891252,0.831336,0.273367,600.000000,481.000000,119.000000,111.000000,0.000000,0.000000:
// measure 0
00000000
00000000
00000000
00000000
,  // measure 1
00000000
00000000
00000000
00000000
,  // measure 2
00000000
00000000
00000000
00000000
,  // measure 3
00000000
00000000
00000000
00000000
,  // measure 4
00000000
00000000
00000000
00000000
,  // measure 5
00000001
00000000
00000100
00000000
00001000
00000000
00010000
00000000
00000100
00000000
00000000
00000100
00000000
00000000
00000100
00000000
,  // measure 6
00010000
00000000
00001000
00000000
00010000
00000000
01000000
00000000
10000000
00000000
00000000
10000000
00000000
00000000
10000000
00000000
,  // measure 7
00020000
00000000
00000000
00000000
01030000
00000000
00000000
00000000
01001000
00000000
00000000
00011000
00000000
00000000
00020020
00000000
,  // measure 8
00000000
00000000
00030000
00000000
00001030
00000001
00000010
00000100
,  // measure 9
00002000
00000000
00000000
00000000
00003200
00000000
00010300
00000000
00011000
00000000
00000000
00101000
00000000
00000000
02100000
00000000
,  // measure 10
00000000
13000000
00010000
01000000
01100000
00100000
00010000
00001000
,  // measure 11
00001200
00000000
00000301
00001000
00001100
00000000
00020100
00000000
,  // measure 12
00000000
00000000
01030000
00000000
00000000
10000000
00000000
00000000
10010000
00000000
00000000
01001000
00000000
00000000
00011000
00000000
,  // measure 13
00010020
00000000
00000000
00000000
00000230
00000000
00000301
00000000
00001001
00000000
00000000
00001010
00000000
00000000
00020010
00000000
,  // measure 14
00000000
00031000
00100000
02000000
00000000
03100000
00010000
10000000
,  // measure 15
10200000
00000000
00310000
00001000
00000100
00000000
00000102
00000000
,  // measure 16
00000000
00000000
00001003
00000000
00000100
00000000
00000010
00000001
00001000
00000000
00000100
00000000
00010000
00000000
00000000
00000000
,  // measure 17
00012000
00000000
00000000
00000000
01003000
00000000
00100000
00000000
10000000
00000000
00000000
10000000
00000000
00000000
10000000
00000000
,  // measure 18
02000000
00000000
00000000
00000000
03010000
00000000
00001000
00000000
00100000
00000000
00000000
00100000
00000000
00000000
00100000
00000000
,  // measure 19
00002000
00000000
00013000
00000010
00000100
00000001
00002000
00000000
,  // measure 20
00000000
00000000
00003010
00000000
00000100
00000000
00000001
00000000
00001000
00000000
00000000
00001000
00000000
00000000
00001000
00000000
,  // measure 21
00000200
00000000
00010300
00002000
00000000
00203000
00000000
20300000
,  // measure 22
00000000
30010000
02000000
00000000
13000000
00010000
01000000
00200000
,  // measure 23
00000000
00000000
00310000
00000000
00000100
00010000
00002000
00000000
,  // measure 24
00000000
00000000
00000000
00023000
00000000
00030010
00001000
00000001
,  // measure 25
00000100
00000000
00000000
00000000
00000010
00000000
00000000
00000000
00000101
00000000
00000000
00001010
00000000
00000000
00000102
00000000
,  // measure 26
00000000
00000000
00001003
00000000
00000100
00000000
00010000
00001000
00010000
00000000
00000000
00010000
00000000
00000000
00010000
00000000
,  // measure 27
00001000
00000000
00000000
00000000
00100000
00000000
00000000
00000000
11000000
00000000
00000000
00110000
00000000
00000000
21000000
00000000
,  // measure 28
00000000
00020000
00000000
30030000
,  // measure 29
11000000
11000000
00101000
00101000
,  // measure 30
00010010
00010010
00000101
00000101
,  // measure 31
00000001
00000100
00001000
00010000
00000100
00010000
00001000
00100000
,  // measure 32
01000000
10000000
01000000
00000000
00100000
00010000
00100000
00000000
00001000
00010000
00000010
00000000
00001000
00000001
00000100
00000000
,  // measure 33
00000020
00000100
00000100
00000130
,  // measure 34
00002001
00000000
00000000
00000000
00003100
00000000
00010000
00000000
00011000
00000000
00000000
00110000
00000000
00000000
02100000
00000000
,  // measure 35
00000000
00000000
13000000
00000000
00010000
01000000
00001000
00000000
00010000
00001000
00000000
00001000
00010000
00000000
00000010
00000000
,  // measure 36
00001000
00000000
00000001
00000000
00000010
00000000
00000100
00000000
00001100
00000000
00000000
00010100
00000000
00000000
00011000
00000000
,  // measure 37
00001000
00000000
01000000
00000000
00100000
00000000
10000000
00000000
11000000
00000000
00000000
10010000
00000000
00000000
01010000
00000000
,  // measure 38
01002000
00000000
00000000
00000000
00023000
00000000
00030100
00000000
00000110
00000000
00000000
00000011
00000000
00000000
00002001
00000000
,  // measure 39
00000000
00000000
00003010
00000000
00010000
00000000
00000100
00000000
00001100
00000000
00000000
00000110
00000000
00000000
00000011
00000000
,  // measure 40
00000001
00000100
00001000
00010000
00000200
00000000
00002300
00000000
,  // measure 41
00000000
00000000
00023000
00000000
00000000
00000000
00000000
00000000
20030000
00000000
00000000
00010000
00000000
00000000
30010000
00000000
,  // measure 42
02010000
00000000
00000000
00000000
03001000
00000000
00010000
00000000
00010100
00000000
00000000
00000110
00000000
00000000
00000012
00000000
,  // measure 43
00000000
00000000
00001003
00000000
00000010
00010000
00001000
00000000
00010000
00001000
00000000
00001000
00010000
00000000
00001000
00000000
,  // measure 44
00100000
00000000
01000000
00000000
10000000
00000000
00010000
00000000
01010000
00000000
00000000
01001000
00000000
00000000
00011000
00000000
,  // measure 45
00010000
00000000
00000100
00000000
00000010
00000000
00000001
00000000
00001001
00000000
00000000
00010010
00000000
00000000
00011000
00000000
,  // measure 46
00201000
00000000
00000000
00000000
02300000
00000000
13000000
00000000
10010000
00000000
00000000
10100000
00000000
00000000
02010000
00000000
,  // measure 47
00000000
00000000
03001000
00000000
00010000
00000000
00000100
00000000
00000110
00000000
00000000
00001100
00000000
00000000
00001001
00000000
,  // measure 48
00000001
00000100
00001000
00010000
00002000
00000000
00203000
00000000
,  // measure 49
00000000
02300000
00000000
00000000
10000000
00000000
13000000
00000000
,  // measure 50
10020000
00000000
00000000
00000000
00001000
00000000
00000000
00100000
00000000
00100000
00100000
00000000
10000000
00000000
00000000
00000000
,  // measure 51
02030000
00000000
00000000
00000000
10000000
00000000
00000000
00100000
00000000
00100000
00100000
00000000
03002000
00000000
00000000
00000000
,  // measure 52
00023000
00000000
00000000
00000000
00001000
00000000
00000000
00000010
00000000
00000010
00000010
00000000
00002000
00000000
00000000
00000000
,  // measure 53
00000000
00000000
00033000
00000000
00101000
00000000
00000000
00010010
,  // measure 54
00000000
00012000
00013000
00010020
,  // measure 55
00000130
00000000
00000001
00000000
00001001
00000000
00000000
00010100
00000000
00000000
00012000
00000000
00000000
00000000
00103000
00000000
,  // measure 56
01000000
10000000
00010000
00000000
01000000
00001000
00000000
00010000
00000100
00000000
00001000
00000000
00000001
00000000
00000100
00000000
,  // measure 57
00001000
00000000
00000100
00000000
00000110
00000000
00000000
00010010
00000000
00000000
00011000
00000000
00001000
00000000
01000000
00000000
,  // measure 58
00010000
00000000
00100000
00000000
01100000
00000000
00000000
00110000
00000000
00000000
00101000
00000000
00021000
00000000
00000000
00000000
,  // measure 59
00030020
00000000
00000130
00000000
00000101
00000000
00000000
00001010
00000000
00000000
00001200
00000000
00000000
00000000
00010300
00000000
,  // measure 60
00001000
00000000
00100000
00000000
00110000
00000000
00000000
11000000
00000000
00000000
10010000
00000000
00010000
00000000
01000000
00000000
,  // measure 61
00010000
00001000
00000020
00000000
00000230
00000000
00000000
00002300
,  // measure 62
00000000
00000000
00013000
00001000
00010000
00001000
00200000
00320000
,  // measure 63
00230000
00000000
02300000
00000000
23000000
00000000
00000000
00010000
00000000
00000000
30010000
00000000
00000000
00000000
01000000
00000000
,  // measure 64
00010000
01000000
00001000
00000000
00020000
00000000
00000000
00001000
00000000
00000000
00031000
00000000
00020000
00000000
00030020
00000000
,  // measure 65
00002030
00000000
00003200
00000000
00000320
00000000
00000000
00000001
00000000
00000000
00000031
00000000
00001001
00000000
00000000
00010100
,  // measure 66
00000000
00000000
00011000
00000000
01001000
00000000
00000000
01100000
00000000
00000000
10100000
00000000
20000000
00000000
00000000
00000000
,  // measure 67
30200000
00000000
01300000
00000000
00002000
00000000
00000000
00010000
00000000
00000000
00013000
00000000
00000000
00000000
00000010
00000000
,  // measure 68
00001000
00000001
00000010
00000000
00000200
00000000
00000000
00000010
00000000
00000000
00000310
00000000
00000200
00000000
00020300
00000000
,  // measure 69
00032000
00203000
01300000
00000000
20000000
00000000
00000000
30200000
,  // measure 70
00000000
00000000
00000000
00000000
00320000
00000000
00000000
00001000
00000000
00000000
00031000
00000000
00000100
00000000
00000000
00000000
,  // measure 71
00000002
00000000
00000000
00001000
00000000
00000000
00001003
00000000
00000000
00000000
00000100
00000000
00010000
00001000
00100000
00000000
,  // measure 72
00020000
00000000
00000000
00100000
00000000
00000000
00130000
00000000
02000000
00000000
23000000
00000000
30020000
00000000
00230000
00000000
,  // measure 73
00302000
00000000
00000000
00010000
00000000
00000000
00013000
00000000
00010010
00000000
00000000
00010100
00000000
00000000
00011000
00000000
,  // measure 74
00101000
00000000
00000000
01001000
00000000
00000000
00011000
00000000
00020000
00000000
00000000
00000000
00030020
00000000
00000130
00000000
,  // measure 75
00000002
00000000
00000000
00001000
00000000
00000000
00001003
00000000
00000000
00000000
00000100
00000000
00010000
00001000
01000000
00000000
,  // measure 76
00200000
00000000
00000000
01000000
00000000
00000000
01300000
00000000
00200000
00000000
00320000
00000000
00032000
00000000
02003000
00000000
,  // measure 77
03010000
00000000
20000000
00000000
00000000
30200000
00000000
00000000
,  // measure 78
00310000
00000000
00010010
00000000
00000210
00000000
00000302
00001003
,  // measure 79
00001100
00000000
00000000
00010100
00000000
00000000
02001000
00000000
00000000
00000000
03100000
00000000
10000000
00000000
01000000
00000000
,  // measure 80
01010000
00010000
00001000
00000100
00002100
00000000
00013000
00000100
,  // measure 81
00001100
00000000
00000000
00000000
00000120
00000000
00000000
00000000
00000000
00000000
00000031
00000000
00000000
00001000
00000000
00000000
,  // measure 82
00010100
00000000
00000000
00011000
00000000
00000000
00101000
00000000
02100000
00000000
00000000
00000000
23000000
00000000
30010000
00000000
,  // measure 83
01010000
00000000
00000000
10100000
00000000
00000000
12000000
00000000
00000000
00000000
03010000
00000000
00001000
00000000
00000020
00000000
,  // measure 84
00000000
00000031
00001000
00000010
00020010
00000000
00031000
00100000
,  // measure 85
01000000
00000000
21000000
00000000
00000000
30100000
00010000
00001000
,  // measure 86
00000100
00000001
00000100
00000100
00000000
00000000
00000000
00000000
;

//---------------dance-double - ----------------
#NOTES:
     dance-double:
     :
     Hard:
     12:
     0.463280,0.582216,0.441881,0.501797,0.198472,433.000000,374.000000,59.000000,67.000000,0.000000,0.000000,0.463280,0.582216,0.441881,0.501797,0.198472,433.000000,374.000000,59.000000,67.000000,0.000000,0.000000:
00000000
00000000
00000000
00000000
,
00000000
00000000
00000000
00000000
,
00000000
00000000
00000000
00000000
,
00000000
00000000
00000000
00000000
,
00000000
00000000
00000000
00000000
,
00000001
00000000
00000000
00000000
00000100
00000000
00000000
00000000
00001000
00000000
00000000
00001000
00000000
00000000
00001000
00000000
,
00010000
00000000
00000000
00000000
00100000
00000000
00000000
00000000
10000000
00000000
00000000
10000000
00000000
00000000
10000000
00000000
,
00010000
00000000
00000000
00000000
00200000
00000000
00000000
00000000
00001000
00000000
00000000
00001000
00000000
00000000
00002000
00000000
,
00000000
00000000
00000000
00303000
,
00002000
00000000
00000000
00000000
00013000
00000000
00000000
00000000
00000010
00000000
00000000
00000010
00000000
00000000
00000020
00000000
,
00000000
00000000
00001030
00000000
00000001
00000100
00000010
00000000
,
00020000
00000000
00030100
00010000
00001000
00000000
00011000
00000000
,
00000000
00000000
00010000
00000000
00000000
00001000
00000000
00000000
00100000
00000000
00000000
00100000
00000000
00000000
00100000
00000000
,
02000000
00000000
00000000
00000000
13000000
00000000
00000000
00000000
00010000
00000000
00000000
01000000
00000000
00000000
02002000
00000000
,
00000000
00000000
03003000
00000000
00001000
00000000
00010000
00000010
,
00000100
00000000
00000100
00000001
00001000
00000000
00002000
00000000
,
00000000
00003100
00010000
00001000
00100000
01000000
10000000
00000000
,
00020000
00000000
00000000
00000000
01030000
00000000
00000000
00001000
,
00000000
00000000
00001000
00000000
00010000
00000000
00000000
00000000
00000010
00000000
00000000
00000010
00000000
00000000
00000010
00000000
,
00002000
00000000
00000000
00003001
00000100
00000000
00000000
00000010
,
00000000
00001000
00001000
00000000
00010100
00000000
00010000
00000000
,
00002000
00000000
00000000
00000000
00103000
00000000
00000000
01000000
,
00000000
00000000
01000000
00000000
10000000
00000000
00000000
00000000
00010000
00000000
00000000
00010000
00000000
00000000
00010000
00000000
,
02000000
00000000
00000000
03001000
00020000
00000000
00002000
00000000
,
00000000
00000000
00000000
00033000
,
00010000
00000000
00000000
00000000
00000010
00000000
00000000
00000000
00000110
00000000
00000000
00000110
00000000
00000000
00000220
00000000
,
00000000
00000000
00000000
00000000
00000330
00000000
00000000
00000000
00000100
00000000
00000000
00000100
00000000
00000000
00000100
00000000
,
00001000
00000000
00000000
00000000
00100000
00000000
00000000
00000000
01100000
00000000
00000000
01100000
00000000
00000000
02100000
00000000
,
00000000
00200000
00000000
03300000
,
00100000
00100000
00001000
00001000
,
00010000
00010000
00000010
00000010
,
00000100
00000001
00001000
00000000
00000100
00010000
00001000
00000000
,
00010000
01000000
10000000
00010000
10000000
00100000
01000000
00001000
,
00020000
00001000
00001000
00031000
,
02000000
00000000
00000000
00000000
03100000
00000000
00000000
00000000
10100000
00000000
00000000
10100000
00000000
00000000
20100000
00000000
,
00000000
00000000
00000000
00000000
30010000
00000000
00000000
00000000
00100000
00000000
00000000
00100000
00000000
00000000
00100000
00000000
,
00002000
00000000
00000000
00000000
00013000
00000000
00000000
00000000
00010010
00000000
00000000
00010010
00000000
00000000
00010010
00000000
,
00000010
00000000
00000000
00000000
00001000
00000000
00000001
00000000
00000010
00000000
00000000
00000010
00000000
00000000
00000010
00000000
,
00000200
00000000
00000000
00000000
00010300
00000000
00000000
00000000
00011000
00000000
00000000
00011000
00000000
00000000
00012000
00000000
,
00000000
00000000
00000000
00000000
01003000
00000000
00000000
00000000
01010000
00000000
00000000
01010000
00000000
00000000
01010000
00000000
,
02000000
00000000
03100000
10000000
01000000
00000000
00200000
00000000
,
00000000
00302000
00000000
00000000
00020000
00000000
00033000
00000000
,
00020000
00000000
00000000
00000000
00030100
00000000
00000000
00000000
00000110
00000000
00000000
00000110
00000000
00000000
00000120
00000000
,
00000000
00000000
00000000
00000000
00000031
00000000
00000000
00000000
00001000
00000000
00000000
00001000
00000000
00000000
00001000
00000000
,
00000200
00000000
00000000
00000000
00010300
00000000
00000000
00000000
00011000
00000000
00000000
00011000
00000000
00000000
00011000
00000000
,
00001000
00000000
00000000
00000000
00100000
00000000
01000000
00000000
10000000
00000000
00000000
10000000
00000000
00000000
10000000
00000000
,
00020000
00000000
00000000
00000000
00130000
00000000
00000000
00000000
00101000
00000000
00000000
00101000
00000000
00000000
00102000
00000000
,
00000000
00000000
00000000
00000000
00013000
00000000
00000000
00000000
00010100
00000000
00000000
00010100
00000000
00000000
00010100
00000000
,
00000200
00000000
00000310
00000001
00000100
00000000
00000020
00000000
,
00000000
00020030
00000000
00000000
00001000
00000000
00031000
00000000
,
00200000
00000000
00000000
00000000
00310000
00000000
00000000
10000000
00000000
10000000
00100000
00000000
01000000
00000000
00000000
00000000
,
00002000
00000000
00000000
00000000
00013000
00000000
00000000
00000100
00000000
00000100
00000010
00000000
00000001
00000000
00000000
00000000
,
00002000
00003020
00020030
00002000
,
00000000
00000000
00033000
00000000
00002000
00000000
00000000
02003000
,
00000000
00200000
03300000
00200000
,
10300000
00000000
00000000
00000000
10010000
00000000
00000000
00110000
00000000
00000000
20010000
00000000
00000000
00000000
00000000
00000000
,
30010000
00000000
00000000
00000000
01000000
00000000
00000000
01000000
00000000
00000000
01000000
00000000
00002000
00000000
00000000
00000000
,
00013000
00000000
00000000
00000000
00010100
00000000
00000000
00000110
00000000
00000000
00010100
00000000
00010000
00000000
00000000
00000000
,
00000100
00000000
00000010
00000000
00000001
00000000
00000000
00000001
00000000
00000000
00000001
00000000
00002000
00000000
00000000
00000000
,
00003100
00000000
00000000
00000000
00010100
00000000
00000000
00011000
00000000
00000000
00020100
00000000
00000000
00000000
00000000
00000000
,
00031000
00000000
00000000
00000000
00101000
00000000
00000000
00110000
00000000
00000000
00101000
00000000
00002000
00000000
00000000
00000000
,
00103000
00010000
10000000
00000000
00020000
00000000
00000000
02030000
,
00000000
00000000
00001000
00000000
03001000
00000000
00010000
00000010
,
00001000
00000000
00000100
00000000
00000010
00000000
00000000
00000010
00000000
00000000
00000010
00000000
00000000
00000000
00000001
00000000
,
00001000
00000000
00000100
00000000
00010000
00000000
00000000
00010000
00000000
00000000
00010000
00000000
00001000
00000000
00100000
00000000
,
01000000
00000000
00100000
00000000
00010000
00000000
00000000
00010000
00000000
00000000
00010000
00000000
10000000
00000000
00000000
10000000
,
00000000
00000000
10000000
00000000
10010000
00000000
00000000
10010000
00000000
00000000
10010000
00000000
20000000
00000000
00000000
00000000
,
30100000
00000000
00000000
00000000
01000000
00000000
00000000
01000000
00000000
00000000
01000000
00000000
00000000
00000000
00001000
00000000
,
00010000
00000000
00000100
00000000
00000010
00000000
00000000
00000010
00000000
00000000
00000010
00000000
00000001
00000000
00000000
00000000
,
00001000
00000000
00001001
00000000
00000002
00000000
00000000
00000203
,
00000000
00000000
00000000
00000000
00001300
00000000
00000000
00001000
00000000
00000000
00001000
00000000
00000000
00000000
00000000
00000000
,
00010000
00000000
00000000
00010000
00000000
00000000
00010000
00000000
00000000
00000000
00100000
00000000
10000000
00000000
00010000
00000000
,
00100000
00000000
00000000
00100000
00000000
00000000
00100000
00000000
00001000
00000000
00010000
00000000
00001000
00000000
00000100
00000000
,
00000010
00000000
00000000
00000010
00000000
00000000
00000010
00000000
00001000
00000000
00000000
00001000
00000000
00000000
00001000
00000000
,
00001010
00000000
00000000
00001010
00000000
00000000
00001010
00000000
00002000
00000000
00000000
00000000
00003001
00000000
00000000
00000000
,
00000011
00000000
00000000
00000011
00000000
00000000
00000011
00000000
00000000
00000000
00000010
00000000
00000001
00000000
00001000
00000000
,
00000100
00000000
00000000
00000100
00000000
00000000
00000100
00000000
00010000
00000000
00000000
00000000
00001000
00000000
00000000
00000000
,
00011000
00000000
00020000
00000000
00000000
00032000
00000000
00000000
,
01003000
10010000
20000000
31000000
,
00100000
00000000
00000000
00100000
00000000
00000000
00200000
00000000
00000000
00000000
00000000
00000000
00301000
00000000
00000000
00000000
,
00010000
00000100
00000010
00000000
00000002
00000000
00000103
00001000
,
00010000
00000000
00000000
00000000
00011000
00000000
00000000
00000000
00000000
00000000
00001000
00000000
00000000
01000000
00000000
00000000
,
00010000
00000000
00000000
00010000
00000000
00000000
00010000
00000000
20000000
00000000
00000000
00000000
31000000
00000000
00000000
00000000
,
00100000
00000000
00000000
00001000
00000000
00000000
00202000
00000000
00000000
00000000
00000000
00000000
00303000
00000000
00000000
00000000
,
00010000
00000000
00000010
00001000
00000100
00000000
00000100
00000010
,
00000001
00000000
00000002
00000000
00000000
00001003
00000100
00010000
,
00001000
00100000
01000000
01000000
00000000
00000000
00000000
00000000
;

//---------------dance-double - ----------------
#NOTES:
     dance-double:
     :
     Medium:
     8:
     0.314560,0.387582,0.059916,0.381965,0.116087,294.000000,286.000000,8.000000,51.000000,0.000000,0.000000,0.314560,0.387582,0.059916,0.381965,0.116087,294.000000,286.000000,8.000000,51.000000,0.000000,0.000000:
00000000
00000000
00000000
00000000
,
00000000
00000000
00000000
00000000
,
00000000
00000000
00000000
00000000
,
00000000
00000000
00000000
00000000
,
00000000
00000000
00000000
00000000
,
10000000
01000000
00010000
00000000
,
00001000
00000010
00000001
00000000
,
00001000
00000000
00000001
00000000
00001000
00000000
00000000
00002002
,
00000000
00000000
00000000
00003003
,
00000002
00000000
00000000
00000000
00000003
00000000
00000000
00000000
00001000
00000000
00000000
00001000
00000000
00000000
00001000
00000000
,
00000000
00000000
00000100
00000000
00010000
00000000
00001000
00100000
,
00002000
00000000
00000000
02003000
00000000
00000000
03200000
00000000
,
00000000
00000000
10300000
00000000
00000000
00010000
00000000
00000000
10000000
00000000
00000000
00010000
00000000
00000000
10000000
00000000
,
02000000
00000000
00000000
00000000
03000000
00000000
00000000
00000000
00100000
00000000
00000000
00100000
00000000
00000000
00100000
00000000
,
00000000
00000000
00000000
00000000
00001000
00000000
00010000
00000100
,
00010000
00001000
00000010
00000002
,
00000000
00000000
00000000
00000003
,
00002000
00000000
00003010
00000000
,
00010000
00010000
00001000
00000000
,
00200000
00000000
01300000
00000000
,
10000000
10000000
00010000
00000000
,
02000000
00000000
03001000
00000000
,
00100000
00100000
00010000
00000000
,
00002000
00000000
00003200
00000000
,
00000020
00000000
00000000
00000330
,
00000010
00000000
00000000
00000000
00000001
00000000
00000000
00000000
00001000
00000000
00000000
00000001
00000000
00000000
00002000
00000000
,
00000000
00000000
00000001
00003001
,
00001000
00000000
00000000
00000000
00000100
00000000
00000000
00000000
00010000
00000000
00000000
00001000
00000000
00000000
00020000
00000000
,
00000000
00002000
00000000
00033000
,
00001000
00001000
01000000
01000000
,
00010000
00010000
10000000
10000000
,
00010000
01000000
00001000
00010000
,
00000100
00001000
00000100
00000000
00000010
00000001
00001000
00000000
,
00002002
00000000
00000000
00003003
,
00000001
00000000
00000000
00000000
00000100
00000000
00000000
00000000
00000010
00000000
00000000
00000010
00000000
00000000
00000010
00000000
,
00000000
00010000
00000100
00010100
,
00010000
00000000
00000000
00000000
00001000
00000000
00000000
00000000
01000000
00000000
00000000
00010000
00000000
00000000
01000000
00000000
,
00010000
00000000
00000000
00000000
10000000
00000000
00000000
00000000
01000000
00000000
00000000
01000000
00000000
00000000
01000000
00000000
,
00200000
00000000
00000000
00000000
00300000
00000000
00000000
00000000
00001000
00000000
00000000
00010000
00000000
00000000
00001000
00000000
,
00000000
00000000
00000000
00000000
00000100
00000000
00000000
00000000
00000010
00000000
00000000
00000100
00000000
00000000
00000010
00000000
,
00002000
00000000
00003001
00000020
,
00000000
00000230
00000000
00000000
00000320
00000000
00000030
00000000
,
00000100
00000000
00000000
00000000
00010000
00000000
00000000
00000000
00001000
00000000
00000000
00001000
00000000
00000000
00001000
00000000
,
00000000
01000000
00010000
01010000
,
01000000
00000000
00000000
00000000
00100000
00000000
00000000
00000000
10000000
00000000
00000000
00010000
00000000
00000000
10000000
00000000
,
00010000
00000000
00000000
00000000
00100000
00000000
00000000
00000000
00001000
00000000
00000000
00001000
00000000
00000000
00001000
00000000
,
00020000
00000000
00000000
00000000
00030000
00000000
00000000
00000000
00000010
00000000
00000000
00000010
00000000
00000000
00000010
00000000
,
00000000
00000000
00000000
00000000
00001000
00000000
00000000
00000000
00000001
00000000
00000000
00000001
00000000
00000000
00000001
00000000
,
00002000
00000000
00003100
00020000
,
00000000
00032000
00000000
00000000
00023000
00000000
00030000
00000000
,
00002000
01000000
01000000
01000000
,
00023000
00000100
00000100
00000100
,
00032000
00010000
00010000
00020000
,
00000000
00000000
00033000
00000000
00001000
00000000
00000000
00010000
,
00000000
00002000
00003000
00010000
,
00000100
00000000
00000000
00000000
00000010
00000000
00000000
00000010
00000000
00000000
00000010
00000000
00000000
00000000
00000000
00000000
,
00000001
00001000
00001001
00000001
,
00000100
00000000
00000000
00000000
00000010
00000000
00000000
00000100
00000000
00000000
00000010
00000000
00000100
00000000
00000000
00000000
,
00000010
00000000
00000000
00000000
00010000
00000000
00000000
00010000
00000000
00000000
00010000
00000000
00002000
00000000
00000000
00000000
,
00103000
00000000
00000000
00000000
00010000
00000000
00000000
00010000
00000000
00000000
00010000
00000000
00000000
00000000
00000000
00000000
,
01000000
00000000
00000000
00000000
00100000
00000000
00000000
00100000
00000000
00000000
00100000
00000000
20000000
00000000
00000000
00000000
,
00000000
00000000
31000000
00000000
00020000
00000000
00000000
00032000
,
00000000
00023000
00030000
00000010
,
00000100
00000000
00000000
00000000
00000001
00000000
00000000
00000001
00000000
00000000
00000001
00000000
00000000
00000000
00000000
00000000
,
00000010
00001000
00010000
00001000
,
00100000
00000000
00000000
00000000
01000000
00000000
00000000
01000000
00000000
00000000
01000000
00000000
00100000
00000000
00000000
00000000
,
00010000
10000000
01000000
00200000
,
00300000
00000000
00000000
00000000
00010000
00000000
00000000
00010000
00000000
00000000
00010000
00000000
00000000
00000000
00000000
00000000
,
01000000
00100000
00010000
00000010
,
00000100
00000000
00000101
00000000
00000002
00000000
00000000
00002003
,
00000000
00003200
00000300
00000000
,
00010000
00000000
00000000
00010000
00000000
00000000
00010000
00000000
00000000
00000000
00000000
00000000
00001000
00000000
00000000
00000000
,
01000000
00100000
10000000
00010000
,
01000000
00000000
00000000
01000000
00000000
00000000
01000000
00000000
00001000
00000000
00000000
00000000
00010000
00000000
00000000
00000000
,
00000100
00000010
00000001
00001000
,
00000010
00000000
00000000
00000010
00000000
00000000
00000010
00000000
00000000
00000000
00000000
00000000
00010000
00000000
00000000
00000000
,
00001000
00000100
00001000
00010000
,
00110000
00000000
00200000
00000000
00000000
20300000
00000000
00000000
,
30100000
00100000
02000000
03000000
,
00001000
00000000
00000000
00001000
00000000
00000000
00001000
00000000
00000000
00000000
00000000
00000000
00010000
00000000
00000000
00000000
,
00000010
00000000
00001000
00000100
00002000
00000000
00000000
00003002
,
00000000
00000000
00000000
00000000
00000203
00000000
00000000
00000000
00000000
00000000
00000310
00000000
00000000
00010000
00000000
00000000
,
00000010
00000000
00000000
00010000
00000000
00000000
00000010
00000000
00002000
00000000
00000000
00000000
00003000
00000000
00000000
00000000
,
00000100
00000000
00000000
00000100
00000000
00000000
00000100
00000000
00000000
00000000
00000000
00000000
00000000
00000000
00000000
00000000
,
00010000
00000000
00001000
00100000
00001000
00000000
00010000
00000000
,
01000000
20000000
30000000
00010000
,
10000000
10010000
00000000
00000000
;

//---------------dance-double - ----------------
#NOTES:
     dance-double:
     :
     Easy:
     5:
     0.212916,0.257639,0.104853,0.059916,0.000000,199.000000,185.000000,14.000000,8.000000,0.000000,0.000000,0.212916,0.257639,0.104853,0.059916,0.000000,199.000000,185.000000,14.000000,8.000000,0.000000,0.000000:
00000000
00000000
00000000
00000000
,
00000000
00000000
00000000
00000000
,
00000000
00000000
00000000
00000000
,
00000000
00000000
00000000
00000000
,
00000000
00000000
00000000
00000000
,
10000000
00000000
00010000
00000000
,
01000000
00000000
00001000
00000000
,
00010000
00000000
00000010
00000000
,
00002002
00000000
00003003
00000000
,
00000001
00000000
00001000
00001000
,
00001000
00000000
00000010
00000000
,
00010000
00000000
00001000
00000000
,
01000000
00000000
00100000
00100000
,
00100000
00000000
10000000
00000000
,
00010000
00000000
00100000
00000000
,
00001000
00000000
00010000
00000000
,
00000010
00000000
00000100
00000000
,
00000001
00000000
00001000
00000000
,
00000100
00000000
00010000
00000000
,
00001000
00000000
00100000
00000000
,
01000000
00000000
00100000
00000000
,
00010000
00000000
10000000
00000000
,
00100000
00000000
01000000
00000000
,
00001000
00000000
00010000
00000000
,
00000100
00000000
00000100
00000000
,
00000010
00000000
00000001
00000001
,
00000001
00000000
00001001
00000000
,
00001000
00000000
00000100
00000100
,
00000100
00000000
00010000
00000000
,
00001000
00000000
00001000
00000000
,
01000000
00000000
01000000
00000000
,
00100000
00000000
10000000
00000000
,
00010000
00000000
00100000
00000000
,
00001000
00000000
00000000
00000000
,
00010000
00000000
00000010
00000010
,
00000010
00000000
00001001
00000000
,
00001000
00000000
00000100
00000100
,
00000100
00000000
00010000
00010000
,
00010000
00000000
00011000
00000000
,
00001000
00000000
01000000
01000000
,
01000000
00000000
00100000
00000000
,
10000000
00000000
10000000
00000000
,
00010000
00000000
00100000
00100000
,
00100000
00000000
10010000
00000000
,
00010000
00000000
01000000
01000000
,
01000000
00000000
00001000
00001000
,
00001000
00000000
00011000
00000000
,
00010000
00000000
00000100
00000100
,
00000100
00000000
00000010
00000000
,
00000001
00000000
00000001
00000000
,
00002000
00003000
00000020
00000030
,
00020000
00030000
00002000
00003000
,
00200000
00300000
02000000
00000000
,
00000000
03000000
00000000
00000000
00000000
00000000
00000000
00000000
,
00000000
10000000
10000000
00010000
,
00000000
01000000
01000000
01000000
,
00000000
10010000
00000000
00010000
,
00000000
01000000
01000000
01000000
,
00000000
00001000
00001000
00001000
,
00000000
00011000
00000000
00010000
,
00000000
00000100
00000100
00000100
,
00000000
00000010
00000000
00000001
,
00000000
00000001
00000000
00001000
,
00000000
00000010
00000010
00000010
,
00000000
00001001
00000000
00001000
,
00000000
00000100
00000100
00000100
,
00010000
00010000
00000000
00001000
,
00000000
01000000
01000000
01000000
,
00000000
10010000
00000000
00010000
,
00000000
00100000
00000000
00001000
,
00000000
00010000
00000000
00000010
,
00000000
00000100
00000100
00000000
,
00001001
00000000
00000001
00000000
,
00001000
00001000
00001000
00000100
,
00000100
00000000
00010000
00000000
,
00001000
00001000
00001000
00000000
,
00011000
00000000
00010000
00000000
,
00001000
00000000
01000000
00000000
,
01000000
00000000
10010000
00000000
,
00010000
00010000
00010000
00000000
,
00100000
00000000
00001000
00000000
,
00010000
00000000
00000010
00000000
,
00001000
00001000
00001000
00000000
,
00000001
00000000
00000010
00000000
,
00000100
00000000
00010000
00000000
,
00001000
00000000
01000000
00000000
,
10010000
00000000
00000000
00000000
;
