#VERSION:0.83;
#TITLE:after school NAVIGATORS;
#SUBTITLE:;
#ARTIST:NicoRinPana;
#TITLETRANSLIT:;
#SUBTITLETRANSLIT:;
#ARTISTTRANSLIT:;
#GENRE:;
#ORIGIN:;
#CREDIT:;
#BANNER:after school NAVIGATORS.png;
#BACKGROUND:after school NAVIGATORS-bg.png;
#PREVIEWVID:;
#JACKET:after school NAVIGATORS-jacket.png;
#CDIMAGE:;
#DISCIMAGE:;
#LYRICSPATH:;
#CDTITLE:;
#MUSIC:after school NAVIGATORS.ogg;
#OFFSET:2.200000;
#SAMPLESTART:29.000000;
#SAMPLELENGTH:15.000000;
#SELECTABLE:YES;
#BPMS:0.000=100.000,
36.000=200.000,
356.000=180.000,
360.000=175.000,
361.000=160.000;
#STOPS:;
#DELAYS:;
#WARPS:;
#TIMESIGNATURES:0.000=4=4;
#TICKCOUNTS:0.000=4;
#COMBOS:0.000=1;
#SPEEDS:0.000=1.000=0.000=0;
#SCROLLS:0.000=1.000;
#FAKES:;
#LABELS:0.000=Song Start;
#BGCHANGES:;
#KEYSOUNDS:;
#ATTACKS:
;

//---------------dance-double - ----------------
#NOTEDATA:;
#CHARTNAME:;
#STEPSTYPE:dance-double;
#DESCRIPTION:;
#CHARTSTYLE:;
#DIFFICULTY:Challenge;
#METER:18;
#RADARVALUES:0.877908,1.090555,0.506444,0.264560,0.582033,813.000000,746.000000,67.000000,35.000000,0.000000,0.000000,0.000000,0.000000,0.000000,0.877908,1.090555,0.506444,0.264560,0.582033,813.000000,746.000000,67.000000,35.000000,0.000000,0.000000,0.000000,0.000000,0.000000;
#CREDIT:Kekkle;
#DISPLAYBPM:0.000000;
#NOTES:
00000000
00000000
00000000
00000000
,
00000000
00000000
00000000
00000000
,
00000000
00000000
00000000
00000000
,
00000000
00000000
00000000
00000000
,
00000000
00000000
00000000
00000000
,
10000000
01000000
00010000
00002000
00000000
00000000
00000000
00000000
,
01003000
00100000
00010000
00000200
00000000
00000000
00000000
00000000
,
00000310
00000001
00000100
00002000
00000000
00000000
00000000
00000000
,
01003000
00010000
00100000
00002000
00000000
00000000
00000000
00000000
,
00013000
00000010
00000100
00000000
00000000
00000000
00000110
00000000
00000000
00000000
00000000
00000000
00000000
00000000
00000000
00000000
,
00000000
00000000
00000000
00000000
,
00000001
00001000
00000100
00000000
00000000
00000000
00010100
00000000
00000000
00000000
00000000
00000000
00000000
00000000
00000000
00000000
,
00000000
00000000
00000000
00000000
,
00010000
00001000
01000000
00000000
00000000
00000000
01100000
00000000
00000000
00000000
00000000
00000000
00000000
00000000
00000000
00000000
,
00000000
00000000
00000000
00000000
00000000
00000000
00000000
00000000
00100000
10000000
00100000
10000000
01000000
00100000
00010000
00000000
,
01010000
00000000
01000000
00001000
00010000
00000000
00011000
00000000
00001000
00000100
00000010
00000000
00001000
00000000
00001001
00000000
,
00000001
00000100
00001000
00010000
01000000
00000000
01100000
00000000
,
00100000
00010000
00100000
00000000
01000000
10000000
01000000
00000000
00100000
00001000
00010000
00000000
00001000
00010000
00000010
00000000
,
00000100
00000001
00000100
00000001
00001000
00000000
00000100
00010000
00000100
00010000
00001000
00000000
01000000
00010000
00100000
00000000
,
01000000
00000000
10000000
00000000
00010000
01000000
00010000
00000000
10000000
01000000
00100000
00000000
00001000
00010000
00000100
00000000
,
00001000
00000001
00000010
00000000
00000100
00000000
00001000
00000000
00000100
00010000
00000100
00010000
00001000
01000000
00001000
01000000
,
00100000
00000000
10000000
00000000
00010000
10000000
00100000
00000000
01000000
00010000
10000000
00000000
01000000
00100000
00001000
00000000
,
00010000
00000010
00010000
00000010
00000100
00000000
00000001
00001000
00000001
00001000
00000100
00000000
00000010
00000000
00000220
00000000
,
00000330
00000100
00010000
00001000
00010000
00100000
10000000
20020000
,
30030000
00000000
00010000
00000000
00100000
01000000
00100000
00001000
00010000
00001000
00010000
00000010
00001000
00000100
00000010
00000001
,
00000010
00000020
00000001
00000000
00001000
00000000
00000130
00000000
,
00020000
00001000
00100000
00031000
,
01000000
02000000
03001000
00000000
00100000
00110000
00000000
20020000
,
30030000
00000000
10000000
00000000
01000000
00100000
00010000
00000000
00100000
00001000
00010000
00000010
00002000
00000000
00000000
00000000
,
00003001
00000100
00000010
00010000
00001000
00000010
00001000
00010000
,
01000000
00000000
00100000
00000000
00001000
00000000
01000000
00000000
00100000
10000000
00010000
10000000
00100000
00000000
00000000
00000000
,
01000000
00100000
10000000
00010000
00100000
01000000
00010000
00001000
,
00000100
00000000
00000001
00000000
00000010
00000000
00001000
00000000
00010000
00000000
01000000
00000000
00100000
00010000
00100000
01000000
,
10000000
00100000
00010000
00001000
00000100
00000010
00010000
00001000
,
01000000
00100000
10000000
01000000
00010000
00001000
00000100
00000220
,
00000330
00000010
00000001
00000010
00010000
00001000
00100000
02200000
,
03300000
00000000
01000000
00000000
10000000
00000000
00100000
00000000
01000000
00001000
00010000
00000000
00001000
00010000
00000010
00000000
,
00000100
00000000
00000001
00000000
00000010
00000000
00000100
00010000
00001000
00000000
01000000
00000000
00100000
00000000
10000000
00000000
,
01000000
00000000
00010000
00000000
00001000
00000000
00000010
00000000
00001000
01000000
00010000
01000000
00100000
00000000
00000000
00000000
,
01000000
00000000
00010000
00000000
00100000
00000000
01000000
10000000
00010000
00000000
01000000
00000000
00001000
00000000
00010000
00000000
,
00000010
00000000
00000100
00000000
00001000
00000000
00010000
00000000
00000100
00000000
00000010
00000001
00001000
00000100
00010000
00001000
,
01000000
00100000
10000000
00100000
00010000
00001000
00000100
00000010
,
00010000
00001000
00010000
01000000
00010000
00001000
00000010
00000220
,
00000330
00000100
00000001
00000100
00010000
00001000
01000000
02200000
,
03300000
00000000
00100000
00000000
10000000
00000000
00010000
00000000
00100000
01000000
00100000
00001000
00010000
00001000
00010000
00000100
,
00001000
00001000
00000001
00000100
00000200
00000000
00000000
00001300
,
00010000
00100000
01000000
00010000
10000000
01000000
00010000
01000000
,
01000000
00010000
00001000
01000000
02000000
00000000
00000000
03100000
,
00010000
00001000
00000100
00000001
00000010
00001000
00010000
00000010
,
00000010
00000100
00001000
01000000
02000000
00000000
00000000
03010000
,
00100000
10000000
00100000
00001000
00010000
00000010
00000100
00000001
,
00001001
00001000
00000100
00010000
00011000
00011000
00000000
01001000
,
00000000
01000000
00100000
10000000
20020000
00000000
30030000
00000000
,
11000000
10010000
00110000
00101000
,
00011000
00010010
00011000
01001000
,
00011000
00010010
00000110
00000101
,
00001010
00000000
00000000
00000000
00010010
00000000
00000000
00000000
00010000
00001000
00010000
00100000
01000000
00100000
10000000
00010000
,
10000000
01000000
00010000
00001000
00000100
00000001
00000010
00001000
,
00010000
01000000
10000000
01000000
00010000
00001000
00000100
00000001
,
00000010
00000100
00000010
00000100
00010000
00001000
00010000
00001000
01000000
00010000
01000000
00001000
00010000
00001000
01000000
00010000
,
20000000
00000000
00000000
00000000
,
30100000
00000000
01000000
00010000
01000000
00000000
00100000
10000000
00100000
00000000
01000000
00001000
01000000
00000000
00001000
00010000
,
00001000
00000000
01000000
00001000
01000000
00000000
00001000
00010000
00001000
00000000
00010000
00000010
00010000
00000000
00000010
00000100
,
00000010
00000000
00000100
00000001
00000100
00000000
00000001
00001000
00000001
00000000
00001000
00000100
00001000
00000000
00000100
00010000
,
00000100
00000000
00010000
00001000
00010000
00000000
00001000
00100000
00001000
00000000
00010000
00001000
01000000
00000000
00100000
00000000
,
10000000
00010000
10000000
00010000
01000000
00001000
01000000
00001000
00010000
00001000
00010000
00001000
00010000
00000000
00000010
00000000
,
00000100
00000001
00000100
00000001
00001000
00000100
00001000
00000100
00010000
00000100
00010000
00000100
00010000
00000000
00001000
00000000
,
00100000
00010000
00100000
00010000
10000000
00010000
10000000
00010000
01000000
00001000
01000000
00001000
00010000
00000000
00000010
00000000
,
00000100
00000001
00001000
00000000
00000000
00000000
00001001
00000000
00000000
00000000
00000022
00000000
00000000
00000000
00000033
00000000
,
00000010
00000001
00000010
00000100
00001000
00000100
00010000
00001000
00010000
00001000
00010000
00000010
00000100
00000010
00000100
00000001
,
00000010
00000001
00000100
00001000
00010000
01000000
10000000
00000000
,
00100000
01000000
00100000
01000000
00010000
01000000
00001000
00010000
00001000
00010000
00001000
00100000
01000000
00100000
01000000
10000000
,
00100000
10000000
01000000
00010000
00001000
00000100
00000010
00000000
,
00001000
00000010
00000100
00000010
00001000
00000100
00000010
00000001
00000100
00000010
00001000
00000100
00010000
00001000
00100000
00010000
,
01000000
00100000
01000000
00100000
10000000
01000000
10000000
00000000
,
00010000
00100000
01000000
00100000
00010000
01000000
00100000
10000000
01000000
00100000
00010000
01000000
00001000
00010000
00000010
00001000
,
00000100
00000010
00000100
00000110
00000000
00002002
00000000
00003003
,
00000101
00000100
00001100
00000000
00011000
00001000
01001000
00000000
,
01010000
00010000
10010000
00010000
00110000
00010000
01010000
00000000
,
01001000
00001000
00011000
00000000
00010010
00000010
00000110
00000000
,
00000101
00000001
00000011
00000001
00001001
00000001
00000101
00000000
,
00000100
00001000
00010000
00100000
10000000
00100000
00001000
00000100
,
00000010
00000100
00010000
00000100
00000001
00000100
00001000
00001100
,
00000000
00000000
00000100
00000000
00010000
00000000
00001000
00000000
01000000
00010000
00100000
00000000
00000000
00000000
01100000
00000000
,
00000000
00000000
01000000
00000000
00010000
00000000
00001000
00000000
00000010
00000001
00000100
00000000
00000000
00000000
00000110
00000000
,
00000000
00000000
00000010
00000000
00001000
00000000
00010000
00000000
01000000
00100000
10000000
00000000
00000000
00000000
10010000
00000000
,
00000000
00010000
01000000
00001000
00010000
00000000
00010100
00000000
,
00000220
00000000
00000000
00000000
,
00000000
00000000
00000000
00000000
,
00000000
00000000
00000000
00000330
,
00000010
00000001
00000010
00000100
00010000
00000100
00010000
00001000
01000000
00000000
00000000
00000000
01100000
00000000
00000000
00000000
,
00100000
10000000
01000000
00000000
00010000
00000000
00001000
00000000
00000100
00000000
00000001
00000000
00001001
00000000
00000000
00000000
,
00000010
00000001
00000100
00000000
00001000
00000000
00010000
00000000
01000000
00000000
10000000
00000000
10010000
00000000
00000000
00000000
,
01000000
10000000
00100000
00000000
00010000
00000000
00001000
00000000
00000010
00000000
00000001
00000000
00001001
00000000
00000000
00000000
,
00001000
00000001
00001000
00010000
10000000
00010000
00001000
00000000
,
00000010
00001000
00000100
00000000
00000001
00000000
00000100
00000000
00010000
00001000
01000000
00000000
01100000
00000000
00000000
00000000
,
01000000
00010000
00100000
00000000
10000000
00000000
00100000
00000000
00001000
00010000
00000010
00000000
00000110
00000000
00000000
00000000
,
00000100
00000001
00000010
00000000
00001000
00000000
00010000
00000000
01000000
10000000
00010000
00000000
10010000
00000000
00000000
00000000
,
10000000
00000000
00100000
00000000
00010000
00000000
00001000
00000000
00000010
00000000
00000001
00000000
00000100
00001000
00010000
00100000
,
02000000
00000000
03000000
00000000
;

//---------------dance-single - ----------------
#NOTEDATA:;
#CHARTNAME:;
#STEPSTYPE:dance-single;
#DESCRIPTION:;
#CHARTSTYLE:;
#DIFFICULTY:Challenge;
#METER:18;
#RADARVALUES:0.930820,1.128161,0.566915,0.309913,0.608489,862.000000,787.000000,75.000000,41.000000,0.000000,0.000000,0.000000,0.000000,0.000000,0.930820,1.128161,0.566915,0.309913,0.608489,862.000000,787.000000,75.000000,41.000000,0.000000,0.000000,0.000000,0.000000,0.000000;
#CREDIT:Kekkle;
#NOTES:
// measure 0
0000
0000
0000
0000
,  // measure 1
0000
0000
0000
0000
,  // measure 2
0000
0000
0000
0000
,  // measure 3
0000
0000
0000
0000
,  // measure 4
0000
0000
0000
0000
,  // measure 5
1000
0010
0100
0002
0000
0000
0000
0000
,  // measure 6
0013
1000
0010
0200
0000
0000
0000
0000
,  // measure 7
1300
0001
0100
0020
0000
0000
0000
0000
,  // measure 8
0130
1000
0100
0002
0000
0000
0000
0000
,  // measure 9
1003
0010
0100
0000
0000
0000
0110
0000
0000
0000
0010
0000
0100
0000
0000
0000
,  // measure 10
0100
0000
0100
0000
0001
1000
0001
0100
,  // measure 11
0010
1000
0001
0000
0000
0000
1001
0000
0000
0000
1000
0000
0010
0000
0000
0000
,  // measure 12
0010
0000
0010
0000
0100
0001
0010
0001
,  // measure 13
1000
0100
0010
0000
0000
0000
0011
0000
0000
0000
0001
0000
1000
0000
0000
0000
,  // measure 14
1000
0000
0000
0000
1000
0000
0000
0000
0001
0100
0001
0100
0010
1000
0010
0000
,  // measure 15
1010
0000
1000
0001
0010
0000
0011
0000
0001
0100
0010
0000
1010
0000
1000
0000
,  // measure 16
0100
0001
0100
1000
0010
0000
0110
0000
,  // measure 17
0100
0001
0100
0000
0010
0100
0010
0000
1000
0010
1000
0000
0001
1000
0001
0000
,  // measure 18
0010
0100
0010
0100
1000
0000
0001
0100
0001
0100
0010
0000
1000
0000
0100
0000
,  // measure 19
0100
0000
0010
0000
0001
1000
0001
0000
1000
0010
1000
0000
0010
0100
0010
0000
,  // measure 20
1000
0001
0010
0000
0100
0000
0010
0000
0001
0100
0001
0100
0010
1000
0001
0010
,  // measure 21
0001
0000
1000
0000
0010
1000
0001
0000
0010
0001
1000
0000
0010
0100
0001
0000
,  // measure 22
0010
0100
0010
0001
1000
0000
0010
0100
0010
0100
0001
0000
1000
0100
0020
0000
,  // measure 23
0000
0000
0031
0100
0010
0000
1000
0000
0100
0000
0001
0000
0100
0000
2000
0000
,  // measure 24
0000
0000
3010
0100
0001
0000
1000
0000
0100
0010
0100
1000
0001
0100
0001
0100
,  // measure 25
0010
0020
1000
0000
0100
0230
0000
0302
,  // measure 26
0000
0013
0100
0100
1000
0001
0100
0010
,  // measure 27
1010
1010
0000
0000
0101
0101
0000
1001
,  // measure 28
0000
0000
1000
0000
0010
0000
0100
0000
0001
0100
0010
1000
0002
0000
0000
0000
,  // measure 29
1003
0010
0100
1000
0001
0010
0100
0001
,  // measure 30
1000
0000
0100
0000
0010
0000
0100
0000
1000
0001
0100
0001
1000
0000
0010
0000
,  // measure 31
0100
0001
1000
0100
0001
1000
0010
0001
,  // measure 32
0100
0000
0010
0000
1000
0000
0001
0010
0001
0010
0100
1000
0010
0100
0001
0100
,  // measure 33
0010
1000
0100
0010
0100
0001
0100
1000
,  // measure 34
0010
0000
0100
0000
0001
0000
0010
0000
0100
1000
0001
1000
0100
0000
0220
0000
,  // measure 35
0330
0010
0001
0100
1000
0001
0010
0220
,  // measure 36
0330
0000
0100
0000
0001
0000
1000
0000
0100
0010
0001
1000
0010
0100
0010
1000
,  // measure 37
0010
0100
1000
0100
0001
0010
0100
0010
,  // measure 38
1000
0000
0010
0000
0001
0000
0100
0000
0010
1000
0001
1000
0010
0000
0100
0000
,  // measure 39
0001
0010
0100
1000
0100
0001
0100
1000
,  // measure 40
0010
0000
0100
0000
0001
0000
0010
0100
0010
0001
1000
0010
0100
0001
1000
0001
,  // measure 41
0010
0100
0010
0001
0100
1000
0001
0010
,  // measure 42
0100
0000
0001
0000
1000
0000
0100
0000
0010
0001
1000
0001
0010
0000
0220
0000
,  // measure 43
0330
0100
1000
0010
0001
0010
0100
0220
,  // measure 44
0330
0000
0010
0000
1000
0000
0100
0000
0010
0001
0010
0100
1000
0001
1000
0001
,  // measure 45
0100
0010
0010
0100
0102
0000
1003
0100
,  // measure 46
0010
0010
0001
0100
0110
0000
1010
0000
,  // measure 47
1000
1000
0100
0010
0200
0000
0301
0100
,  // measure 48
1000
0010
0100
0100
0001
1000
1001
0000
,  // measure 49
0001
0001
0100
0010
2010
0000
3100
0001
,  // measure 50
0100
1000
0010
0100
0010
0100
0101
0000
,  // measure 51
1001
0000
1000
0100
0010
0100
0000
1100
,  // measure 52
0000
1000
0001
0100
0220
0000
0000
0330
,  // measure 53
1010
0110
0101
0011
,  // measure 54
1100
1001
0101
0110
,  // measure 55
1001
1100
0110
1100
,  // measure 56
1001
0000
0000
0000
0101
0000
0000
0000
0100
0010
0100
0001
1000
0100
0010
0001
,  // measure 57
0010
1000
0010
0001
0100
1000
0001
0010
,  // measure 58
0100
0001
1000
0100
0010
0100
1000
0010
,  // measure 59
0100
0001
0100
0010
1000
0001
0010
0100
1000
0100
0010
0001
1000
0010
0100
0001
,  // measure 60
0200
0000
0020
0330
,  // measure 61
1000
0000
0100
0010
0100
0000
1000
0001
1000
0000
0001
0100
0001
0000
1000
0100
,  // measure 62
0010
0000
0001
0100
0010
0000
1000
0100
0010
0000
0001
0100
0010
0000
1000
0000
,  // measure 63
0001
0000
0010
0100
0010
0000
0001
1000
0001
0000
0100
0010
0100
0000
0010
1000
,  // measure 64
0010
0000
1000
0001
1000
0000
0001
0010
0100
0000
1000
0010
0100
0000
0001
0000
,  // measure 65
0010
0100
0010
0100
1000
0001
1000
0001
0100
0010
1000
0001
0010
0000
0100
0000
,  // measure 66
1000
0001
1000
0001
0100
0010
0100
0010
1000
0001
0010
0100
1000
0000
0100
0000
,  // measure 67
0010
0001
0010
0001
1000
0100
1000
0100
0010
0001
1000
0010
0100
0000
0001
0000
,  // measure 68
1001
0101
0000
0110
0000
2002
0000
3003
,  // measure 69
0001
0010
0001
1000
0001
0100
0001
0010
0001
1000
0010
1000
0001
1000
0100
1000
,  // measure 70
0001
0100
0010
1000
0001
0100
1001
0000
,  // measure 71
1000
0010
1000
0001
1000
0100
1000
0010
1000
0001
0010
0001
1000
0001
0100
0001
,  // measure 72
1000
0001
0010
1000
0010
0100
1001
0000
,  // measure 73
0100
0010
0100
0010
1000
0100
1000
0100
0010
0100
0010
0100
1000
0100
1000
0100
,  // measure 74
0010
0001
0100
0010
1000
0100
1001
0000
,  // measure 75
0010
0100
0010
0100
0001
0010
0001
0010
0001
0100
0001
0100
0001
0010
0001
0010
,  // measure 76
0100
1000
0010
0110
0000
2002
0000
3003
,  // measure 77
0101
0001
1001
1000
1100
1000
1001
0001
,  // measure 78
0101
0001
1001
0001
0011
0001
0101
0000
,  // measure 79
1100
1000
1001
0001
0011
0001
0101
0100
,  // measure 80
0110
0100
1100
0100
0101
0100
0110
0000
,  // measure 81
0010
0100
0100
0010
1000
1000
0100
0001
,  // measure 82
1000
0010
0100
1000
0001
0100
0010
0220
,  // measure 83
0330
0000
0010
0000
1000
0000
0100
0000
0010
0001
0100
0000
0000
0000
0220
0000
,  // measure 84
0330
0000
0010
0000
1000
0000
0100
0000
0010
0001
0100
0000
0000
0000
0220
0000
,  // measure 85
0330
0000
0010
0000
0100
0000
0001
0000
1000
0100
0010
0000
0000
0000
0220
0000
,  // measure 86
0330
0100
1000
0001
0101
0000
0110
0000
,  // measure 87
2002
0000
0000
0000
,  // measure 88
0000
0000
0000
0000
,  // measure 89
0000
0000
0000
3003
,  // measure 90
0001
0100
0010
1000
0100
0010
0001
1000
0010
0000
0000
0000
0110
0000
0000
0000
,  // measure 91
0100
0001
1000
0000
0100
0000
0100
0000
0001
0000
0001
0000
0100
0000
0100
0000
,  // measure 92
0010
0001
1000
0000
0010
0000
0010
0000
0100
0000
0100
0000
0001
0000
0001
0000
,  // measure 93
1000
0010
0100
0000
0010
0000
0010
0000
1000
0000
1000
0000
0001
0000
0001
0000
,  // measure 94
0010
0010
0100
1000
1001
0010
0110
0000
,  // measure 95
0100
0001
1000
0000
0100
0000
0010
0000
0100
1000
0010
0100
0001
0000
1000
0000
,  // measure 96
0100
0010
0001
0000
1000
0000
0010
0000
0100
0001
1000
0100
0010
0000
0001
0000
,  // measure 97
0010
0001
0100
0000
0010
0000
1000
0000
0010
0100
0001
1000
0100
0000
0010
0000
,  // measure 98
0100
0100
1000
1000
0010
0100
0001
0010
,  // measure 99
0220
0000
0330
0000
;

//---------------dance-single - ----------------
#NOTEDATA:;
#CHARTNAME:;
#STEPSTYPE:dance-single;
#DESCRIPTION:;
#CHARTSTYLE:;
#DIFFICULTY:Hard;
#METER:16;
#RADARVALUES:0.808798,1.010242,0.498885,0.272119,0.313693,749.000000,683.000000,66.000000,36.000000,0.000000,0.000000,0.000000,0.000000,0.000000,0.808798,1.010242,0.498885,0.272119,0.313693,749.000000,683.000000,66.000000,36.000000,0.000000,0.000000,0.000000,0.000000,0.000000;
#CREDIT:Kekkle;
#NOTES:
0000
0000
0000
0000
,
0000
0000
0000
0000
,
0000
0000
0000
0000
,
0000
0000
0000
0000
,
0000
0000
0000
0000
,
1000
0001
1000
0200
0000
0000
0000
0000
,
0310
0001
0010
0200
0000
0000
0000
0000
,
1300
0010
1000
0002
0000
0000
0000
0000
,
0013
0100
1000
0020
0000
0000
0000
0000
,
0130
0100
0000
1001
0000
0001
1000
0100
,
0010
0001
0010
0001
1000
0010
0100
0000
,
0010
0010
0000
1001
0000
0010
0100
1000
,
0001
0100
0001
1000
0100
0010
0100
0000
,
1000
1000
0000
0110
0000
0010
0100
0010
,
1000
0001
0010
0001
0010
0100
1000
0010
,
0110
0100
0001
1001
1000
0100
0000
0010
,
0001
1000
0010
0100
0010
0000
0110
0000
,
0100
0100
0001
1000
0100
0100
0010
0001
,
1000
0010
1000
0010
1000
0000
0001
0010
0001
0010
0001
0000
0100
0000
0010
0000
,
1000
1000
0100
0010
0001
0001
0100
0010
,
1000
0001
1000
0001
1000
0000
0100
0010
0100
0010
0100
0000
1000
0000
1001
0000
,
0001
1000
0010
0100
0001
0001
0010
0100
,
1000
0100
1000
0100
1000
0000
0001
0100
0001
0100
0001
0000
1000
0000
1020
0000
,
0000
0130
0001
0010
0100
1000
0001
0200
,
0000
0000
0310
0000
1000
0000
0001
0000
0010
0100
0010
0000
0001
1000
0001
1000
,
0100
0020
0001
0000
0100
0000
0001
0000
,
0130
2000
0001
0000
0100
0000
0001
0000
,
3100
0100
0010
0000
0001
0001
0000
2001
,
0000
3100
0010
0010
0001
1000
1001
0000
,
0001
0100
0010
1000
0100
0010
0001
0010
,
0100
1100
0000
1001
0000
0101
0000
0110
,
0010
1000
0001
0010
0100
0010
0001
0100
,
1000
0000
0100
0000
0001
0000
0010
0000
0100
0000
1000
0000
0001
0100
0001
0100
,
0010
1000
0100
0010
0001
1000
0010
0100
,
0010
1010
0000
0101
0000
0011
0010
0200
,
0000
1300
0010
0010
0100
0001
1000
0200
,
0000
0000
0310
0000
0010
0000
0001
0000
1000
0010
1000
0010
0100
0010
0100
0010
,
1000
0001
0010
0100
0010
0100
1000
0001
,
0100
0110
0000
0101
0000
1001
0000
1100
,
0100
0010
1000
0010
0100
1000
0001
0100
,
0010
0000
0100
0000
1000
0000
0100
0000
0001
0000
0010
0000
0100
1000
0100
1000
,
0001
0100
1000
0100
0010
0100
0001
1000
,
0100
0110
0000
0011
0000
1001
1000
0020
,
0000
0130
0001
0001
1000
0100
0010
0200
,
0000
0000
0310
0000
0010
0000
0001
0000
1000
0000
0010
0000
0100
0001
0100
0001
,
1000
0100
1000
0001
0201
0000
0000
0000
,
0000
0000
0000
0310
1000
1000
0100
0001
,
0100
0010
0001
1000
1010
0000
0010
0110
,
0000
0100
0001
0001
1000
1000
0100
0010
,
0100
0100
1000
0010
0210
0000
0000
0000
,
0000
0000
0000
0301
1000
0100
0010
0100
,
1100
0000
1000
0001
0100
0010
0000
0110
,
0000
0100
0001
1000
0200
0000
0300
0000
,
0110
0110
0011
0011
,
1001
1001
1010
1010
,
0110
0101
0110
1010
,
1001
0011
1001
1010
,
0010
0100
0010
0100
0001
1000
0001
1000
,
0100
0010
0100
0010
0001
1000
0001
1000
,
0001
0100
0001
0000
1000
0100
1000
0000
0001
0100
0010
0100
0010
1000
0001
1000
,
0002
0000
0000
0000
,
1003
0000
0010
0100
0010
0000
1000
0000
0001
0000
0010
0100
0010
0000
0001
1000
,
0001
0200
0310
2000
3001
0020
0130
1000
,
0001
0000
1000
0010
1000
0000
0100
0000
0010
0000
0001
0100
0001
0000
1000
0100
,
1000
0000
0001
0100
0001
0000
0010
0000
0100
0000
0010
0000
0001
1000
0001
1000
,
0010
0000
0100
0001
0100
0000
0010
0000
1000
0000
0001
0010
0001
0000
1000
0000
,
0100
0000
0010
0001
0010
0000
0100
0000
1000
0000
0001
0100
0001
0000
1000
0000
,
0001
0010
0001
0000
1000
0010
1000
0000
0001
0100
0001
0000
1000
0100
1000
0000
,
0100
0010
0100
0010
0001
0000
1001
0000
0000
0000
0220
0000
0000
0000
0330
0000
,
0010
0000
1000
0100
1000
0000
0010
0000
0100
0000
0001
0010
0001
0000
1000
0010
,
0100
0002
1003
0200
0310
0002
1003
0010
,
0100
0000
0001
1000
0001
0000
0010
0000
0100
0000
1000
0001
1000
0000
0010
0100
,
0010
0000
0100
0001
0100
0000
0010
0000
1000
0000
0100
0000
0010
0001
0010
0001
,
1000
0000
0010
0100
0010
0000
1000
0000
0100
0000
0010
0001
0010
0000
0001
0000
,
1000
0000
0001
0100
0001
0000
0010
0000
0100
1000
0100
0000
1000
0000
0010
0100
,
0010
0000
0100
0001
1000
0000
0100
0010
0001
0100
0010
1000
0100
0010
0001
0100
,
0010
1001
0000
0110
0000
2002
0000
3003
,
1100
1100
1001
1001
,
0001
0100
1000
0100
0001
0010
0001
0000
,
0101
0101
0110
0110
,
0010
1000
0100
0001
0100
1000
0010
0000
,
0100
0001
0100
0001
1000
0100
1000
0100
,
0010
0001
0010
0001
0100
0010
1000
2002
,
3003
0001
0100
1000
0100
0001
0000
2002
,
3003
1000
0100
0001
0100
1000
0000
2002
,
3003
0001
0010
1000
0010
0001
0000
1001
,
0000
0001
0100
0000
0010
0000
0110
0000
,
2002
0000
0000
0000
,
0000
0000
0000
0000
,
0000
0000
0000
3003
,
1000
0000
0001
0000
0100
0010
1000
0001
0010
0000
0000
0000
0110
0000
0000
0000
,
0100
1000
0100
0000
0010
0000
0010
0000
0001
0000
0001
0000
0100
0000
0100
0000
,
0010
1000
0010
0000
0100
0000
0100
0000
0001
0000
0001
0000
0010
0000
0010
0000
,
0100
1000
0100
0000
0010
0000
0010
0000
0001
0000
0001
0000
0100
0000
0100
0000
,
0010
2000
0000
3001
0010
0100
1000
0000
,
0001
0100
0001
0000
1000
0000
0100
0000
0010
0001
0010
0000
0010
0000
0000
0000
,
0001
0100
0001
0000
0010
0000
0100
0000
1000
0001
1000
0000
1000
0000
0000
0000
,
0010
0100
0010
0000
1000
0000
0001
0000
0010
0100
0010
0000
0010
0000
0000
0000
,
0001
0000
1000
0000
0010
0000
1000
0000
0100
0000
0010
0000
0001
1000
0010
0100
,
0010
0000
0000
0000
;

//---------------dance-double - ----------------
#NOTEDATA:;
#CHARTNAME:;
#STEPSTYPE:dance-double;
#DESCRIPTION:;
#CHARTSTYLE:;
#DIFFICULTY:Hard;
#METER:16;
#RADARVALUES:0.791521,0.935410,0.619827,0.272119,0.268340,733.000000,651.000000,82.000000,36.000000,0.000000,0.000000,0.000000,0.000000,0.000000,0.791521,0.935410,0.619827,0.272119,0.268340,733.000000,651.000000,82.000000,36.000000,0.000000,0.000000,0.000000,0.000000,0.000000;
#CREDIT:Kekkle;
#NOTES:
00000000
00000000
00000000
00000000
,
00000000
00000000
00000000
00000000
,
00000000
00000000
00000000
00000000
,
00000000
00000000
00000000
00000000
,
00000000
00000000
00000000
00000000
,
00001000
01000000
00100000
20000000
00000000
00000000
00000000
00000000
,
31000000
00010000
00001000
00000020
00000000
00000000
00000000
00000000
,
00000031
00001000
00000100
00020000
00000000
00000000
00000000
00000000
,
00031000
00100000
01000000
20000000
00000000
00000000
00000000
00000000
,
30010000
00010000
00000000
01001000
00000000
00000000
01000000
00000000
,
00001000
00000000
00010000
00000000
00000010
00001000
00000001
00000010
,
00000100
00000100
00000000
00010010
00000000
00000000
00010000
00000000
,
00001000
00000000
01000000
00000000
00100000
10000000
00010000
00100000
,
01000000
01000000
00000000
00101000
00000000
00000000
00001000
00000000
,
00010000
00000000
00000010
00000000
00000100
00000001
00001000
00000100
,
00010100
00010000
00001000
01001000
01000000
00100000
00010000
00100000
,
01000000
00001000
00010000
00000010
00000100
00000000
00000110
00000000
,
00000010
00001000
00000100
00010000
00001000
00010000
00100000
01000000
,
00010000
10000000
00010000
10000000
00010000
00000000
00100000
01000000
00100000
01000000
00100000
00000000
00010000
00000000
00001000
00000000
,
00000100
00000010
00000100
00010000
00001000
00000100
00000001
00001000
,
00000100
00000010
00000100
00000010
00000100
00000000
00001000
00000001
00001000
00000001
00001000
00000000
00000010
00000000
00000110
00000000
,
00000100
00001000
00010000
00100000
10000000
00010000
00100000
01000000
,
00100000
00010000
00100000
00010000
00100000
00000000
00001000
00010000
00001000
00010000
00001000
00000000
00010000
00000000
00010020
00000000
,
00000000
00000130
00001000
00010000
00100000
00010000
00001000
02001000
,
00000000
00000000
03010000
00000000
10000000
00000000
01000000
00000000
00100000
00001000
00010000
00000000
00000100
00010000
00000100
00010000
,
00001000
00002000
01000000
00100000
,
00023000
00000010
00000100
00031000
,
00011000
00011000
00000000
00000000
00011000
00011000
00000000
01001000
,
01000000
00010000
00100000
01000000
00010000
00001000
00011000
00000000
,
00010000
00000010
00000100
00000001
00000010
00001000
00010000
00001000
,
01000000
01100000
00000000
10100000
00000000
10010000
00000000
00110000
,
00100000
00001000
00010000
00001000
00000100
00000001
00000010
00001000
,
00010000
00000000
00001000
00000000
00000100
00000000
00002000
00000000
00000000
00000000
01003000
00000000
00010000
00100000
00010000
00100000
,
01000000
10000000
00100000
00010000
00001000
00010000
00100000
01000000
,
00001000
00011000
00000000
00010010
00000000
00000110
00000100
00000002
,
00000000
00001003
00000100
00010000
00001000
01000000
00100000
20000000
,
00000000
00000000
31000000
00000000
00010000
00000000
00001000
00000000
00000010
00000000
00000100
00000000
00001000
00000001
00001000
00000001
,
00000100
00000010
00001000
00010000
01000000
00100000
10000000
00010000
,
00100000
00101000
00000000
00011000
00000000
00010010
00000000
00000110
,
00000100
00000001
00001000
00000100
00010000
00000010
00010000
00001000
,
01000000
00000000
00001000
00000000
00010000
00000000
01000000
00000000
10000000
00000000
00100000
00000000
01000000
00001000
01000000
00001000
,
00010000
00000100
00001000
00000010
00010000
00001000
00000100
00000001
,
00000010
00000110
00000000
00010100
00000000
00011000
00001000
02000000
,
00000000
03100000
00010000
00001000
00010000
01000000
10000000
00020000
,
00000000
00000000
01030000
00000000
00001000
00000000
00010000
00000000
00000100
00001000
00000100
00001000
00000001
00001000
00000001
00001000
,
00000010
00000010
00000100
00001000
00021000
00000000
00000000
00000000
,
00000000
00000000
00000000
00031000
01000000
00100000
10000000
00010000
,
00100000
00001000
00010000
01000000
00200000
00000000
00301000
00011000
,
00000000
00010000
00010010
00000010
00000100
00001000
00000001
00000010
,
00000010
00010000
00001000
00010000
02000000
00000000
00000000
00000000
,
00000000
00000000
00000000
03100000
00001000
00010000
00000010
00000100
,
00000101
00000000
00000001
00001000
00000100
00010100
00000000
00011000
,
00000000
00001000
01000000
00100000
20000000
00000000
00000000
30000000
,
10100000
10100000
01010000
01010000
,
00011000
00011000
00001010
00001010
,
00000101
00001001
00001100
00010100
,
00011000
01001000
01100000
10100000
,
10000000
01000000
00010000
00001000
00000010
00000001
00001000
00000001
,
00000100
00001000
00010000
00100000
10000000
01000000
00100000
00001000
,
00010000
00000010
00010000
00000000
00000010
00001000
00000010
00000000
00000100
00000001
00000100
00000001
00001000
00000100
00001000
00000100
,
00020000
00000000
00000000
00000000
,
00031000
00000000
01000000
00010000
01000000
00000000
00100000
00000000
10000000
00000000
01000000
00100000
01000000
00000000
00100000
00000000
,
00001000
00020000
00030010
00002000
00003001
00000020
00000130
00010000
,
00001000
00000000
00100000
01000000
00100000
00000000
00010000
00000000
10000000
00000000
00100000
01000000
00100000
00000000
01000000
00001000
,
01000000
00000000
00001000
00010000
00001000
00000000
00010000
00000000
00000100
00000000
00000010
00000000
00000001
00001000
00000001
00001000
,
00000010
00000000
00010000
00001000
00010000
00000000
00001000
00000000
01000000
00000000
00001000
00010000
00001000
00000000
00010000
00000000
,
00000100
00000000
00010000
00001000
00010000
00000000
00001000
00000000
00100000
00000000
00001000
00010000
00001000
00000000
00010000
00000000
,
00000010
00001000
00000010
00000000
00010000
00001000
00010000
00000000
00001000
01000000
00001000
00000000
01000000
00100000
01000000
00000000
,
00010000
10000000
00010000
10000000
01000000
00000000
01100000
00000000
00000000
00000000
00202000
00000000
00000000
00000000
00303000
00000000
,
00001000
00000000
00010000
00000010
00010000
00000000
00000100
00000000
00000010
00000000
00000001
00001000
00000001
00000000
00000100
00000000
,
00001000
00020000
00130000
02000000
03001000
00020000
01030000
10000000
,
00100000
00000000
01000000
00001000
01000000
00000000
00010000
00000000
00100000
00000000
00001000
00010000
00001000
00000000
00010000
00000100
,
00010000
00000000
00000100
00000010
00000100
00000000
00001000
00000000
00000001
00000000
00000100
00000000
00001000
00010000
00001000
00010000
,
00000010
00000000
00010000
00001000
00010000
00000000
00001000
00000000
01000000
00000000
00001000
00010000
00001000
00000000
00010000
00000000
,
00001000
00000000
00010000
00000000
00000100
00000000
00010000
00000000
00001000
00100000
00001000
00000000
01000000
00000000
00100000
00000000
,
10000000
01000000
10000000
00000000
01000000
00000000
00010000
00000000
00001000
00000100
00001000
00000100
00000010
00000100
00000010
00000000
,
00000100
00001001
00000000
00010100
00000000
00022000
00000000
00033000
,
01001000
01001000
01100000
01100000
,
10100000
01001000
00011000
00010010
,
00000101
00000101
00000110
00000110
,
00001010
00011000
01001000
01100000
,
00100000
10000000
01000000
00010000
00001000
00010000
00100000
01000000
,
00001000
00010000
00000100
00000010
00000001
00000100
00001000
00022000
,
00033000
00010000
00100000
10000000
01000000
00010000
00000000
00022000
,
00033000
00001000
00000010
00000001
00000100
00001000
00000000
00022000
,
00033000
00010000
00100000
10000000
01000000
00010000
00000000
00011000
,
00000000
00010000
00000010
00000000
00000100
00000000
00000101
00000000
,
00002002
00000000
00000000
00000000
,
00000000
00000000
00000000
00000000
,
00000000
00000000
00000000
00003003
,
00000001
00000000
00001000
00000000
00000100
00010000
00001000
01000000
00010000
00000000
00000000
00000000
10010000
00000000
00000000
00000000
,
10000000
01000000
00010000
00001000
00000100
00000001
00001000
00000000
,
00000001
00000010
00001000
00010000
00100000
10000000
00010000
00000000
,
10000000
01000000
00010000
00001000
00000100
00000001
00001000
00000000
,
00000001
00001000
00000100
00010000
00001000
01000000
00100000
00000000
,
10000000
00000000
01000000
00000000
00010000
00000000
00001000
00000000
00000100
00000001
00000100
00000000
00000110
00000000
00000000
00000000
,
00000001
00000000
00000010
00000000
00001000
00000000
00010000
00000000
00100000
10000000
00100000
00000000
01100000
00000000
00000000
00000000
,
10000000
00000000
01000000
00000000
00010000
00000000
00001000
00000000
00000100
00000001
00000100
00000000
00000110
00000000
00000000
00000000
,
00000001
00000000
00000100
00000000
00001000
00000000
00010000
00000000
00001000
00000000
01000000
00000000
00010000
10000000
00010000
10000000
,
01000000
00000000
00000000
00000000
;

//---------------dance-single - ----------------
#NOTEDATA:;
#CHARTNAME:;
#STEPSTYPE:dance-single;
#DESCRIPTION:;
#CHARTSTYLE:;
#DIFFICULTY:Medium;
#METER:14;
#RADARVALUES:0.656541,0.785744,0.355267,0.362826,0.120942,608.000000,561.000000,47.000000,48.000000,0.000000,0.000000,0.000000,0.000000,0.000000,0.656541,0.785744,0.355267,0.362826,0.120942,608.000000,561.000000,47.000000,48.000000,0.000000,0.000000,0.000000,0.000000,0.000000;
#CREDIT:Kekkle;
#NOTES:
0000
0000
0000
0000
,
0000
0000
0000
0000
,
0000
0000
0000
0000
,
0000
0000
0000
0000
,
0000
0000
0000
0000
,
0001
0100
0010
2000
0000
0000
0000
0000
,
3100
0010
0001
2000
0000
0000
0000
0000
,
3010
0100
0001
0200
0000
0000
0000
0000
,
0301
0010
0100
0020
0000
0000
0000
0000
,
0031
0001
0000
1001
0000
0000
0000
0000
,
0000
0000
0000
0000
,
1000
1000
0000
1001
0000
0000
0000
0000
,
0000
0000
0000
0000
,
0001
0001
0000
1001
0000
0000
0000
0000
,
0000
0000
0000
0000
1000
0010
0100
0001
,
1001
0000
1000
0010
0110
0000
0100
0002
,
0000
0013
0100
0010
0110
0000
1001
0000
,
0001
0010
1000
0010
0001
1000
0010
0100
,
0001
1000
0001
0000
1000
0000
0001
1000
0001
0000
1000
0000
0100
0000
0020
0000
,
0000
0031
1000
0010
0100
1000
0100
0010
,
1000
0001
1000
0000
0001
0000
1000
0001
1000
0000
0001
0000
1000
0000
0200
0000
,
0000
0310
0001
0010
0100
1000
0001
0100
,
0010
0100
0010
0000
0100
0000
0010
0100
0010
0000
0100
0000
0001
0000
2000
0000
,
0000
3100
0001
0100
1000
0001
0100
0020
,
0000
0031
0010
1000
0001
0010
0200
0000
,
0310
0110
0000
0000
0000
0000
0000
0000
,
0000
0000
0000
0000
,
1100
1100
0000
0000
0101
0101
0000
2002
,
3003
0001
0100
1000
0100
0010
1001
0000
,
1000
0001
0010
1000
0010
0001
0100
0010
,
1000
0002
0000
0203
0000
0320
0000
0000
,
1030
0100
0001
0100
0010
0100
1000
0001
,
0100
0000
0020
0000
0000
0000
2030
0000
0000
0000
3001
0000
0010
0001
0010
0001
,
0010
0001
1000
0010
0100
1000
0100
0010
,
1000
0020
0000
0230
0000
0302
0000
2003
,
0000
0000
0100
0000
0001
0000
3010
0200
,
0000
0000
0000
0000
1000
0000
0000
0000
0010
0000
0000
0000
0301
1000
0001
1000
,
0001
1000
0100
0001
0100
0010
0100
1000
,
0001
0200
0000
0320
0000
2030
0000
0000
,
3001
0010
1000
0010
0100
1000
0001
0100
,
0010
0000
2000
0000
0000
0000
3020
0000
0000
0000
0130
0000
0001
0100
0001
0100
,
0001
1000
0100
0010
0100
0001
0100
1000
,
0010
0200
0000
0302
0000
2003
0000
3200
,
0000
0000
0001
0000
0010
0000
1300
0002
,
0000
0000
0000
0000
0100
0000
0000
0000
1000
0000
0000
0000
0103
0010
0100
0010
,
0100
0001
1000
0100
0020
0000
0000
0000
,
0001
0000
0000
0000
0130
0000
1000
0001
,
0100
0010
0001
0010
0100
0000
0001
1001
,
0000
1000
0100
0001
0100
1000
0001
0100
,
0010
1000
0010
0100
0002
0000
0000
0000
,
0100
0000
0000
0000
1003
0000
0100
0010
,
0001
0000
1000
0010
0100
0001
0000
2000
,
0000
3001
0010
0001
2002
0000
3003
0000
,
1000
1100
0001
0101
,
1000
1010
0001
0011
,
0110
0110
1100
1100
,
1001
1001
0101
0101
,
0001
1000
0100
0010
0001
1000
0010
0100
,
0001
0100
0010
1000
0001
0010
0100
0000
,
1000
0000
0001
0000
0100
0000
0010
0000
1000
0000
0010
0000
0100
0010
0100
0010
,
0200
0000
0000
0300
,
0001
0100
1000
0100
0001
0010
0100
1000
,
0001
0000
1000
0100
1000
0000
0001
0000
0100
0000
0001
0100
0001
0000
0000
0000
,
1000
0100
0001
0100
1000
0010
0100
0001
,
0100
0000
0010
1000
0010
0000
0100
0000
0001
0000
1000
0100
1000
0000
0001
0000
,
0100
1000
0100
0010
0100
1000
0100
0001
,
0010
1000
0010
0100
0010
1000
0010
0001
,
0100
0010
1000
0001
0010
0100
0010
0001
,
1000
1010
0000
0110
0000
2002
0000
3003
,
0001
0010
1000
0010
0001
1000
0010
0100
,
0001
0000
0100
0001
0100
0000
0010
0000
1000
0000
0001
0010
0001
0000
0000
0000
,
1000
0010
0001
0010
1000
0100
0010
0001
,
0100
0000
0010
1000
0010
0000
0100
0000
0001
0000
0010
0001
0010
0000
0100
0000
,
1000
0100
0010
0100
1000
0100
0010
0001
,
0100
0010
0001
0010
0100
0010
0001
0010
,
1000
0000
0001
0000
0010
0001
0010
0000
0100
0000
1000
0000
0001
0100
0001
0000
,
1000
0100
0010
0000
0001
0000
0101
0000
0000
0000
0220
0000
0000
0000
0330
0000
,
1010
1010
0101
0101
,
0001
0000
1000
0000
0100
0010
0001
0000
,
0011
0011
1100
1100
,
1000
0000
0001
0000
0100
0010
1000
0000
,
0001
0010
0001
0010
0100
1000
0100
1000
,
0001
0100
0001
0100
0010
1000
0010
2000
,
0000
0000
3001
0000
0100
0110
0000
0020
,
0000
0000
1030
0000
0001
1001
0000
2000
,
0000
0000
3100
0000
0010
0011
0000
1001
,
0000
1000
0010
0001
0020
0000
1030
0000
,
2002
0000
0000
0000
,
0000
0000
0000
0000
,
0000
0000
0000
3003
,
0001
0100
0010
1000
0001
0000
1001
0000
,
1000
0100
0001
0100
0010
0100
1000
1000
,
0001
0100
1000
0100
0010
0100
0001
0001
,
1000
0100
0001
0100
0010
0100
1000
1000
,
0001
0100
1000
0001
0010
1000
0001
0000
,
1000
0000
0100
0000
0010
0000
0001
0000
0010
0001
0010
0000
0100
0000
0100
0000
,
1000
0000
0001
0000
0100
0000
0010
0000
1000
0010
1000
0000
0001
0000
0001
0000
,
0010
0000
0100
0000
1000
0000
0010
0000
0100
0001
0100
0000
0010
0000
0010
0000
,
0100
0000
0001
0000
1000
0000
0100
0000
0010
0000
0001
0000
1000
0001
1000
0001
,
1000
0000
0000
0000
;

//---------------dance-double - ----------------
#NOTEDATA:;
#CHARTNAME:;
#STEPSTYPE:dance-double;
#DESCRIPTION:;
#CHARTSTYLE:;
#DIFFICULTY:Medium;
#METER:15;
#RADARVALUES:0.602549,0.673495,0.241884,0.332590,0.060471,558.000000,526.000000,32.000000,44.000000,0.000000,0.000000,0.000000,0.000000,0.000000,0.602549,0.673495,0.241884,0.332590,0.060471,558.000000,526.000000,32.000000,44.000000,0.000000,0.000000,0.000000,0.000000,0.000000;
#CREDIT:Kekkle;
#NOTES:
00000000
00000000
00000000
00000000
,
00000000
00000000
00000000
00000000
,
00000000
00000000
00000000
00000000
,
00000000
00000000
00000000
00000000
,
00000000
00000000
00000000
00000000
,
10000000
00100000
01000000
00020000
00000000
00000000
00000000
00000000
,
00031000
00000010
00000100
00000002
00000000
00000000
00000000
00000000
,
00001003
00000100
00000010
00002000
00000000
00000000
00000000
00000000
,
00013000
01000000
00100000
00020000
00000000
00000000
00000000
00000000
,
01030000
00001000
00000000
00011000
00000000
00000000
00000000
00000000
,
00000000
00000000
00000000
00000000
,
00000100
00010000
00000000
00011000
00000000
00000000
00000000
00000000
,
00000000
00000000
00000000
00000000
,
01000000
00001000
00000000
00011000
00000000
00000000
00000000
00000000
,
00000000
00000000
00000000
00000000
00001000
00010000
00000010
00000000
,
00000110
00000000
00000100
00000001
00001000
00000100
00000000
00010100
,
00000000
00010000
00001000
01000000
00100000
00000000
10010000
00000000
,
10000000
01000000
00010000
01000000
00100000
00001000
00010000
00000000
,
00000010
00001000
00000010
00000000
00001000
00000000
00000010
00001000
00000010
00000000
00000100
00000000
00000001
00000000
00002000
00000000
,
00000000
00003001
00000010
00000100
00010000
00000100
00001000
00000000
,
00000100
00010000
00000100
00000000
00010000
00000000
00000100
00010000
00000100
00000000
00010000
00000000
00001000
00000000
02000000
00000000
,
00000000
03100000
00010000
00100000
10000000
00100000
01000000
00000000
,
00010000
10000000
00010000
00000000
10000000
00000000
00010000
10000000
00010000
00000000
10000000
00000000
01000000
00000000
00200000
00000000
,
00000000
00301000
00010000
00001000
00000100
00000010
00010000
00000200
,
00000000
00001300
00000001
00000010
00001000
00010000
00002000
00000000
,
00013000
00011000
00000000
00000000
00000000
00000000
00000000
00000000
,
00000000
00000000
00000000
00000000
,
00001000
01001000
00000000
00000000
00100000
00110000
00000000
00020000
,
00000000
10030000
00100000
00010000
00001000
00000000
00011000
00000000
,
00010000
00000100
00000010
00000100
00001000
00000100
00000001
00000100
,
00000010
00000002
00000000
00002003
00000000
00003020
00000000
00000000
,
00010030
00001000
00000100
00001000
00010000
00100000
10000000
00010000
,
00100000
00000000
02000000
00000000
00000000
00000000
23000000
00000000
00000000
00000000
30010000
00000000
01000000
00001000
01000000
00001000
,
01000000
00010000
00100000
00001000
00010000
00000010
00000100
00001000
,
00000100
00000020
00000000
00002030
00000000
00003002
00000000
00000023
,
00000000
00000000
00000001
00000000
00000100
00000000
00001030
00020000
,
00000000
00000000
00000000
00000000
00000010
00000000
00000000
00000000
00000100
00000000
00000000
00000000
00031000
01000000
00001000
01000000
,
00001000
00100000
00010000
00100000
10000000
00100000
00010000
01000000
,
00001000
00020000
00000000
00030020
00000000
00000230
00000000
00000000
,
00001300
00010000
00001000
00000100
00000001
00000010
00000100
00010000
,
00001000
00000000
00000200
00000000
00000000
00000000
00000320
00000000
00000000
00000000
00010030
00000000
00000100
00001000
00000100
00001000
,
00000100
00010000
00001000
00010000
00100000
00010000
00001000
00010000
,
00000100
00000020
00000000
00000032
00000000
00002003
00000000
00003020
,
00000000
00000000
00000100
00000000
00001000
00000000
00010030
00002000
,
00000000
00000000
00000000
00000000
00000100
00000000
00000000
00000000
00010000
00000000
00000000
00000000
00103000
00010000
00100000
00010000
,
00100000
01000000
10000000
00010000
02000000
00000000
00000000
00000000
,
00010000
00000000
00000000
00000000
03001000
00000000
00010000
00000010
,
00001000
00000100
00000001
00000100
00001000
00000000
00000001
00001001
,
00000000
00001000
00000010
00001000
00010000
01000000
00100000
10000000
,
00010000
00100000
01000000
00100000
00002000
00000000
00000000
00000000
,
00000100
00000000
00000000
00000000
00013000
00000000
00000010
00001000
,
00000002
00000000
00000013
00001000
00010000
00000100
00000000
00010100
,
00000000
00010000
00001000
00010000
00002000
00000000
00000000
00000000
,
01003000
01000000
00100000
00100000
,
10000000
10000000
00010000
00010000
,
00100000
00101000
00001000
00011000
,
00010000
00010010
00000010
00000110
,
00000100
00000001
00001000
00000100
00010000
00000100
00001000
00000000
,
00010000
00100000
01000000
00100000
00001000
01000000
00010000
00000000
,
10000000
01000000
00100000
00010000
00001000
00000100
00000010
00000001
,
00002000
00000000
00000000
00003000
,
00000001
00000100
00000010
00000100
00010000
00001000
00000010
00001000
,
00000100
00010000
00001000
00100000
01000000
10000000
00010000
00000000
,
01000000
00001000
00010000
00000010
00001000
00010000
00001000
00000010
,
00010000
00000100
00001000
00010000
00100000
01000000
10000000
00000000
,
00100000
00010000
00001000
00010000
00100000
00010000
00001000
00000100
,
00000001
00000100
00001000
00000100
00000001
00000100
00001000
00010000
,
00100000
01000000
00100000
00010000
00001000
00000010
00000001
00000010
,
00000100
00001000
00000000
00010100
00000000
00022000
00000000
00033000
,
00001000
00100000
01000000
00010000
00001000
00000010
00000100
00001000
,
00010000
01000000
00100000
00010000
00000010
00001000
00000100
00000000
,
00010000
00001000
01000000
00100000
00010000
00000010
00001000
00000100
,
00010000
01000000
00100000
00001000
00010000
00000010
00000100
00001000
,
00010000
00100000
01000000
00100000
00010000
00100000
01000000
00001000
,
00010000
00000100
00000010
00000100
00010000
00000100
00000010
00000001
,
00000100
00001000
00010000
00100000
10000000
01000000
00010000
00001000
,
00000010
00000011
00000000
00001100
00000000
00022000
00000000
00033000
,
01001000
01001000
10100000
10100000
,
10000000
01000000
00010000
00001000
,
00011000
00011000
00001010
00001010
,
00000010
00000100
00001000
00010000
,
00001000
00100000
01000000
00000000
00010000
00001000
01000000
00000000
,
00100000
00010000
00001000
00000000
00010000
00001000
00000010
00000002
,
00000000
00000000
00001003
00000000
00010000
01000000
00000000
00200000
,
00000000
00000000
00310000
00000000
00001000
00000100
00000000
00000020
,
00000000
00000000
00001030
00000000
00000100
00010000
00000000
00011000
,
00000000
00001000
00100000
01000000
10000000
00000000
00100000
00000000
,
20020000
00000000
00000000
00000000
,
00000000
00000000
00000000
00000000
,
00000000
00000000
00000000
30030000
,
10000000
00010000
01000000
00001000
00010000
00000000
00011000
00000000
,
00001000
00000100
00000001
00001000
00000001
00000010
00001000
00000000
,
00010000
01000000
10000000
00010000
10000000
00100000
00010000
00000000
,
00001000
00000100
00000001
00001000
00000001
00000010
00001000
00000000
,
00010000
01000000
00010000
00001000
00000100
00001000
00010000
00000000
,
00001000
00100000
01000000
00100000
00010000
01000000
00100000
00000000
,
00010000
00000010
00000100
00000010
00001000
00000100
00000010
00000000
,
00001000
00100000
01000000
00100000
00010000
01000000
00100000
00000000
,
10000000
00000000
00100000
00000000
00010000
00000000
00000010
00000000
00001000
00000000
00000100
00000000
00000010
00000001
00000010
00000001
,
00000010
00000000
00000000
00000000
;

//---------------dance-single - ----------------
#NOTEDATA:;
#CHARTNAME:;
#STEPSTYPE:dance-single;
#DESCRIPTION:;
#CHARTSTYLE:;
#DIFFICULTY:Easy;
#METER:10;
#RADARVALUES:0.375784,0.448997,0.068030,0.181413,0.000000,348.000000,339.000000,9.000000,24.000000,0.000000,0.000000,0.000000,0.000000,0.000000,0.375784,0.448997,0.068030,0.181413,0.000000,348.000000,339.000000,9.000000,24.000000,0.000000,0.000000,0.000000,0.000000,0.000000;
#CREDIT:Kekkle;
#NOTES:
0000
0000
0000
0000
,
0000
0000
0000
0000
,
0000
0000
0000
0000
,
0000
0000
0000
0000
,
0000
0000
0000
0000
,
1000
0001
1000
0001
0000
0000
0000
0000
,
1000
0010
1000
0010
0000
0000
0000
0000
,
0100
0001
0100
0001
0000
0000
0000
0000
,
0010
0100
0010
0100
0000
0000
0000
0000
,
1000
0001
0000
0001
0000
0000
0000
0000
,
0000
0000
0000
0000
,
0001
1000
0000
1000
0000
0000
0000
0000
,
0000
0000
0000
0000
,
1000
0001
0000
0001
0000
0000
0000
0000
,
0000
0000
0000
0000
,
1000
0000
0001
0000
0100
0000
0010
1000
,
0000
0001
0010
0001
0010
0000
1001
0000
,
1000
0010
0100
0001
,
2000
0000
0000
3002
0000
0000
0013
0200
,
0000
1300
0010
0100
,
0002
0000
0000
2003
0000
0000
3100
0020
,
0000
0031
0100
1000
,
0200
0000
0000
0320
0000
0000
1030
0002
,
0000
0000
1003
0000
1000
0100
0000
0020
,
0000
0000
0031
0000
0001
0100
0010
0000
,
1000
0001
0000
0000
0000
0000
0000
0000
,
0000
0000
0000
0000
,
1001
0000
1001
0000
,
0001
0000
0100
0000
0010
1000
0010
0000
,
1000
0001
0010
0100
,
0010
0001
0000
1000
0000
0001
0000
0000
,
0100
0010
1000
0010
,
0100
0001
0000
0001
0000
0000
1000
0001
,
0010
0100
0010
0001
,
1000
0010
0000
0100
0000
0010
0000
2000
,
0000
0000
0001
0000
3001
0000
0000
0020
,
0000
0000
0100
0000
0130
0000
0010
0001
,
0010
0100
1000
0001
,
0100
0010
0000
1000
0000
0010
0000
0000
,
0100
0001
0010
1000
,
0010
0001
0000
0001
0000
0000
1000
0010
,
1000
0100
0001
0100
,
0010
0001
0000
1000
0000
0001
0000
0200
,
0000
0000
0010
0000
0310
0000
0000
2000
,
0000
0000
0001
0000
3001
0000
0100
0001
,
0100
0010
0020
0000
,
0000
0000
0000
0000
0030
0000
1000
0001
,
1000
0000
0100
0000
0100
0000
0010
0002
,
0000
0000
1003
0000
0010
0000
0100
0001
,
0100
0010
0020
0000
,
0000
0000
0030
0100
,
0001
0000
0001
0000
1000
0100
0000
0010
,
0000
0001
1000
0000
1001
0000
0000
0000
,
0001
0100
0001
0100
,
0010
1000
0010
1000
,
0100
1000
0100
1000
,
0001
0010
0001
0010
,
1000
0010
0100
0010
,
0001
1000
0010
0010
,
0100
0000
0001
0000
1000
0100
1000
0000
,
0002
0000
0000
0003
,
1000
0000
0010
0000
0100
0000
0001
1000
,
0000
1000
0000
0001
0000
0001
0000
0010
,
0100
1000
0001
0100
,
0010
0000
0010
0000
1000
0001
1000
0000
,
0100
0001
0100
1000
,
0010
0001
0010
1000
,
0001
0010
0100
1000
,
0001
0100
0000
0010
0000
0110
0000
0000
,
1000
0000
0001
0000
1000
0000
0010
0100
,
0000
0100
0000
0010
0000
0010
0000
1000
,
0001
0010
1000
0010
,
0001
0000
1000
0000
0010
0100
0010
0000
,
1000
0100
0001
0100
,
1000
0010
0001
0010
,
0100
0001
1000
0100
,
0010
0001
0000
1000
0000
1001
0000
0000
,
0001
0001
1000
1000
,
0001
1000
0001
1000
,
0100
0100
0010
0010
,
0100
0010
0100
0010
,
0001
1000
0010
0001
,
0010
0000
0100
0000
0001
0000
1000
0200
,
0000
0000
0010
0000
0310
0000
0000
0002
,
0000
0000
1000
0000
1003
0000
0000
0020
,
0000
0000
0100
0000
0130
0000
0000
0002
,
0000
0000
0000
0003
,
2002
0000
0000
0000
,
0000
0000
0000
0000
,
0000
0000
0000
0000
,
0000
0000
3003
1001
,
0001
0000
0100
0000
0010
1000
0010
0000
,
1000
0000
0001
0000
0010
0001
0010
0000
,
0001
0000
0100
0000
0010
1000
0010
0000
,
1000
1000
0001
0001
,
0010
0000
0100
0000
1000
0100
1000
0000
,
0010
0000
0100
0000
0001
0100
0001
0000
,
0010
0000
0100
0000
1000
0100
1000
0000
,
0001
0100
0010
1000
,
1001
0000
0000
0000
;

//---------------dance-double - ----------------
#NOTEDATA:;
#CHARTNAME:;
#STEPSTYPE:dance-double;
#DESCRIPTION:;
#CHARTSTYLE:;
#DIFFICULTY:Easy;
#METER:10;
#RADARVALUES:0.376863,0.448997,0.075589,0.181413,0.000000,349.000000,339.000000,10.000000,24.000000,0.000000,0.000000,0.000000,0.000000,0.000000,0.376863,0.448997,0.075589,0.181413,0.000000,349.000000,339.000000,10.000000,24.000000,0.000000,0.000000,0.000000,0.000000,0.000000;
#CREDIT:Kekkle;
#NOTES:
00000000
00000000
00000000
00000000
,
00000000
00000000
00000000
00000000
,
00000000
00000000
00000000
00000000
,
00000000
00000000
00000000
00000000
,
00000000
00000000
00000000
00000000
,
00000001
00000100
00000001
00000100
00000000
00000000
00000000
00000000
,
00000010
00001000
00000010
00001000
00000000
00000000
00000000
00000000
,
00010000
01000000
00010000
01000000
00000000
00000000
00000000
00000000
,
00100000
10000000
00100000
10000000
00000000
00000000
00000000
00000000
,
00100000
00000000
00000000
00100000
00000000
00000000
00000000
00000000
,
00000000
00000000
00000000
00000000
,
01000000
00000000
00000000
01000000
00000000
00000000
00000000
00000000
,
00000000
00000000
00000000
00000000
,
00001000
00000000
00000000
00001000
00000000
00000000
00000000
00000000
,
00000000
00000000
00000000
00000000
,
00010000
00000000
00000010
00000000
00001000
00000001
00000000
00000010
,
00000000
00000100
00000000
00001000
00000100
00000000
00010100
00000000
,
00010000
00001000
00100000
01000000
,
20000000
00000000
00000000
30020000
00000000
00000000
01030000
00002000
,
00000000
00013000
00000010
00001000
,
00000200
00000000
00000000
00020300
00000000
00000000
00030010
00002000
,
00000000
00003100
00000010
00000001
,
00000200
00000000
00000000
00002300
00000000
00000000
00013000
00200000
,
00000000
00000000
10300000
00000000
00010000
00000000
00100000
00002000
,
00000000
00000000
00013000
00000000
00000010
00000100
00000010
00000000
,
00000100
00000100
00000000
00000000
00000000
00000000
00000000
00000000
,
00000000
00000000
00000000
00000000
,
00001001
00000000
00001001
00000000
,
00000001
00000000
00001000
00000000
00000100
00010000
00000100
00000000
,
00001000
00010000
00100000
01000000
,
00100000
00010000
00000000
01000000
00000000
00010000
00000000
00000000
,
10000000
00100000
00010000
00001000
,
00010000
00000100
00000000
00000100
00000000
00000000
00000010
00000001
,
00000010
00000100
00010000
00001000
,
00010000
00000100
00000000
00001000
00000000
00000100
00000000
00020000
,
00000000
00000000
00001000
00000000
00031000
00000000
00000000
00200000
,
00000000
00000000
01000000
00000000
01300000
00000000
10000000
00010000
,
10000000
00100000
01000000
00001000
,
00100000
00001000
00000000
00010000
00000000
00001000
00000000
00000000
,
00000100
00000010
00001000
00000001
,
00000010
00000100
00000000
00000100
00000000
00000000
00010000
00001000
,
01000000
00010000
00100000
01000000
,
10000000
00010000
00000000
01000000
00000000
00010000
00000000
00200000
,
00000000
00000000
00001000
00000000
00301000
00000000
00000000
00020000
,
00000000
00000000
00000010
00000000
00030010
00000000
00001000
00000001
,
00001000
00000010
00000020
00000000
,
00000000
00000000
00000000
00000000
00000030
00000000
00010000
00000100
,
00010000
00000000
00001000
00000000
00001000
00000000
01000000
00020000
,
00000000
00000000
01030000
00000000
00100000
00000000
10000000
00010000
,
10000000
00010000
00020000
00000000
,
00000000
00000000
00030000
10000000
,
00010000
00000000
00100000
00000000
00001000
00010000
00000000
00000010
,
00000000
00001000
00000100
00000000
00000110
00000000
00000000
00000000
,
00000010
00000001
00000010
00000001
,
00001000
00000100
00001000
00000100
,
00010000
00001000
00010000
00001000
,
01000000
00010000
01000000
00010000
,
10000000
00100000
01000000
00001000
,
00010000
00000010
00001000
00000010
,
00000100
00000000
00000001
00000000
00001000
00000100
00010000
00000000
,
00022000
00000000
00000000
00033000
,
00001000
00000000
01000000
00000000
00010000
00000000
00100000
01000000
,
00000000
01000000
00000000
00100000
00000000
00100000
00000000
00010000
,
10000000
00010000
00100000
00001000
,
00010000
00000000
00000100
00000000
00001000
00000100
00001000
00000000
,
00000001
00000100
00001000
00010000
,
00001000
00000100
00000001
00001000
,
00000100
00010000
00001000
00100000
,
01000000
10000000
00000000
00010000
00000000
10010000
00000000
00000000
,
10000000
00000000
00100000
00000000
01000000
00000000
00001000
00010000
,
00000000
00010000
00000000
00000010
00000000
00000010
00000000
00001000
,
00000100
00000010
00000001
00000100
,
00001000
00000000
00000100
00000000
00000010
00010000
00000010
00000000
,
00001000
00000100
00001000
00010000
,
00100000
01000000
10000000
00010000
,
01000000
00001000
00010000
00000010
,
00000100
00000001
00000000
00001000
00000000
00001001
00000000
00000000
,
00000001
00000001
00001000
00001000
,
00000010
00010000
00001000
00100000
,
00010000
00010000
10000000
10000000
,
00100000
01000000
00001000
00010000
,
00000010
00001000
00000010
00000001
,
00000010
00000000
00001000
00000000
00000100
00000000
00010000
00002000
,
00000000
00000000
01000000
00000000
01000000
00000000
00000000
00023000
,
00000000
00000000
00000100
00000000
00000100
00000000
00000000
00032000
,
00000000
00000000
00100000
00000000
00100000
00000000
00000000
00013000
,
00000000
00000010
00001000
00000000
00000010
00000000
00000100
00000000
,
00002002
00000000
00000000
00000000
,
00000000
00000000
00000000
00000000
,
00000000
00000000
00000000
00000000
,
00000000
00000000
00003003
00001001
,
00000001
00000000
00001000
00000000
00000100
00010000
00000100
00000000
,
00010000
00000000
00001000
00000000
00100000
00010000
00100000
00000000
,
01000000
00000000
10000000
00000000
00010000
01000000
00010000
00000000
,
00100000
00001000
00010000
00010000
,
00000010
00000000
00001000
00000000
00000010
00000100
00000010
00000000
,
00001000
00000000
00000001
00000000
00000010
00000100
00000010
00000000
,
00000100
00000000
00010000
00000000
00001000
00010000
00001000
00000000
,
01000000
00100000
10000000
00010000
,
10010000
00000000
00000000
00000000
;

//---------------dance-single - ----------------
#NOTEDATA:;
#CHARTNAME:;
#STEPSTYPE:dance-single;
#DESCRIPTION:;
#CHARTSTYLE:;
#DIFFICULTY:Beginner;
#METER:7;
#RADARVALUES:0.266720,0.336747,0.105824,0.075589,0.000000,247.000000,233.000000,14.000000,10.000000,0.000000,0.000000,0.000000,0.000000,0.000000,0.266720,0.336747,0.105824,0.075589,0.000000,247.000000,233.000000,14.000000,10.000000,0.000000,0.000000,0.000000,0.000000,0.000000;
#CREDIT:Kekkle;
#NOTES:
0000
0000
0000
0000
,
0000
0000
0000
0000
,
0000
0000
0000
0000
,
0000
0000
0000
0000
,
0000
0000
0000
0000
,
2000
0000
0000
3000
,
0002
0000
0000
0003
,
0200
0000
0000
0300
,
0020
0000
0000
0030
,
1001
0000
0000
0000
,
0000
0000
0000
0000
,
1001
0000
0000
0000
,
0000
0000
0000
0000
,
1001
0000
0000
0000
,
0000
0000
0000
0000
,
0001
0000
1000
0000
,
0010
0100
0010
0100
,
0010
0000
1000
0000
,
0001
0010
0001
0000
,
1000
0000
0010
0000
,
0100
0001
0100
0010
,
0100
0000
0001
0000
,
1000
0100
1000
0000
,
0010
0000
0110
0000
,
0100
0000
0110
0000
,
0020
0000
0000
0000
,
0000
0000
0000
0030
,
1000
0000
0001
0000
,
0100
0010
0100
0010
,
1000
0000
0001
0000
,
0010
0001
0100
0001
,
0010
0000
0100
0000
,
1000
0001
1000
0010
,
0100
0000
0010
0000
,
1000
0100
0010
0001
,
1000
0000
1001
0000
,
0001
0000
1001
0000
,
1000
0000
0010
0000
,
0100
0001
0010
0100
,
0010
0000
0001
0000
,
1000
0100
0010
0100
,
1000
0000
0010
0000
,
0100
0001
0010
0100
,
0010
0000
0110
0000
,
0100
0000
0110
0000
,
0010
0000
0002
0000
,
0000
0000
1003
0000
,
0010
0000
0100
0000
,
0001
1000
0010
0100
,
0001
0000
2000
0000
,
0000
0000
3001
0000
,
0010
0000
0100
0000
,
1000
0001
1000
0000
,
0010
0100
0010
0100
,
0001
1000
0001
1000
,
0100
0010
0100
0010
,
0001
1000
0001
1000
,
0010
0000
0100
0000
,
0001
0000
1000
0000
,
0100
0010
0001
1000
,
0020
0000
0000
0030
,
0100
0001
1000
0000
,
0001
0001
1000
1000
,
0100
0010
0001
0000
,
1000
1000
0001
0001
,
0100
0000
0010
0000
,
1000
0000
0001
0000
,
0010
0001
0010
0000
,
0100
0000
1001
0000
,
0001
1000
0100
0000
,
0010
0010
0001
0001
,
1000
0010
0100
0000
,
0010
0010
0100
0100
,
0001
0000
1000
0000
,
0100
0000
0010
0000
,
0001
0001
1000
1000
,
0010
0000
0110
0000
,
0100
0100
0010
0010
,
1000
0000
0001
0000
,
0010
0010
0100
0100
,
1000
0000
0001
0000
,
1000
0010
1000
0010
,
0100
0001
0100
0000
,
0010
0000
0110
0000
,
0100
0000
0110
0000
,
0001
0000
1001
0000
,
2000
0000
0000
0000
,
3002
0000
0000
0000
,
0000
0000
0000
0000
,
0000
0000
0000
0000
,
0000
0000
0000
0003
,
1000
0010
1000
0010
,
0100
0001
0100
0001
,
0010
0001
0010
0001
,
1000
0100
1000
1000
,
0001
0100
0001
0100
,
0010
1000
0010
1000
,
0100
0010
0100
0010
,
0001
1000
0001
1000
,
0010
0000
0000
0000
;
