#VERSION:0.83;
#TITLE:Wavetapper;
#SUBTITLE:;
#ARTIST:Frums;
#TITLETRANSLIT:;
#SUBTITLETRANSLIT:;
#ARTISTTRANSLIT:;
#GENRE:;
#ORIGIN:;
#CREDIT:;
#BANNER:Wavetapper.png;
#BACKGROUND:Wavetapper-bg.png;
#PREVIEWVID:;
#JACKET:Wavetapper-jacket.png;
#CDIMAGE:;
#DISCIMAGE:;
#LYRICSPATH:;
#CDTITLE:;
#MUSIC:Wavetapper.ogg;
#OFFSET:0.000000;
#SAMPLESTART:107.144997;
#SAMPLELENGTH:15.000000;
#SELECTABLE:YES;
#DISPLAYBPM:56.000000:112.000000;
#BPMS:0.000=112.000,
84.000=56.000,
92.000=112.000,
156.000=56.000,
174.000=112.000;
#STOPS:;
#DELAYS:;
#WARPS:;
#TIMESIGNATURES:0.000=4=4;
#TICKCOUNTS:0.000=4;
#COMBOS:0.000=1;
#SPEEDS:0.000=1.000=0.000=0;
#SCROLLS:0.000=1.000;
#FAKES:;
#LABELS:0.000=Song Start;
#BGCHANGES:;
#KEYSOUNDS:;
#ATTACKS:
;

//---------------dance-single - ----------------
#NOTEDATA:;
#CHARTNAME:;
#STEPSTYPE:dance-single;
#DESCRIPTION:;
#CHARTSTYLE:;
#DIFFICULTY:Hard;
#METER:14;
#RADARVALUES:0.635990,1.012261,0.000000,0.213503,1.205896,563.000000,563.000000,0.000000,27.000000,0.000000,0.000000,0.000000,0.000000,0.000000,0.635990,1.012261,0.000000,0.213503,1.205896,563.000000,563.000000,0.000000,27.000000,0.000000,0.000000,0.000000,0.000000,0.000000;
#CREDIT:Kekkle;
#DISPLAYBPM:56.000000:112.000000;
#NOTES:
0000
0000
0000
0000
,
0000
0000
0000
0000
,
0000
0000
0000
0000
,
0001
0000
0000
0000
0100
0000
0000
0001
0000
0100
0000
0001
0100
0000
0001
0000
,
1000
0000
0000
0000
0100
0000
0000
1000
0000
0100
0000
1000
0100
0010
0100
0000
,
1000
0000
0002
0000
0000
0100
0000
0000
0003
0000
2000
0000
0000
0100
0000
0000
,
3000
0000
0002
0000
0000
0010
0000
0000
0003
0000
2000
0000
0000
0010
0000
0000
,
3000
0000
0002
0000
0000
0010
0000
0000
0003
0000
2000
0000
0000
0100
0000
0000
,
3000
0000
0002
0000
0000
0100
0000
0000
0003
0000
2000
0000
0000
0010
0000
0000
,
3000
0001
1000
0001
0000
1000
0000
0010
0000
0100
0001
0000
1000
0000
0001
0000
,
0000
1000
0100
1000
0000
0001
0000
1000
0000
0100
0010
0000
0001
0000
1000
0001
,
0000
1000
0010
1000
0000
0001
0000
0100
0010
1000
0001
1000
0000
0000
0001
0000
,
0000
1000
0001
1000
0000
0100
0000
0010
0001
1000
0001
0100
0000
0000
0010
0100
,
1000
0100
0010
1000
0000
0001
0000
1000
0100
0010
0001
1000
0000
0000
0100
0010
,
1000
0010
0100
1000
0000
0010
0000
0100
0001
1000
0100
0010
0000
0000
0100
0010
,
1000
0000
0010
0000
0001
0000
1000
0010
0000
0100
0000
0001
1000
0000
0010
0100
,
1000
0100
0000
0001
1000
0000
1000
0000
0010
0100
0001
0010
0000
0001
0010
0100
,
0001
0000
0100
1000
0001
0000
1000
0100
0000
0010
0000
0001
1000
0000
0010
0100
,
1000
0100
0000
0010
1000
0000
1000
0000
0100
0010
0001
0100
0000
0001
0100
0010
,
0001
0000
0010
0100
0001
0000
1000
0001
0000
0010
0000
0100
1000
0000
0100
0010
,
1000
0010
0000
0001
0010
0000
0010
0000
0100
1000
0010
0100
0000
0001
0010
0100
,
0001
0000
0100
0000
0010
0000
0000
0001
0000
1000
0000
0001
0010
0000
0100
0010
1000
0010
0000
0001
1000
0000
0010
0000
0100
0010
1000
0100
0000
1000
0010
0100
,
1000
0000
0100
0000
0010
0000
0000
1000
0000
0001
0000
1000
0100
0000
0010
0001
1000
0000
0100
0001
0000
0100
1000
0001
0010
0001
1000
0001
0100
0000
0100
0000
,
0010
1000
0001
0010
0000
1000
0010
0001
1000
0010
0100
0001
1000
0000
1000
0000
,
0001
1000
0100
0001
0000
0100
1000
0001
0010
0001
1000
0010
0100
0000
0100
0010
,
1000
0001
1000
0010
0000
0001
0010
0100
0001
1000
0001
0010
0100
0000
0100
0000
,
1000
0001
0010
1000
0000
0010
0001
1000
0001
0100
0010
1000
0001
0010
0001
0010
,
0100
1000
0001
0100
0000
1000
0100
0010
1000
0001
1000
0100
0010
0000
0010
0000
,
0001
1000
0100
0001
0000
0100
1000
0001
0100
0010
0100
0001
1000
0000
1000
0001
,
0010
0100
0010
1000
0000
0010
0001
1000
0001
0100
0010
1000
0010
0000
0010
0000
,
1000
0001
1000
0010
0000
0001
0010
0100
0001
1000
0001
0010
0100
1000
0100
1000
,
0002
0000
0000
1003
0001
0010
0100
0001
1000
0010
0100
1000
0001
0100
0002
0000
,
1000
0000
0000
0010
0000
0000
1000
0000
0000
0100
0000
0000
1003
0000
0000
0000
,
2000
0000
0000
3001
1000
0010
0100
1000
0001
0010
0100
0001
1000
0100
2000
0000
,
0001
0000
0000
0010
0000
0000
0001
0000
0000
0100
0000
0000
3001
0000
0000
0000
,
0002
0000
0000
0013
0001
1000
0100
0010
1000
0001
0100
0010
0001
1000
0002
0000
,
1000
0000
0000
0100
0000
0000
1000
0000
0000
0010
0000
0000
1003
0000
0000
0000
,
2000
0000
0000
3001
1000
0100
0010
1000
0001
0100
0010
0001
1000
0010
0100
0001
,
1000
0010
0100
1000
0001
0010
0100
0001
1000
0001
0010
0100
1000
0010
1000
0010
,
0200
0000
0000
0000
0000
0000
0000
0000
0000
0000
0000
0000
0000
0000
0000
0000
0302
0000
0100
0000
0000
1000
0000
0000
0000
0000
1000
0000
0000
0010
0000
0000
,
2003
0000
0100
0000
0000
0001
0000
0000
0000
0000
0001
0000
0000
0010
0000
0000
3002
0000
0010
0000
0000
1000
0000
0000
0000
0000
1000
0000
0000
0100
0000
0000
,
0000
0000
0100
0000
0000
1000
0000
0000
0000
0000
1000
0000
0000
0010
0000
0000
0013
0000
0100
1000
0001
0000
1000
0010
0000
1000
0000
0001
0010
0000
0100
0010
,
1000
0010
0000
0001
1000
0000
1000
0000
0010
0100
0001
0010
0000
0001
0100
0010
0001
0000
0010
0100
0001
0000
1000
0001
0000
0100
0000
0010
1000
0000
0001
1000
,
0010
0000
1000
0100
0000
0001
0100
1000
0001
1000
0100
0010
0001
1000
0001
1000
0020
0000
0000
0000
0000
0000
1030
0000
0001
0000
0010
0000
0100
0000
0001
0000
,
1000
0010
0100
1000
0001
1000
0020
0000
1000
0000
0000
0100
0000
0000
0001
0000
,
0000
0100
0000
0000
1030
0000
0000
0000
2000
0000
0000
3001
1000
0100
0010
1000
,
0001
0100
0010
0001
1000
0001
0200
0000
0001
0000
0000
0010
0000
0000
1000
0000
,
0000
0010
0000
0000
0301
0000
0000
0000
0002
0000
0103
0010
1000
0001
0010
1000
,
0010
0001
1000
0010
0100
0001
0100
0001
0010
0100
1000
0002
0000
0103
1000
0100
,
0010
1000
0001
1000
0100
0001
0100
0001
1000
0010
0001
1000
0010
0001
0010
0100
,
0001
1000
0001
0010
0100
1000
0100
1000
0001
0100
1000
0001
0010
1000
0000
0001
,
0010
0100
1000
0010
0200
0000
0000
0000
0020
0000
0000
0000
0000
0000
0000
0000
,
0000
0330
0000
0000
;

//---------------dance-single - ----------------
#NOTEDATA:;
#CHARTNAME:;
#STEPSTYPE:dance-single;
#DESCRIPTION:;
#CHARTSTYLE:;
#DIFFICULTY:Medium;
#METER:12;
#RADARVALUES:0.440562,0.599093,0.000000,0.134428,0.533757,390.000000,390.000000,0.000000,17.000000,0.000000,0.000000,0.000000,0.000000,0.000000,0.440562,0.599093,0.000000,0.134428,0.533757,390.000000,390.000000,0.000000,17.000000,0.000000,0.000000,0.000000,0.000000,0.000000;
#CREDIT:Kekkle;
#DISPLAYBPM:56.000000:112.000000;
#NOTES:
0000
0000
0000
0000
,
0000
0000
0000
0000
,
0000
0000
0000
0000
,
0000
0000
0000
0000
,
0000
0000
0000
0000
,
0000
0000
0001
0000
0000
0001
0000
0000
0000
0000
1000
0000
0000
1000
0000
0000
,
0000
0000
0001
0000
0000
0001
0000
0000
0000
0000
1000
0000
0000
1000
0000
0000
,
0000
0000
0100
0000
0000
0100
0000
0000
0000
0000
0010
0000
0000
0010
0000
0000
,
0000
0000
0100
0000
0000
0100
0000
0000
0000
0000
0010
0000
0000
0010
0000
0000
,
0000
0001
1000
0010
0100
0001
1000
0100
,
0000
0010
0001
0010
0100
1000
0001
0100
,
0000
0000
0010
0000
1000
0000
0001
0000
0020
0000
0000
2030
0000
0000
3010
0000
,
0000
0000
0001
0000
1000
0000
0010
0000
0200
0000
0000
2300
0000
0000
3100
0000
,
0010
0000
1000
0000
0100
0000
1000
0000
0002
0000
0000
0023
0000
0000
1030
0000
,
0010
0000
0001
0000
0100
0000
0010
0000
2000
0000
0000
3020
0000
0000
0031
0000
,
0010
0000
0100
0000
0001
0000
0000
1000
0000
0001
0000
1000
0100
0000
0010
0000
,
0000
0001
0000
0010
0100
0000
1000
0000
0001
0000
0000
1000
0000
0000
0010
0000
,
0100
0000
0001
0000
1000
0000
0000
0100
0000
1000
0000
0100
0010
0000
0001
0000
,
0000
1000
0000
0010
0100
0000
0001
0000
1000
0000
0000
0100
0000
0000
0010
0000
,
0100
0000
1000
0000
0001
0000
0000
0010
0000
0001
0000
0010
0100
0000
1000
0000
,
0000
0001
0000
0100
0010
0000
1000
0000
0001
0000
0000
1000
0000
0000
0100
0000
,
1000
0100
1000
0000
0001
0100
0001
0000
1000
0001
1000
0100
0001
0100
1000
0000
,
0001
0010
0001
0000
1000
0010
1000
0000
0001
1000
0100
0010
0001
1000
0001
0001
,
1000
0000
0010
0100
0000
0010
0100
0000
0001
0000
1000
0000
0001
0000
0001
0000
,
0010
0000
0100
0010
0000
0100
0010
0000
0100
0000
1000
0000
0001
0000
0001
1000
,
0001
0000
0100
0010
0000
0100
0010
0000
1000
0000
0001
0000
1000
0000
1000
0000
,
0001
0000
0010
0100
0000
0010
0100
0000
1000
0000
0001
0000
0100
0010
0100
0000
,
0010
0000
1000
0001
0000
1000
0001
0000
0010
0000
0100
0000
0001
0000
0001
0000
,
0100
0000
1000
0001
0000
1000
0001
0000
1000
0000
0010
0000
0100
0000
0100
0010
,
0100
0000
0001
1000
0000
0001
1000
0000
0100
0000
0010
0000
1000
0000
1000
0000
,
0010
0000
0001
1000
0000
0001
1000
0000
0010
0000
0100
0000
0001
1000
0001
0000
,
2000
0000
0000
3001
0010
0000
0100
0000
1000
0000
0001
0000
0100
0010
0100
0000
,
0001
0000
0000
0100
0000
0000
1000
0000
0000
0010
0000
0000
0001
0000
0000
0000
,
2000
0000
0000
3100
0010
0000
0001
0000
0010
0000
0100
0000
1000
0001
1000
0000
,
0001
0000
0000
0010
0000
0000
1000
0000
0000
0100
0000
0000
0001
0000
0000
0000
,
0200
0000
0000
0301
1000
0000
0010
0000
1000
0000
0100
0000
0010
0100
0010
0000
,
0100
0000
0000
0001
0000
0000
0010
0000
0000
1000
0000
0000
0100
0000
0000
0000
,
0020
0000
0000
0031
1000
0000
0010
0000
0100
0000
0001
0000
1000
0001
1000
0000
,
0100
0000
0010
0000
0100
0000
1000
0000
0010
0000
0100
0000
0001
1000
0001
1000
,
0002
0000
0000
0000
0000
0000
0000
0000
0000
0000
0000
0000
0000
0000
0000
0000
1003
0000
0010
0000
0000
0010
0000
0000
0000
0000
0100
0000
0000
0100
0000
0000
,
0000
0000
0001
0000
0000
0001
0000
0000
0000
0000
1000
0000
0000
1000
0000
0000
0000
0000
0100
0000
0000
0100
0000
0000
0000
0000
0010
0000
0000
0010
0000
0000
,
0000
0000
0001
0000
0000
0001
0000
0000
0000
0000
1000
0000
0000
1000
0000
0000
0001
0000
0100
0000
0010
0000
0000
0000
1000
0000
0100
0000
0010
0000
0000
0000
,
0001
1000
0100
0010
1000
0010
0100
0000
1000
0010
0100
0000
0001
0010
0100
0000
,
1000
0000
0010
0000
0100
0000
0001
0000
1000
0000
0100
0000
0010
0100
0010
0000
0002
0000
0000
0000
0000
0000
1003
0000
0010
0000
0000
0000
0100
0000
0000
0000
,
0001
1000
0001
1000
0001
1000
0001
0000
1000
0000
0000
0100
0000
0000
0001
0000
,
0000
0010
0000
0000
1000
0000
0000
0000
0002
0000
0000
1003
0100
0000
0010
0000
,
0001
1000
0001
1000
0001
1000
0001
0000
1000
0000
0000
0010
0000
0000
0001
0000
,
0000
0100
0000
0000
1000
0000
0000
0000
0001
0000
1000
0001
1000
0000
0001
0000
,
0010
0000
1000
0000
0010
0000
0001
0000
1000
0010
1000
0010
0000
0200
0000
0000
,
0301
1000
0001
0000
0010
0100
0010
0100
0010
0000
0001
0000
1000
0010
0000
0100
,
0001
0100
0001
0000
1000
0100
1000
0100
1000
0000
0001
0100
0000
0010
1000
0000
,
0001
1000
0001
1000
0001
1000
0001
1000
0002
0000
0000
0000
0000
0000
0000
0000
,
0000
0003
0000
0000
;

//---------------dance-single - ----------------
#NOTEDATA:;
#CHARTNAME:;
#STEPSTYPE:dance-single;
#DESCRIPTION:;
#CHARTSTYLE:;
#DIFFICULTY:Easy;
#METER:9;
#RADARVALUES:0.291448,0.351192,0.000000,0.213503,0.039538,258.000000,258.000000,0.000000,27.000000,0.000000,0.000000,0.000000,0.000000,0.000000,0.291448,0.351192,0.000000,0.213503,0.039538,258.000000,258.000000,0.000000,27.000000,0.000000,0.000000,0.000000,0.000000,0.000000;
#CREDIT:Kekkle;
#DISPLAYBPM:56.000000:112.000000;
#NOTES:
0000
0000
0000
0000
,
0000
0000
0000
0000
,
0000
0000
0000
0000
,
0000
0000
0000
0000
,
0000
0000
0000
0000
,
0001
1000
0001
0001
,
0100
0010
0100
0100
,
0001
1000
0001
0001
,
0010
0100
0010
0010
,
0001
0000
0100
0000
0010
0000
1000
0001
,
0000
0001
1000
0000
0100
0000
0010
0001
,
0000
0001
1000
0000
0010
0000
0001
0000
,
0000
0010
1000
0000
0100
0000
0001
0000
,
0200
0000
0310
0000
0100
0010
0100
0000
,
2000
0000
3001
0000
1000
0001
1000
0000
,
0002
0000
1003
0000
0100
1000
0100
0000
,
2000
0000
3001
0000
0100
0001
0100
0000
,
0002
0000
1003
0000
0100
0010
0001
0000
,
2000
0000
3001
0000
0100
0010
1000
0000
,
0020
0000
1030
0000
0001
0010
1000
0000
,
0020
0000
0031
0000
1000
0010
0001
0000
,
0020
1030
0010
1000
0200
0310
0001
0100
,
0020
1030
0001
0010
0100
0100
0010
0010
,
0001
0000
1000
0000
0001
0010
0001
0010
,
0001
0000
1000
0000
0010
1000
0010
1000
,
0010
0000
0100
0000
0001
1000
0001
1000
,
0001
0000
0010
0000
0100
1000
0100
1000
,
0001
0000
0100
0000
0010
1000
0001
0100
,
0010
0000
1000
0000
0001
0010
0100
1000
,
0001
0000
0010
0000
0001
1000
0010
0100
,
0001
0000
0100
0000
0001
1000
0100
0010
,
0002
0000
1003
0100
0001
0100
1000
0000
,
0001
0000
0000
1000
0000
0000
0001
0000
0000
1000
0000
0000
0001
0000
0000
0000
,
2000
0000
3001
0010
1000
0010
0001
0000
,
1000
0000
0000
0001
0000
0000
1000
0000
0000
0001
0000
0000
1000
0000
0000
0000
,
0200
0000
0310
0001
0010
1000
0010
0000
,
0001
0000
0000
1000
0000
0000
0001
0000
0000
1000
0000
0000
0001
0000
0000
0000
,
0200
0000
0310
0001
0010
1000
0010
0000
,
1000
0001
0010
0000
0100
1000
0001
0100
,
0020
0000
0230
0001
,
0302
1000
2003
0001
,
0001
0000
3001
0000
2000
3010
0100
0001
,
0020
0130
1000
0010
2000
3001
0100
0001
,
0010
0010
0100
0100
2000
0000
3001
0100
,
1000
0000
0100
0000
0001
0000
0000
0000
1000
0000
0000
0001
0000
0000
1000
0000
,
0000
0001
0000
0000
1000
0000
0000
0000
0002
0000
0000
0000
1003
0000
0100
0000
,
0001
0000
0100
0000
1000
0000
0000
0000
0001
0000
0000
1000
0000
0000
0001
0000
,
0000
1000
0000
0000
0001
0000
0000
0000
0200
0000
0000
0000
0310
0000
1000
0000
,
0001
0100
0001
0010
0100
0000
0010
1000
,
0010
0001
1000
1000
0001
0000
1000
0000
,
0001
0100
0010
0010
1000
0100
0001
0000
,
0100
1000
0002
0000
2000
0000
0000
0000
,
0000
3003
0000
0000
;

//---------------dance-single - ----------------
#NOTEDATA:;
#CHARTNAME:;
#STEPSTYPE:dance-single;
#DESCRIPTION:;
#CHARTSTYLE:;
#DIFFICULTY:Beginner;
#METER:4;
#RADARVALUES:0.151372,0.268559,0.000000,0.079075,0.000000,134.000000,134.000000,0.000000,10.000000,0.000000,0.000000,0.000000,0.000000,0.000000,0.151372,0.268559,0.000000,0.079075,0.000000,134.000000,134.000000,0.000000,10.000000,0.000000,0.000000,0.000000,0.000000,0.000000;
#CREDIT:Kekkle;
#DISPLAYBPM:56.000000:112.000000;
#NOTES:
0000
0000
0000
0000
,
0000
0000
0000
0000
,
0000
0000
0000
0000
,
0000
0000
0000
0000
,
0000
0000
0000
0000
,
0000
0001
0000
0001
,
0000
1000
0000
1000
,
0000
0010
0000
0010
,
0000
0100
0000
0100
,
0000
0001
0001
0001
,
0000
1000
1000
1000
,
0000
0100
0100
0100
,
0000
0010
0010
0010
,
0001
0000
1000
1000
,
0010
0000
0001
0001
,
0010
1000
0001
0001
,
0000
0010
0100
0100
,
1000
0001
0100
0100
,
0000
0001
1000
1000
,
0100
0010
0001
0001
,
0000
0010
0100
0100
,
1000
0001
0100
1000
,
0001
0010
1000
0001
,
0010
0000
0001
1000
,
0010
0000
1000
0001
,
0010
0000
0100
1000
,
0001
0000
0100
0001
,
1000
0000
0001
0010
,
0100
0000
1000
0100
,
0010
0000
0001
0100
,
0010
0000
1000
0010
,
0200
0000
0010
0000
,
0310
0000
0010
0000
,
2000
0000
0001
0000
,
3001
0000
0001
0000
,
0020
0000
0100
0000
,
0130
0000
0100
0000
,
2000
0000
0001
0000
,
0001
0000
0001
0000
,
3001
0000
0200
0300
,
0020
0030
2000
0000
,
0001
0000
0000
0000
3001
0000
1000
0100
,
0010
0000
0001
0010
0100
0000
1000
0010
,
0100
0000
0001
0001
2000
0000
0000
0000
,
0001
0000
3001
0000
,
0001
0000
0020
0000
,
0100
0000
0130
0000
,
0100
0000
1000
0001
,
0100
0000
0001
0100
,
0001
0001
1000
0000
,
0001
0000
0010
0100
,
0010
0010
0200
0000
,
0000
0300
0000
0000
;

//---------------dance-single - ----------------
#NOTEDATA:;
#CHARTNAME:;
#STEPSTYPE:dance-single;
#DESCRIPTION:;
#CHARTSTYLE:;
#DIFFICULTY:Challenge;
#METER:15;
#RADARVALUES:0.685694,6.408582,0.000000,0.466543,3.886543,607.000000,607.000000,0.000000,59.000000,0.000000,0.000000,1.000000,0.000000,1192.000000,0.685694,6.408582,0.000000,0.466543,3.886543,607.000000,607.000000,0.000000,59.000000,0.000000,0.000000,1.000000,0.000000,1192.000000;
#CREDIT:Kekkle;
#OFFSET:0.000000;
#BPMS:0.000000=112.000000
,648.000000=56.000000
,764.000000=112.000000
,796.750000=224.000000
,799.500000=112.000000
,840.750000=224.000000
,843.500000=112.000000
,884.750000=224.000000
,887.500000=112.000000
,928.750000=224.000000
,936.000000=112.000000
,940.000000=56.000000
,956.000000=112.000000
,956.750000=224.000000
,959.500000=112.000000
,1000.750000=224.000000
,1003.500000=112.000000
;
#STOPS:796.750000=0.067000
,797.000000=0.067000
,797.250000=0.067000
,797.500000=0.067000
,797.750000=0.067000
,798.000000=0.067000
,798.250000=0.067000
,798.500000=0.067000
,798.750000=0.067000
,799.000000=0.067000
,799.250000=0.067000
,840.750000=0.067000
,841.000000=0.067000
,841.250000=0.067000
,841.500000=0.067000
,841.750000=0.067000
,842.000000=0.067000
,842.250000=0.067000
,842.500000=0.067000
,842.750000=0.067000
,843.000000=0.067000
,843.250000=0.067000
,884.750000=0.067000
,885.000000=0.067000
,885.250000=0.067000
,885.500000=0.067000
,885.750000=0.067000
,886.000000=0.067000
,886.250000=0.067000
,886.500000=0.067000
,886.750000=0.067000
,887.000000=0.067000
,887.250000=0.067000
,928.750000=0.067000
,929.000000=0.067000
,929.250000=0.067000
,929.500000=0.067000
,929.750000=0.067000
,930.000000=0.067000
,930.250000=0.067000
,930.500000=0.067000
,930.750000=0.067000
,931.000000=0.067000
,931.250000=0.067000
,931.500000=0.067000
,931.750000=0.067000
,932.000000=0.067000
,932.250000=0.067000
,932.500000=0.067000
,932.750000=0.067000
,933.000000=0.067000
,933.250000=0.067000
,933.500000=0.067000
,933.750000=0.067000
,934.000000=0.067000
,934.250000=0.067000
,934.500000=0.067000
,934.750000=0.067000
,935.000000=0.067000
,935.250000=0.067000
,935.500000=0.067000
,935.750000=0.067000
,956.750000=0.067000
,957.000000=0.067000
,957.250000=0.067000
,957.500000=0.067000
,957.750000=0.067000
,958.000000=0.067000
,958.250000=0.067000
,958.500000=0.067000
,958.750000=0.067000
,959.000000=0.067000
,959.250000=0.067000
,1000.750000=0.067000
,1001.000000=0.067000
,1001.250000=0.067000
,1001.500000=0.067000
,1001.750000=0.067000
,1002.000000=0.067000
,1002.250000=0.067000
,1002.500000=0.067000
,1002.750000=0.067000
,1003.000000=0.067000
,1003.250000=0.067000
,1060.000000=1.540000
;
#DELAYS:;
#WARPS:4.000000=16.000000
,21.000000=15.000000
,36.750000=16.000000
,53.250000=16.000000
,69.750000=16.000000
,86.000000=16.000000
,102.500000=18.000000
,125.000000=16.000000
,142.000000=15.000000
,157.750000=16.000000
,174.250000=16.000000
,190.750000=16.000000
,207.000000=16.000000
,223.500000=18.000000
,245.500000=16.000000
,262.000000=16.000000
,310.000000=18.000000
,331.750000=18.000000
,350.000000=18.000000
,371.750000=18.000000
,390.000000=18.000000
,411.750000=18.000000
,430.000000=18.000000
,451.750000=18.000000
,470.000000=18.000000
,491.750000=18.000000
,510.000000=18.000000
,531.750000=18.000000
,550.000000=18.000000
,571.750000=18.000000
,590.000000=18.000000
,611.750000=18.000000
,630.000000=18.000000
,649.875000=18.000000
,668.000000=18.000000
,687.875000=18.000000
,706.000000=18.000000
,725.875000=18.000000
,744.000000=18.000000
,800.000000=18.000000
,822.000000=18.000000
,844.000000=18.000000
,866.000000=18.000000
,888.000000=18.000000
,910.000000=18.000000
,960.000000=18.000000
,982.000000=18.000000
,1004.000000=18.000000
,1026.000000=18.000000
,1060.000000=4.000000
;
#TIMESIGNATURES:0.000000=4=4
;
#TICKCOUNTS:0.000000=4
;
#COMBOS:0.000000=1
;
#SPEEDS:0.000000=1.000000=0.000000=0
;
#SCROLLS:0.000000=1.000000
,20.000000=0.000000
,22.000000=0.500000
,36.000000=0.000000
,38.000000=0.500000
,52.000000=0.000000
,54.000000=0.500000
,68.000000=0.000000
,71.000000=0.500000
,84.000000=0.000000
,87.000000=0.500000
,100.000000=0.000000
,103.000000=0.500000
,120.000000=0.000000
,121.000000=1.000000
,141.000000=0.000000
,143.000000=0.500000
,157.000000=0.000000
,159.000000=0.500000
,173.000000=0.000000
,175.000000=0.500000
,189.000000=0.000000
,192.000000=0.500000
,205.000000=0.000000
,208.000000=0.500000
,221.000000=0.000000
,224.000000=0.500000
,241.000000=0.000000
,242.000000=1.000000
,261.000000=0.000000
,263.000000=0.500000
,277.000000=1.000000
,818.000000=-1.000000
,822.000000=1.000000
,862.000000=-1.000000
,866.000000=1.000000
,906.000000=-1.000000
,910.000000=1.000000
,978.000000=-1.000000
,982.000000=1.000000
,1022.000000=-1.000000
,1026.000000=1.000000
;
#FAKES:;
#LABELS:0.000000=Song Start
;
#DISPLAYBPM:56.000000:112.000000;
#NOTES:
0000
0000
0000
0000
,
0000
0000
0000
0000
,
0000
0000
0000
0000
,
0000
0000
0000
0000
,
0000
0000
0000
0000
,
0000
0000
0000
1000
,
0000
0000
0000
0000
,
0000
0000
0000
0000
,
0000
0000
0000
0000
,
0000
0000
0000
1000
,
0001
0000
0000
0000
,
0000
0000
0000
0000
,
0000
0000
0000
0000
,
0000
0000
0000
1000
,
0001
0000
0000
1000
0000
0000
0000
0000
0000
0000
0000
0000
0000
0000
0000
0000
,
0000
0000
0000
0000
,
0000
0000
0000
0000
,
0000
0000
0000
0000
,
1000
0000
0000
0000
0001
0000
0000
1000
0000
1000
0000
0000
0000
0000
0000
0000
,
0000
0000
0000
0000
,
0000
0000
0000
0000
,
0000
0000
0000
0000
,
1000
0000
0000
0000
0001
0000
0000
1000
0000
1000
0000
1000
0000
0000
0000
0000
,
0000
0000
0000
0000
,
0000
0000
0000
0000
,
0000
0000
0000
0000
,
1000
0000
0000
0000
0001
0000
0000
1000
0000
1000
0000
1000
0001
0000
0000
0000
,
0000
0000
0000
0000
,
0000
0000
0000
0000
,
0000
0000
0000
0000
,
0000
0000
0000
0000
1000
0000
0000
0000
0001
0000
0000
1000
0000
1000
0000
1000
,
0001
0000
0000
0000
,
0000
0000
0000
0000
,
0000
0000
0000
0000
,
0000
0000
0000
0000
,
0000
0000
0000
0000
,
0001
0000
0000
0000
,
0000
0000
0000
0000
,
0000
0000
0000
0000
,
0000
0000
0000
0000
,
0001
1000
0000
0000
,
0000
0000
0000
0000
,
0000
0000
0000
0000
,
0000
0000
0000
0000
,
0001
0000
0000
0000
1000
0000
0000
0001
0000
0000
0000
0000
0000
0000
0000
0000
,
0000
0000
0000
0000
,
0000
0000
0000
0000
,
0000
0000
0000
0000
,
0000
0000
0000
0000
0001
0000
0000
0000
1000
0000
0000
0001
0000
0001
0000
0000
,
0000
0000
0000
0000
,
0000
0000
0000
0000
,
0000
0000
0000
0000
,
0000
0000
0000
0000
0001
0000
0000
0000
1000
0000
0000
0001
0000
0001
0000
0001
,
0000
0000
0000
0000
,
0000
0000
0000
0000
,
0000
0000
0000
0000
,
0000
0000
0000
0000
0001
0000
0000
0000
1000
0000
0000
0001
0000
0001
0000
0001
,
1000
0000
0000
0000
,
0000
0000
0000
0000
,
0000
0000
0000
0000
,
0000
0000
0000
0000
0000
0000
0000
0000
0001
0000
0000
0000
1000
0000
0000
0001
,
0000
0001
0000
0001
1000
0000
0000
0000
0000
0000
0000
0000
0000
0000
0000
0000
,
0000
0000
0000
0000
,
0000
0000
0000
0000
,
0000
0000
0000
0000
,
0000
0000
0000
0000
,
0000
0000
0002
0003
0000
0002
0000
0000
0003
0000
2000
3000
0000
2000
0000
0000
,
3000
0000
0020
0030
0000
0020
0000
0000
0030
0000
0200
0300
0000
0200
0010
0000
,
0301
0000
2000
3000
0000
2000
0000
0000
3000
0000
0200
0300
0000
0200
0300
0000
,
0000
0000
0000
0000
0000
0000
0000
0000
0000
0000
0002
0003
0000
0002
0000
0000
,
0003
0000
2000
3000
0000
2000
0000
0000
3000
0000
0020
0030
0000
0020
0000
0000
,
0030
0000
0200
0300
0000
0200
0010
0000
0301
0000
2000
3000
0000
2000
0000
0000
,
3000
0000
0200
0300
0000
0200
0000
0000
0300
0000
0020
0030
0000
0020
0000
0000
,
0030
0000
0000
0000
0002
0000
0003
0000
0000
0000
0001
0000
1000
0000
0001
1000
0001
0000
0010
0000
0100
0000
0010
0000
0000
0000
0100
0000
0000
0000
0100
0000
,
0000
0010
0001
0000
1000
0000
0001
0000
0000
1000
0010
1000
0000
0001
0000
0001
,
0000
0100
0010
0000
1000
0000
0001
0001
0000
0010
0001
0010
0000
0001
0000
0001
,
1000
0010
0010
1000
0010
0010
1000
0000
0000
0001
0100
0001
0000
1000
0000
1000
,
0001
0010
0010
0001
0010
0010
0001
0001
1000
0001
0010
0001
0000
1000
0000
1000
,
0010
0100
0100
0010
0100
0100
0010
1000
0001
1000
0100
1000
0000
0001
0000
0001
,
0100
0010
0010
0100
0010
0010
1000
0001
0010
0100
1000
0001
0100
0000
0010
1000
,
0000
1000
0000
1000
0001
0000
0010
0100
0000
0000
0000
0000
0000
0000
0000
0000
,
0000
0000
0000
0000
,
2000
3001
0010
0001
0000
1000
0000
1000
0010
0100
0100
0010
0100
0100
0010
1000
,
0001
1000
0100
1000
0000
0001
0000
0001
0100
0010
0010
0100
0010
0010
1000
0001
,
0010
0100
1000
0001
0100
0000
0010
1000
0000
1000
0000
1000
0001
0000
0010
0100
,
1000
0000
0001
0000
1000
0000
0100
0000
0010
0000
0000
0000
0010
0000
0000
0000
0001
0000
1000
0000
1000
0000
0001
0000
0000
0000
0010
0000
0001
0000
1000
0001
,
0000
0000
0000
0000
,
0000
0000
0000
0000
0000
0000
0000
2000
3001
1000
0100
1000
0000
0001
0000
0001
,
0100
0010
0010
0100
0010
0010
1000
0001
0010
0100
1000
0001
0100
0000
0010
1000
,
0000
1000
0000
1000
0001
0000
0010
0100
1000
0001
1000
0100
0010
0000
0010
0000
,
0001
0000
1000
0000
1000
0000
0001
0000
0000
0000
0010
0000
0001
0000
1000
0001
0000
0000
0000
0000
0000
0000
0000
0000
0000
0000
0000
0000
0000
0000
0000
0000
,
0000
0000
0000
0000
,
0002
1003
0100
1000
0000
0001
0000
0001
0100
0010
0010
0100
0010
0010
1000
0001
,
0010
0100
1000
0001
0100
0000
0010
1000
0000
1000
0000
1000
0001
0000
0010
0100
,
1000
0000
0001
0000
1000
0000
0100
0000
0010
0000
0000
0000
0010
0000
0000
0000
0001
0000
1000
0000
1000
0000
0001
0000
0000
0000
0010
0000
0001
0000
1000
0001
,
0010
0000
0001
1000
0010
0000
1000
0010
0000
0010
0000
0010
0100
0000
0001
1000
,
0000
0000
0000
0000
,
0000
0000
0000
0000
0000
0000
0000
0002
0013
0100
1000
0001
0100
0000
0010
1000
,
0000
1000
0000
1000
0001
0000
0010
0100
1000
0001
1000
0100
0010
0000
0010
0000
,
0001
0000
1000
0000
1000
0000
0001
0000
0000
0000
0010
0000
0001
0000
1000
0001
0010
0000
0000
0000
0001
0000
1000
0000
0010
0000
0000
0000
1000
0000
0010
0000
,
0000
0010
0000
0010
0100
0000
0001
1000
0000
0000
0000
0000
0000
0000
0000
0000
,
0000
0000
0000
0000
,
0020
0130
1000
0001
0100
0000
0010
1000
0000
1000
0000
1000
0001
0000
0010
0100
,
1000
0000
0001
0000
1000
0000
0100
0000
0010
0000
0000
0000
0010
0000
0000
0000
0001
0000
1000
0000
1000
0000
0001
0000
0000
0000
0010
0000
0001
0000
1000
0001
,
0010
0000
0001
1000
0010
0000
1000
0010
0000
0010
0000
0010
0100
0000
0001
1000
,
0010
0100
0001
1000
0001
0000
0001
0000
0010
0100
0100
0010
0000
0001
1000
0001
,
0000
0000
0000
0000
,
0000
0000
0000
0000
0000
0000
0000
0200
1300
0001
1000
0100
0010
0000
0010
0000
,
0001
0000
1000
0000
1000
0000
0001
0000
0000
0000
0010
0000
0001
0000
1000
0001
0010
0000
0000
0000
0001
0000
1000
0000
0010
0000
0000
0000
1000
0000
0010
0000
,
0000
0010
0000
0010
0100
0000
0001
1000
0010
0100
0001
1000
0001
0000
0001
0000
,
0010
0100
0100
0010
0000
0001
1000
0001
0000
0000
0000
0000
0000
0000
0000
0000
,
0000
0000
0000
0000
,
2000
0000
3001
0000
1000
0000
0100
0000
0010
0000
0000
0000
0010
0000
0000
0000
0001
0000
1000
0000
1000
0000
0001
0000
0000
0000
0010
0000
0001
0000
1000
0001
,
0010
0000
0001
1000
0010
0000
1000
0010
0000
0010
0000
0010
0100
0000
0001
1000
,
0010
0100
0001
1000
0001
0000
0001
0000
0010
0100
0100
0010
0000
0001
1000
0001
,
0010
0000
0001
1000
0010
0000
1000
0001
0000
0001
0000
0001
0010
0000
0100
1000
,
0000
0000
0000
0000
,
0000
0000
0000
0000
0000
0000
0000
0000
0000
0000
0000
0000
0000
0000
2000
0001
3010
0000
0000
0000
0001
0000
1000
0000
0010
0000
0000
0000
1000
0000
0010
0000
,
0000
0010
0000
0010
0100
0000
0001
1000
0010
0100
0001
1000
0001
0000
0001
0000
,
0010
0100
0100
0010
0000
0001
1000
0001
0010
0000
0001
1000
0010
0000
1000
0001
,
0000
0001
0000
0001
0010
0000
0100
1000
0000
0000
0000
0000
0000
0000
0000
0000
,
0000
0000
0000
0000
,
0020
0030
0001
1000
0010
0000
1000
0010
0000
0010
0000
0010
0100
0000
0001
1000
,
0010
0100
0001
1000
0001
0000
0001
0000
0010
0100
0100
0010
0000
0001
1000
0001
,
0010
0000
0001
1000
0010
0000
1000
0001
0000
0001
0000
0001
0010
0000
0100
1000
,
0001
0100
0001
1000
0100
0000
0100
0000
0010
0001
0001
0010
0000
0001
1000
0001
,
0000
0000
0000
0000
,
0000
0000
0000
0000
0000
0000
0000
2000
3010
0100
0001
1000
0001
0000
0001
0000
,
0010
0100
0100
0010
0000
0001
1000
0001
0010
0000
0001
1000
0010
0000
1000
0001
,
0000
0001
0000
0001
0010
0000
0100
1000
0001
0100
0001
1000
0100
0000
0100
0000
,
0010
0001
0001
0010
0000
0001
1000
0001
0000
0000
0000
0000
0000
0000
0000
0000
,
0000
0000
0000
0000
,
0020
0130
0001
1000
0001
0000
0001
0000
0010
0100
0100
0010
0000
0001
1000
0001
,
0010
0000
0001
1000
0010
0000
1000
0001
0000
0001
0000
0001
0010
0000
0100
1000
,
0001
0000
0100
0000
0001
0000
1000
0000
0100
0000
0000
0000
0100
0000
0000
0000
0010
0000
0001
0000
0001
0000
0010
0000
0000
0000
0001
0000
1000
0000
0001
1000
,
0010
0000
0100
0000
0001
0000
0000
1000
0000
1000
0000
1000
0010
0000
0100
0001
1000
0001
0000
0001
1000
0000
1000
0000
0001
0010
0010
0001
0000
1000
0001
0010
,
0000
0000
0000
0000
,
0000
0000
0000
0000
0000
0000
0000
0002
0013
0000
0001
1000
0010
0000
1000
0001
,
0000
0001
0000
0001
0010
0000
0100
1000
0001
0100
0001
1000
0100
0000
0100
0000
,
0010
0000
0001
0000
0001
0000
0010
0000
0000
0000
0001
0000
1000
0000
0001
1000
0010
0000
0100
0000
0001
0000
0000
1000
0000
1000
0000
1000
0010
0000
0100
0001
,
1000
0001
0000
0001
1000
0000
1000
0000
0001
0010
0010
0001
0000
1000
0001
0010
0000
0000
0000
0000
0000
0000
0000
0000
0000
0000
0000
0000
0000
0000
0000
0000
,
0000
0000
0000
0000
,
0020
0030
0001
1000
0010
0000
1000
0001
0000
0001
0000
0001
0010
0000
0100
1000
,
0001
0000
0100
0000
0001
0000
1000
0000
0100
0000
0000
0000
0100
0000
0000
0000
0010
0000
0001
0000
0001
0000
0010
0000
0000
0000
0001
0000
1000
0000
0001
1000
,
0010
0000
0100
0000
0001
0000
0000
1000
0000
1000
0000
1000
0010
0000
0100
0001
1000
0001
0000
0001
1000
0000
1000
0000
0001
0010
0010
0001
0000
1000
0001
0010
,
0100
0000
1000
0000
0001
0000
0000
0100
0000
0100
0000
0100
0010
0000
1000
0001
1000
0001
0010
1000
0001
0100
1000
1000
0001
0100
0010
0100
0001
0000
0001
0000
,
1000
0001
0100
1000
0001
0010
1000
1000
0001
0010
0100
0010
0001
0000
0001
0000
,
0000
0000
0000
0000
0000
0000
0000
2000
3001
0100
0001
1000
0100
0000
0100
0000
,
0010
0000
0001
0000
0001
0000
0010
0000
0000
0000
0001
0000
1000
0000
0001
1000
0010
0000
0100
0000
0001
0000
0000
1000
0000
1000
0000
1000
0010
0000
0100
0001
,
1000
0001
0000
0001
1000
0000
1000
0000
0001
0010
0010
0001
0000
1000
0001
0010
0100
0000
1000
0000
0001
0000
0000
0100
0000
0100
0000
0100
0010
0000
1000
0001
,
1000
0001
0010
1000
0001
0100
1000
1000
0001
0100
0010
0100
0001
0000
0001
0000
1000
0000
0001
0000
0100
0000
1000
0000
0001
0000
0010
0000
1000
0000
1000
0000
,
0001
0010
0100
0010
0001
0000
0001
0000
0000
0000
0000
0000
0000
0000
0000
0000
,
0002
0000
0103
0000
0001
0000
1000
0000
0100
0000
0000
0000
0100
0000
0000
0000
0010
0000
0001
0000
0001
0000
0010
0000
0000
0000
0001
0000
1000
0000
0001
1000
,
0010
0000
0100
0000
0001
0000
0000
1000
0000
1000
0000
1000
0010
0000
0100
0001
1000
0001
0000
0001
1000
0000
1000
0000
0001
0010
0010
0001
0000
1000
0001
0010
,
0100
0000
1000
0000
0001
0000
0000
0100
0000
0100
0000
0100
0010
0000
1000
0001
1000
0001
0010
1000
0001
0100
1000
1000
0001
0100
0010
0100
0001
0000
0001
0000
,
1000
0001
0100
1000
0001
0010
1000
1000
0001
0010
0100
0010
0001
0000
0001
1000
,
0000
0000
0000
0000
,
0000
0000
0000
0000
0000
0000
0000
0000
0000
0000
0000
0000
0000
0000
0002
1000
0013
0000
0100
0000
0001
0000
0000
1000
0000
1000
0000
1000
0010
0000
0100
0001
,
1000
0001
0000
0001
1000
0000
1000
0000
0001
0010
0010
0001
0000
1000
0001
0010
0100
0000
1000
0000
0001
0000
0000
0100
0000
0100
0000
0100
0010
0000
1000
0001
,
1000
0001
0010
1000
0001
0100
1000
1000
0001
0100
0010
0100
0001
0000
0001
0000
1000
0000
0001
0000
0100
0000
1000
0000
0001
0000
0010
0000
1000
0000
1000
0000
,
0001
0010
0100
0010
0001
0000
0001
1000
0000
0000
0000
0000
0000
0000
0000
0000
,
0000
0000
0000
0000
,
0020
0030
0100
0000
0001
0000
0000
1000
0000
1000
0000
1000
0010
0000
0100
0001
1000
0001
0000
0001
1000
0000
1000
0000
0001
0010
0010
0001
0000
1000
0001
0010
,
0100
0000
1000
0000
0001
0000
0000
0100
0000
0100
0000
0100
0010
0000
1000
0001
1000
0001
0010
1000
0001
0100
1000
1000
0001
0100
0010
0100
0001
0000
0001
0000
,
1000
0001
0100
1000
0001
0010
1000
1000
0001
0010
0100
0010
0001
0000
0001
0000
,
1000
0001
0010
1000
0001
0100
1000
1000
0001
0100
0010
0100
0001
0000
0001
0100
,
0001
0000
0100
0000
0010
0000
0100
0000
0001
0000
0000
0000
0001
0000
0100
0000
0000
0000
0000
0000
0000
0000
0000
0000
0000
0000
0000
0000
0000
0000
0000
0002
,
1003
0001
0000
0001
1000
0000
1000
0000
0001
0010
0010
0001
0000
1000
0001
0010
0100
0000
1000
0000
0001
0000
0000
0100
0000
0100
0000
0100
0010
0000
1000
0001
,
1000
0001
0010
1000
0001
0100
1000
1000
0001
0100
0010
0100
0001
0000
0001
0000
1000
0000
0001
0000
0100
0000
1000
0000
0001
0000
0010
0000
1000
0000
1000
0000
,
0001
0010
0100
0010
0001
0000
0001
0000
1000
0001
0010
1000
0001
0100
1000
1000
,
0001
0100
0010
0100
0001
0000
0001
0100
0000
0000
0000
0000
0000
0000
0000
0000
,
0000
0000
0000
0000
0000
0000
0000
0000
0000
0000
0000
0000
0000
0000
0000
0000
2000
3001
0000
0001
1000
0000
1000
0000
0001
0010
0010
0001
0000
1000
0001
0010
,
0100
0000
1000
0000
0001
0000
0000
0100
0000
0100
0000
0100
0010
0000
1000
0001
1000
0001
0010
1000
0001
0100
1000
1000
0001
0100
0010
0100
0001
0000
0001
0000
,
1000
0001
0100
1000
0001
0010
1000
1000
0001
0010
0100
0010
0001
0000
0001
0000
,
1000
0001
0010
1000
0001
0100
1000
1000
0001
0100
0010
0100
0001
0000
0001
0100
,
0000
0000
0000
0000
,
0000
0000
0000
0000
0000
0000
0000
0000
0000
0000
0000
0000
0000
0000
0000
0020
0130
0000
1000
0000
0001
0000
0000
0100
0000
0100
0000
0100
0010
0000
1000
0001
,
1000
0001
0010
1000
0001
0100
1000
1000
0001
0100
0010
0100
0001
0000
0001
0000
1000
0000
0001
0000
0100
0000
1000
0000
0001
0000
0010
0000
1000
0000
1000
0000
,
0001
0010
0100
0010
0001
0000
0001
0000
1000
0001
0010
1000
0001
0100
1000
1000
,
0001
0100
0010
0100
0001
0000
0001
0100
0000
0000
0000
0000
0000
0000
0000
0000
,
0000
0000
0000
0000
,
0200
0300
1000
0000
0001
0000
0000
0100
0000
0100
0000
0100
0010
0000
1000
0001
1000
0001
0010
1000
0001
0100
1000
1000
0001
0100
0010
0100
0001
0000
0001
0000
,
1000
0001
0100
1000
0001
0010
1000
1000
0001
0010
0100
0010
0001
0000
0001
0000
,
1000
0001
0010
1000
0001
0100
1000
1000
0001
0100
0010
0100
0001
0000
0001
0100
,
0000
0000
0000
0000
,
0000
0000
0000
0000
0000
0000
0000
0000
0000
0000
0000
0000
0000
0000
0000
0000
0000
0000
0000
0000
0000
0000
0000
0000
0000
0000
0000
0000
0000
0000
0000
0002
,
1003
0001
0010
1000
0001
0100
1000
1000
0001
0100
0010
0100
0001
0000
0001
0000
1000
0000
0001
0000
0100
0000
1000
0000
0001
0000
0010
0000
1000
0000
1000
0000
,
0001
0010
0100
0010
0001
0000
0001
0000
1000
0001
0010
1000
0001
0100
1000
1000
,
0001
0100
0010
0100
0001
0000
0001
0100
0000
0000
0000
0000
0000
0000
0000
0000
,
0000
0000
0000
0000
,
0000
0000
0000
0000
0000
0000
0000
0000
0000
0000
0000
0000
0000
0000
0000
0000
2000
3001
0010
1000
0001
0100
1000
1000
0001
0100
0010
0100
0001
0000
0001
0000
,
1000
0001
0100
1000
0001
0010
1000
1000
0001
0010
0100
0010
0001
0000
0001
0000
,
1000
0001
0010
1000
0001
0100
1000
1000
0001
0100
0010
0100
0001
0000
0001
0100
,
0001
1000
0100
0001
1000
0010
0001
0001
1000
0010
0100
0010
1000
0000
1000
0000
,
0001
1000
0010
0001
1000
0100
0001
0001
1000
0100
0010
0100
1000
0010
1000
0010
,
1000
0001
0010
1000
0001
0100
1000
1000
0001
0100
0010
0100
0001
0000
0001
0000
,
1000
0001
0100
1000
0001
0010
1000
1000
0001
0010
0100
0010
0001
0000
0001
0010
,
0001
1000
0010
0001
1000
0100
0001
0001
1000
0100
0010
0100
1000
0000
1000
0000
,
0001
1000
0100
0001
1000
0010
0001
0001
1000
0010
0100
0010
1000
0100
1000
0100
,
0020
0000
0000
0031
1000
0010
0100
0010
1000
0001
0010
0100
1000
0001
0200
0000
,
0310
0000
0000
0010
0000
0000
0010
0000
0000
0010
0000
0000
0010
0000
0000
0000
,
0000
0000
0000
0000
,
0000
0000
0000
0000
,
0000
0000
0000
0000
,
0000
0000
0000
0000
0000
0000
0000
0000
0010
0000
0000
0010
0000
0000
0010
0000
,
0000
0010
0000
0000
0010
0000
0000
0000
2000
0000
0000
3000
0000
0000
0000
0000
,
0000
0000
0000
0000
,
0000
0000
0000
0000
,
0000
0000
0000
0000
,
0000
0000
0000
0000
,
2000
0000
0000
3001
0100
0001
0010
0100
1000
0001
0100
0010
0100
0001
2000
0000
,
3100
0000
0000
0100
0000
0000
0100
0000
0000
0100
0000
0000
0100
0000
0000
0000
,
0000
0000
0000
0000
,
0000
0000
0000
0000
,
0000
0000
0000
0000
,
0000
0000
0000
0000
0000
0000
0000
0000
0100
0000
0000
0100
0000
0000
0100
0000
,
0000
0100
0000
0000
0100
0000
0000
0000
2000
0000
0000
3000
0000
0000
0000
0000
,
0000
0000
0000
0000
,
0000
0000
0000
0000
,
0000
0000
0000
0000
,
0000
0000
0000
0000
,
2000
0000
0000
3001
0010
0100
0010
0001
1000
0010
0100
0001
1000
0100
0020
0000
,
0031
0000
0000
0001
0000
0000
0001
0000
0000
0001
0000
0000
0001
0000
0000
0000
,
0000
0000
0000
0000
,
0000
0000
0000
0000
,
0000
0000
0000
0000
,
0000
0000
0000
0000
0000
0000
0000
0000
0001
0000
0000
0001
0000
0000
0001
0000
,
0000
0001
0000
0000
0001
0000
0000
0000
2000
0000
0000
3000
0000
0000
0000
0000
,
0000
0000
0000
0000
,
0000
0000
0000
0000
,
0000
0000
0000
0000
,
0000
0000
0000
0000
,
2000
0000
0000
3001
0010
0001
1000
0010
1000
0100
0010
0001
0100
0001
0010
0100
,
1000
0001
1000
0010
0100
0001
1000
0100
0010
0100
1000
0010
0100
0001
0100
0001
,
0020
0000
0000
0000
,
0030
0000
0002
0000
0000
0100
0000
0000
0003
0000
2000
0000
0000
0100
0000
0000
3000
0000
0002
0000
0000
0010
0000
0000
0003
0000
2000
0000
0000
0010
0000
0000
,
3000
0000
0002
0000
0000
0100
0000
0000
0003
0000
2000
0000
0000
0010
0000
0000
3000
0000
0002
0000
0000
0010
0000
0000
0003
0000
2000
0000
0000
0100
0000
0000
,
3001
0000
1000
0100
0010
0100
1000
0001
0100
0010
1000
0010
0100
0000
0001
0001
1000
0100
0010
0100
1000
0001
1000
0001
0100
0010
1000
0001
0000
1000
0100
0100
,
0010
0001
1000
0010
0100
0010
1000
0001
1000
0100
0010
0001
0010
0000
0001
1000
1000
0001
0100
1000
0001
0010
1000
1000
0001
0010
0100
0010
0001
0100
0001
0100
,
0020
0000
0000
1030
0100
0010
0100
1000
0010
1000
0100
0010
0001
1000
0020
0000
,
0130
0000
0000
0100
0000
0000
0100
0000
0000
0100
0000
0000
0100
0000
0000
0000
,
0000
0000
0000
0000
,
0000
0000
0000
0000
,
0000
0000
0000
0000
,
0000
0000
0000
0000
0000
0000
0000
0000
0100
0000
0000
0100
0000
0000
0100
0000
,
0000
0100
0000
0000
0100
0000
0000
0000
0002
0000
0000
0003
0000
0000
0000
0000
,
0000
0000
0000
0000
,
0000
0000
0000
0000
,
0000
0000
0000
0000
,
0000
0000
0000
0000
,
0002
0000
0000
1003
0001
0010
0100
1000
0001
0010
0001
1000
0010
0100
0002
0000
,
1003
0000
0000
1000
0000
0000
1000
0000
0000
1000
0000
0000
1000
0000
0000
0000
,
0000
0000
0000
0000
,
0000
0000
0000
0000
,
0000
0000
0000
0000
,
0000
0000
0000
0000
0000
0000
0000
0000
1000
0000
0000
1000
0000
0000
1000
0000
,
0000
1000
0000
0000
1000
0000
0000
0000
0004
0000
0000
0003
0000
0000
0000
0000
,
0000
0000
0000
0000
,
0000
0000
0000
0000
,
0000
0000
0000
0000
,
0000
0000
0000
0000
,
0004
0000
0000
1003
0100
0010
0001
0100
0001
1000
0100
0010
0001
0001
1000
0010
,
0100
0000
0001
0000
1000
0000
0100
0000
0000
0000
0010
0000
0010
0000
0010
0000
0001
1000
0001
0000
1000
0000
0001
0000
0100
0000
0100
0000
0100
0000
0100
0000
,
0001
0100
1000
0001
0010
1000
0001
1000
0100
0010
0000
0001
0010
0010
0010
0010
,
0100
1000
0100
0000
1000
0000
0100
1000
0100
0000
1000
0000
0000
0000
0001
0000
1000
0000
0010
0000
0100
0000
0001
0000
1000
0001
1000
0001
1000
0001
1000
0001
,
2000
0000
0000
0000
0000
0000
0000
0000
0000
0000
0000
0000
0000
0000
0000
0000
0000
0000
0000
0000
0000
0000
0000
3000
0000
0000
0000
0000
0000
0000
0000
0000
;

//---------------dance-double - ----------------
#NOTEDATA:;
#CHARTNAME:;
#STEPSTYPE:dance-double;
#DESCRIPTION:;
#CHARTSTYLE:;
#DIFFICULTY:Challenge;
#METER:16;
#RADARVALUES:0.682305,6.409337,0.000000,0.466543,3.736300,604.000000,604.000000,0.000000,59.000000,0.000000,0.000000,1.000000,0.000000,1136.000000,0.682305,6.409337,0.000000,0.466543,3.736300,604.000000,604.000000,0.000000,59.000000,0.000000,0.000000,1.000000,0.000000,1136.000000;
#CREDIT:Kekkle;
#OFFSET:0.000000;
#BPMS:0.000000=112.000000
,648.000000=56.000000
,764.000000=112.000000
,796.750000=224.000000
,799.500000=112.000000
,840.750000=224.000000
,843.500000=112.000000
,884.750000=224.000000
,887.500000=112.000000
,928.750000=224.000000
,936.000000=112.000000
,940.000000=56.000000
,956.000000=112.000000
,956.750000=224.000000
,959.500000=112.000000
,1000.750000=224.000000
,1003.500000=112.000000
;
#STOPS:796.750000=0.067000
,797.000000=0.067000
,797.250000=0.067000
,797.500000=0.067000
,797.750000=0.067000
,798.000000=0.067000
,798.250000=0.067000
,798.500000=0.067000
,798.750000=0.067000
,799.000000=0.067000
,799.250000=0.067000
,840.750000=0.067000
,841.000000=0.067000
,841.250000=0.067000
,841.500000=0.067000
,841.750000=0.067000
,842.000000=0.067000
,842.250000=0.067000
,842.500000=0.067000
,842.750000=0.067000
,843.000000=0.067000
,843.250000=0.067000
,884.750000=0.067000
,885.000000=0.067000
,885.250000=0.067000
,885.500000=0.067000
,885.750000=0.067000
,886.000000=0.067000
,886.250000=0.067000
,886.500000=0.067000
,886.750000=0.067000
,887.000000=0.067000
,887.250000=0.067000
,928.750000=0.067000
,929.000000=0.067000
,929.250000=0.067000
,929.500000=0.067000
,929.750000=0.067000
,930.000000=0.067000
,930.250000=0.067000
,930.500000=0.067000
,930.750000=0.067000
,931.000000=0.067000
,931.250000=0.067000
,931.500000=0.067000
,931.750000=0.067000
,932.000000=0.067000
,932.250000=0.067000
,932.500000=0.067000
,932.750000=0.067000
,933.000000=0.067000
,933.250000=0.067000
,933.500000=0.067000
,933.750000=0.067000
,934.000000=0.067000
,934.250000=0.067000
,934.500000=0.067000
,934.750000=0.067000
,935.000000=0.067000
,935.250000=0.067000
,935.500000=0.067000
,935.750000=0.067000
,956.750000=0.067000
,957.000000=0.067000
,957.250000=0.067000
,957.500000=0.067000
,957.750000=0.067000
,958.000000=0.067000
,958.250000=0.067000
,958.500000=0.067000
,958.750000=0.067000
,959.000000=0.067000
,959.250000=0.067000
,1000.750000=0.067000
,1001.000000=0.067000
,1001.250000=0.067000
,1001.500000=0.067000
,1001.750000=0.067000
,1002.000000=0.067000
,1002.250000=0.067000
,1002.500000=0.067000
,1002.750000=0.067000
,1003.000000=0.067000
,1003.250000=0.067000
,1060.000000=1.540000
;
#DELAYS:;
#WARPS:4.000000=16.000000
,21.000000=15.000000
,36.750000=16.000000
,53.250000=16.000000
,69.750000=16.000000
,86.000000=16.000000
,102.500000=18.000000
,125.000000=16.000000
,142.000000=15.000000
,157.750000=16.000000
,174.250000=16.000000
,190.750000=16.000000
,207.000000=16.000000
,223.500000=18.000000
,245.500000=16.000000
,262.000000=16.000000
,310.000000=18.000000
,331.750000=18.000000
,350.000000=18.000000
,371.750000=18.000000
,390.000000=18.000000
,411.750000=18.000000
,430.000000=18.000000
,451.750000=18.000000
,470.000000=18.000000
,491.750000=18.000000
,510.000000=18.000000
,531.750000=18.000000
,550.000000=18.000000
,571.750000=18.000000
,590.000000=18.000000
,611.750000=18.000000
,630.000000=18.000000
,649.875000=18.000000
,668.000000=18.000000
,687.875000=18.000000
,706.000000=18.000000
,725.875000=18.000000
,744.000000=18.000000
,800.000000=18.000000
,822.000000=18.000000
,844.000000=18.000000
,866.000000=18.000000
,888.000000=18.000000
,910.000000=18.000000
,960.000000=18.000000
,982.000000=18.000000
,1004.000000=18.000000
,1026.000000=18.000000
,1060.000000=4.000000
;
#TIMESIGNATURES:0.000000=4=4
;
#TICKCOUNTS:0.000000=4
;
#COMBOS:0.000000=1
;
#SPEEDS:0.000000=1.000000=0.000000=0
;
#SCROLLS:0.000000=1.000000
,20.000000=0.000000
,22.000000=0.500000
,36.000000=0.000000
,38.000000=0.500000
,52.000000=0.000000
,54.000000=0.500000
,68.000000=0.000000
,71.000000=0.500000
,84.000000=0.000000
,87.000000=0.500000
,100.000000=0.000000
,103.000000=0.500000
,120.000000=0.000000
,121.000000=1.000000
,141.000000=0.000000
,143.000000=0.500000
,157.000000=0.000000
,159.000000=0.500000
,173.000000=0.000000
,175.000000=0.500000
,189.000000=0.000000
,192.000000=0.500000
,205.000000=0.000000
,208.000000=0.500000
,221.000000=0.000000
,224.000000=0.500000
,241.000000=0.000000
,242.000000=1.000000
,261.000000=0.000000
,263.000000=0.500000
,277.000000=1.000000
,818.000000=-1.000000
,822.000000=1.000000
,862.000000=-1.000000
,866.000000=1.000000
,906.000000=-1.000000
,910.000000=1.000000
,978.000000=-1.000000
,982.000000=1.000000
,1022.000000=-1.000000
,1026.000000=1.000000
;
#FAKES:;
#LABELS:0.000000=Song Start
;
#DISPLAYBPM:56.000000:112.000000;
#NOTES:
00000000
00000000
00000000
00000000
,
00000000
00000000
00000000
00000000
,
00000000
00000000
00000000
00000000
,
00000000
00000000
00000000
00000000
,
00000000
00000000
00000000
00000000
,
00000000
00000000
00000000
10000000
,
00000000
00000000
00000000
00000000
,
00000000
00000000
00000000
00000000
,
00000000
00000000
00000000
00000000
,
00000000
00000000
00000000
10000000
,
00010000
00000000
00000000
00000000
,
00000000
00000000
00000000
00000000
,
00000000
00000000
00000000
00000000
,
00000000
00000000
00000000
10000000
,
00010000
00000000
00000000
00100000
00000000
00000000
00000000
00000000
00000000
00000000
00000000
00000000
00000000
00000000
00000000
00000000
,
00000000
00000000
00000000
00000000
,
00000000
00000000
00000000
00000000
,
00000000
00000000
00000000
00000000
,
10000000
00000000
00000000
00000000
00010000
00000000
00000000
00100000
00000000
00001000
00000000
00000000
00000000
00000000
00000000
00000000
,
00000000
00000000
00000000
00000000
,
00000000
00000000
00000000
00000000
,
00000000
00000000
00000000
00000000
,
10000000
00000000
00000000
00000000
00010000
00000000
00000000
00100000
00000000
00001000
00000000
00010000
00000000
00000000
00000000
00000000
,
00000000
00000000
00000000
00000000
,
00000000
00000000
00000000
00000000
,
00000000
00000000
00000000
00000000
,
10000000
00000000
00000000
00000000
00010000
00000000
00000000
00100000
00000000
00001000
00000000
00010000
00001000
00000000
00000000
00000000
,
00000000
00000000
00000000
00000000
,
00000000
00000000
00000000
00000000
,
00000000
00000000
00000000
00000000
,
00000000
00000000
00000000
00000000
10000000
00000000
00000000
00000000
00010000
00000000
00000000
00100000
00000000
00001000
00000000
00010000
,
00001000
00000000
00000000
00000000
,
00000000
00000000
00000000
00000000
,
00000000
00000000
00000000
00000000
,
00000000
00000000
00000000
00000000
,
00000000
00000000
00000000
00000000
,
00010000
00000000
00000000
00000000
,
00000000
00000000
00000000
00000000
,
00000000
00000000
00000000
00000000
,
00000000
00000000
00000000
00000000
,
00010000
00001000
00000000
00000000
,
00000000
00000000
00000000
00000000
,
00000000
00000000
00000000
00000000
,
00000000
00000000
00000000
00000000
,
00010000
00000000
00000000
00000000
00001000
00000000
00000000
00010000
00000000
00000000
00000000
00000000
00000000
00000000
00000000
00000000
,
00000000
00000000
00000000
00000000
,
00000000
00000000
00000000
00000000
,
00000000
00000000
00000000
00000000
,
00000000
00000000
00000000
00000000
00010000
00000000
00000000
00000000
00001000
00000000
00000000
00010000
00000000
00000010
00000000
00000000
,
00000000
00000000
00000000
00000000
,
00000000
00000000
00000000
00000000
,
00000000
00000000
00000000
00000000
,
00000000
00000000
00000000
00000000
00010000
00000000
00000000
00000000
00001000
00000000
00000000
00010000
00000000
00000010
00000000
00000100
,
00000000
00000000
00000000
00000000
,
00000000
00000000
00000000
00000000
,
00000000
00000000
00000000
00000000
,
00000000
00000000
00000000
00000000
00010000
00000000
00000000
00000000
00001000
00000000
00000000
00010000
00000000
00000010
00000000
00000100
,
00000001
00000000
00000000
00000000
,
00000000
00000000
00000000
00000000
,
00000000
00000000
00000000
00000000
,
00000000
00000000
00000000
00000000
00000000
00000000
00000000
00000000
00010000
00000000
00000000
00000000
00001000
00000000
00000000
00010000
,
00000000
00000010
00000000
00000100
00000001
00000000
00000000
00000000
00000000
00000000
00000000
00000000
00000000
00000000
00000000
00000000
,
00000000
00000000
00000000
00000000
,
00000000
00000000
00000000
00000000
,
00000000
00000000
00000000
00000000
,
00000000
00000000
00000000
00000000
,
00000000
00000000
00002000
00003000
00000000
00002000
00000000
00000000
00003000
00000000
00000200
00000300
00000000
00000200
00000000
00000000
,
00000300
00000000
00020000
00030000
00000000
00020000
00000000
00000000
00030000
00000000
02000000
03000000
00000000
02000000
00100000
00000000
,
13000000
00000000
00020000
00030000
00000000
00020000
00000000
00000000
00030000
00000000
02000000
03000000
00000000
02000000
00000000
00000000
,
03000000
00000000
00000000
00000000
00000000
00000000
00000000
00000000
00000000
00000000
00002000
00003000
00000000
00002000
00000000
00000000
,
00003000
00000000
00000200
00000300
00000000
00000200
00000000
00000000
00000300
00000000
00020000
00030000
00000000
00020000
00000000
00000000
,
00030000
00000000
02000000
03000000
00000000
02000000
00100000
00000000
13000000
00000000
00020000
00030000
00000000
00020000
00000000
00000000
,
00030000
00000000
02000000
03000000
00000000
02000000
00000000
00000000
03000000
00000000
00002000
00003000
00000000
00002000
00000000
00000000
,
00003000
00000000
00000000
00000000
00000200
00000000
00000300
00000000
00000000
00000000
00000100
00000000
00000010
00000000
00000100
00000010
00000100
00000000
00000001
00000000
00001000
00000000
00000001
00000000
00000000
00000000
00000010
00000000
00000000
00000000
00000010
00000000
,
00000000
00000100
00010000
00000000
00001000
00000000
01000000
00000000
00000000
00100000
10000000
00100000
00000000
10000000
00000000
10000000
,
00000000
01000000
00100000
00000000
00001000
00000000
00010000
00010000
00000000
00000100
00001000
00000100
00000000
00000010
00000000
00000010
,
00000001
00001000
00001000
00000010
00010000
00010000
00001000
00000000
00000000
00100000
01000000
00100000
00000000
00010000
00000000
00010000
,
10000000
00100000
00100000
01000000
00001000
00001000
00010000
00010000
00001000
00000100
00000010
00001000
00000000
00000001
00000000
00000001
,
00000010
00000100
00000100
00001000
00000100
00000100
00010000
00001000
00010000
01000000
00100000
00010000
00000000
10000000
00000000
10000000
,
00100000
01000000
01000000
00010000
01000000
01000000
00001000
00010000
00001000
00000000
00000010
00000100
00001000
00000000
00000001
00000100
,
00000000
00000100
00000000
00000100
00000010
00000000
00010000
00001000
00100000
00000000
00000000
00000000
00000000
00000000
00000000
00000000
,
00000000
00000000
00000000
00000000
,
00002000
00003100
00000010
00001000
00000000
00000001
00000000
00000001
00000010
00000100
00000100
00001000
00000100
00000100
00010000
00001000
,
00010000
01000000
00100000
00010000
00000000
10000000
00000000
10000000
00100000
01000000
01000000
00010000
01000000
01000000
00001000
00010000
,
00001000
00000000
00000010
00000100
00001000
00000000
00000001
00000100
00000000
00000100
00000000
00000100
00000010
00000000
00010000
00001000
,
00100000
01000000
00100000
00001000
00010000
00000000
00001000
00000000
01000000
00100000
00100000
10000000
00000000
00010000
10000000
01000000
,
00000000
00000000
00000000
00000000
,
00000000
00000000
00000000
00000000
00000000
00000000
00000000
00002000
00013000
01000000
00100000
00010000
00000000
10000000
00000000
10000000
,
00100000
01000000
01000000
00010000
01000000
01000000
00001000
00010000
00001000
00000000
00000010
00000100
00001000
00000000
00000001
00000100
,
00000000
00000100
00000000
00000100
00000010
00000000
00010000
00001000
00100000
01000000
00100000
00001000
00010000
00000000
00001000
00000000
,
01000000
00100000
00100000
10000000
00000000
00010000
10000000
01000000
00000000
00000000
00000000
00000000
00000000
00000000
00000000
00000000
,
00000000
00000000
00000000
00000000
,
00020000
01030000
00100000
00010000
00000000
10000000
00000000
10000000
00100000
01000000
01000000
00010000
01000000
01000000
00001000
00010000
,
00001000
00000000
00000010
00000100
00001000
00000000
00000001
00000100
00000000
00000100
00000000
00000100
00000010
00000000
00010000
00001000
,
00100000
01000000
00100000
00001000
00010000
00000000
00001000
00000000
01000000
00100000
00100000
10000000
00000000
00010000
10000000
01000000
,
00010000
00000000
00001000
00010000
00100000
00000000
10000000
01000000
00000000
01000000
00000000
01000000
00100000
00000000
00001000
00010000
,
00000010
00000100
00000010
00010000
00001000
00000000
00010000
00000000
00000100
00000010
00000010
00000001
00000000
00000000
00000000
00000000
,
00000000
00000000
00000000
00000000
00000000
00000000
00000000
00020000
00031000
00000000
00000010
00000100
00001000
00000000
00000001
00000100
,
00000000
00000100
00000000
00000100
00000010
00000000
00010000
00001000
00100000
01000000
00100000
00001000
00010000
00000000
00001000
00000000
,
01000000
00100000
00100000
10000000
00000000
00010000
10000000
01000000
00010000
00000000
00001000
00010000
00100000
00000000
10000000
01000000
,
00000000
01000000
00000000
01000000
00100000
00000000
00001000
00010000
00000000
00000000
00000000
00000000
00000000
00000000
00000000
00000000
,
00000000
00000000
00000000
00000000
,
00002000
00003000
00000010
00000100
00001000
00000000
00000001
00000100
00000000
00000100
00000000
00000100
00000010
00000000
00010000
00001000
,
00100000
01000000
00100000
00001000
00010000
00000000
00001000
00000000
01000000
00100000
00100000
10000000
00000000
00010000
10000000
01000000
,
00010000
00000000
00001000
00010000
00100000
00000000
10000000
01000000
00000000
01000000
00000000
01000000
00100000
00000000
00001000
00010000
,
00000010
00000100
00000010
00010000
00001000
00000000
00010000
00000000
00000100
00000010
00000010
00000001
00000000
00001000
00000001
00000100
,
00000000
00000000
00000000
00000000
,
00000000
00000000
00000000
00000000
00000000
00000000
00000000
00002000
00103000
01000000
00100000
00001000
00010000
00000000
00001000
00000000
,
01000000
00100000
00100000
10000000
00000000
00010000
10000000
01000000
00010000
00000000
00001000
00010000
00100000
00000000
10000000
01000000
,
00000000
01000000
00000000
01000000
00100000
00000000
00001000
00010000
00000010
00000100
00000010
00010000
00001000
00000000
00010000
00000000
,
00000100
00000010
00000010
00000001
00000000
00001000
00000001
00000100
00000000
00000000
00000000
00000000
00000000
00000000
00000000
00000000
,
00000000
00000000
00000000
00000000
,
00200000
01300000
00100000
00001000
00010000
00000000
00001000
00000000
01000000
00100000
00100000
10000000
00000000
00010000
10000000
01000000
,
00010000
00000000
00001000
00010000
00100000
00000000
10000000
01000000
00000000
01000000
00000000
01000000
00100000
00000000
00001000
00010000
,
00000010
00000100
00000010
00010000
00001000
00000000
00010000
00000000
00000100
00000010
00000010
00000001
00000000
00001000
00000001
00000100
,
00001000
00000000
00010000
00001000
00000100
00000000
00000001
00001000
00000000
00001000
00000000
00001000
00000100
00000000
00010000
00001000
,
00000000
00000000
00000000
00000000
,
00000000
00000000
00000000
00000000
00000000
00000000
00000000
02000000
03010000
00000000
00001000
00010000
00100000
00000000
10000000
01000000
,
00000000
01000000
00000000
01000000
00100000
00000000
00001000
00010000
00000010
00000100
00000010
00010000
00001000
00000000
00010000
00000000
,
00000100
00000010
00000010
00000001
00000000
00001000
00000001
00000100
00001000
00000000
00010000
00001000
00000100
00000000
00000001
00001000
,
00000000
00001000
00000000
00001000
00000100
00000000
00010000
00001000
00000000
00000000
00000000
00000000
00000000
00000000
00000000
00000000
,
00000000
00000000
00000000
00000000
,
00020000
00030000
00001000
00010000
00100000
00000000
10000000
01000000
00000000
01000000
00000000
01000000
00100000
00000000
00001000
00010000
,
00000010
00000100
00000010
00010000
00001000
00000000
00010000
00000000
00000100
00000010
00000010
00000001
00000000
00001000
00000001
00000100
,
00001000
00000000
00010000
00001000
00000100
00000000
00000001
00001000
00000000
00001000
00000000
00001000
00000100
00000000
00010000
00001000
,
01000000
00100000
01000000
00001000
00010000
00000000
00001000
00000000
00100000
01000000
01000000
10000000
00000000
00010000
10000000
00100000
,
00000000
00000000
00000000
00000000
,
00000000
00000000
00000000
00000000
00000000
00000000
00000000
00020000
00030010
00000100
00000010
00010000
00001000
00000000
00010000
00000000
,
00000100
00000010
00000010
00000001
00000000
00001000
00000001
00000100
00001000
00000000
00010000
00001000
00000100
00000000
00000001
00001000
,
00000000
00001000
00000000
00001000
00000100
00000000
00010000
00001000
01000000
00100000
01000000
00001000
00010000
00000000
00001000
00000000
,
00100000
01000000
01000000
10000000
00000000
00010000
10000000
00100000
00000000
00000000
00000000
00000000
00000000
00000000
00000000
00000000
,
00000000
00000000
00000000
00000000
,
00000020
00000130
00000010
00010000
00001000
00000000
00010000
00000000
00000100
00000010
00000010
00000001
00000000
00001000
00000001
00000100
,
00001000
00000000
00010000
00001000
00000100
00000000
00000001
00001000
00000000
00001000
00000000
00001000
00000100
00000000
00010000
00001000
,
01000000
00100000
01000000
00001000
00010000
00000000
00001000
00000000
00100000
01000000
01000000
10000000
00000000
00010000
10000000
00100000
,
00010000
00000000
00001000
00000000
00000100
00000000
00000000
00000010
00000000
00000010
00000000
00000010
00001000
00000000
00000001
00000010
00001000
00010000
00000000
00001000
01000000
00000000
01000000
00000000
00100000
10000000
10000000
00010000
00000000
00100000
01000000
00100000
,
00000000
00000000
00000000
00000000
,
00000000
00000000
00000000
00000000
00000000
00000000
00000000
00000200
00001300
00000000
00010000
00001000
00000100
00000000
00000001
00001000
,
00000000
00001000
00000000
00001000
00000100
00000000
00010000
00001000
01000000
00100000
01000000
00001000
00010000
00000000
00001000
00000000
,
00100000
00000000
01000000
00000000
01000000
00000000
10000000
00000000
00000000
00000000
00010000
00000000
10000000
00000000
00100000
00000000
00010000
00000000
00001000
00000000
00000100
00000000
00000000
00000010
00000000
00000010
00000000
00000010
00001000
00000000
00000001
00000010
,
00001000
00010000
00000000
00001000
01000000
00000000
01000000
00000000
00100000
10000000
10000000
00010000
00000000
00100000
01000000
00100000
00000000
00000000
00000000
00000000
00000000
00000000
00000000
00000000
00000000
00000000
00000000
00000000
00000000
00000000
00000000
00000000
,
00000000
00000000
00000000
00000000
,
00002000
00003000
00010000
00001000
00000100
00000000
00000001
00001000
00000000
00001000
00000000
00001000
00000100
00000000
00010000
00001000
,
01000000
00100000
01000000
00001000
00010000
00000000
00001000
00000000
00100000
01000000
01000000
10000000
00000000
00010000
10000000
00100000
,
00010000
00000000
00001000
00000000
00000100
00000000
00000000
00000010
00000000
00000010
00000000
00000010
00001000
00000000
00000001
00000010
00001000
00010000
00000000
00001000
01000000
00000000
01000000
00000000
00100000
10000000
10000000
00010000
00000000
00100000
01000000
00100000
,
00001000
00000000
00010000
00000000
01000000
00000000
00000000
00100000
00000000
00100000
00000000
00100000
00010000
00000000
10000000
00100000
00010000
00100000
01000000
00010000
00100000
01000000
00010000
00001000
00000010
00000100
00001000
00000001
00000100
00000000
00000100
00000000
,
00000000
00000000
00000000
00000000
,
00000000
00000000
00000000
00000000
00000000
00000000
00000000
00002000
01003000
00100000
01000000
00001000
00010000
00000000
00001000
00000000
,
00100000
00000000
01000000
00000000
01000000
00000000
10000000
00000000
00000000
00000000
00010000
00000000
10000000
00000000
00100000
00000000
00010000
00000000
00001000
00000000
00000100
00000000
00000000
00000010
00000000
00000010
00000000
00000010
00001000
00000000
00000001
00000010
,
00001000
00010000
00000000
00001000
01000000
00000000
01000000
00000000
00100000
10000000
10000000
00010000
00000000
00100000
01000000
00100000
00001000
00000000
00010000
00000000
01000000
00000000
00000000
00100000
00000000
00100000
00000000
00100000
00010000
00000000
10000000
00100000
,
00010000
00100000
01000000
00010000
00100000
01000000
00010000
00001000
00000010
00000100
00001000
00000001
00000100
00000000
00000100
00000000
00000000
00000000
00000000
00000000
00000000
00000000
00000000
00000000
00000000
00000000
00000000
00000000
00000000
00000000
00000000
00000000
,
00000000
00000000
00000000
00000000
,
02000000
03100000
01000000
00001000
00010000
00000000
00001000
00000000
00100000
01000000
01000000
10000000
00000000
00010000
10000000
00100000
,
00010000
00000000
00001000
00000000
00000100
00000000
00000000
00000010
00000000
00000010
00000000
00000010
00001000
00000000
00000001
00000010
00001000
00010000
00000000
00001000
01000000
00000000
01000000
00000000
00100000
10000000
10000000
00010000
00000000
00100000
01000000
00100000
,
00001000
00000000
00010000
00000000
01000000
00000000
00000000
00100000
00000000
00100000
00000000
00100000
00010000
00000000
10000000
00100000
00010000
00100000
01000000
00010000
00100000
01000000
00010000
00001000
00000010
00000100
00001000
00000001
00000100
00000000
00000100
00000000
,
00001000
00000100
00000010
00001000
00000100
00000010
00001000
00010000
01000000
00100000
00010000
10000000
00100000
00000000
00100000
00000000
,
00000000
00000000
00000000
00000000
,
00000000
00000000
00000000
00000000
00000000
00000000
00000000
00000000
00000000
00000000
00000000
00000000
00000000
00000000
00200000
00000000
00310000
00000000
00001000
00000000
00000100
00000000
00000000
00000010
00000000
00000010
00000000
00000010
00001000
00000000
00000001
00000010
,
00001000
00010000
00000000
00001000
01000000
00000000
01000000
00000000
00100000
10000000
10000000
00010000
00000000
00100000
01000000
00100000
00001000
00000000
00010000
00000000
01000000
00000000
00000000
00100000
00000000
00100000
00000000
00100000
00010000
00000000
10000000
00100000
,
00010000
00100000
01000000
00010000
00100000
01000000
00010000
00001000
00000010
00000100
00001000
00000001
00000100
00000000
00000100
00000000
00001000
00000000
00000100
00000000
00000010
00000000
00001000
00000000
00000100
00000000
00000010
00000000
00001000
00000000
00010000
00000000
,
01000000
00100000
00010000
10000000
00100000
00000000
00100000
10000000
00000000
00000000
00000000
00000000
00000000
00000000
00000000
00000000
,
00000000
00000000
00000000
00000000
,
00020000
00030000
00001000
00000000
00000100
00000000
00000000
00000010
00000000
00000010
00000000
00000010
00001000
00000000
00000001
00000010
00001000
00010000
00000000
00001000
01000000
00000000
01000000
00000000
00100000
10000000
10000000
00010000
00000000
00100000
01000000
00100000
,
00001000
00000000
00010000
00000000
01000000
00000000
00000000
00100000
00000000
00100000
00000000
00100000
00010000
00000000
10000000
00100000
00010000
00100000
01000000
00010000
00100000
01000000
00010000
00001000
00000010
00000100
00001000
00000001
00000100
00000000
00000100
00000000
,
00001000
00000100
00000010
00001000
00000100
00000010
00001000
00010000
01000000
00100000
00010000
10000000
00100000
00000000
00100000
00000000
,
00000000
00000000
00000000
00000000
,
00000000
00000000
00000000
00000000
00000000
00000000
00000000
00000000
00000000
00000000
00000000
00000000
00000000
00000000
00000000
00000000
00000000
00000000
00000000
00000000
00000000
00000000
00000000
00000000
00000000
00000000
00000000
00000000
00000000
00000000
00000000
00000020
,
00001030
00010000
00000000
00001000
01000000
00000000
01000000
00000000
00100000
10000000
10000000
00010000
00000000
00100000
01000000
00100000
00001000
00000000
00010000
00000000
01000000
00000000
00000000
00100000
00000000
00100000
00000000
00100000
00010000
00000000
10000000
00100000
,
00010000
00100000
01000000
00010000
00100000
01000000
00010000
00001000
00000010
00000100
00001000
00000001
00000100
00000000
00000100
00000000
00001000
00000000
00000100
00000000
00000010
00000000
00001000
00000000
00000100
00000000
00000010
00000000
00001000
00000000
00010000
00000000
,
01000000
00100000
00010000
10000000
00100000
00000000
00100000
00000000
00000000
00000000
00000000
00000000
00000000
00000000
00000000
00000000
,
00000000
00000000
00000000
00000000
,
00000000
00000000
00000000
00000000
00000000
00000000
00000000
00000000
00000000
00000000
00000000
00000000
00000000
00000000
00000000
00000000
00002000
00013000
00000000
00001000
01000000
00000000
01000000
00000000
00100000
10000000
10000000
00010000
00000000
00100000
01000000
00100000
,
00001000
00000000
00010000
00000000
01000000
00000000
00000000
00100000
00000000
00100000
00000000
00100000
00010000
00000000
10000000
00100000
00010000
00100000
01000000
00010000
00100000
01000000
00010000
00001000
00000010
00000100
00001000
00000001
00000100
00000000
00000100
00000000
,
00001000
00000100
00000010
00001000
00000100
00000010
00001000
00010000
01000000
00100000
00010000
10000000
00100000
00000000
00100000
00000000
,
00010000
00100000
01000000
00010000
00100000
01000000
00010000
00001000
00000010
00000100
00001000
00000001
00000100
00000000
00000100
00000010
,
00000000
00000000
00000000
00000000
,
00000000
00000000
00000000
00000000
00000000
00000000
00000000
00000000
00000000
00000000
00000000
00000000
00000000
00000000
00000000
00200000
00301000
00000000
00010000
00000000
01000000
00000000
00000000
00100000
00000000
00100000
00000000
00100000
00010000
00000000
10000000
00100000
,
00010000
00100000
01000000
00010000
00100000
01000000
00010000
00001000
00000010
00000100
00001000
00000001
00000100
00000000
00000100
00000000
00001000
00000000
00000100
00000000
00000010
00000000
00001000
00000000
00000100
00000000
00000010
00000000
00001000
00000000
00010000
00000000
,
01000000
00100000
00010000
10000000
00100000
00000000
00100000
00000000
00010000
00100000
01000000
00010000
00100000
01000000
00010000
00001000
,
00000010
00000100
00001000
00000001
00000100
00000000
00000100
00000010
00000000
00000000
00000000
00000000
00000000
00000000
00000000
00000000
,
00000000
00000000
00000000
00000000
,
00002000
00003000
00010000
00000000
01000000
00000000
00000000
00100000
00000000
00100000
00000000
00100000
00010000
00000000
10000000
00100000
00010000
00100000
01000000
00010000
00100000
01000000
00010000
00001000
00000010
00000100
00001000
00000001
00000100
00000000
00000100
00000000
,
00001000
00000100
00000010
00001000
00000100
00000010
00001000
00010000
01000000
00100000
00010000
10000000
00100000
00000000
00100000
00000000
,
00010000
00100000
01000000
00010000
00100000
01000000
00010000
00001000
00000010
00000100
00001000
00000001
00000100
00000000
00000100
00000010
,
00000001
00000010
00000100
00000001
00000010
00000100
00000010
00001000
00000000
00000000
00000000
00000000
00000000
00000000
00000000
00000000
,
00000000
00000000
00000000
00000000
00000000
00000000
00000000
00000000
00000000
00000000
00000000
00000000
00000000
00000000
00000000
00000000
00000000
00000000
00000000
00000000
00000000
00000000
00000000
00000000
00000000
00000000
00000000
00000000
00000000
00000000
00000000
00200000
,
00310000
00100000
01000000
00010000
00100000
01000000
00010000
00001000
00000010
00000100
00001000
00000001
00000100
00000000
00000100
00000000
00001000
00000000
00000100
00000000
00000010
00000000
00001000
00000000
00000100
00000000
00000010
00000000
00001000
00000000
00010000
00000000
,
01000000
00100000
00010000
10000000
00100000
00000000
00100000
00000000
00010000
00100000
01000000
00010000
00100000
01000000
00010000
00001000
,
00000010
00000100
00001000
00000001
00000100
00000000
00000100
00000010
00000001
00000010
00000100
00000001
00000010
00000100
00000010
00001000
,
00000000
00000000
00000000
00000000
,
00000000
00000000
00000000
00000000
00000000
00000000
00000000
00000000
00000000
00000000
00000000
00000000
00000000
00000000
00000000
00000000
00020000
00130000
01000000
00010000
00100000
01000000
00010000
00001000
00000010
00000100
00001000
00000001
00000100
00000000
00000100
00000000
,
00001000
00000100
00000010
00001000
00000100
00000010
00001000
00010000
01000000
00100000
00010000
10000000
00100000
00000000
00100000
00000000
,
00010000
00100000
01000000
00010000
00100000
01000000
00010000
00001000
00000010
00000100
00001000
00000001
00000100
00000000
00000100
00000010
,
00000001
00000010
00000100
00000001
00000010
00000100
00000010
00001000
00010000
01000000
00100000
00010000
01000000
00000000
01000000
00000000
,
10000000
01000000
00100000
10000000
01000000
00100000
01000000
00010000
00001000
00000010
00000100
00001000
00000010
00000100
00000010
00000100
,
00001000
00000100
00000010
00001000
00000100
00000010
00001000
00010000
01000000
00100000
00010000
10000000
00100000
00000000
00100000
00000000
,
00010000
00100000
01000000
00010000
00100000
01000000
00010000
00001000
00000010
00000100
00001000
00000001
00000100
00000000
00000100
00000010
,
00000001
00000010
00000100
00000001
00000010
00000100
00000010
00001000
00010000
01000000
00100000
00010000
01000000
00000000
01000000
00000000
,
10000000
01000000
00100000
10000000
01000000
00100000
01000000
00010000
00001000
00000010
00000100
00001000
00000010
00000100
00000010
00000100
,
00000002
00000000
00000000
00001003
00000010
00000100
00001000
00010000
00000100
00001000
00010000
00100000
00001000
00010000
00200000
00000000
,
10300000
00000000
00000000
10000000
00000000
00000000
10000000
00000000
00000000
10000000
00000000
00000000
10000000
00000000
00000000
00000000
,
00000000
00000000
00000000
00000000
,
00000000
00000000
00000000
00000000
,
00000000
00000000
00000000
00000000
,
00000000
00000000
00000000
00000000
00000000
00000000
00000000
00000000
10000000
00000000
00000000
10000000
00000000
00000000
10000000
00000000
,
00000000
10000000
00000000
00000000
10000000
00000000
00000000
00000000
20000000
00000000
00000000
30000000
00000000
00000000
00000000
00000000
,
00000000
00000000
00000000
00000000
,
00000000
00000000
00000000
00000000
,
00000000
00000000
00000000
00000000
,
00000000
00000000
00000000
00000000
,
20000000
00000000
00000000
30010000
01000000
00100000
00010000
00001000
00100000
00010000
00001000
00000100
00010000
00001000
00000200
00000000
,
00000301
00000000
00000000
00000001
00000000
00000000
00000001
00000000
00000000
00000001
00000000
00000000
00000001
00000000
00000000
00000000
,
00000000
00000000
00000000
00000000
,
00000000
00000000
00000000
00000000
,
00000000
00000000
00000000
00000000
,
00000000
00000000
00000000
00000000
00000000
00000000
00000000
00000000
00000001
00000000
00000000
00000001
00000000
00000000
00000001
00000000
,
00000000
00000001
00000000
00000000
00000001
00000000
00000000
00000000
00000002
00000000
00000000
00000003
00000000
00000000
00000000
00000000
,
00000000
00000000
00000000
00000000
,
00000000
00000000
00000000
00000000
,
00000000
00000000
00000000
00000000
,
00000000
00000000
00000000
00000000
,
00000002
00000000
00000000
00001003
00000100
00000010
00001000
00010000
00000010
00001000
00010000
01000000
00001000
00010000
02000000
00000000
,
13000000
00000000
00000000
10000000
00000000
00000000
10000000
00000000
00000000
10000000
00000000
00000000
10000000
00000000
00000000
00000000
,
00000000
00000000
00000000
00000000
,
00000000
00000000
00000000
00000000
,
00000000
00000000
00000000
00000000
,
00000000
00000000
00000000
00000000
00000000
00000000
00000000
00000000
10000000
00000000
00000000
10000000
00000000
00000000
10000000
00000000
,
00000000
10000000
00000000
00000000
10000000
00000000
00000000
00000000
20000000
00000000
00000000
30000000
00000000
00000000
00000000
00000000
,
00000000
00000000
00000000
00000000
,
00000000
00000000
00000000
00000000
,
00000000
00000000
00000000
00000000
,
00000000
00000000
00000000
00000000
,
20000000
00000000
00000000
30010000
00100000
01000000
00010000
00001000
01000000
00010000
00001000
00000010
00010000
00001000
00010000
00001000
,
00100000
00010000
00001000
00000100
00010000
00001000
00000100
00000010
00001000
00000100
00000010
00000001
00001000
00000010
00000100
00001000
,
00020000
00000000
00000000
00000000
,
00030000
00000000
00002000
00000000
00000000
01000000
00000000
00000000
00000000
00000000
00023000
00000000
00000000
00000100
00000000
00000000
00000000
00000000
00032000
00000000
00000000
00100000
00000000
00000000
00000000
00000000
00023000
00000000
00000000
00000010
00000000
00000000
,
00000000
00000000
00032000
00000000
00000000
00000100
00000000
00000000
00000000
00000000
00023000
00000000
00000000
01000000
00000000
00000000
00000000
00000000
00032000
00000000
00000000
00000010
00000000
00000000
00000000
00000000
00023000
00000000
00000000
00100000
00000000
00000000
,
00031000
00000000
01000000
00100000
10000000
00010000
00100000
01000000
00100000
00001000
00010000
00000010
00001000
00000000
00000001
00000001
00001000
00000100
00000010
00000100
00010000
00001000
00000100
00000010
00010000
00001000
00001000
00010000
00000000
01000000
00100000
00010000
,
10000000
00100000
01000000
00001000
00010000
00001000
00100000
01000000
00100000
00001000
00010000
00000100
00001000
00000000
00000010
00000100
00001000
00000100
00000010
00001000
00000100
00000010
00001000
00010000
01000000
00100000
00010000
10000000
00100000
00010000
00001000
00000100
,
00000002
00000000
00000000
00001003
00000010
00000100
00001000
00010000
00000100
00001000
00010000
00100000
10000000
00100000
00020000
00000000
,
10030000
00000000
00000000
10000000
00000000
00000000
10000000
00000000
00000000
10000000
00000000
00000000
10000000
00000000
00000000
00000000
,
00000000
00000000
00000000
00000000
,
00000000
00000000
00000000
00000000
,
00000000
00000000
00000000
00000000
,
00000000
00000000
00000000
00000000
00000000
00000000
00000000
00000000
10000000
00000000
00000000
10000000
00000000
00000000
10000000
00000000
,
00000000
10000000
00000000
00000000
10000000
00000000
00000000
00000000
20000000
00000000
00000000
30000000
00000000
00000000
00000000
00000000
,
00000000
00000000
00000000
00000000
,
00000000
00000000
00000000
00000000
,
00000000
00000000
00000000
00000000
,
00000000
00000000
00000000
00000000
,
20000000
00000000
00000000
30010000
01000000
00100000
00010000
00001000
00100000
00010000
00001000
00000100
00000001
00000100
00002000
00000000
,
00003001
00000000
00000000
00000001
00000000
00000000
00000001
00000000
00000000
00000001
00000000
00000000
00000001
00000000
00000000
00000000
,
00000000
00000000
00000000
00000000
,
00000000
00000000
00000000
00000000
,
00000000
00000000
00000000
00000000
,
00000000
00000000
00000000
00000000
00000000
00000000
00000000
00000000
00000001
00000000
00000000
00000001
00000000
00000000
00000001
00000000
,
00000000
00000001
00000000
00000000
00000001
00000000
00000000
00000000
00000004
00000000
00000000
00000003
00000000
00000000
00000000
00000000
,
00000000
00000000
00000000
00000000
,
00000000
00000000
00000000
00000000
,
00000000
00000000
00000000
00000000
,
00000000
00000000
00000000
00000000
,
00000004
00000000
00000000
00001003
00000010
00000100
00001000
00010000
00100000
01000000
00001000
00010000
01000000
00010000
00001000
01000000
,
00010000
00000000
10000000
00000000
01000000
00000000
00010000
00000000
00000000
00000000
00001000
00000000
00001000
00000000
00001000
00000000
00000010
00000100
00000010
00000000
00000001
00000000
00000100
00000000
00001000
00000000
00001000
00000000
00001000
00000000
00001000
00000000
,
00010000
00100000
10000000
00010000
00100000
10000000
00100000
01000000
00100000
00001000
00000000
00100000
00001000
00001000
00001000
00001000
,
01000000
00001000
01000000
00000000
00001000
00000000
00010000
00000100
00010000
00000000
00000100
00000000
00000000
00000000
00001000
00000000
00000001
00000000
00000100
00000000
00001000
00000000
00010000
00000000
00001000
00010000
00001000
00010000
00001000
00010000
00001000
00010000
,
00002000
00000000
00000000
00003000
;

//---------------dance-double - ----------------
#NOTEDATA:;
#CHARTNAME:;
#STEPSTYPE:dance-double;
#DESCRIPTION:;
#CHARTSTYLE:;
#DIFFICULTY:Hard;
#METER:15;
#RADARVALUES:0.635990,0.991602,0.000000,0.213503,1.205896,563.000000,563.000000,0.000000,27.000000,0.000000,0.000000,0.000000,0.000000,0.000000,0.635990,0.991602,0.000000,0.213503,1.205896,563.000000,563.000000,0.000000,27.000000,0.000000,0.000000,0.000000,0.000000,0.000000;
#CREDIT:Kekkle;
#DISPLAYBPM:56.000000:112.000000;
#NOTES:
00000000
00000000
00000000
00000000
,
00000000
00000000
00000000
00000000
,
00000000
00000000
00000000
00000000
,
10000000
00000000
00000000
00000000
00100000
00000000
00000000
01000000
00000000
00001000
00000000
01000000
00001000
00000000
00010000
00000000
,
00000100
00000000
00000000
00000000
00001000
00000000
00000000
00000001
00000000
00000010
00000000
00000001
00000010
00000100
00001000
00000001
,
00000100
00000000
00002000
00000000
00000000
00010000
00000000
00000000
00003000
00000000
02000000
00000000
00000000
00010000
00000000
00000000
,
03000000
00000000
00002000
00000000
00000000
00010000
00000000
00000000
00003000
00000000
00000020
00000000
00000000
00000100
00000000
00000000
,
00000030
00000000
00000002
00000000
00000000
00001000
00000000
00000000
00000003
00000000
00000200
00000000
00000000
00000010
00000000
00000000
,
00000300
00000000
00002000
00000000
00000000
00010000
00000000
00000000
00003000
00000000
02000000
00000000
00000000
00100000
00000000
00000000
,
03000000
00010000
10000000
00010000
00000000
10000000
00000000
01000000
00000000
00100000
00001000
00000000
00010000
00000000
00010000
00000000
,
00000000
00000010
00000100
00000010
00000000
00001000
00000000
00000001
00000000
00000010
00000100
00000000
00001000
00000000
00000010
00010000
,
00000000
00001000
00010000
00001000
00000000
00010000
00000000
00100000
01000000
00010000
10000000
00010000
00000000
00000000
00100000
00000000
,
00000000
00001000
00010000
00001000
00000000
00010000
00000000
00000100
00000010
00000001
00001000
00000001
00000000
00000000
00000100
00000010
,
00000001
00000010
00001000
00000001
00000000
00001000
00000000
00000100
00000000
00010000
00001000
00000000
01000000
00000000
00100000
01000000
,
10000000
01000000
00010000
10000000
00000000
01000000
00000000
00100000
00000000
00001000
00010000
00000000
00001000
00000100
00000000
00000010
,
00000001
00000000
00000010
00001000
00000001
00000000
00000010
00000100
00000000
00000100
00000000
00010000
00001000
00000000
01000000
00100000
,
00010000
00100000
00000000
10000000
00010000
00000000
00010000
00000000
00100000
01000000
10000000
00100000
00000000
00010000
00001000
00010000
,
00100000
00000000
00010000
00001000
01000000
00000000
00001000
00010000
00000000
00010000
00000000
00000100
00001000
00000000
00000100
00000010
,
00001000
00000010
00000000
00000001
00001000
00000000
00001000
00000000
00000010
00000100
00000001
00000010
00000000
00000100
00010000
00001000
,
00000100
00000000
00001000
00100000
00010000
00000000
00100000
00001000
00000000
00001000
00000000
00010000
00100000
00000000
01000000
00100000
,
00010000
00100000
00000000
10000000
00010000
00000000
00010000
00000000
00100000
01000000
10000000
00100000
00000000
01000000
00001000
00010000
,
00100000
00000000
00010000
00000000
00001000
00000000
00000000
00010000
00000000
00010000
00000000
00000100
00001000
00000000
00000100
00000010
00001000
00000010
00000000
00000001
00001000
00000000
00001000
00000000
00000010
00000100
00000001
00000010
00000000
00000100
00010000
00001000
,
00000100
00000000
00001000
00000000
00010000
00000000
00000000
00001000
00000000
00001000
00000000
00100000
00010000
00000000
00100000
01000000
00010000
00000000
01000000
10000000
00000000
00010000
01000000
00100000
00010000
00001000
00100000
00001000
00010000
00000000
00010000
00000000
,
00000100
00001000
00000001
00000100
00000000
00001000
00000100
00000010
00001000
00000010
00010000
00001000
00010000
00000000
00010000
00000000
,
01000000
10000000
00010000
01000000
00000000
10000000
01000000
00100000
10000000
00010000
00100000
00001000
00010000
00000000
00010000
00001000
,
00000100
00000001
00001000
00000100
00000000
00000001
00000100
00001000
00000001
00000100
00000010
00010000
00001000
00000000
00001000
00000000
,
00100000
00010000
10000000
00100000
00000000
00010000
00100000
10000000
00010000
00100000
00001000
00010000
00000100
00001000
00000100
00001000
,
00000001
00000100
00000010
00000001
00000000
00000010
00001000
00000001
00000010
00000100
00001000
00000100
00010000
00000000
00010000
00000000
,
00001000
01000000
00100000
00010000
00000000
00100000
10000000
00010000
00100000
01000000
00100000
00001000
00010000
00000000
00010000
00001000
,
00000100
00000010
00000100
00001000
00000000
00000100
00000001
00001000
00000100
00000010
00000100
00010000
00001000
00000000
00001000
00000000
,
01000000
00100000
01000000
10000000
00000000
01000000
00010000
10000000
01000000
00100000
00001000
00010000
00000010
00001000
00000010
00001000
,
00000002
00000000
00000000
00001003
00000100
00000010
00001000
00010000
01000000
00100000
00001000
00010000
01000000
10000000
00020000
00000000
,
01000000
00000000
00000000
10000000
00000000
00000000
00100000
00000000
00000000
10000000
00000000
00000000
01000000
00000000
00000000
00000000
,
20030000
00000000
00000000
30010000
01000000
00100000
00010000
00001000
00000100
00000010
00010000
00001000
00000100
00000001
00002000
00000000
,
00000100
00000000
00000000
00000001
00000000
00000000
00000010
00000000
00000000
00000001
00000000
00000000
00000100
00000000
00000000
00000000
,
00003002
00000000
00000000
00001003
00000100
00000010
00001000
00010000
01000000
00100000
00001000
00010000
01000000
10000000
00020000
00000000
,
01000000
00000000
00000000
10000000
00000000
00000000
00100000
00000000
00000000
10000000
00000000
00000000
01000000
00000000
00000000
00000000
,
20030000
00000000
00000000
30010000
01000000
00100000
00010000
00001000
00000100
00000010
00010000
00001000
00000100
00000001
00001000
00000100
,
00000010
00001000
00010000
01000000
00100000
00001000
00010000
01000000
10000000
00010000
10000000
00100000
00010000
00001000
00000100
00000001
,
00002000
00000000
00000000
00000000
00000000
00000000
00000000
00000000
00000000
00000000
00000000
00000000
00000000
00000000
00000000
00000000
00003002
00000000
00000100
00000000
00000000
00000100
00000000
00000000
00002003
00000000
00000100
00000000
00000000
00000100
00000000
00000000
,
00023000
00000000
00100000
00000000
00000000
00100000
00000000
00000000
20030000
00000000
00100000
00000000
00000000
00100000
00000000
00000000
30020000
00000000
10000000
00000000
00000000
10000000
00000000
00000000
00000000
00000000
01000000
00000000
00000000
01000000
00000000
00000000
,
00000000
00000000
00001000
00000000
00000000
00001000
00000000
00000000
00000000
00000000
01000000
00000000
00000000
01000000
00000000
00000000
10030000
00000000
00010000
00100000
01000000
00000000
00000000
00010000
00000000
00010000
00000000
00010000
00001000
00000000
00000010
00000100
,
00000001
00000100
00000000
00001000
00000001
00000000
00000001
00000000
00000100
00000010
00001000
00000100
00000000
00010000
00001000
00010000
00100000
00000000
00010000
00001000
01000000
00000000
00000000
00010000
00000000
00010000
00000000
00010000
10000000
00000000
01000000
00100000
,
10000000
00100000
00010000
10000000
00000000
00010000
01000000
00100000
00010000
00001000
00000100
00000010
00001000
00000001
00001000
00000001
00000020
00000000
00000000
00000000
00000000
00000000
00000130
00000000
00000001
00000000
00001000
00000000
00000010
00000000
00000100
00000000
,
00010000
00001000
00000100
00001000
00010000
00100000
02000000
00000000
00010000
00000000
00000000
00100000
00000000
00000000
10000000
00000000
,
00000000
00100000
00000000
00000000
00010000
00000000
00000000
00000000
03200000
00000000
00000000
01300000
10000000
00010000
00100000
01000000
,
00001000
00010000
01000000
00010000
00001000
00000010
00000200
00000000
00001000
00000000
00000000
00000010
00000000
00000000
00000001
00000000
,
00000000
00000010
00000000
00000000
00001000
00000000
00000000
00000000
00000310
00000000
00000001
00001000
00000010
00000100
00001000
00010000
,
00100000
01000000
00010000
10000000
00010000
00100000
01000000
00010000
10000000
00100000
00010000
10000000
00000000
00010000
01000000
00010000
,
01000000
00100000
00010000
00001000
00000100
00000010
00000100
00000010
00000001
00000010
00001000
00000001
00000010
00001000
00000001
00000100
,
00010000
00001000
00000000
00000100
00001000
00010000
00001000
00010000
00100000
10000000
00010000
00100000
10000000
00010000
00000000
01000000
,
00100000
00001000
00010000
00001000
00000200
00000000
00000000
00000000
00000020
00000000
00000000
00000000
00000000
00000000
00000000
00000000
,
00000000
00000330
00000000
00000000
;

//---------------dance-double - ----------------
#NOTEDATA:;
#CHARTNAME:;
#STEPSTYPE:dance-double;
#DESCRIPTION:;
#CHARTSTYLE:;
#DIFFICULTY:Medium;
#METER:12;
#RADARVALUES:0.424746,0.640410,0.000000,0.213503,0.482358,376.000000,376.000000,0.000000,27.000000,0.000000,0.000000,0.000000,0.000000,0.000000,0.424746,0.640410,0.000000,0.213503,0.482358,376.000000,376.000000,0.000000,27.000000,0.000000,0.000000,0.000000,0.000000,0.000000;
#CREDIT:Kekkle;
#DISPLAYBPM:56.000000:112.000000;
#NOTES:
00000000
00000000
00000000
00000000
,
00000000
00000000
00000000
00000000
,
00000000
00000000
00000000
00000000
,
00000000
00000000
00000000
00000000
,
00000000
00000000
00000000
00000000
,
00000000
00000000
00000001
00000000
00000000
00000001
00000000
00000000
00000000
00000000
00001000
00000000
00000000
00001000
00000000
00000000
,
00000000
00000000
00000010
00000000
00000000
00000010
00000000
00000000
00000000
00000000
00000100
00000000
00000000
00000100
00000000
00000000
,
00000000
00000000
00001000
00000000
00000000
00001000
00000000
00000000
00000000
00000000
00010000
00000000
00000000
00010000
00000000
00000000
,
00000000
00000000
00100000
00000000
00000000
00100000
00000000
00000000
00000000
00000000
01000000
00000000
00000000
01000000
00000000
00000000
,
00000000
00010000
10000000
01000000
00100000
01000000
00010000
00001000
,
00000000
00010000
00001000
00000100
00000010
00000100
00000001
00001000
,
00000000
00000000
00000001
00000000
00000010
00000000
00000100
00000000
00000002
00000000
00000000
00000203
00000000
00000000
00001300
00000000
,
00000000
00000000
00000001
00000000
00000100
00000000
00000010
00000000
00000200
00000000
00000000
00002300
00000000
00000000
00013000
00000000
,
00100000
00000000
00010000
00000000
00001000
00000000
01000000
00000000
00020000
00000000
00000000
20030000
00000000
00000000
31000000
00000000
,
00010000
00000000
01000000
00000000
00100000
00000000
00001000
00000000
00020000
00000000
00000000
00030020
00000000
00000000
00000130
00000000
,
00001000
00000000
00000100
00000000
00000001
00000000
00000000
00001000
00000000
00000001
00000000
00001000
00000001
00000000
00000100
00000000
,
00000000
00000000
00000010
00000000
00000100
00000000
00001000
00000000
00020000
00000000
00000000
00032000
00000000
00000000
01003000
00000000
,
00010000
00000000
10000000
00000000
01000000
00000000
00000000
00100000
00000000
01000000
00000000
00100000
01000000
00000000
10000000
00000000
,
00000000
00000000
00010000
00000000
01000000
00000000
00001000
00000000
00020000
00000000
00000000
00030200
00000000
00000000
00000310
00000000
,
00000001
00000000
00001000
00000000
00000010
00000000
00000000
00001000
00000000
00000001
00000000
00001000
00000001
00000000
00000010
00000000
,
00000000
00000000
00000100
00000000
00010000
00000000
00001000
00000000
02000000
00000000
00000000
03020000
00000000
00000000
10030000
00000000
,
01000000
00000000
00100000
00000000
00010000
10000000
00100000
00000000
01000000
00001000
01000000
00001000
00010000
00000100
00010000
00000100
,
00001000
00000000
00000100
00000000
00000010
00000001
00001000
00000000
00000010
00010000
00000010
00010000
00001000
00100000
00001000
00100000
,
00010000
00000000
10000000
00010000
00000000
10000000
00010000
00000000
10000000
00000000
00100000
00000000
00010000
00000000
00010000
00000000
,
00001000
00000000
00000100
00000010
00000000
00000100
00000010
00000000
00001000
00000000
00000001
00000000
00000010
00000000
00000010
00000100
,
00000010
00000000
00000100
00010000
00000000
00000100
00010000
00000000
00001000
00000000
00010000
00000000
00100000
00000000
00100000
00000000
,
01000000
00000000
00010000
10000000
00000000
00010000
10000000
00000000
01000000
00000000
00100000
00000000
00100000
00001000
00100000
00001000
,
00100000
00000000
00001000
00010000
00000000
00001000
00010000
00000000
00001000
00000000
00000100
00000000
00000001
00000000
00000001
00000000
,
00001000
00000000
00000100
00000010
00000000
00000100
00000010
00000000
00001000
00000000
00010000
00000000
00000100
00000000
00000100
00010000
,
00000100
00000000
00010000
00001000
00000000
00010000
00001000
00000000
00010000
00000000
00100000
00000000
10000000
00000000
10000000
00000000
,
00010000
00000000
00100000
01000000
00000000
00100000
01000000
00000000
10000000
00000000
00010000
00000000
00010000
01000000
00010000
01000000
,
00020000
00000000
00000000
00000000
10030000
00000000
01000000
00000000
00100000
00000000
01000000
00000000
00010000
00001000
00010000
00000000
,
00001000
00000000
00000000
00000100
00000000
00000000
00000001
00000000
00000000
00000010
00000000
00000000
00000100
00000000
00000000
00000000
,
00002000
00000000
00000000
00000000
00003001
00000000
00000100
00000000
00000010
00000000
00000100
00000000
00001000
00010000
00001000
00000000
,
00010000
00000000
00000000
01000000
00000000
00000000
10000000
00000000
00000000
00100000
00000000
00000000
01000000
00000000
00000000
00000000
,
00020000
00000000
00000000
00000000
10030000
00000000
00100000
00000000
01000000
00000000
00100000
00000000
00010000
00001000
00010000
00000000
,
00001000
00000000
00000000
00000010
00000000
00000000
00000001
00000000
00000000
00000100
00000000
00000000
00000010
00000000
00000000
00000000
,
00002000
00000000
00000000
00000000
00003001
00000000
00000010
00000000
00000100
00000000
00000010
00000000
00001000
00010000
00001000
00000000
,
00010000
00000000
01000000
00000000
10000000
00000000
00010000
00000000
01000000
00000000
00100000
00000000
00010000
00001000
00010000
00001000
,
00020000
00000000
00000000
00000000
00000000
00000000
00000000
00000000
00000000
00000000
00000000
00000000
00000000
00000000
00000000
00000000
00031000
00000000
00000100
00000000
00000000
00000100
00000000
00000000
00000000
00000000
00000001
00000000
00000000
00000001
00000000
00000000
,
00000000
00000000
00001000
00000000
00000000
00001000
00000000
00000000
00000000
00000000
00000100
00000000
00000000
00000100
00000000
00000000
00000000
00000000
00010000
00000000
00000000
00010000
00000000
00000000
00000000
00000000
00001000
00000000
00000000
00001000
00000000
00000000
,
00000000
00000000
01000000
00000000
00000000
01000000
00000000
00000000
00000000
00000000
00100000
00000000
00000000
00100000
00000000
00000000
10000000
00000000
00010000
00000000
00100000
00000000
01000000
00000000
00010000
00000000
00001000
00000000
00000010
00000000
00000100
00000000
,
00000000
00000000
00001000
00000000
00000001
00000000
00000100
00000000
00000020
00000000
00000000
00000230
00000000
00000000
00001300
00000000
00010000
00000000
00001000
00000000
01000000
00000000
00010000
00000000
00100000
00000000
01000000
00000000
10000000
00000000
00010000
00000000
,
01000000
00100000
01000000
00001000
00010000
00000100
00000010
00000010
00000002
00000000
00000000
00000000
00001003
00000000
00000010
00000000
,
00010000
00001000
00010000
00001000
00010000
00001000
00010000
00000000
00100000
00000000
00000000
10000000
00000000
00000000
01000000
00000000
,
00000000
00010000
00000000
00000000
01000000
00000000
00000000
00000000
20000000
00000000
00000000
00000000
30010000
00000000
00100000
00000000
,
00001000
00010000
00001000
00010000
00001000
00010000
00001000
00000000
00000010
00000000
00000000
00000001
00000000
00000000
00000100
00000000
,
00000000
00001000
00000000
00000000
00000100
00000000
00000000
00000000
00002000
00000000
00000000
00000000
00013000
00000000
00100000
00000000
,
10000000
00000000
00010000
00000000
00100000
00000000
01000000
00000000
00010000
00001000
00010000
00001000
00000000
00020000
00000000
00000000
,
00030100
00000000
00000010
00000000
00000001
00001000
00000001
00001000
00000001
00000000
00000100
00000010
00000000
00000100
00000010
00000000
,
00000100
00000000
00001000
00000000
00010000
00000000
00100000
00000000
01000000
00010000
01000000
00010000
01000000
00100000
00000000
10000000
,
00010000
10000000
01000000
00000000
00200000
00000000
00000000
00000000
00302000
00000000
00000000
00000000
00000000
00000000
00000000
00000000
,
00000000
00003000
00000000
00000000
;

//---------------dance-double - ----------------
#NOTEDATA:;
#CHARTNAME:;
#STEPSTYPE:dance-double;
#DESCRIPTION:;
#CHARTSTYLE:;
#DIFFICULTY:Easy;
#METER:10;
#RADARVALUES:0.291448,0.371851,0.000000,0.102798,0.047445,258.000000,258.000000,0.000000,13.000000,0.000000,0.000000,0.000000,0.000000,0.000000,0.291448,0.371851,0.000000,0.102798,0.047445,258.000000,258.000000,0.000000,13.000000,0.000000,0.000000,0.000000,0.000000,0.000000;
#CREDIT:Kekkle;
#DISPLAYBPM:56.000000:112.000000;
#NOTES:
// measure 0
00000000
00000000
00000000
00000000
,  // measure 1
00000000
00000000
00000000
00000000
,  // measure 2
00000000
00000000
00000000
00000000
,  // measure 3
00000000
00000000
00000000
00000000
,  // measure 4
00000000
00000000
00000000
00000000
,  // measure 5
10000000
01000000
10000000
10000000
,  // measure 6
01000000
00100000
01000000
01000000
,  // measure 7
00100000
00001000
00100000
00100000
,  // measure 8
00001000
00010000
00001000
00001000
,  // measure 9
00010000
00000000
00000100
00000010
00000000
00000010
00000100
00000000
,  // measure 10
00001000
00000000
00000001
00000100
00000000
00000100
00000001
00000000
,  // measure 11
00000100
00000000
00000010
00000000
00010000
00000010
00010000
00000000
,  // measure 12
00001000
00000000
00100000
00000000
00010000
00100000
00010000
00000000
,  // measure 13
10000000
00000000
00100000
00000000
01000000
00100000
01000000
00000000
,  // measure 14
00100000
00000000
00010000
00000000
00001000
00010000
00001000
00000000
,  // measure 15
00010000
00000000
00000100
00000000
00000010
00000000
00000001
00001000
,  // measure 16
00000000
00001000
00000001
00000000
00000100
00000000
00000100
00000000
,  // measure 17
00000010
00000000
00010000
00000000
00001000
00000000
00100000
00010000
,  // measure 18
00000000
00010000
10000000
00000000
00100000
00000000
00100000
00000000
,  // measure 19
01000000
00000000
00010000
00000000
10000000
00000000
01000000
00100000
,  // measure 20
00000000
00100000
00001000
00000000
00010000
00000000
00010000
00000000
,  // measure 21
00002000
01003000
00100000
10000000
00020000
00130000
01000000
00010000
,  // measure 22
00002000
00000000
00003010
00000000
00000001
00000000
00001000
00000000
00000010
00000000
00000100
00000000
00001000
00010000
00001000
00000000
,  // measure 23
00010000
00000000
00100000
00000000
10000000
00010000
10000000
00010000
,  // measure 24
10000000
00000000
01000000
00000000
00100000
00001000
00100000
00001000
,  // measure 25
00100000
00000000
00001000
00000000
00010000
00000010
00010000
00000010
,  // measure 26
00010000
00000000
00000010
00000000
00000100
00000001
00000100
00000001
,  // measure 27
00001000
00000000
00000100
00000000
00000010
00000100
00000010
00000001
,  // measure 28
00001000
00000000
00000010
00000000
00000100
00001000
00010000
00100000
,  // measure 29
01000000
00000000
00010000
00000000
10000000
01000000
00100000
00010000
,  // measure 30
10000000
00000000
00010000
00000000
01000000
00100000
00010000
00001000
,  // measure 31
00000200
00000000
00000301
00001000
00000001
00001000
00000100
00000000
,  // measure 32
00010000
00000000
00000000
00001000
00000000
00000000
00010000
00000000
00000000
00001000
00000000
00000000
00010000
00000000
00000000
00000000
,  // measure 33
02000000
00000000
13000000
00010000
10000000
00010000
01000000
00000000
,  // measure 34
00001000
00000000
00000000
00010000
00000000
00000000
00001000
00000000
00000000
00010000
00000000
00000000
00001000
00000000
00000000
00000000
,  // measure 35
00000020
00000000
00000031
00001000
00000001
00001000
00000010
00000000
,  // measure 36
00010000
00000000
00000000
00001000
00000000
00000000
00010000
00000000
00000000
00001000
00000000
00000000
00010000
00000000
00000000
00000000
,  // measure 37
00200000
00000000
10300000
00010000
10000000
00010000
00100000
00000000
,  // measure 38
01000000
00100000
01000000
00000000
00100000
00001000
00100000
00001000
,  // measure 39
00020000
00000000
00031000
00001000
,  // measure 40
00010000
00010000
00100000
00100000
,  // measure 41
10000000
00000000
10000000
00000000
00010000
00100000
01000000
01000000
,  // measure 42
00010000
00001000
00000010
00000001
00001000
00000010
00000100
00000100
,  // measure 43
00001000
00000000
00010000
00000000
00100000
01000000
00100000
00000000
20000000
00000000
00000000
00000000
30010000
00000000
00100000
00000000
,  // measure 44
01000000
00000000
00100000
00000000
00001000
00000000
00000000
00000000
00010000
00000000
00000000
00000100
00000000
00000000
00001000
00000000
,  // measure 45
00000000
00000100
00000000
00000000
00001000
00000000
00000000
00000000
00000002
00000000
00000000
00000000
00001003
00000000
00000010
00000000
,  // measure 46
00000100
00000000
00000010
00000000
00010000
00000000
00000000
00000000
00001000
00000000
00000000
00100000
00000000
00000000
00010000
00000000
,  // measure 47
00000000
00100000
00000000
00000000
00010000
00000000
00000000
00000000
20000000
00000000
00000000
00000000
30010000
00000000
01000000
00000000
,  // measure 48
00100000
01000000
00001000
00000000
00010000
00000100
00000000
00000010
,  // measure 49
00000000
00000001
00001000
00001000
00000001
00000100
00000010
00000100
,  // measure 50
00001000
00010000
00001000
00000000
00010000
00100000
01000000
00000000
,  // measure 51
00010000
10000000
02000000
00000000
03020000
00000000
00000000
00000000
,  // measure 52
00000000
00030000
00000000
00000000
;
