#VERSION:0.83;
#TITLE:トランスダンスアナーキー;
#SUBTITLE:;
#ARTIST:暁Records;
#TITLETRANSLIT:Trance Dance Anarchy;
#SUBTITLETRANSLIT:;
#ARTISTTRANSLIT:Akatsuki Records;
#GENRE:;
#ORIGIN:;
#CREDIT:;
#BANNER:Trance Dance Anarchy.png;
#BACKGROUND:Trance Dance Anarchy-bg.png;
#PREVIEWVID:;
#JACKET:Trance Dance Anarchy-jacket.png;
#CDIMAGE:;
#DISCIMAGE:;
#LYRICSPATH:;
#CDTITLE:;
#MUSIC:Trance Dance Anarchy.ogg;
#OFFSET:1.230769;
#SAMPLESTART:55.384613;
#SAMPLELENGTH:20.000000;
#SELECTABLE:YES;
#BPMS:0.000=195.000;
#STOPS:;
#DELAYS:;
#WARPS:;
#TIMESIGNATURES:0.000=4=4;
#TICKCOUNTS:0.000=4;
#COMBOS:0.000=1;
#SPEEDS:0.000=1.000=0.000=0;
#SCROLLS:0.000=1.000;
#FAKES:;
#LABELS:0.000=Song Start;
#BGCHANGES:;
#KEYSOUNDS:;
#ATTACKS:
;

//---------------dance-single - ----------------
#NOTEDATA:;
#CHARTNAME:;
#STEPSTYPE:dance-single;
#DESCRIPTION:;
#CHARTSTYLE:;
#DIFFICULTY:Hard;
#METER:14;
#RADARVALUES:0.699922,0.737144,0.526324,0.325082,0.042570,633.000000,565.000000,68.000000,42.000000,0.000000,0.000000,0.000000,0.000000,0.000000,0.699922,0.737144,0.526324,0.325082,0.042570,633.000000,565.000000,68.000000,42.000000,0.000000,0.000000,0.000000,0.000000,0.000000;
#CREDIT:Kekkle;
#NOTES:
0000
0000
0000
0000
,
0000
0000
0000
0000
,
0000
0000
0000
0000
,
0000
0000
0000
0000
,
0000
0000
0000
0000
,
0001
1000
0100
0010
1000
0000
1000
0010
,
0100
0000
0100
0010
0001
0000
0001
1000
,
0010
0100
1000
0100
0010
1000
0001
0100
,
0101
1100
0011
1010
,
1001
0001
0010
0100
0001
0100
0010
0001
,
1000
0001
0100
0010
0001
0010
0100
0001
,
1000
0001
0010
0100
0001
0100
0010
0001
,
0100
0010
1000
1000
0001
0010
1000
0010
,
0001
1000
0010
0100
1000
0100
0001
0100
,
1000
0100
0010
1000
0001
0010
0100
0010
,
1000
0010
0001
0100
1000
0100
0001
0010
,
2000
0000
0000
0000
3020
0000
0000
0000
0031
0000
1000
0000
0001
1000
0001
1000
,
0001
0000
1001
0000
1000
0100
0001
0000
,
0100
0100
0010
0001
0000
0101
1001
0000
,
0110
0000
1001
0000
0001
0100
1000
0000
,
0100
0100
0010
1000
0000
1100
1001
0000
,
0001
1000
0100
0010
1000
0010
0001
0100
,
0010
0001
0010
1000
0010
0100
0002
0000
,
1003
0001
0010
0100
0001
0100
0010
1000
,
0001
0100
1000
0010
0100
0001
2000
0000
,
3001
1000
0010
0100
1000
0100
0010
1000
,
0001
0010
1000
0010
0100
1000
0002
0000
,
1003
0001
0100
0010
0001
0010
0100
1000
,
0001
0010
1000
0100
0010
0001
2000
0000
,
3001
0100
0010
0010
0001
0010
1000
1000
,
0001
0010
1000
0001
0100
1000
0002
0000
,
1003
0010
0100
0100
1000
0100
0010
0010
,
0001
0010
1000
0001
0010
0100
2000
0000
,
3001
0010
0100
0100
0001
0100
1000
1000
,
0001
0100
1000
0001
0010
1000
0002
0000
,
1003
0100
0010
0010
1000
0010
0100
0100
,
0001
0100
1000
0001
0100
0010
2000
0000
,
3001
0000
1000
0100
0010
0000
0010
0100
,
0001
0000
0001
0100
0010
0000
0010
0100
,
1000
0000
0001
0100
0010
0000
0010
0100
,
1000
0000
1000
0100
0002
0000
0000
0000
,
1003
0101
0001
1100
,
1000
0011
0001
1010
,
1000
0010
0100
0001
1000
0100
0010
0001
,
1000
0000
1000
0000
0001
0000
0001
0000
0100
0010
0100
0010
0100
0010
2000
0000
,
0000
0000
0000
0000
,
3002
0000
0013
0100
2000
0000
3010
0100
,
0001
0010
1000
0000
1000
0010
0001
0000
,
2000
0000
3010
0100
0002
0000
0013
0100
,
1100
0000
0000
0000
0101
0000
0000
0000
1100
0000
1000
0000
0001
0000
0100
0010
,
0200
1000
0010
0001
,
0320
0000
1030
1100
,
0102
0000
0010
1003
,
0001
0000
0100
0000
1000
0000
0100
0000
0001
0000
1000
0000
0001
1000
0001
1000
,
0002
0000
0103
0010
2000
0000
3100
0010
,
0001
0100
1000
0000
1000
0100
0001
0000
,
2000
0000
3100
0010
0002
0000
0103
0001
,
0020
0000
1000
0000
0031
1000
0010
0100
,
0002
0000
0010
0000
1003
0100
0010
0001
,
0200
0001
0320
1000
,
0130
0001
0010
0000
0100
1000
0010
0000
,
0100
0000
0001
0000
0010
0000
0100
0000
1000
0000
0001
0000
1000
0001
1000
0001
,
1000
0000
1001
0000
0001
0010
1000
0000
,
0010
0010
0001
0100
0000
1010
1001
0000
,
0110
0000
1001
0000
1000
0010
0001
0000
,
0010
0010
1000
0100
0000
0011
1001
0000
,
0001
0100
1000
0001
0020
0000
0000
0000
,
2030
0000
0100
0000
,
3002
0100
2003
0100
,
3001
0100
0010
1000
,
0001
0001
0001
0010
,
0200
0000
0000
0310
0001
0000
1000
0000
,
0020
0000
0030
1000
,
0100
0000
0010
0001
,
0101
0000
1100
0000
0101
0100
0010
1000
,
0002
0000
0013
0001
0200
0000
0310
1000
,
0100
0010
1000
0000
1000
0010
0100
1000
,
0002
0000
0103
0001
0020
0000
0130
1000
,
0020
0000
0000
0000
0001
0000
0000
0000
1030
0000
0100
0000
0010
0000
0001
1000
,
0001
0101
1100
1010
,
2001
0010
3002
0010
,
0103
0001
0010
0000
0100
1000
0010
0000
,
0100
0001
0010
0100
1000
0010
0001
0010
,
1010
0001
1100
0001
,
1010
0001
1100
0101
,
0011
1000
0101
1000
,
0011
1000
0101
1100
,
0110
0001
0110
1000
,
0110
0001
0110
1100
,
1000
0010
0001
0010
1000
0100
0001
0100
,
1000
0010
0001
0010
1000
0100
0001
0100
,
1100
0000
0101
0000
0001
0100
1100
0000
,
0100
0100
0001
0010
0000
1100
1001
0000
,
0101
0000
1100
0000
1000
0100
0101
0000
,
0100
0100
1000
0010
0000
0101
1001
0000
,
1000
0100
0101
0000
0001
0100
1100
0000
,
0100
0100
1000
0010
0000
0101
1001
0000
,
0001
0100
1100
0000
1000
0100
0101
0000
,
0100
0100
0001
0010
0000
0110
2002
0000
,
0000
0000
0000
0000
,
0000
3003
0000
0000
;

//---------------dance-single - ----------------
#NOTEDATA:;
#CHARTNAME:;
#STEPSTYPE:dance-single;
#DESCRIPTION:;
#CHARTSTYLE:;
#DIFFICULTY:Medium;
#METER:12;
#RADARVALUES:0.506421,0.659550,0.054180,0.348303,0.000000,458.000000,451.000000,7.000000,45.000000,0.000000,0.000000,0.000000,0.000000,0.000000,0.506421,0.659550,0.054180,0.348303,0.000000,458.000000,451.000000,7.000000,45.000000,0.000000,0.000000,0.000000,0.000000,0.000000;
#CREDIT:Kekkle;
#NOTES:
0000
0000
0000
0000
,
0000
0000
0000
0000
,
0000
0000
0000
0000
,
0000
0000
0000
0000
,
0000
0000
0000
0000
,
0001
0000
0000
1000
0001
0000
0000
1000
,
0010
0000
0000
0100
0010
0000
0100
0000
,
1001
0000
0001
0000
0010
0100
0010
0000
,
0001
0001
1000
1000
,
0001
0000
1000
0100
1000
0000
0001
0100
,
0001
0000
1000
0010
1000
0000
0001
0010
,
0001
0000
1000
0100
1000
0000
0001
0100
,
0001
0000
1000
0000
0100
0010
0100
0010
,
0001
0000
1000
0010
0100
0000
0010
0000
,
0001
0010
1000
0100
,
0002
0000
0203
0000
,
1300
0000
0001
0000
0100
0010
0100
0010
,
1000
0000
1000
0000
0001
0010
0100
0000
,
1000
0001
1000
0001
0000
0100
0010
0000
,
1001
0000
0001
0000
1000
0010
0100
0000
,
0001
1000
0001
1000
0000
0100
0010
0000
,
0001
0010
0100
0000
1000
0010
0100
0000
,
0001
0100
0001
0100
0010
1000
0010
0000
,
1000
0100
0010
0000
0001
0100
0010
0000
,
1000
0010
1000
0010
0100
0001
0100
0000
,
0001
1000
0100
0000
0010
0001
1000
0000
,
0010
0100
0010
0100
0001
1000
0001
0000
,
1000
0001
0010
0000
0001
1000
0010
0000
,
0100
0010
0100
0010
1000
0001
1000
0000
,
0001
0010
0001
0010
0100
1000
0100
1000
,
0001
0100
0001
0100
0010
1000
0001
0000
,
1000
0100
1000
0100
0010
0001
0010
0001
,
1000
0010
1000
0010
0100
0001
1000
0000
,
0100
0010
0100
0010
0001
1000
0001
1000
,
0010
0100
0010
0100
0001
1000
0100
0000
,
0010
0100
0010
0100
1000
0001
1000
0001
,
0100
0010
0100
0010
1000
0001
0010
0000
,
0210
0000
2300
0000
,
3002
0000
0203
0000
,
2300
0000
3200
0000
,
0302
0000
2000
3003
,
0001
1000
0100
0010
,
0001
1000
0010
0100
,
0001
0100
0001
0000
1000
0100
1000
0000
,
0001
0100
0010
1000
0001
0001
0010
0020
,
0000
0000
0000
0000
,
0230
0010
2300
0100
,
3001
0100
1000
0100
,
0002
0100
2003
0100
,
3001
0010
1000
0010
,
0001
0001
0100
0010
,
2000
0000
3001
0010
,
0210
0000
1300
0001
,
0100
0000
0100
0000
0100
0010
1000
0001
,
0020
0100
0032
0010
,
1003
0010
0001
0010
,
2000
0010
3002
0010
,
2003
0000
0100
0000
3001
0100
0010
1000
,
0002
0010
1003
0010
,
0200
0001
0320
1000
,
0230
0000
0302
0000
,
2003
0000
3100
0100
,
1001
0000
0001
0000
0100
0010
1000
0000
,
0001
0010
0100
0010
0000
0100
1000
0000
,
1001
0000
1000
0000
0100
0010
0001
0000
,
1000
0010
0100
0010
0000
0100
0001
0000
,
2000
0000
0002
3003
,
1000
0000
0100
0000
,
0010
0001
0100
0001
,
0010
0000
0001
0000
,
1000
1000
1000
0010
,
0100
0000
0010
1000
,
0200
0000
0300
0010
,
0001
0000
1000
0000
,
0010
0000
0010
0000
0010
0100
0001
1000
,
0200
0001
0320
0001
,
0130
0001
0100
1000
,
0002
1000
0203
1000
,
0320
0000
1000
0000
0130
0001
1000
0100
,
0020
0100
0001
0001
,
0230
0001
2300
0001
,
3020
0000
0230
0000
,
0302
0000
0000
0000
1003
0100
0010
0001
,
1000
0010
0001
0010
,
1000
0010
0001
0010
,
1000
0100
0001
0100
,
1000
0100
0002
0203
,
0310
0100
0001
0100
,
0010
0100
0001
0100
,
1000
0010
0100
0000
0001
0010
0100
0000
,
1000
0010
0001
0010
1000
0010
0001
0010
,
1000
0000
0001
0000
0010
0001
0100
0000
,
0010
1000
0100
0001
0000
0100
0010
0000
,
1001
0000
0001
0000
0100
0001
0010
0000
,
0100
1000
0010
0001
0000
0010
0100
0000
,
0001
0100
0010
0000
1000
0010
0100
0000
,
0010
0100
0010
0001
0000
0010
1000
0000
,
0001
0010
0100
0000
1000
0100
0010
0000
,
0100
0010
0100
0001
0000
0100
2000
0000
,
0000
0000
0000
0000
,
0000
3000
0000
0000
;

//---------------dance-single - ----------------
#NOTEDATA:;
#CHARTNAME:;
#STEPSTYPE:dance-single;
#DESCRIPTION:;
#CHARTSTYLE:;
#DIFFICULTY:Easy;
#METER:9;
#RADARVALUES:0.316237,0.465564,0.038700,0.325082,0.000000,286.000000,281.000000,5.000000,42.000000,0.000000,0.000000,0.000000,0.000000,0.000000,0.316237,0.465564,0.038700,0.325082,0.000000,286.000000,281.000000,5.000000,42.000000,0.000000,0.000000,0.000000,0.000000,0.000000;
#CREDIT:Kekkle;
#NOTES:
0000
0000
0000
0000
,
0000
0000
0000
0000
,
0000
0000
0000
0000
,
0000
0000
0000
0000
,
0000
0000
0000
0000
,
1001
0000
0001
0000
,
0100
0000
0010
0000
,
1000
0001
1000
0000
,
0100
0100
0100
0100
,
0020
0000
0032
0000
,
2003
0000
3020
0000
,
0230
0000
0302
0000
,
2003
0000
3100
0010
,
0002
0000
1003
0010
,
0200
0000
0302
0000
,
2003
0000
3200
0000
,
0320
0000
0000
0000
,
0031
0001
1000
1000
,
0010
0000
0100
0100
,
0001
0001
1000
1000
,
0100
0000
0010
0010
,
0001
0000
0100
0000
,
0010
1000
0100
0100
,
0010
0000
0100
0000
,
0010
0001
0100
0100
,
0010
0000
0100
0000
,
1000
0100
0001
0001
,
0010
0000
0100
0000
,
0001
0100
1000
1000
,
0001
0001
0100
0000
,
1000
0100
0001
0001
,
1000
1000
0100
0000
,
0001
0100
1000
1000
,
0001
0001
0100
0100
,
0010
1000
0100
0100
,
1000
1000
0100
0100
,
0010
0001
0100
0100
,
0010
0000
0010
0000
,
0010
0000
0010
0000
,
0100
0000
0100
0000
,
0100
0000
0200
0000
,
0301
1000
0001
0000
,
0010
0100
0010
0000
,
0001
0001
1000
1000
,
0010
0000
0010
0000
0100
0000
0100
0020
,
0000
0000
0000
0000
,
0130
0000
0001
0000
,
1000
1000
0100
0100
,
0001
0000
0100
0000
,
1000
1000
0001
0001
,
0100
0010
0001
0010
,
2000
0000
3000
0001
,
0001
0000
0100
0010
,
1000
1000
1000
0001
,
1001
0000
1000
0000
,
0001
0001
0010
0010
,
1000
0000
0010
0000
,
0002
0000
0003
0000
,
2000
0000
3010
0100
,
0002
0000
2003
0000
,
3200
0000
0320
0000
,
0032
0000
1003
1000
,
1001
0001
0100
0100
,
1000
0100
0001
0001
,
1001
1000
0100
0100
,
0001
0100
1000
1000
,
0001
0000
0200
0000
,
0310
0000
1000
0000
,
0100
0010
0001
1000
,
0010
0000
0100
0000
,
0001
0001
0001
0000
,
1000
0000
0100
0000
,
0020
0000
0030
0000
,
0001
0000
1000
0000
,
0010
0010
0010
0000
,
1001
0000
0001
0000
,
1000
1000
0100
0100
,
0001
0000
0100
0000
,
2000
0000
3000
0000
,
0001
0100
1000
0010
,
0002
0000
2003
0000
,
3200
0000
0320
0000
,
0032
0000
1003
1000
,
0020
0030
0020
0030
,
0020
0030
1000
0001
,
0020
0030
0020
0030
,
0020
0030
0001
1000
,
0200
0300
0200
0300
,
0200
0300
2000
0000
,
3001
0001
0001
0001
,
1000
0001
1000
0001
1000
0001
1000
0000
,
0001
0001
0010
0010
,
1000
0000
0010
0000
0001
1000
0001
0000
,
1000
1000
0010
0010
,
0001
0000
0010
0000
1000
0001
1000
0000
,
0001
0001
0100
0100
,
1000
0000
0100
0000
0001
1000
0001
0000
,
1000
1000
0100
0100
,
0001
0000
0100
0000
1000
0001
2000
0000
,
0000
0000
0000
0000
,
0000
3000
0000
0000
;

//---------------dance-double - ----------------
#NOTEDATA:;
#CHARTNAME:;
#STEPSTYPE:dance-double;
#DESCRIPTION:;
#CHARTSTYLE:;
#DIFFICULTY:Hard;
#METER:14;
#RADARVALUES:0.666751,0.737144,0.456663,0.394743,0.042570,603.000000,544.000000,59.000000,51.000000,0.000000,0.000000,0.000000,0.000000,0.000000,0.666751,0.737144,0.456663,0.394743,0.042570,603.000000,544.000000,59.000000,51.000000,0.000000,0.000000,0.000000,0.000000,0.000000;
#CREDIT:Kekkle;
#NOTES:
00000000
00000000
00000000
00000000
,
00000000
00000000
00000000
00000000
,
00000000
00000000
00000000
00000000
,
00000000
00000000
00000000
00000000
,
00000000
00000000
00000000
00000000
,
10010000
00000000
10000000
01000000
00100000
00000000
00100000
01000000
,
00010000
00000000
00010000
00001000
00010000
00000000
00001000
00000000
,
00000010
00000001
00001000
00000010
00000100
00001000
00010000
00001000
,
00011000
00101000
00011000
00010010
,
00010000
00001000
00010000
00100000
10000000
00100000
01000000
00010000
,
10000000
01000000
00010000
00001000
00100000
00001000
00010000
00000010
,
00001000
00000010
00000100
00001000
00010000
00001000
00000100
00000001
,
00001000
00000100
00000010
00000001
00000010
00001000
00010000
00000010
,
00010000
00001000
00010000
00100000
10000000
01000000
00010000
01000000
,
10000000
01000000
00100000
01000000
00010000
00001000
00100000
00001000
,
00010000
00001000
00000100
00000001
00001000
00000001
00000010
00001000
,
00020000
00000000
00000000
00000000
02030000
00000000
00000000
00000000
13000000
00000000
00010000
00000000
01000000
00100000
01000000
00100000
,
01000000
00000000
10010000
00000000
10000000
01000000
00010000
00000000
,
00001000
00001000
00010000
00001000
00000000
00011000
00010100
00000000
,
00000100
00000000
00001001
00000000
00000001
00000100
00001000
00000000
,
00010000
00010000
00001000
00010000
00000000
00011000
01001000
00000000
,
01000000
00010000
10000000
01000000
00010000
01000000
00100000
00010000
,
10000000
00100000
01000000
00100000
00010000
00001000
00020000
00000000
,
00030100
00001000
00000001
00000100
00001000
00000100
00000010
00000001
,
00001000
00000100
00000001
00001000
00000100
00010000
00002000
00000000
,
00103000
00010000
10000000
00100000
00010000
00100000
01000000
00010000
,
10000000
01000000
00100000
01000000
00010000
00001000
00020000
00000000
,
00030010
00001000
00000001
00000010
00001000
00000010
00000100
00000001
,
00001000
00000010
00000001
00001000
00000010
00010000
00002000
00000000
,
00013000
00100000
10000000
10000000
00100000
01000000
00010000
00010000
,
10000000
01000000
00100000
01000000
00010000
00001000
00020000
00000000
,
00031000
00000010
00000001
00000001
00001000
00000010
00000100
00000100
,
00001000
00000001
00000010
00001000
00000010
00010000
00002000
00000000
,
00013000
01000000
10000000
10000000
01000000
00100000
00010000
00010000
,
10000000
00100000
01000000
00100000
00010000
00001000
00020000
00000000
,
00031000
00000100
00000001
00000001
00001000
00000100
00000010
00000010
,
00001000
00000001
00000100
00001000
00000100
00010000
00002000
00000000
,
00013000
00000000
00010000
00100000
10000000
00000000
10000000
01000000
,
00100000
00000000
00100000
01000000
00010000
00000000
00010000
00001000
,
00000010
00000000
00000010
00000001
00001000
00000000
00001000
00000010
,
00000100
00000000
00000100
00001000
00020000
00000000
00000000
00000000
,
00031000
01001000
01000000
10010000
,
00010000
00101000
00001000
00010010
,
00000010
00000100
00000010
00000100
00000001
00001000
00000001
00001000
,
00000100
00000000
00000010
00000000
00001000
00000000
00010000
00000000
00001000
00010000
00001000
00010000
00001000
00010000
00000020
00000000
,
00000000
00000000
00000000
00000000
,
00020030
00000000
00031000
00000000
00020000
00000000
00130000
10000000
,
00010000
00100000
10000000
00000000
10000000
00100000
00010000
00100000
,
00002000
00000000
00013000
00000000
00002000
00000000
00003010
00000001
,
00001001
00000000
00000000
00000000
00000110
00000000
00000000
00000000
00001000
00000000
00000001
00000000
00000010
00000000
00001000
00010000
,
00002000
00000100
00010000
01000000
,
00023000
00000000
00031000
00101000
,
02100000
00000000
13000000
00010000
,
01100000
00000000
00000000
00000000
10010000
00000000
00000000
00000000
10000000
00000000
01000000
00000000
00010000
00000000
00001000
00010000
,
00002000
00000000
00013000
00000000
00002000
00000000
00003100
00000001
,
00001000
00000100
00000001
00000000
00000001
00000100
00001000
00000100
,
00020000
00031000
00020000
01030000
,
00200000
00000000
00000000
00000000
00000000
00000000
00000000
00000000
00310000
00000000
10000000
00000000
00100000
00000000
00010000
00001000
,
00020000
00000000
00031000
00000000
00000010
00000001
00001000
00000010
,
00000002
00000000
00000023
00000000
,
00020030
00000010
00032000
00100000
,
00023000
00000000
00000000
00000000
00000100
00000000
00000000
00000000
00031000
00000000
00100000
00000000
00010000
10000000
00010000
10000000
,
00010000
00000000
10010000
00000000
10000000
00100000
00010000
00000000
,
00001000
00001000
00010000
00001000
00000000
00011000
00010010
00000000
,
00000010
00000000
00001001
00000000
00000001
00000010
00001000
00000000
,
00010000
00010000
00001000
00010000
00000000
00011000
00101000
00000000
,
00001000
00010000
01000000
10000000
00200000
00000000
00000000
00000000
,
02300000
00000000
03020000
00000000
,
10030000
01000000
00010000
01000000
,
00100000
00001000
00010000
00001000
,
00000100
00000100
00000001
00001000
,
00000200
00000000
00000000
00000310
00001000
00000000
00010000
00000000
,
00002000
00000000
00003000
00020000
,
00230000
00300000
10000000
10000000
,
10010000
00000000
01100000
00000000
00010000
10000000
01000000
00010000
,
00002000
00000000
00013000
00000000
00002000
00000000
00003010
00000001
,
00001000
00000010
00000001
00000000
00000001
00000010
00001000
00000010
,
00020000
00031000
00020000
00130000
,
02000000
00000000
00000000
00000000
00000000
00000000
00000000
00000000
03010000
00000000
10000000
00000000
01000000
00000000
00010000
00001000
,
00010000
01000000
00010000
00001000
00010000
00000010
00010000
00001000
,
00000200
00000000
00000320
00000000
,
00020030
00000010
00032000
00100000
,
00023000
00000000
00000100
00000000
00031000
00100000
00010000
10000000
,
10010000
00100000
10010000
01000000
,
10010000
00100000
01001000
00010100
,
00001001
00000010
00001001
00000100
,
00001001
00000010
00010100
01001000
,
10010000
00100000
00011000
00000010
,
00001001
00000010
00022000
00033000
,
00010000
00100000
10000000
01000000
00010000
00001000
00000010
00000001
,
00000100
00001000
00000100
00000001
00000010
00001000
00010000
01000000
,
10000000
00000000
10010000
00000000
10000000
00100000
00110000
00000000
,
00010000
00010000
00001000
00010000
00000000
00011000
00010010
00000000
,
00000010
00000000
00001001
00000000
00000001
00000010
00001010
00000000
,
00001000
00001000
00010000
00001000
00000000
00011000
00101000
00000000
,
00100000
00010000
01010000
00000000
00100000
10000000
11000000
00000000
,
01000000
01000000
00010000
00001000
00000000
00011000
00010010
00000000
,
00000010
00001000
00001100
00000000
00000010
00000001
00000101
00000000
,
00000100
00000100
00001000
00010000
00000000
00010010
00022000
00000000
,
00000000
00000000
00000000
00000000
,
00000000
00033000
00000000
00000000
;

//---------------dance-double - ----------------
#NOTEDATA:;
#CHARTNAME:;
#STEPSTYPE:dance-double;
#DESCRIPTION:;
#CHARTSTYLE:;
#DIFFICULTY:Medium;
#METER:12;
#RADARVALUES:0.489835,0.620753,0.085141,0.294122,0.000000,443.000000,432.000000,11.000000,38.000000,0.000000,0.000000,0.000000,0.000000,0.000000,0.489835,0.620753,0.085141,0.294122,0.000000,443.000000,432.000000,11.000000,38.000000,0.000000,0.000000,0.000000,0.000000,0.000000;
#CREDIT:Kekkle;
#NOTES:
00000000
00000000
00000000
00000000
,
00000000
00000000
00000000
00000000
,
00000000
00000000
00000000
00000000
,
00000000
00000000
00000000
00000000
,
00000000
00000000
00000000
00000000
,
00011000
00000000
00000000
00010000
00100000
00000000
00000000
01000000
,
00100000
00000000
00000000
10000000
00010000
00000000
10010000
00000000
,
10000000
01000000
10000000
00010000
01000000
00001000
00010000
00000000
,
00001000
00001000
00010000
00010000
,
00011000
00000000
00001000
00000010
00001000
00000000
00000010
00000100
,
00000010
00000000
00000001
00000010
00000001
00000000
00001000
00000010
,
00001000
00000000
00000010
00000100
00000010
00000000
00000100
00001000
,
00000100
00000000
00001000
00000000
00010000
00001000
00100000
00001000
,
00010000
00001000
00020000
00230000
,
20300000
00000000
30020000
00000000
,
00230000
00000000
20300000
00000000
,
30100000
00000000
00010000
00000000
10000000
00100000
01000000
00001000
,
00010000
00000000
00011000
00000000
00001000
00000010
00000001
00000000
,
00001000
00000010
00000100
00000001
00000000
00001000
00000100
00000000
,
00010000
00000000
00011000
00000000
00010000
00100000
10000000
00000000
,
00010000
00100000
01000000
10000000
00000000
00010000
01000000
00000000
,
00001000
00010000
00000100
00000000
00001000
00000100
00000010
00000000
,
00000001
00001000
00000001
00001000
00000010
00000100
00000010
00000000
,
00000100
00000010
00001000
00000000
00000010
00010000
00001000
00000000
,
00100000
01000000
00100000
01000000
10000000
00010000
10000000
00000000
,
00010000
01000000
00100000
00000000
01000000
00001000
00010000
00000000
,
00000100
00001000
00000100
00001000
00000001
00000100
00000001
00000000
,
00000100
00000010
00001000
00000000
00000010
00010000
00001000
00000000
,
00100000
00010000
00100000
00010000
10000000
00100000
10000000
00000000
,
00010000
01000000
00100000
10000000
00010000
00100000
01000000
00000000
,
10000000
01000000
00100000
00010000
00100000
00001000
00010000
00000000
,
00000100
00001000
00000001
00000100
00000010
00001000
00000001
00000000
,
00000010
00000100
00001000
00000100
00010000
00001000
00100000
00000000
,
00001000
00010000
00001000
00100000
00010000
10000000
00010000
00000000
,
01000000
00100000
10000000
00010000
00100000
00001000
00010000
00000000
,
00000100
00001000
00000001
00000100
00000010
00001000
00000001
00000000
,
00000010
00000100
00001000
00000100
00010000
00001000
00100000
00000000
,
00011000
00000000
00001000
00000000
,
00010000
00000000
00010000
00000000
,
00100000
00000000
00100000
00000000
,
10000000
00000000
20000000
00000000
,
30010000
00100000
00010000
00100000
,
00001000
00010000
00001000
00010000
,
00000010
00001000
00000010
00000000
00000100
00000001
00000100
00000000
,
00000001
00000010
00000100
00001000
00000100
00000100
00010000
00020000
,
00000000
00000000
00000000
00000000
,
00032000
00000100
00023000
00001000
,
00130000
10000000
00010000
00100000
,
02000000
00010000
03200000
00001000
,
00310000
00000000
00010000
00000000
00010000
01000000
00001000
00000000
,
00010000
00000010
00010000
00001000
,
00000200
00000000
00000301
00001000
,
00001200
00000000
00010300
00001000
,
00010000
00000000
00010000
00000000
00100000
10000000
00010000
00100000
,
02000000
00010000
03200000
00001000
,
00310000
10000000
00100000
01000000
,
00002000
00010000
00003200
00000001
,
00000320
00000000
00000000
00000000
00001030
00000001
00000010
00000000
,
00000200
00000000
00010300
00001000
,
02000000
00000000
03020000
00000000
,
20030000
00000000
01000000
00000000
,
00010000
00000000
00000000
00000000
30100000
01000000
00001000
00000000
,
00010000
00000000
00011000
00000000
00001000
00000100
00000001
00000000
,
00001000
00000100
00000010
00000001
00000000
00001000
00000010
00000000
,
00010000
00000000
00011000
00000000
00010000
01000000
10000000
00000000
,
00010000
01000000
00100000
10000000
00000000
00010000
00100000
00000000
,
00002000
00000000
00020000
00033000
,
00001000
00000000
00000010
00000000
,
00000001
00001000
00000001
00000000
,
00000100
00000000
00000010
00000000
,
00010000
00010000
00010000
00000000
,
00001000
00000000
00010000
00100000
,
20000000
00000000
30000000
00000000
,
00010000
00000000
00100000
00001000
,
00010000
00000000
00010000
00000000
00001000
00010000
00001000
00000000
,
00020000
00100000
00032000
00010000
,
00003100
00000001
00001000
00000100
,
00000020
00001000
00000230
00010000
,
00002300
00000000
00000000
00000000
00003001
00000100
00000010
00000000
,
00010000
00010000
00001000
00010000
,
00200000
00000000
20300000
00000000
,
30020000
00000000
00230000
00000000
,
00302000
00000000
00000000
00000000
00013000
00000100
00001000
00000000
,
00000001
00000100
00001000
00000100
,
00000001
00000100
00001000
00001000
,
00010000
01000000
10000000
01000000
,
00010000
01000000
10000000
10000000
,
00010000
01000000
10000000
01000000
,
00010000
00100000
02000000
00000000
,
03100000
00001000
00010000
00000010
,
00001000
00000010
00000001
00000010
00001000
00000010
00000001
00000010
,
00001000
00000000
00001001
00000000
00000001
00000010
00001000
00000000
,
00010000
00001000
00010000
01000000
00000000
00100000
00010000
00000000
,
10000000
00000000
10010000
00000000
10000000
00100000
00010000
00000000
,
00001000
00010000
00001000
00000100
00000000
00000010
00001000
00000000
,
00000001
00000010
00000100
00000000
00001000
00000010
00000100
00000000
,
00001000
00010000
00001000
00010000
00000000
00100000
01000000
00000000
,
00010000
00100000
01000000
00000000
10000000
00100000
01000000
00000000
,
00001000
00010000
00001000
00010000
00000000
00000010
00000200
00000000
,
00000000
00000000
00000000
00000000
,
00000000
00000300
00000000
00000000
;

//---------------dance-double - ----------------
#NOTEDATA:;
#CHARTNAME:;
#STEPSTYPE:dance-double;
#DESCRIPTION:;
#CHARTSTYLE:;
#DIFFICULTY:Easy;
#METER:9;
#RADARVALUES:0.330611,0.465564,0.085141,0.371523,0.000000,299.000000,288.000000,11.000000,48.000000,0.000000,0.000000,0.000000,0.000000,0.000000,0.330611,0.465564,0.085141,0.371523,0.000000,299.000000,288.000000,11.000000,48.000000,0.000000,0.000000,0.000000,0.000000,0.000000;
#CREDIT:Kekkle;
#NOTES:
00000000
00000000
00000000
00000000
,
00000000
00000000
00000000
00000000
,
00000000
00000000
00000000
00000000
,
00000000
00000000
00000000
00000000
,
00000000
00000000
00000000
00000000
,
10010000
00000000
10000000
00000000
,
01000000
00000000
00100000
00000000
,
00001000
00010000
00001000
00000000
,
00010000
00010000
00010000
00010000
,
00002000
00000000
00003200
00000000
,
00000302
00000000
00002003
00000000
,
00003200
00000000
00000320
00000000
,
00001030
00010000
00001000
00000000
,
00020000
00000000
00130000
10000000
,
00100000
00000000
01000000
00000000
,
00020000
00000000
20030000
00000000
,
32000000
00000000
03010000
00001000
,
00010000
00000010
00000100
00000000
,
00000001
00001000
00000100
00000100
,
00010000
00001000
00100000
00000000
,
01000000
00100000
00010000
00010000
,
10000000
00100000
01000000
00000000
,
00010000
00100000
01000000
01000000
,
00100000
00001000
00010000
00000000
,
00100000
00010000
00001000
00001000
,
00010000
00000100
00001000
00000000
,
00000100
00000010
00000001
00000001
,
00001000
00000010
00000100
00000000
,
00001000
00000100
00000010
00000010
,
00010000
00001000
00100000
01000000
,
00100000
00010000
10000000
10000000
,
00100000
01000000
00001000
00010000
,
00100000
00010000
00001000
00001000
,
00010000
00000100
00001000
00000100
,
00000010
00000001
00001000
00001000
,
00000010
00001000
00000001
00000010
,
00001000
00000010
00000100
00000100
,
00020000
00000000
00032000
00000000
,
00023000
00000000
00230000
00000000
,
02300000
00000000
03020000
00000000
,
20030000
00000000
32000000
00000000
,
03100000
00000000
00100000
00000000
,
00010000
00000000
00010000
00000000
,
10000000
00100000
01000000
00001000
,
00010000
00000000
00000100
00000000
00001000
00000001
00001000
00000002
,
00000000
00000000
00000000
00000000
,
00002003
00003000
00000200
00000300
,
00000010
00001000
00010000
00001000
,
02000000
03000000
00200000
00300000
,
10000000
10000000
10000000
00010000
,
00100000
01000000
00100000
00001000
,
00020000
00000000
00030000
00000100
,
00000020
00000030
00000001
00001000
,
00000010
00000010
00000010
00000100
,
00002000
00003000
00020000
00030000
,
00100000
01000000
00010000
10000000
,
02000000
03000000
00020000
00030000
,
00002000
00000000
00003010
00000001
,
00002000
00003000
00000010
00000100
,
00002000
00003000
00020000
00030000
,
00200000
00000000
20300000
00000000
,
30020000
00000000
00130000
00100000
,
01000000
00010000
00001000
00000000
,
00100000
00001000
00010000
00010000
,
00001000
00000100
00000010
00000000
,
00001000
00000001
00000010
00000010
,
00000100
00000000
00020000
00000000
,
00031000
00000000
01000000
00000000
,
00100000
00000000
10000000
00000000
,
00010000
00000000
00100000
00000000
,
00001000
00001000
00001000
00000000
,
00010000
00000000
00000100
00000000
,
00000020
00000000
00000030
00000000
,
00000001
00000000
00001000
00000000
,
00000010
00000010
00000010
00000000
,
00001001
00000000
00001000
00000000
,
00000010
00000100
00000001
00001000
,
00000200
00000300
00000020
00000030
,
00002000
00000000
00013000
00100000
,
01000000
00010000
10000000
01000000
,
00200000
00300000
00002000
00003000
,
00020000
00000000
00030200
00000000
,
00000320
00000000
00000031
00000001
,
00001001
00000000
00001001
00000000
,
00001001
00000000
00001000
00000010
,
00011000
00000000
00011000
00000000
,
00011000
00000000
00001000
00100000
,
10010000
00000000
10010000
00000000
,
10010000
00000000
00020000
00000000
,
10030000
00100000
01000000
00001000
,
00010000
00001000
00010000
00001000
00010000
00001000
00010000
00000000
,
00000100
00000100
00000010
00000001
,
00001000
00000000
00000010
00000000
00000100
00000010
00000100
00000000
,
00000010
00000010
00000100
00001000
,
00010000
00000000
00000100
00000000
00010000
00001000
00010000
00000000
,
00001000
00001000
00010000
01000000
,
10000000
00000000
00010000
00000000
10000000
00010000
10000000
00000000
,
00100000
00100000
01000000
00100000
,
00010000
00000000
00001000
00000000
00010000
00001000
00020000
00000000
,
00000000
00000000
00000000
00000000
,
00000000
00030000
00000000
00000000
;

//---------------dance-single - ----------------
#NOTEDATA:;
#CHARTNAME:;
#STEPSTYPE:dance-single;
#DESCRIPTION:;
#CHARTSTYLE:;
#DIFFICULTY:Beginner;
#METER:6;
#RADARVALUES:0.258739,0.349173,0.123841,0.061920,0.000000,234.000000,218.000000,16.000000,8.000000,0.000000,0.000000,0.000000,0.000000,0.000000,0.258739,0.349173,0.123841,0.061920,0.000000,234.000000,218.000000,16.000000,8.000000,0.000000,0.000000,0.000000,0.000000,0.000000;
#CREDIT:Kekkle;
#NOTES:
// measure 0
0000
0000
0000
0000
,  // measure 1
0000
0000
0000
0000
,  // measure 2
0000
0000
0000
0000
,  // measure 3
0000
0000
0000
0000
,  // measure 4
0000
0000
0000
0000
,  // measure 5
0001
0000
0001
0000
,  // measure 6
0001
0000
0000
0000
,  // measure 7
1000
0000
1000
0000
,  // measure 8
1000
1000
1000
0000
,  // measure 9
0001
0000
0100
0000
,  // measure 10
0010
0000
1000
0000
,  // measure 11
0001
0000
0010
0000
,  // measure 12
0100
0000
1000
1000
,  // measure 13
1000
0000
0001
0000
,  // measure 14
0100
0000
0010
0000
,  // measure 15
0001
0000
0010
0000
,  // measure 16
2000
0000
3000
0000
,  // measure 17
0001
0000
0001
0000
,  // measure 18
1000
0000
0100
0100
,  // measure 19
0010
0000
0001
0000
,  // measure 20
1000
0000
0010
0010
,  // measure 21
0100
0000
1000
0000
,  // measure 22
0100
0000
0001
0001
,  // measure 23
1000
0000
0100
0000
,  // measure 24
0001
0000
0100
0100
,  // measure 25
0010
0000
1000
0000
,  // measure 26
0010
0000
0001
0001
,  // measure 27
1000
0000
0010
0000
,  // measure 28
0001
0000
0010
0010
,  // measure 29
0100
0000
1000
0000
,  // measure 30
0100
0000
0001
1000
,  // measure 31
0001
0000
0010
0000
,  // measure 32
1000
0000
0010
0100
,  // measure 33
0010
0000
1000
0000
,  // measure 34
0010
0000
0001
1000
,  // measure 35
0001
0000
0100
0000
,  // measure 36
1000
0000
0100
0010
,  // measure 37
0100
0000
0100
0000
,  // measure 38
0100
0000
0000
0000
,  // measure 39
0010
0000
0010
0000
,  // measure 40
0010
0000
0010
0000
,  // measure 41
1000
0000
1000
0000
,  // measure 42
0001
0000
0001
0000
,  // measure 43
0010
0000
0100
0000
,  // measure 44
1000
0000
0001
0002
,  // measure 45
0000
0000
0003
0000
,  // measure 46
1001
0000
1001
0000
,  // measure 47
1000
0001
1000
0000
,  // measure 48
0110
0000
0110
0000
,  // measure 49
0010
0100
0010
0000
,  // measure 50
0100
0000
0100
0000
,  // measure 51
0020
0000
0030
0000
,  // measure 52
1001
0000
1000
0000
,  // measure 53
0100
0100
0100
0000
,  // measure 54
0110
0000
0110
0000
,  // measure 55
0010
0100
0010
0000
,  // measure 56
1001
0000
1001
0000
,  // measure 57
0002
0000
0003
0000
,  // measure 58
1000
0000
0010
0000
,  // measure 59
0100
0000
0001
0000
,  // measure 60
1000
0000
1000
0000
,  // measure 61
1000
0000
0001
0001
,  // measure 62
1000
0000
0100
0000
,  // measure 63
0010
0000
0001
0001
,  // measure 64
1000
0000
0010
0000
,  // measure 65
0100
0000
0001
0001
,  // measure 66
2000
0000
3000
0000
,  // measure 67
0001
0000
0000
0000
,  // measure 68
0010
0000
0000
0000
,  // measure 69
0100
0000
0000
0000
,  // measure 70
1000
0000
1000
0000
,  // measure 71
0001
0000
0000
0000
,  // measure 72
0200
0000
0300
0000
,  // measure 73
0010
0000
0000
0000
,  // measure 74
1000
1000
1000
0000
,  // measure 75
1001
0000
1001
0000
,  // measure 76
0001
1000
0001
0000
,  // measure 77
0110
0000
0110
0000
,  // measure 78
0020
0000
0030
0000
,  // measure 79
0100
0010
0100
0010
,  // measure 80
0100
0000
0100
0000
,  // measure 81
1001
0000
1001
0000
,  // measure 82
1001
0000
0001
0010
,  // measure 83
0100
0000
0100
0000
,  // measure 84
0100
0000
0010
0000
,  // measure 85
0001
0000
0001
0000
,  // measure 86
0001
0000
0100
0000
,  // measure 87
0010
0000
0010
0000
,  // measure 88
0010
0000
1000
0000
,  // measure 89
0001
1000
0001
1000
,  // measure 90
0100
0010
0100
0010
,  // measure 91
0001
1000
0010
0100
,  // measure 92
0001
1000
0100
0100
,  // measure 93
0010
0001
1000
0010
,  // measure 94
0100
0001
1000
1000
,  // measure 95
0100
0001
0100
1000
,  // measure 96
0100
0010
0001
0001
,  // measure 97
1000
0010
0001
0010
,  // measure 98
1000
0010
0100
0200
,  // measure 99
0000
0000
0000
0000
,  // measure 100
0000
0300
0000
0000
;
