#TITLE:The Glorious Octagon of Destiny;
#SUBTITLE:;
#ARTIST:OctagonCollaboration;
#TITLETRANSLIT:;
#SUBTITLETRANSLIT:;
#ARTISTTRANSLIT:;
#GENRE:;
#CREDIT:;
#BANNER:Glorious Octagon of Destiny-bn.png;
#BACKGROUND:Glorious Octagon of Destiny-bg.png;
#LYRICSPATH:;
#CDTITLE:;
#MUSIC:Glorious Octagon Of Destiny.ogg;
#OFFSET:1.220000;
#SAMPLESTART:0.380000;
#SAMPLELENGTH:12.000000;
#LASTBEATHINT:0.473230;
#SELECTABLE:YES;
#BPMS:0.000000=150.000000
,68.000000=140.000000
,172.000000=136.000000
,187.500000=137.000000
,202.000000=138.000000
,234.000000=140.000000
,264.000000=143.000000
,338.000000=145.000000
,339.000000=146.000000
,340.000000=147.000000
,341.000000=148.000000
,342.000000=149.000000
,343.000000=150.000000
,344.000000=151.000000
,345.000000=152.000000
,346.000000=153.000000
,347.000000=154.000000
,348.000000=155.000000
,349.000000=156.000000
,350.000000=157.000000
,351.000000=158.000000
,352.000000=160.000000
,353.000000=162.000000
,354.000000=165.500000
,370.000000=166.000000
,378.000000=167.500000
,386.000000=170.000000
,594.000000=172.000000
,626.000000=180.000000
,690.000000=190.000000
,722.000000=195.000000
,754.000000=200.000000
,898.000000=202.000000
,1006.000000=205.000000
,1010.000000=210.000000
,1014.000000=219.000000
,1046.000000=207.000000
,1270.000000=155.000000
;
#STOPS:183.500000=0.221000,
199.500000=0.657000
;
#BGCHANGES:2.333=Glorious Octagon of Destiny 360.mp4=1.000=0=0=1=====,
99999=-nosongbg-=1.000=0=0=0 // don't automatically add -songbackground-
;
#KEYSOUNDS:;
#ATTACKS:;

//---------------dance-single - ----------------
#NOTES:
     dance-single:
     :
     Hard:
     18:
     0.770645,1.110106,0.238732,0.651279,0.416735,2576.000000,2462.000000,114.000000,311.000000,10.000000,0.000000,0.770645,1.110106,0.238732,0.651279,0.416735,2576.000000,2462.000000,114.000000,311.000000,10.000000,0.000000:
// measure 0
0000
0000
0000
0000
,  // measure 1
0000
0000
0000
0000
,  // measure 2
0000
0000
0000
0000
,  // measure 3
0001
0100
0010
0000
1000
0100
0010
0000
,  // measure 4
0001
0100
0010
1000
0001
0000
1001
0000
,  // measure 5
1000
0000
0100
0000
0001
0000
0100
0000
2000
0000
0000
3001
0100
0000
0010
0000
,  // measure 6
0001
0010
2000
3001
1001
0000
1001
0000
,  // measure 7
1000
0000
0100
0000
0010
0000
0100
0000
2000
0000
0000
3001
0100
0000
0020
0000
,  // measure 8
0000
0000
0000
0000
0000
0000
1030
0000
0001
0000
0010
0000
0220
0000
0000
0000
0000
0000
0000
0000
0000
0330
0000
0000
,  // measure 9
0100
1000
1001
0001
0100
0010
1010
1000
,  // measure 10
0200
0000
0001
0000
1300
0010
0200
0000
,  // measure 11
0301
0100
0110
0010
1000
0001
0011
0010
,  // measure 12
0200
0000
0001
0000
1300
0010
0110
0000
,  // measure 13
0100
0001
0100
2000
0000
3100
0010
1000
,  // measure 14
0001
0010
0100
0020
0000
0031
0100
0010
,  // measure 15
1010
0000
1000
0001
0011
0000
0010
1000
,  // measure 16
0010
0000
0001
0100
0000
0000
0010
0000
0220
0000
0000
0000
0330
0000
0000
0000
,  // measure 17
1020
0100
1000
0130
,  // measure 18
0001
0000
1000
0000
0100
0010
0100
1000
,  // measure 19
2001
0100
0001
3100
,  // measure 20
0010
0000
0001
0000
0100
0010
0100
0001
,  // measure 21
2000
0000
0000
0000
3200
0000
0000
0310
0001
0000
0100
0000
0010
0000
2000
0000
,  // measure 22
0000
3002
0000
0010
0000
1003
0100
0010
,  // measure 23
0002
0000
0000
0000
0203
0000
0000
0310
1000
0000
0100
0000
0001
0000
0200
0000
,  // measure 24
0000
0000
0320
0000
0000
0000
0001
0000
0000
0000
0130
1000
0100
0000
0010
0001
,  // measure 25
1000
0010
0200
0000
0301
1000
0100
0020
,  // measure 26
0000
1000
0000
0100
0000
0031
0100
0010
,  // measure 27
0110
0000
0000
0000
1010
0000
0000
1000
0001
0000
0010
0000
0001
0000
0201
0000
,  // measure 28
0000
0000
1000
0000
0000
0000
0000
0000
0301
0000
1000
0100
1000
0000
0001
0100
,  // measure 29
0001
0001
1000
1000
,  // measure 30
0100
0000
0000
0000
0100
0000
0000
0000
0010
0000
0001
0010
0001
0000
1000
0001
,  // measure 31
1000
0000
0010
1000
0010
0000
1000
0001
1000
0100
0000
0100
0010
0000
0001
0100
,  // measure 32
0001
0000
1000
0100
1000
0000
0100
0010
0100
1000
0000
1000
0001
0000
0100
0010
,  // measure 33
1000
0010
1000
0100
0010
0001
0010
0001
0100
0010
1000
0010
1000
0100
0010
0001
,  // measure 34
0200
0000
0000
0000
0000
0000
0000
0000
0000
0000
0000
0000
0310
0100
0010
0100
,  // measure 35
0002
0000
0000
0000
1003
0100
0010
0001
0200
0000
0320
0000
2030
0000
3002
0000
,  // measure 36
0023
0000
0000
0000
0130
1000
0100
0010
0002
0000
0000
0000
0103
0000
0010
1000
,  // measure 37
0100
0010
0001
0000
0100
0001
0100
0010
1000
0002
0000
0000
0013
0000
0110
0000
,  // measure 38
0200
0000
0000
0000
1300
0100
1000
0100
0020
0000
0032
0000
0103
0000
0110
0000
,  // measure 39
0020
0000
0000
0000
1030
0001
0010
0100
1000
0001
0100
0010
2000
0000
3002
0000
,  // measure 40
0023
0000
0000
0000
0130
1000
0100
1000
0001
0100
0001
0100
0020
0000
2030
0000
,  // measure 41
3001
0010
0100
0010
0001
0100
0010
1000
0001
0010
0100
1000
0020
0000
0230
0000
,  // measure 42
0302
0000
0000
0000
1003
0010
1000
0010
0100
0001
0010
0100
1000
0010
0100
0001
,  // measure 43
0100
0000
0020
0000
0000
1030
0100
1000
0100
0000
0010
0000
0002
0000
0000
0000
,  // measure 44
0103
0000
0020
0000
0000
0130
0001
0100
0001
0000
0010
0000
0200
0000
0000
0000
,  // measure 45
1300
0000
0002
0000
0000
0103
0010
0100
0010
0000
1000
0000
0002
0000
M000
0000
,  // measure 46
0013
0000
0001
0100
0001
0100
0020
0000
0000
0000
1030
0000
0000
0000
0001
0000
,  // measure 47
0020
0000
0000
0031
0100
0001
1000
0000
0100
0000
0020
0000
0000
0000
0130
0000
,  // measure 48
2000
0000
0000
3001
0100
0010
0100
0000
0001
0000
2000
0000
0000
0000
3100
0000
,  // measure 49
0020
0000
0000
0130
1000
0001
1000
0000
0010
0000
0200
0000
0000
0000
032M
0000
,  // measure 50
0000
0000
0000
0000
1030
0000
0000
0000
0001
0000
0010
0001
0100
0000
0010
2000
,  // measure 51
0000
0000
0001
0000
3001
0000
0010
0000
0001
0000
0100
0010
1000
0000
0001
0020
,  // measure 52
0000
0000
0031
0000
1000
0001
1000
0001
0100
0000
0010
1000
0001
0000
0010
0001
,  // measure 53
0000
0100
0001
0100
0010
0100
0001
1000
0001
0000
0010
0001
0100
0001
0000
0100
,  // measure 54
0000
0010
1000
0000
0100
0010
0001
1000
0001
0000
0100
0010
1000
0000
0001
0020
,  // measure 55
0000
0000
0031
1000
0001
0000
0100
0000
0010
0000
1000
0001
0010
0000
0100
0020
,  // measure 56
0000
0000
0031
1000
0010
1000
0100
0010
0001
0000
0001
0100
0000
0100
0020
0000
,  // measure 57
0000
0000
1030
0001
0010
0100
0010
0001
0100
0000
0010
1000
0010
0000
0100
0001
,  // measure 58
0000
0010
0100
1000
0010
0100
0001
0010
0200
0000
0000
0000
2300
0000
0000
0000
,  // measure 59
3002
0203
0320
1000
,  // measure 60
0230
0001
0320
1000
,  // measure 61
1030
0000
0001
0010
0000
0000
0001
0000
0200
0000
0000
0000
0010
0000
0000
0000
,  // measure 62
0310
1000
0001
0010
0000
0010
0001
0000
1000
0000
0010
0000
0100
0000
0100
0000
,  // measure 63
0001
0010
0100
0010
0011
0000
0001
0000
,  // measure 64
1001
1000
1020
0100
,  // measure 65
0100
0130
0002
2003
,  // measure 66
3010
0100
0010
0100
0001
1000
0100
0010
0002
0000
0000
0000
0000
0000
0103
0010
,  // measure 67
1000
0000
0001
0000
0010
0000
1000
0000
0000
0010
0001
0010
0001
0000
0100
0020
,  // measure 68
0000
0000
1030
0000
0001
0000
0010
0000
0100
0000
1000
0000
0100
1000
0001
1000
,  // measure 69
0100
0000
1000
0001
0100
0000
0010
0000
0000
1000
0001
1000
0100
0000
0010
0002
,  // measure 70
0000
0000
0103
0000
0010
0000
1000
0000
1001
0000
0000
0101
0000
0000
0021
0000
,  // measure 71
0000
0000
0031
0000
0100
0000
0001
0000
1001
0000
0000
1100
0000
0000
1020
0000
,  // measure 72
0000
0000
0130
0000
0001
0000
0100
0000
0010
1000
0010
1000
0010
1000
0100
0000
,  // measure 73
0010
0001
0010
0001
0010
0001
0100
0000
0010
1000
0010
1000
0100
0010
0100
0010
,  // measure 74
0001
0100
0001
0100
0010
1000
0010
1000
0100
0010
0001
0010
0001
0100
0000
0100
,  // measure 75
0010
1000
0000
1000
0001
0010
0000
0010
0001
0100
0001
0100
0010
1000
0000
1000
,  // measure 76
0100
0010
0000
0010
0001
0100
0000
0100
0010
1000
0010
1000
0100
0010
0000
0010
,  // measure 77
0001
0100
0000
0100
0010
1000
0000
1000
0100
0010
0001
0010
0001
0000
0100
0010
,  // measure 78
0000
1000
0000
0001
0010
0000
0010
0000
0001
1000
0001
1000
0100
0010
0000
0010
,  // measure 79
0001
1000
0000
1000
0010
0100
0000
0100
0001
0010
0001
0010
0100
1000
0000
1000
,  // measure 80
0100
0010
0000
0010
0001
0100
0000
0100
0010
1000
0010
1000
0100
0010
0000
0010
,  // measure 81
0001
1000
0000
1000
0010
0100
0000
0100
0010
1000
0100
0010
0001
0000
1000
0010
,  // measure 82
0000
0100
0000
0001
0100
0000
0100
0000
0020
0000
0000
0000
0000
0000
0000
0000
,  // measure 83
1030
0100
1000
0001
0100
0001
0010
0100
2000
0000
0000
0000
0000
0000
0000
3001
,  // measure 84
0100
0000
0000
0000
0010
0000
0000
0000
1000
0000
0000
0000
0100
0000
0000
0000
0001
0000
0000
0000
1000
0000
0000
0000
0020
0000
0000
0000
0000
0000
0000
0000
0000
0032
0000
0000
0000
0000
0000
0000
0000
0000
0100
0000
0000
0000
0000
0000
,  // measure 85
2003
0000
0000
3200
0000
0000
0010
0000
2300
0000
0000
3020
0000
0000
0100
0000
,  // measure 86
1030
0000
0000
0001
0000
0000
0010
0000
0011
0000
0000
0000
0100
0000
0000
0000
,  // measure 87
1010
0000
0000
0000
0100
0000
0000
0000
0001
1000
0001
1000
0001
1000
0001
1000
,  // measure 88
0010
0100
0010
0100
0010
0100
0010
0000
2020
0000
0000
0000
3030
0000
0000
0000
,  // measure 89
0202
0303
0011
1100
,  // measure 90
2002
3003
0022
0033
,  // measure 91
0202
0303
1010
0101
,  // measure 92
1001
0000
0000
0000
0001
0100
0001
0100
0010
0000
1000
0010
0000
1000
0100
0000
,  // measure 93
0010
0000
0001
0100
0000
0001
1000
0000
0100
0000
0010
0000
0100
0000
1000
0000
,  // measure 94
0010
0000
0100
0001
0000
0100
0010
0000
1000
0000
0001
0010
0000
0100
0010
0000
,  // measure 95
0001
0000
1000
0010
0000
0100
0010
0000
1000
0000
0001
0000
0010
0000
0001
0000
,  // measure 96
0100
0100
0010
0010
2000
0000
3001
0010
,  // measure 97
1000
0010
0001
0100
0010
1000
0200
0000
,  // measure 98
0301
1000
0010
0001
0200
0000
0310
1000
,  // measure 99
0010
0100
0001
0010
0200
0000
0000
0000
,  // measure 100
0310
0001
0100
1000
0200
0000
0310
1000
,  // measure 101
0100
0001
0100
1000
0010
0100
0020
0000
,  // measure 102
0031
0010
1000
0100
0020
0000
1030
0010
,  // measure 103
0001
0100
0010
0100
0001
0000
0001
0000
,  // measure 104
0002
0100
0100
0203
,  // measure 105
0010
0000
0010
0000
0320
0000
1030
0001
,  // measure 106
0010
0100
1000
0100
0010
0000
0010
0000
,  // measure 107
0020
0001
0001
0032
,  // measure 108
0100
0000
0100
0000
0203
0000
0310
1000
,  // measure 109
0001
1001
2000
3100
,  // measure 110
1001
0002
0103
1001
,  // measure 111
2000
0000
3100
0000
1001
0000
0001
0100
,  // measure 112
0010
1000
0001
0010
0002
0000
1003
0010
,  // measure 113
0100
0000
0200
0000
0301
0000
0001
0010
,  // measure 114
0100
1000
0100
0010
0001
0000
0010
0001
,  // measure 115
0100
0010
0000
0010
1000
0100
0002
0000
,  // measure 116
0103
1000
0002
0000
0000
0100
0103
0000
,  // measure 117
0020
0000
0000
1030
0001
0000
0010
0001
,  // measure 118
0100
0010
0001
0010
1000
0100
0020
0000
,  // measure 119
0000
0031
1000
0010
0200
0000
1300
0000
,  // measure 120
0001
0010
1000
0100
0010
0000
1000
0010
,  // measure 121
0001
0000
0001
0100
1000
0000
0100
0001
,  // measure 122
0010
0000
1000
0010
0001
0100
0000
0100
,  // measure 123
0010
0000
1000
0001
0010
1000
0020
0000
,  // measure 124
0032
0000
0000
0000
0103
0010
0100
0010
1000
0000
0000
0000
1000
0000
0000
0000
,  // measure 125
1000
0001
0001
0001
,  // measure 126
0010
0000
0000
0000
0010
0000
0001
0010
0001
0000
1000
0000
0010
0000
0010
0000
,  // measure 127
0100
0000
0001
0000
0001
0000
1000
0000
0100
0010
0100
0010
0100
0010
0100
0010
,  // measure 128
0001
1000
0001
1000
0001
1000
0001
1000
0010
0000
0100
0000
0001
0000
0100
0000
,  // measure 129
0010
1000
0100
0001
1000
0010
0100
0010
,  // measure 130
1000
0010
0001
0100
0010
1000
0100
1000
,  // measure 131
0010
0100
0010
1000
0100
0001
1000
0001
,  // measure 132
0100
0001
1000
0010
0200
0000
1300
0000
,  // measure 133
0001
0000
0001
0000
1000
0010
1000
0010
0200
0000
0000
0000
0302
0000
0000
0000
,  // measure 134
0023
0000
0130
1000
0001
0100
1000
0000
,  // measure 135
1000
0100
0001
0010
1000
0001
0100
0000
,  // measure 136
0100
0000
0000
1000
0001
0000
0100
0000
0020
0000
0000
0000
1030
0000
0000
0000
,  // measure 137
0001
0001
0010
0001
0200
0000
0320
0000
,  // measure 138
2030
0000
3001
0010
0100
1000
0010
0000
,  // measure 139
0100
0001
0010
1000
0020
0000
0031
0100
,  // measure 140
0010
0000
0110
0000
0100
0001
0000
0001
,  // measure 141
1000
0000
0100
0000
0001
0000
0100
0010
0200
0000
0000
0000
1300
0000
0100
1000
,  // measure 142
0100
0100
0010
0010
0001
0100
0010
0000
,  // measure 143
0010
0001
0010
1000
0100
0001
0100
0000
,  // measure 144
0100
0000
0000
0010
0001
0000
1000
0000
0020
0000
0100
0000
0130
0000
0002
0000
,  // measure 145
0000
1003
0100
0010
0002
0000
0100
0000
,  // measure 146
2003
3100
0200
0001
,  // measure 147
0010
1300
1010
0110
,  // measure 148
0102
0100
0100
0103
0010
1000
0100
0001
,  // measure 149
0100
1000
0010
0100
0010
0001
0010
0100
,  // measure 150
0001
0000
0010
0000
0100
1000
0100
1000
0100
0000
0010
0000
0001
0000
0100
0000
,  // measure 151
1000
0100
0010
1000
0100
0001
1000
0001
,  // measure 152
0100
0000
1000
0000
0010
0000
0100
0001
0200
0000
0000
0000
0310
0000
1000
0000
,  // measure 153
0200
0000
0000
0000
0310
0000
0000
0001
0200
0000
0000
0000
0310
0000
0000
1000
,  // measure 154
0200
0000
0000
0000
0310
0000
0000
0001
0200
0000
0000
0000
0001
0000
0000
0000
,  // measure 155
0302
1000
2003
3100
,  // measure 156
2100
3001
0001
1001
,  // measure 157
1000
0100
1100
0000
1000
0000
1001
0000
,  // measure 158
0001
0100
0101
0000
0002
0203
0320
2030
,  // measure 159
3002
0000
1003
0000
2000
3200
0320
0032
,  // measure 160
2003
0000
0000
0000
3001
0100
0001
0100
0010
0000
0000
0000
1010
0000
0000
0000
,  // measure 161
1000
0001
0011
0000
0010
0000
0011
0000
,  // measure 162
0001
1000
1010
0000
0020
0230
0302
0023
,  // measure 163
0230
0000
1300
0000
2000
3020
0230
0302
,  // measure 164
0013
0100
0000
0000
0010
0001
0010
0001
1000
0000
0100
0000
1000
0000
0010
0000
,  // measure 165
0001
0010
0100
0001
0100
0010
0001
0010
,  // measure 166
1000
0100
0010
0010
0001
0010
1000
0001
,  // measure 167
0100
0010
0001
0010
1000
0010
0001
0100
,  // measure 168
0010
0000
0001
0000
1000
0000
0100
0010
0100
0000
0001
0000
1000
0000
0100
0000
,  // measure 169
0001
1000
0010
0100
1000
0010
0001
0010
,  // measure 170
1000
0100
1000
1000
0010
0100
0001
0001
,  // measure 171
0010
0100
1000
1000
0020
0230
0302
0023
,  // measure 172
0230
0000
1300
0000
0001
0100
0010
0100
,  // measure 173
0002
1000
1000
0000
0203
0010
0010
0000
,  // measure 174
0302
0010
0010
0000
1003
0010
0100
0001
,  // measure 175
0010
0100
1000
0010
0001
0010
1000
0100
,  // measure 176
0020
0000
0031
0000
1000
0010
0001
0010
,  // measure 177
0200
0001
0001
0000
0320
1000
1000
0000
,  // measure 178
0230
0010
0010
0000
0301
0010
0100
1000
,  // measure 179
0010
0001
0010
1000
0100
0010
1000
0010
,  // measure 180
0002
0000
0103
0000
0010
1000
0100
0010
,  // measure 181
0002
0100
0100
0000
2003
0100
0100
0000
,  // measure 182
3002
0100
0100
0000
1003
0100
0001
0100
,  // measure 183
2000
0010
0010
0000
3001
0010
0100
0000
,  // measure 184
0220
0000
0330
0000
0010
0001
0010
0100
,  // measure 185
2000
0010
0010
0000
3002
0010
0010
0000
,  // measure 186
2003
0010
0010
0000
3001
0010
1000
0010
,  // measure 187
0002
0100
0100
0000
1003
0100
0010
0000
,  // measure 188
0110
0000
0000
0000
0100
1000
0100
1000
0002
0000
0000
0000
0103
0000
0010
0000
,  // measure 189
0002
0000
1003
0100
0001
0010
0100
0010
,  // measure 190
0002
0000
1003
0000
0020
0000
0130
0001
,  // measure 191
0010
0000
0100
0000
1000
0000
0010
0000
0100
0000
0001
0010
0001
0000
1000
0010
,  // measure 192
1000
0000
0001
0100
0001
0000
1000
0100
1000
0000
0001
0000
0100
0000
0010
0000
,  // measure 193
0001
1000
0100
0010
1000
0100
0010
0001
,  // measure 194
1000
0010
0100
1000
0002
0000
0013
1000
,  // measure 195
0100
0001
0100
1000
0010
0100
1000
0100
,  // measure 196
0010
0110
0200
0301
,  // measure 197
0200
0000
1300
0000
0100
0010
1000
0100
,  // measure 198
0020
0001
0031
0100
0020
0000
0031
0000
,  // measure 199
0020
0000
1030
0000
0100
0010
0001
0200
,  // measure 200
0010
0010
0310
0000
1020
0000
0130
0000
,  // measure 201
0021
0000
0130
0000
1000
0020
0100
0130
,  // measure 202
0001
0020
0100
0130
1200
0000
0310
0000
,  // measure 203
0201
0000
0000
0000
0310
0000
0000
0000
1000
0001
1000
0001
1000
0001
1000
0001
,  // measure 204
0100
0010
0100
0010
0100
0010
0100
0010
1000
0000
0001
0000
0010
0000
1000
0000
,  // measure 205
0001
0100
1000
0010
0200
1000
0000
0001
,  // measure 206
0000
1000
0000
0301
0010
0100
0010
0001
,  // measure 207
1000
0010
0001
1000
0200
0001
0000
1000
,  // measure 208
0000
0001
0000
1300
0100
0010
1000
0100
,  // measure 209
0010
0001
0100
0001
0020
1000
0000
0001
,  // measure 210
0000
1000
0000
0031
0100
0010
0001
1000
,  // measure 211
0100
0010
1000
0100
0020
0001
0000
1000
,  // measure 212
0000
0001
0000
1030
0010
0100
1000
0010
,  // measure 213
0100
0010
0001
0010
1000
0100
0001
0100
,  // measure 214
1000
0100
0001
0100
1000
0010
0100
0001
,  // measure 215
0010
0100
1000
0010
0100
1000
0100
0001
,  // measure 216
0100
1000
0100
0001
0010
0100
0001
0100
,  // measure 217
1000
0010
0100
0001
0010
1000
0010
0001
,  // measure 218
0010
0000
1000
0000
0010
0000
0001
0000
1000
0010
1000
0000
0001
0010
0001
0000
,  // measure 219
1000
0100
1000
0000
0001
0100
0001
0000
1000
0100
0010
0001
1000
0100
0010
0001
,  // measure 220
1000
0001
1000
0001
1000
0001
1000
0001
1000
0000
0001
0100
0010
0000
0100
0000
,  // measure 221
0010
0000
1000
0100
0010
0000
0100
0000
0010
0000
0001
0100
0010
0000
0100
0000
,  // measure 222
0110
0000
0000
0101
0000
0000
0001
0000
2001
0000
0000
0000
3100
0000
0000
0000
,  // measure 223
1002
0103
0120
0001
,  // measure 224
0100
1030
0002
0000
,  // measure 225
2003
0000
3200
0000
,  // measure 226
0320
0000
0032
0000
,  // measure 227
0203
0000
2300
0000
,  // measure 228
3200
0000
0000
0000
0000
0000
0000
0000
0301
1000
0001
1000
0001
1000
0001
1000
,  // measure 229
0001
0100
0010
1000
0001
0100
0010
1000
0001
0000
0010
0000
0001
0000
0100
0001
,  // measure 230
0100
0001
0100
0000
0010
0000
1000
0010
1000
0000
0010
0000
0100
0000
0001
0000
,  // measure 231
1000
0100
0010
0001
1000
0100
0010
0001
0100
0000
0010
0100
0010
0000
1000
0000
,  // measure 232
0001
0010
0001
0010
0100
1000
0100
1000
0001
0100
0001
0100
0010
0000
1000
0000
,  // measure 233
0001
0100
0010
0000
1000
0000
1000
0000
0001
0000
0010
0000
0100
0000
0010
0000
,  // measure 234
0001
1000
0001
1000
0010
0000
0100
0000
0001
0000
1000
0000
0100
0010
0001
0000
,  // measure 235
2000
0010
3020
0100
0230
0000
1000
0000
,  // measure 236
0010
0000
0000
0000
0301
0000
0010
0001
0020
0000
0000
0000
0031
0000
0200
0000
,  // measure 237
0000
0310
1000
0100
0002
0000
1003
0020
,  // measure 238
0000
0031
0100
0010
2000
0000
0100
0000
,  // measure 239
0001
0000
3010
0100
0002
0000
1003
0200
,  // measure 240
0000
0301
1000
0010
0200
0000
1000
0000
,  // measure 241
0310
0000
0000
0000
0001
0100
0001
0100
0020
0000
0000
0000
1030
0000
0002
0000
,  // measure 242
0000
0013
1000
0010
0002
0000
0103
0020
,  // measure 243
0000
0031
0010
1000
0200
0000
0001
0000
,  // measure 244
1000
0000
0001
0000
0310
0001
0100
0010
,  // measure 245
0000
0000
1000
0000
0001
1000
0001
1000
0100
0000
0001
0000
0100
0000
2000
0000
,  // measure 246
0000
3001
0100
1000
0200
0000
0001
0000
,  // measure 247
0010
0000
0301
0000
1000
0100
0001
0200
,  // measure 248
0000
1300
0010
0001
0020
0000
1000
0000
,  // measure 249
0100
0000
0000
0000
1030
0001
1000
0001
0010
0000
0100
0000
0001
0000
0200
0000
,  // measure 250
0000
1300
0010
0100
1000
0100
0001
1000
,  // measure 251
0100
0000
0010
0000
0001
0000
0100
0000
0010
1000
0010
1000
0010
1000
0001
0000
,  // measure 252
0010
0001
0010
0001
0010
0001
1000
0000
0001
1000
0001
1000
0001
1000
0001
1000
,  // measure 253
0010
0100
0010
0100
0010
0100
0010
0100
0010
0000
0000
0000
1010
0000
0000
0000
,  // measure 254
1000
0100
0010
0001
0000
0100
0101
0000
,  // measure 255
0001
1000
1100
0000
0100
0000
0110
0000
,  // measure 256
0010
0001
0100
0010
0000
1000
1010
0000
,  // measure 257
0010
1001
0001
0011
,  // measure 258
0010
0100
1000
0010
0000
0100
0101
0000
,  // measure 259
1001
0000
0000
0000
1000
0000
0000
0000
0100
0000
0000
0000
0010
0000
0000
0001
0000
0000
0000
0000
0000
0100
0000
0000
,  // measure 260
0010
0001
0010
2000
0000
3001
0010
0001
,  // measure 261
0100
0010
1000
0100
0010
0001
0100
0010
,  // measure 262
1000
0010
0100
0002
0000
0013
1000
0010
,  // measure 263
0001
0100
0010
0200
0000
0310
1000
0200
,  // measure 264
0000
0310
0001
0200
0000
0310
1000
0200
,  // measure 265
0000
0310
0001
0001
0100
0010
0100
1000
,  // measure 266
0100
0001
0010
0100
2000
0000
3001
0100
,  // measure 267
1000
0100
0010
0100
0001
1000
0200
0000
,  // measure 268
1300
0001
0200
0000
0301
1000
0100
0010
,  // measure 269
0001
0000
0100
0000
0010
0000
0000
0000
1000
0010
1000
0000
0010
0100
0010
0000
,  // measure 270
0100
0001
0100
0001
1000
0000
0002
0000
0000
0000
0013
0000
0200
0000
0000
0000
,  // measure 271
1300
0000
0001
0000
0100
0000
0001
0000
0010
0001
0010
0000
0001
1000
0001
0000
,  // measure 272
1000
0100
1000
0100
0010
0000
0002
0000
0000
0000
0103
0000
0010
0000
1000
0000
,  // measure 273
0010
0000
0100
0000
0001
1000
0001
1000
0001
0000
0010
0000
0100
0000
1000
0000
,  // measure 274
0100
0001
0100
1000
0010
0100
1000
0100
,  // measure 275
0010
1000
0010
0100
0001
1000
0001
1000
,  // measure 276
0001
1000
0001
1000
0001
1000
0010
0000
0110
0000
0000
0000
0000
0000
0000
0000
,  // measure 277
1001
0000
0000
0000
1001
0000
0001
0010
,  // measure 278
0200
0000
1300
0000
0100
0000
0010
0001
,  // measure 279
2000
0000
3100
0010
0100
0000
1100
0000
,  // measure 280
0010
0001
0010
0000
0100
0000
0010
0000
,  // measure 281
1000
0100
0001
0100
1000
0010
0100
0010
,  // measure 282
1000
0100
0001
0100
1000
0010
0100
0001
,  // measure 283
0010
1000
0010
0001
0100
0010
1000
0010
,  // measure 284
0100
0000
0001
0000
1000
0000
0100
0000
0010
0000
0000
0001
0000
0000
0200
0000
,  // measure 285
0000
0000
0310
0000
1000
0001
1000
0100
,  // measure 286
1000
0001
1000
0200
0000
0000
0301
0200
,  // measure 287
0000
0000
1300
0200
0000
0310
0001
0100
,  // measure 288
1000
0100
0001
0020
0000
0000
1030
0020
,  // measure 289
0000
0000
0031
0010
0001
0100
0010
0001
,  // measure 290
2000
0000
3200
0000
0310
1000
0200
0000
,  // measure 291
0301
0100
1000
0010
0100
1000
0200
0000
,  // measure 292
0301
0010
1000
0001
0100
1000
0010
0000
,  // measure 293
0210
0000
0000
0000
0301
1000
0100
0010
,  // measure 294
0001
0100
0100
1000
0100
0100
0001
0010
,  // measure 295
0010
1000
0010
0010
0001
0100
0010
1000
,  // measure 296
0100
0010
0010
0001
0010
0010
0001
0100
,  // measure 297
0100
1000
0100
0100
0020
0000
1030
0001
,  // measure 298
0010
0001
0010
0001
0010
0000
0001
0000
0101
0000
0000
0000
1010
0000
0000
0000
,  // measure 299
1000
0100
0001
1000
0020
0000
0130
0000
,  // measure 300
2000
0000
3001
0000
1000
0010
0001
0010
,  // measure 301
1000
0000
1001
0000
0001
0010
0000
0010
,  // measure 302
0001
0100
0000
0020
0000
0230
0000
0310
,  // measure 303
1000
0100
0000
0020
0001
0000
0100
0000
,  // measure 304
0031
0100
0010
2000
0100
0000
0001
0000
,  // measure 305
3100
0000
0000
0000
1001
0000
0000
0000
0001
0000
0100
0000
0010
1000
0010
1000
,  // measure 306
0010
0000
0100
0000
0001
0000
0001
0000
0100
0000
0010
0000
1000
0000
0100
1000
,  // measure 307
0100
0000
0010
0000
0100
0000
0100
0000
1000
0000
0001
0000
0100
0010
0100
0010
,  // measure 308
0100
0010
1000
1000
0001
0010
0100
1000
,  // measure 309
0002
0003
1001
0110
,  // measure 310
1001
0001
0010
0100
0110
0000
1001
0000
,  // measure 311
0220
0330
0011
1001
,  // measure 312
1000
0010
0100
0001
2000
3200
0320
0032
,  // measure 313
2003
0000
0000
0000
3001
0001
0100
0100
,  // measure 314
0010
0010
1000
1000
0001
0001
0010
0010
,  // measure 315
0100
0000
0100
0000
1000
0000
1000
0000
0001
0100
0001
0000
1000
0100
1000
0000
,  // measure 316
0001
0100
0001
0100
0010
1000
0010
1000
0002
0000
2003
0000
3200
0000
0320
0000
,  // measure 317
0032
0000
0000
0000
1003
0100
0010
0001
0200
0000
0000
0000
0000
0000
0000
0000
,  // measure 318
0000
0000
0000
0000
,  // measure 319
M30M
M00M
M00M
M00M
,  // measure 320
0010
1000
0200
0000
0010
0000
0310
0001
,  // measure 321
0100
1000
0100
0020
0000
2000
0030
0000
,  // measure 322
3001
0010
0200
0000
0010
0000
0310
0001
,  // measure 323
0100
0010
0100
0002
0000
1003
1001
0001
,  // measure 324
0020
0230
0320
0031
,  // measure 325
2000
0000
3010
0100
0001
0100
0010
1000
,  // measure 326
0002
0010
0013
0000
0200
0000
1300
0010
,  // measure 327
0100
1000
0100
0010
1000
0200
0000
0310
,  // measure 328
0011
0001
2000
0000
3020
0000
0130
0001
,  // measure 329
0010
0100
0010
0002
0000
2003
0000
0000
,  // measure 330
3020
0100
0130
0000
0101
0001
1000
0000
,  // measure 331
0100
0001
0100
0020
0000
0031
1000
0000
,  // measure 332
1001
0101
1001
1100
,  // measure 333
1001
0011
1001
1010
,  // measure 334
0110
0101
0110
1010
,  // measure 335
1100
0000
0000
0000
0110
0000
0000
0000
0011
0000
0001
1000
0001
1000
0001
1000
,  // measure 336
0010
0000
0100
0000
0001
0100
0001
0000
0010
0000
0100
0000
1000
0100
1000
0000
,  // measure 337
0010
0000
0100
0000
0010
0100
0010
0000
1000
0000
0001
0000
0010
0001
0010
0000
,  // measure 338
0001
0000
0100
0000
0010
1000
0001
0000
0010
0000
0001
0000
0010
0001
0100
0000
,  // measure 339
0010
0000
1000
0000
0010
0100
0001
0000
1000
0000
0100
0000
1000
0100
0010
0000
,  // measure 340
0002
0000
0000
1003
0010
0100
0002
0000
0000
1003
0100
0010
,  // measure 341
0002
0000
0000
1003
0010
0100
0001
0010
0100
1000
0010
1000
,  // measure 342
1001
0000
0000
0000
;

//---------------dance-double - ----------------
#NOTES:
     dance-double:
     :
     Hard:
     18:
     0.729660,1.110106,0.184285,0.561231,0.350769,2439.000000,2351.000000,88.000000,268.000000,10.000000,0.000000,0.729660,1.110106,0.184285,0.561231,0.350769,2439.000000,2351.000000,88.000000,268.000000,10.000000,0.000000:
00000000
00000000
00000000
00000000
,
00000000
00000000
00000000
00000000
,
00000000
00000000
00000000
00000000
,
00000001
00000100
00000010
00000000
00001000
00000100
00000010
00000000
,
00000100
00010000
00001000
01000000
00010000
00000000
10010000
00000000
,
10000000
01000000
00100000
00010000
02000000
00000000
03001000
00100000
,
00001000
00010000
00000010
00000000
00001010
00000000
00001001
00000000
,
00000001
00000000
00000010
00000000
00000100
00000000
00000010
00000000
00000002
00000000
00000000
00001003
00000000
00000000
00000010
00000000
,
00000000
00000000
00000000
00010000
00000100
00010000
00022000
00000000
00000000
00033000
00000000
00000000
,
00002000
00000000
01003000
00020000
00000000
10030000
01000000
00100000
,
00010000
00000000
10010000
00000000
10000000
00100000
00010000
00000000
,
00002000
00000000
00013000
00000020
00000000
00001030
00000001
00000010
,
00000100
00000000
00001100
00000000
00001000
00000010
00000001
00000000
,
00000020
00000000
00010030
00000100
00000000
00010000
00001000
01000000
,
00020000
00000000
10030000
01000000
00000000
00100000
00010000
01000000
,
01001000
00010000
00101000
00001000
,
00010000
00000000
00000010
00001000
00000000
00000000
00000010
00000000
00000200
00000000
00000000
00000000
00000300
00000000
00000000
00000000
,
00000001
00000000
00001001
00000000
00001000
00000100
00000010
00000200
,
00000000
00010000
00000000
00000010
00000000
00001300
00000100
00010000
,
00001000
00000000
01001000
00000000
01000000
00010000
01000000
00200000
,
00000000
00010000
00000000
01000000
00000000
10300000
00010000
00100000
,
00002000
00000000
00000000
00000000
00013000
00000000
00000000
00000010
00001000
00000000
00000010
00000000
00000100
00000000
00002000
00000000
,
00000000
00000100
00000000
00010000
00000000
01003000
00010000
10000000
,
02000000
00000000
00000000
00000000
03100000
00000000
00000000
00001000
00100000
00000000
00001000
00000000
00010000
00000000
00000020
00000000
,
00000000
00000000
00001000
00000000
00000000
00000000
00000100
00000000
00000000
00000000
00001030
00000100
00001000
00000000
00000001
00000100
,
00000002
00000000
00000000
00000000
00002003
00000000
00000000
00003100
00010000
00000000
00000010
00000000
00001000
00000000
00000200
00000000
,
00000000
00001000
00000000
00010000
00000000
00000310
00000001
00001000
,
00000020
00000000
00000000
00000000
00020030
00000000
00000000
00030100
00010000
00000000
00001000
00000000
00100000
00000000
00020000
00000000
,
00000000
00000000
10000000
00000000
00000000
00000000
00000000
00000000
01030000
00000000
00100000
10000000
00100000
00000000
10000000
01000000
,
10000000
10000000
00010000
00010000
,
00001000
00001000
00000001
00000001
,
00001000
00000000
00000010
00001000
00000010
00000000
00001000
00000000
00000100
00010000
00000000
00010000
00001000
00000000
00100000
00000000
,
00001000
00000000
01000000
00010000
01000000
00000000
00010000
00000000
00100000
00010000
00000000
00010000
01000000
00000000
00100000
00000000
,
10000000
00010000
10000000
00000000
00010000
00100000
00010000
00000000
00100000
00001000
00010000
00000010
00010000
00000010
00001000
00000100
,
00000020
00000000
00000000
00000000
00000000
00000000
00000000
00000000
00000000
00000000
00000000
00000000
00000031
00001000
00000001
00001000
,
00000020
00000000
00000000
00000000
00010030
00000100
00010000
00000000
00002000
00000000
00203000
00000000
00320000
00000000
02030000
00000000
,
03002000
00000000
00000000
00000000
00103000
00010000
00100000
00000000
02000000
00000000
23000000
00000000
30020000
00000000
01030000
00001000
,
01000000
00001000
00010000
00000000
00000010
00001000
00000010
00001000
00000010
00000200
00000000
00000000
00000301
00000000
00001000
00000000
,
00000200
00000000
00000000
00000000
00010300
00001000
00010000
00001000
00100000
00000000
00010000
00000000
01000000
00000000
01100000
00000000
,
00200000
00000000
00000000
00000000
10300000
00010000
10000000
00000000
00010000
00100000
00010000
00100000
00002000
00000000
00023000
00000000
,
00030020
00000000
00000000
00000000
00000130
00000001
00000100
00000000
00000010
00001000
00000010
00001000
00000200
00000000
00020300
00000000
,
00031000
01000000
00001000
01000000
00010000
00100000
00010000
00100000
01000000
10000000
01000000
10000000
00020000
00000000
20030000
00000000
,
32000000
00000000
03100000
00001000
00100000
00001000
00010000
00001000
00010000
00000000
00000020
00000000
00001030
00000001
00000000
00000000
,
00001000
00000000
00000020
00000000
00000000
00010030
00000100
00010000
00000100
00000000
00010000
00000000
00001000
00000000
00000000
00000000
,
01000000
00000000
00020000
00000000
00000000
10030000
01000000
10000000
01000000
00000000
00100000
00000000
00010000
00000000
00000000
00000000
,
01000000
00000000
00002000
00000000
00000000
00013000
00000010
00010000
00000010
00000000
00000100
00000000
00000020
00000000
000M0000
00000000
,
00001030
00000000
00000001
00000100
00000001
00000100
00000002
00000000
00000000
00000000
00000003
00000000
00000000
00000000
00001000
00000000
,
00000200
00000000
00000000
00010300
00001000
01000000
00001000
00000000
01000000
00000000
00010000
00000000
00000000
00000000
10000000
00000000
,
02000000
00000000
00000000
03100000
00001000
00100000
00010000
00000000
01000000
00000000
00001000
00000000
00000000
00000000
00010000
00000000
,
00000020
00000000
00000000
00001030
00000001
00000100
00000001
00000000
00001000
00000000
00000010
00000000
00000000
00000000
00M20010
00000000
,
00000000
00000000
00000000
00000000
00031000
00000000
00000000
00000000
01000000
00000000
00010000
10000000
00000000
00000000
01000000
00200000
,
00000000
00000000
00301000
00000000
00010000
00000000
00000010
00000000
00001000
00000000
00000100
00000010
00000000
00000000
00000001
00002000
,
00000000
00000000
00003010
00000000
00010000
00000100
00010000
00000100
00002000
00000000
00000000
00003020
00000000
00000000
00020030
00000000
,
00000000
00000000
00031000
01000000
00001000
00000000
00100000
00010000
00100000
00000000
00010000
00000000
10000000
00100000
00000000
02000000
,
00000000
00000000
00010000
00000000
03010000
00000000
01000000
00001000
00010000
00000000
00000100
00001000
00000000
00000000
00000100
00000020
,
00000000
00000000
00000031
00000000
00001000
00000000
00000010
00000000
00001000
00000000
00000100
00010000
00000000
00000000
00001000
00020000
,
00000000
00000000
00031000
00000000
00100000
00010000
00100000
00010000
20000000
00000000
00000000
30200000
00000000
00000000
02300000
00000000
,
00000000
00000000
03010000
01000000
00010000
00000000
00100000
00001000
00100000
00000000
00001000
00000000
00010000
00000010
00000000
00000100
,
00000000
00000001
00001000
00000001
00001000
00000000
00000100
00000000
00020000
00000000
00000000
00000000
00031000
00000000
00000000
00000000
,
00100000
00010000
02000000
00001000
,
03020000
00130000
02000000
10000000
,
10000000
13000000
20010000
30100000
,
01000000
00010000
01000000
00010000
00000000
01000000
00001000
00000000
00010000
00000000
00000100
00000000
00000010
00000000
00000100
00000000
,
00001000
00000001
00000100
00000010
00020000
00000000
00000100
00000000
,
00032000
01000000
00203000
00010000
,
00010000
00000000
00310000
00000000
10000000
00100000
01000000
00010000
,
20000000
00000000
00000000
00000000
00000000
00000000
00000000
00000000
30010000
00000000
01000000
00000000
00010000
00000000
00100000
00001000
,
00010000
00000000
00000010
00000000
00001000
00000000
00000200
00000000
00000000
00000310
00000001
00000010
00000001
00000000
00001000
00000020
,
00000000
00000000
00010030
00000000
00000100
00000000
00010000
00000000
00001000
00000000
00100000
00000000
00010000
00100000
00010000
00100000
,
00001000
00000000
01000000
00000000
00010000
00000000
02000000
00000000
00000000
03100000
10000000
00100000
10000000
00000000
00010000
00200000
,
00000000
00000000
00301000
00000000
00010000
00000000
00000010
00000000
00001010
00000000
00000000
00001001
00000000
00000000
00001200
00000000
,
00000000
00000000
00010300
00000000
00001000
00000000
01000000
00000000
01010000
00000000
00000000
10010000
00000000
00000000
00210000
00000000
,
00000000
00000000
00301000
00000000
00010000
00000000
00000010
00000000
00001000
00000000
00000001
00000010
00000001
00000010
00000001
00000000
,
00001000
00000000
00000010
00010000
00000010
00010000
00000010
00000000
00001000
00000100
00001000
00000000
00000100
00010000
00000100
00000000
,
00010000
00001000
00010000
00001000
00100000
00010000
00100000
00010000
01000000
00100000
10000000
00010000
00100000
00001000
00000000
00010000
,
00001000
01000000
00000000
00001000
00010000
00000100
00000000
00010000
00000010
00001000
00000010
00000100
00000001
00001000
00000000
00000100
,
00000010
00000001
00000000
00000100
00000010
00001000
00000000
00000010
00010000
00000100
00010000
00001000
00100000
00010000
00000000
01000000
,
00100000
10000000
00000000
01000000
00100000
00010000
00000000
01000000
00001000
01000000
00001000
00010000
00001000
00000000
00010000
00000010
,
00000000
00000100
00000000
00000010
00001000
00000000
00001001
00000000
00000001
00000010
00000001
00001000
00000010
00001000
00000000
00000100
,
00010000
00001000
00000000
01000000
00001000
00010000
00000000
00000100
00010000
00001000
00100000
00001000
00100000
00010000
00000000
10000000
,
00010000
00100000
00000000
00010000
10000000
00100000
00000000
01000000
00010000
01000000
00001000
00010000
00001000
00010000
00000000
00000010
,
00001000
00000100
00000000
00000010
00000001
00000100
00000000
00000010
00010000
00000100
00010000
00000100
00010000
00000000
00001000
00100000
,
00000000
00010000
00000000
01000000
00100000
00000000
10000000
00000000
00020000
00000000
00000000
00000000
00000000
00000000
00000000
00000000
,
10030000
01000000
00100000
00010000
00100000
01000000
00100000
00001000
00020000
00000000
00000000
00000000
00000000
00000000
00000000
00030010
,
00001000
00000000
00000000
00000000
00000001
00000000
00000000
00000000
00000010
00000000
00000000
00000000
00000100
00000000
00000000
00000000
00010000
00000000
00000000
00000000
00001000
00000000
00000000
00000000
02000000
00000000
00000000
00000000
00000000
00000000
00000000
00000000
00000000
00010000
00000000
00000000
00000000
00000000
00000000
00000000
00000000
00000000
03100000
00000000
00000000
00000000
00000000
00000000
,
20000000
00000000
00000000
01000000
00000000
00000000
30010000
00000000
00200000
00000000
00000000
00001000
00000000
00000000
00310000
00000000
,
02000000
00000000
00000000
00010000
00000000
00000000
03001000
00000000
00010000
00000000
00000000
00000000
00010000
00000000
00000000
00000000
,
00000010
00000000
00000000
00000000
00000010
00000000
00000000
00000000
00001000
00000001
00001000
00000001
00001000
00000001
00001000
00000001
,
00001000
00000001
00001000
00000001
00001000
00000001
00001000
00000002
00002000
00000000
00000000
00000000
00003003
00000000
00000000
00000000
,
00002200
00003300
00000100
00010000
,
00022000
00033000
00202000
00303000
,
02200000
03300000
01000000
10000000
,
10010000
00000000
00000000
00000000
00010000
01000000
00010000
01000000
00100000
00000000
10000000
00010000
00000000
00100000
00010000
00000000
,
01000000
00000000
00001000
00010000
00000000
00001000
01000000
00000000
00001000
00000000
00010000
00000000
00000010
00000000
00001000
00000000
,
00000100
00000000
00000010
00000001
00000000
00001000
00000001
00000000
00000100
00000000
00000010
00010000
00000000
00001000
00010000
00000000
,
00001000
00000000
00100000
00010000
00000000
10000000
00010000
00000000
01000000
00000000
00001000
00000000
00010000
00000000
00000010
00000000
,
00010000
00001000
00100000
00010000
02000000
00000000
03100000
00010000
,
00001000
00000100
00000001
00000100
00001000
00000100
00000020
00000000
,
00001030
00000100
00010000
00001000
00200000
00000000
01300000
10000000
,
01000000
00010000
00001000
00010000
02000000
00000000
00000000
00000000
,
00000000
03100000
00001000
00010000
00000020
00000000
00000130
00001000
,
00000100
00000001
00000100
00000010
00010000
00000100
00020000
00000000
,
00031000
00100000
00010000
00100000
02000000
00000000
13000000
00100000
,
01000000
00001000
00100000
00010000
00100000
00000000
00001000
00000000
,
00011000
00000100
00010000
00011000
,
01000000
00000000
00001000
00000000
00011000
00000000
00000100
00001000
,
00000100
00000010
00000001
00001000
00000010
00000000
00010000
00000000
,
00011000
00100000
00001000
00011000
,
00000100
00010000
00012000
02003000
,
03200000
20300000
31000000
00100000
,
00011000
00000010
00000100
00011000
,
01000000
00100000
00011000
00002000
,
01003000
00010000
01000000
00100000
20000000
00000000
30010000
00100000
,
00001000
00000000
00011000
00000000
00010000
00000000
00000010
00001000
,
00000010
00010000
00000100
00001000
00000010
00000000
00000100
00000001
,
00000100
00000020
00000000
00001030
00000100
00010000
00001000
00000000
,
01000000
00010000
02000000
00000000
00000000
03100000
10000000
00000000
,
10010000
00010000
01000000
01001000
,
00001000
00000000
00010000
00000000
00000100
00000010
00000001
00000000
,
00001000
00000010
00010000
00000100
00001000
00000000
00000200
00000000
,
00010300
00001000
00100000
00010000
00000000
01000000
00100000
10000000
,
00000000
00100000
00010000
00000000
00002000
00000000
01003000
00001000
,
00010000
00000000
00001000
00010000
00000010
00000100
00000000
00000001
,
00002000
00000000
00003100
00000010
00000100
00010000
00001000
00000000
,
01001000
00000000
00000000
00000000
01000000
00010000
01000000
00010000
01000000
00000000
00000000
00000000
01000000
00000000
00000000
00000000
,
01000000
00001000
00001000
00001000
,
00010000
00000000
00000000
00000000
00010000
00000000
00001000
00010000
00001000
00000000
00010000
00000000
00000010
00000000
00001000
00000000
,
00000100
00000000
00000010
00000000
00000001
00000000
00001000
00000000
00000010
00010000
00000010
00010000
00000010
00010000
00000010
00010000
,
00001000
00010000
00001000
00010000
00001000
00010000
00001000
00010000
00001000
00000000
01000000
00000000
00010000
00000000
00100000
00000000
,
00001000
01000000
00010000
00000000
00100000
00001000
00010000
00000100
,
00010000
00001000
00100000
00000000
00001000
00010000
00000010
00000100
,
00001000
00010000
00000010
00000000
00001000
00000100
00010000
00000010
,
00001000
00000100
00010000
00000010
00000200
00000000
00000001
00000000
,
00000301
00000000
00000000
00000000
00001000
00000001
00001000
00000001
00000020
00000000
00000000
00000000
00000230
00000000
00000000
00000000
,
00020300
00000000
00031000
01000000
00100000
00010000
00100000
00000000
,
00100000
10000000
01000000
00000000
01000000
00010000
00001000
00010000
,
01000000
00010000
00001000
00000010
00000200
00000000
00001000
00000000
,
00001300
00000001
00000200
00000010
,
00000310
00000000
00001000
00000000
00000100
00010000
00001000
00000000
,
00001000
01000000
00100000
00000000
00100000
00010000
00001000
00010000
,
00100000
00010000
00001000
00000100
00000010
00002000
00000000
00003100
,
00010000
00000000
00001000
00000000
00100000
00000000
00010000
10000000
00010000
00000000
01000000
00000000
01000000
00000000
00100000
10000000
,
00100000
00000000
10000000
00000000
10000000
00000000
00010000
00100000
00020000
00000000
00000000
00000000
01030000
00000000
00001000
00000000
,
00010000
00000100
00001000
00000100
00000002
00000000
00000203
00000000
,
00020300
00000000
00030020
00000000
00001030
00000100
00020000
00000000
,
00031000
01000000
00200000
00000000
00310000
00001000
00010000
00100000
,
20000000
32000000
03200000
00001000
,
00320000
01000000
00230000
00001000
,
00301000
00010000
00001000
00010000
00000010
00000100
00001000
00010000
,
00000100
00001000
00010000
00100000
00001000
00010000
00100000
01000000
,
00010000
00100000
01000000
00000000
10000000
01000000
00100000
00010000
,
01000000
00100000
00010000
00001000
00100000
00010000
00001000
00000100
,
00010000
00001000
00000100
00000010
00002000
00000000
00003100
00000010
,
00000002
00000000
00000000
00000000
00001003
00000000
00000000
00000100
00020000
00000000
00000000
00000000
00031000
00000000
00000000
00100000
,
00002000
00000000
00000000
00000000
00013000
00000000
00000000
00000010
00020000
00000000
00000000
00000000
00000100
00000000
00000000
00000000
,
00001000
00000000
01030000
00100000
00020000
00000000
10030000
00100000
,
01000000
00000000
01100000
00000000
00100000
10000000
00010000
00100000
,
00001000
00000000
00011000
00000000
00010000
00000010
00000100
00000001
,
00001000
00000000
00001001
00000000
00000002
00000023
00002030
00023000
,
01030000
00000000
10010000
00000000
20000000
30200000
00320000
00032000
,
00003100
00000000
00000000
00000000
00000001
00000100
00000001
00000100
00000010
00000000
00001000
00000000
00010000
00000000
01000000
00000000
,
00100000
00000000
10100000
00000000
10000000
01000000
00100000
00010000
,
00001000
00000000
00001100
00000000
00000100
00000001
00000100
00010000
,
00001000
00011000
01000000
10010000
,
10000000
01000000
00000000
00000000
10000000
00010000
10000000
00010000
01000000
00000000
00100000
00000000
00010000
00000000
00001000
00000000
,
00000100
00000010
00000001
00000010
00000100
00001000
00010000
00100000
,
01000000
10000000
01000000
00000000
00010000
00100000
01000000
10000000
,
01000000
00100000
00010000
00001000
00000100
00000010
00000001
00000010
,
00000100
00001000
00010000
00000000
10000000
01000000
00010000
00001000
,
00000010
00000001
00001000
00000001
00000100
00001000
00010000
00100000
,
10000000
00010000
10000000
00000000
01000000
00010000
00001000
00000100
,
00000001
00001000
00000001
00000100
00001000
00010000
01000000
10000000
,
00010000
10000000
00100000
00000000
01000000
00001000
01000000
00010000
,
00100000
00001000
00020000
00000000
00030010
00010000
00002000
00000000
,
00103000
00001000
00020000
00000000
00030010
00001000
00000100
00000010
,
00000100
00010000
00000010
00001000
00000100
00000010
00000001
00001000
,
00000020
00000000
00010030
00000000
00000100
00010000
00001000
00100000
,
00001000
00010000
00000200
00000000
00010300
00001000
02000000
00000000
,
03001000
00010000
00000200
00000000
00010300
00001000
01000000
00100000
,
00010000
00001000
01000000
00100000
00010000
00100000
01000000
10000000
,
02000000
00000000
03010000
00000000
10000000
01000000
00010000
00001000
,
00020000
00000100
00000100
00000000
00032000
01000000
01000000
00000000
,
00023000
00000100
00000100
00000000
00031000
01000000
00100000
10000000
,
00020000
00100000
00100000
00000000
01030000
00001000
00010000
00000000
,
00022000
00000000
00033000
00000000
00001000
00010000
00000010
00010000
,
00002000
00100000
00100000
00000000
00023000
00000010
00000010
00000000
,
00032000
00100000
00100000
00000000
00013000
00000010
00001000
00000100
,
00000020
00000001
00000001
00000000
00000130
00010000
00001000
00000000
,
00011000
00000000
00000000
00000000
00010000
00001000
00010000
00001000
02000000
00000000
00000000
00000000
03100000
00000000
10000000
00000000
,
00020000
00000000
00130000
01000000
00010000
00001000
00000010
00000100
,
00002000
00000000
00003001
00000000
00001001
00000000
00001000
00000010
,
00010000
00000000
00000100
00000000
00010000
00000000
00001000
00000000
00100000
00000000
00010000
00100000
00010000
00000000
00100000
01000000
,
00100000
00000000
01000000
10000000
01000000
00000000
10000000
00010000
10000000
00000000
00010000
00000000
01000000
00000000
00001000
00000000
,
00010000
00000010
00000100
00001000
00010000
00000100
00001000
00010000
,
00100000
00010000
00001000
00000100
00000002
00000000
00000103
00000010
,
00000001
00000100
00001000
00010000
00000010
00001000
00010000
01000000
,
00100000
01100000
02000000
00010000
,
03200000
10000000
01300000
00001000
,
00010000
00000010
00002000
00000100
,
00003002
00000000
00000010
00000000
00001003
00000010
00001000
00000100
,
00010000
00001000
00010000
00000000
00002000
00000000
01000000
00000000
,
00023000
00000000
00000100
00000000
00031000
01000000
00100000
00010000
,
00001000
00010000
00100000
01000000
00002000
00000000
00100000
00000000
,
00023000
00000000
00000000
00000000
00000010
00000000
00000000
00000000
00031000
01000000
00001000
01000000
00001000
01000000
00010000
00000000
,
10000000
00010000
10000000
00010000
10000000
00010000
10000000
01000000
00100000
00000000
00001000
00000000
01000000
00000000
00010000
00000000
,
00100000
00001000
01000000
00010000
00200000
01000000
00000000
00010000
,
00000000
00001000
00000000
01300000
00100000
00001000
00010000
00000010
,
00001000
00000100
00010000
00000010
00002000
00000100
00000000
00000001
,
00000000
00000010
00000000
00003100
00010000
00001000
00100000
00010000
,
01000000
00001000
01000000
00010000
00200000
01000000
00000000
10000000
,
00000000
01000000
00000000
00310000
01000000
00100000
10000000
00010000
,
00100000
00001000
01000000
00010000
00200000
00001000
00000000
00010000
,
00000000
01000000
00000000
00310000
01000000
00001000
00010000
00000010
,
00010000
00000100
00001000
00000100
00000010
00001000
00010000
00000010
,
00001000
00010000
01000000
00100000
10000000
00010000
00100000
00001000
,
01000000
00100000
10000000
00100000
00010000
00001000
00100000
00010000
,
00001000
00000100
00000010
00001000
00000010
00000001
00000010
00001000
,
00000010
00000100
00001000
00000010
00000100
00001000
00010000
00000100
,
00001000
00000000
00010000
00000000
00001000
00000000
00000100
00000000
00010000
00000100
00010000
00000000
00001000
00010000
00001000
00000000
,
00100000
00001000
00100000
00000000
00010000
00100000
00010000
00000000
10000000
00010000
10000000
00010000
10000000
00010000
10000000
00000000
,
00010000
01000000
00010000
01000000
00010000
01000000
00010000
01000000
00001000
00000000
00010000
00000000
00000010
00000000
00001000
00000000
,
00000100
00000010
00000001
00001000
00000010
00001000
00010000
00001000
,
00000020
00000000
00000000
00020030
00000000
00000000
00030200
00000000
00001300
00000000
00010000
00000000
00100000
00000000
00010000
00000000
,
10000000
00100000
01000000
00100000
00010000
00000000
00010010
00000000
,
00001000
00101000
00200000
00000000
,
02300000
00000000
23000000
00000000
,
30020000
00000000
00032000
00000000
,
00003020
00000000
00000000
00000000
00000130
00000001
00001000
00000100
,
00010000
00000000
00000100
00000000
00001000
00000000
00000100
00000000
00010000
00001000
00010000
00001000
00010000
00001000
00010000
00001000
,
00010000
00001000
00100000
00001000
00100000
00001000
00100000
00001000
00100000
00000000
00010000
00000000
01000000
00000000
00100000
10000000
,
00100000
10000000
00100000
00000000
01000000
00000000
00010000
10000000
00010000
00000000
01000000
00000000
00001000
00000000
00100000
00000000
,
00001000
00010000
00001000
00010000
00001000
00010000
00001000
00000000
00010000
00000000
00000010
00001000
00000020
00000000
00000000
00000000
,
00001030
00000001
00001000
00000001
00001000
00000100
00001000
00000100
00010000
00000100
00010000
00000100
00010000
00000000
00001000
00000000
,
01000000
00100000
01000000
00000000
00010000
00000000
10000000
00000000
02000000
00000000
00000000
00000000
03100000
00000000
00002000
00000000
,
00000000
01003000
00020000
00000000
02030000
00000000
03001000
00020000
,
00000000
00030100
00000020
00000000
00000230
00000000
00010000
00000000
,
00002300
00000000
00000001
00000000
00003020
00000000
00010030
00000200
,
00000000
00010300
00001000
00100000
00020000
00000000
01030000
00100000
,
00000000
00010000
00001000
00000100
00000020
00000000
00001030
00000100
,
00000010
00000001
00001000
00000010
00000200
00000000
00001300
00010000
,
00000000
00100000
01000000
00010000
20000000
00000000
31000000
00010000
,
00001000
00010000
01000000
00100000
00002000
00000000
00013000
00000020
,
00000000
00000130
00001000
00000100
00000002
00000000
00001003
00000200
,
00000000
00010300
00001000
01000000
00200000
00000000
10000000
00000000
,
20300000
00000000
00010000
00000000
30010000
01000000
00001000
00010000
,
00000100
00001000
00000001
00000000
00000100
00000010
00001000
00000020
,
00000000
00010030
00000100
00010000
00002000
00000000
01000000
00000000
,
00010000
00000000
01003000
00000000
00010000
10000000
01000000
00200000
,
00000000
00310000
01000000
00001000
00020000
00000000
00000100
00000000
,
00001000
00000000
00000000
00000000
00030100
00000010
00000100
00000010
00000100
00000000
00001000
00000000
00000001
00000000
00000100
00000000
,
00000000
00000010
00010000
00000100
00010000
00000000
00011000
00000000
,
00001000
00000000
00000000
00000000
01001000
00000000
00000000
00000000
01000000
00100000
01000000
00100000
01000000
00100000
01000000
00000000
,
00010000
10000000
00010000
10000000
00010000
10000000
00010000
00000000
00100000
00001000
00100000
00001000
00100000
00001000
00100000
00001000
,
00010000
00001000
00010000
00001000
00010000
00001000
00010000
00001000
00010000
00000000
00000000
00000000
00010010
00000000
00000000
00000000
,
00000010
00001000
00000100
00000010
00000000
00000001
00001000
00000000
,
00000010
00010000
00000010
00000000
00001000
00000000
00001100
00000000
,
00000100
00010000
00001000
01000000
00000000
00010000
00100000
00000000
,
00010000
10000000
00010000
00000000
10000000
00000000
11000000
00000000
,
01000000
00100000
00001000
00010000
00000000
00000010
00001000
00000000
,
00000010
00000000
00000000
00000000
00000010
00000000
00000000
00000000
00000010
00000000
00000000
00000000
00001000
00000000
00000000
00000001
00000000
00000000
00000010
00000000
00000000
00000001
00000000
00000000
,
00001000
00000010
00010000
00002000
00000000
01003000
00010000
00100000
,
01000000
10000000
01000000
00100000
00010000
01000000
00001000
00010000
,
00000010
00010000
00000100
00002000
00000000
00003100
00000010
00000001
,
00001000
00000010
00000100
00000020
00000000
00000000
00001030
00000000
,
00000100
00010000
00001000
00200000
00000000
00000000
00310000
00000000
,
10000000
00100000
01000000
00001000
00100000
00010000
01000000
00001000
,
00100000
00001000
00010000
00000010
00002000
00000000
00003100
00000000
,
00010000
00001000
00100000
00010000
02000000
00000000
10000000
00000000
,
00100000
00000000
03010000
00000000
10000000
01000000
00010000
00001000
,
00000010
00000000
00000001
00000000
00001000
00000000
00000000
00000000
00000010
00001000
00000010
00000000
00001000
00000000
00000100
00000000
,
00010000
00001000
00010000
00001000
00010000
00000000
00002000
00000000
00000000
00000000
01003000
00000000
00010000
00000000
00100000
00000000
,
02000000
00000000
00000000
00000000
13000000
00000000
00000000
00000000
00010000
01000000
00010000
00000000
01000000
00000000
00001000
00000000
,
00010000
00001000
00010000
00001000
00010000
00000000
00002000
00000000
00000000
00000000
00013000
00000000
00000010
00000000
00001000
00000000
,
00000010
00000100
00000010
00000100
00000010
00000000
00001000
00000000
00000001
00000000
00000010
00000000
00000100
00000000
00010000
00000000
,
00000100
00000010
00000100
00010000
00001000
01000000
00010000
00001000
,
00010000
01000000
00010000
00100000
01000000
10000000
00010000
01000000
,
00100000
10000000
00100000
10000000
00100000
10000000
00100000
10000000
00200000
00000000
00000000
00000000
00000000
00000000
00000000
00000000
,
02300000
00000000
03000000
00000000
00011000
00000000
00010000
00001000
,
00100000
00000000
01000000
00000000
10000000
00000000
00100000
10000000
,
00010000
00000000
01000000
00100000
01000000
00000000
00010000
00000000
,
00100000
00001000
00010000
00000200
00000000
00000010
00000000
00001300
,
00000001
00000100
00001000
00000000
00010000
00100000
00010000
00100000
,
10000000
00010000
10000000
00000000
01000000
00010000
01000000
00010000
,
00001000
00010000
00001000
00000000
00000010
00001000
00000010
00001000
,
00000010
00000000
00000001
00000000
00000010
00000000
00000000
00000000
00000001
00000000
00000000
00001000
00000000
00000000
00000020
00000000
,
00000000
00000030
00001000
00001010
,
00001100
00000000
00000100
00020000
00000000
00000000
00031000
02000000
,
00000000
00000000
03010000
10000000
00010000
00000000
00110000
00000000
,
01010000
00000000
01000000
00002000
00000000
00000000
00013000
00000200
,
00000000
00000000
00001300
00000010
00000100
00000001
00000100
00000010
,
00010000
00000000
00011000
00000000
00001000
01000000
00100000
00000000
,
00010000
00001000
00010000
00100000
01000000
00010000
10000000
00000000
,
01000000
00010000
00001000
00000010
00000001
00001000
00000010
00000000
,
00000220
00000000
00000330
00000000
00000010
00010000
00001000
00100000
,
01000000
00010000
00001000
01000000
00010000
00001000
00010000
10000000
,
01000000
00100000
00010000
00000000
00001000
00000100
00000010
00000001
,
00000100
00001000
00010000
00000100
00001000
00010000
00100000
01000000
,
10000000
00010000
01000000
00000000
00200000
00000000
10300000
00010000
,
00100000
00010000
00100000
00010000
00100000
00000000
00001000
00000000
00011000
00000000
00000000
00000000
00010010
00000000
00000000
00000000
,
00000010
00000100
00000001
00001000
00000200
00000000
00010300
00000000
,
00002000
00000000
00103000
00000000
00010000
10000000
00010000
10000000
,
00020000
00000000
00030000
00000000
10000000
00200000
00000000
01300000
,
00001000
00020000
00000000
00030100
00010000
00002000
00000000
00103000
,
00001000
00020000
00000000
00030010
00000200
00000000
00001000
00000000
,
00000310
00001000
00000001
00001000
00000200
00000000
00010000
00000000
,
00002300
00000000
00003000
00000000
00000100
00001000
00000001
00000100
,
00001000
00010000
00100000
00000000
10000000
01000000
00010000
00001000
,
00010000
01000000
10000000
00010000
10000000
00100000
00010000
00001000
,
00000100
00000001
00001000
00000000
00000100
00000001
00000100
00001000
,
00000002
00000003
00001001
00001100
,
00000100
00010000
00001000
00100000
00010000
00000000
01010000
00000000
,
20020000
30030000
11000000
00110000
,
00010000
01000000
00001000
00010000
00000010
00001000
00000010
00001000
,
00000020
00000000
00000030
00000000
00000100
00000001
00000100
00000001
,
00001000
00000100
00001000
00000100
00010000
00001000
00010000
00001000
,
01000000
00010000
01000000
00010000
10000000
10000000
00010000
00010000
,
00100000
00001000
00100000
00001000
00010000
00001000
00010000
00000000
00000010
00000000
00001000
00000000
00000010
00000000
00000100
00000000
,
00000002
00000000
00000000
00000000
00001003
00000100
00001000
00000100
00020000
00000000
00000000
00000000
00000000
00000000
00000000
00000000
,
00000000
00000000
00030000
00000000
,
M000000M
M000000M
M000000M
M000000M
,
00001000
01000000
00010000
00000000
10000000
00000000
10000000
01000000
,
00010000
01000000
10000000
00200000
00000000
02000000
00300000
00000000
,
03010000
00100000
00001000
00000000
00010000
00000000
00010000
00000010
,
00001000
00000100
00000010
00000001
00000010
00000100
00001100
00000000
,
00002000
00003200
00020300
00031000
,
02000000
00000000
03020000
00000000
10030000
01000000
00010000
01000000
,
00100000
00001000
00020000
00000000
00030020
00000000
00001030
00000100
,
00000010
00000100
00010000
00001000
00000100
00000001
00001000
00001000
,
00000100
00010000
00002000
00000000
00203000
00000000
00310000
01000000
,
10000000
01000000
00010000
00200000
00000000
02000000
00300000
00000000
,
13000000
00010000
00010000
00000000
01000000
00001000
00001000
00000000
,
00010000
00000100
00000010
00000200
00000000
00001300
00000001
00000000
,
00000101
00000101
00001010
00001010
,
00001100
00001100
00010100
00010100
,
00011000
00011000
01001000
01001000
,
00110000
00000000
00000000
00000000
00110000
00000000
00000000
00000000
00010000
00000000
10000000
01000000
10000000
01000000
10000000
01000000
,
10000000
00000000
00010000
00000000
01000000
00010000
01000000
00000000
00010000
00000000
01000000
00000000
00001000
00010000
00001000
00000000
,
00010000
00000000
00000100
00000000
00001000
00000100
00001000
00000000
00000100
00000000
00000010
00000000
00000001
00000010
00000001
00000000
,
00001000
00000000
00000010
00000000
00001000
00000010
00001000
00000000
00000010
00000000
00010000
00000000
00000010
00010000
00000010
00000000
,
00010000
00000000
00001000
00000000
00010000
00001000
00010000
00000000
00001000
00000000
00100000
00000000
00010000
00100000
00010000
00000000
,
20000000
00000000
00000000
30100000
01000000
00001000
00020000
00000000
00000000
00030100
00001000
00000001
,
00000200
00000000
00000000
00000310
00010000
00001000
01000000
00001000
00010000
00000100
00010000
00001000
,
00011000
00000000
00000000
00000000
;
