#VERSION:0.83;
#TITLE:Summer Idol;
#SUBTITLE:;
#ARTIST:OSTER project;
#TITLETRANSLIT:;
#SUBTITLETRANSLIT:;
#ARTISTTRANSLIT:;
#GENRE:;
#ORIGIN:;
#CREDIT:;
#BANNER:Summer Idol.png;
#BACKGROUND:Summer Idol-bg.png;
#PREVIEWVID:;
#JACKET:Summer Idol-jacket.png;
#CDIMAGE:;
#DISCIMAGE:;
#LYRICSPATH:;
#CDTITLE:;
#MUSIC:Summer Idol.ogg;
#OFFSET:0.003000;
#SAMPLESTART:57.318001;
#SAMPLELENGTH:15.000000;
#SELECTABLE:YES;
#BPMS:0.000=180.000;
#STOPS:;
#DELAYS:;
#WARPS:;
#TIMESIGNATURES:0.000=4=4;
#TICKCOUNTS:0.000=4;
#COMBOS:0.000=1;
#SPEEDS:0.000=1.000=0.000=0;
#SCROLLS:0.000=1.000;
#FAKES:;
#LABELS:0.000=Song Start;
#BGCHANGES:;
#KEYSOUNDS:;
#ATTACKS:
;

//---------------dance-single - ----------------
#NOTEDATA:;
#CHARTNAME:;
#STEPSTYPE:dance-single;
#DESCRIPTION:;
#CHARTSTYLE:;
#DIFFICULTY:Hard;
#METER:13;
#RADARVALUES:0.515674,0.588903,0.132164,0.437792,0.053691,437.000000,421.000000,16.000000,53.000000,0.000000,0.000000,0.000000,0.000000,0.000000,0.515674,0.588903,0.132164,0.437792,0.053691,437.000000,421.000000,16.000000,53.000000,0.000000,0.000000,0.000000,0.000000,0.000000;
#CREDIT:Kekkle;
#NOTES:
0000
0000
0000
0000
,
0000
0000
0000
0000
,
0000
0000
0000
0000
,
0000
0000
0000
0000
,
0000
0000
0000
0000
0000
0000
0000
0002
,
0000
0000
0000
0000
,
2000
0000
0000
3003
,
0002
0000
1000
1000
0000
0000
1000
0000
,
0013
0100
1000
0001
,
0200
0000
0010
0010
0000
0000
0310
1000
,
0000
0001
0010
0100
,
2000
0000
3001
0200
0000
0010
0000
0310
,
0000
1000
0001
0010
,
0200
0000
0010
0010
0000
0310
0001
2000
,
0000
0000
0000
0000
3001
0000
0000
0000
1000
0000
0001
1000
0001
0000
0100
0000
,
0010
1010
0101
1001
,
1000
0010
0100
0002
0000
1000
0000
0013
,
0000
1100
0011
1001
,
0001
0010
0100
2000
0000
3001
0100
0010
,
1000
2000
0001
0000
0100
0000
3001
0000
,
0001
0000
0002
0000
1000
0000
0000
0000
0103
0000
0010
0100
0010
0000
1000
0000
,
0001
0010
0100
0002
0000
0000
0103
0010
,
0001
1000
0000
0001
0100
0010
1000
0001
,
1000
0100
0001
0100
1000
0000
0000
0020
,
0000
0130
0001
1000
0001
0010
0100
1000
,
0001
0100
0010
0002
0000
0000
0013
0100
,
0001
1000
0000
0001
0010
0100
0020
0000
,
0031
1000
0010
0100
0001
0000
0000
2000
,
0000
3100
0010
0001
1000
0010
0100
0010
,
0001
0010
1000
0200
0000
0000
0310
0001
,
0000
0000
0010
0000
0010
0000
0010
0000
0010
0000
0001
1000
0001
0000
1000
0000
,
0002
0000
1000
1000
0000
0000
0103
0000
,
2000
0000
0001
0001
0000
0000
3100
0000
,
0001
0000
1000
0010
0100
0001
0000
0010
,
1000
0010
0100
1000
0000
0001
0100
0010
,
2000
0000
0001
0001
0000
0000
3100
0000
,
0002
0000
1000
1000
0000
0000
0103
0000
,
1000
0000
0001
0010
0100
1000
0000
0010
,
0001
0010
0100
0001
0000
1000
0100
0010
,
0001
1000
0010
0100
0010
0000
0000
2000
,
0000
3001
0010
0100
0010
0001
0100
0020
,
0000
0000
1030
1000
0001
0010
0100
0010
,
0000
0000
0001
0000
1000
0000
1000
0000
0010
0000
0010
0100
0010
0000
1000
0000
,
0002
0100
1000
0013
,
1000
0000
0000
0000
0100
0000
0010
0000
0001
0000
1000
0100
1000
0000
1000
0000
,
0002
0103
2000
3010
,
0002
0000
0013
0000
2000
0000
3100
0010
,
0001
1000
0010
0100
,
0001
0000
1000
1100
0000
0101
0000
1002
,
0000
0000
0010
0000
1003
0010
0010
0100
,
0000
0000
0010
0110
0000
1001
0000
0000
,
0002
0000
0013
0000
1000
0100
0000
0120
,
0000
0031
1000
0100
0000
0010
0001
0000
,
2000
0000
3010
0000
0001
0100
0000
0120
,
0000
0000
0000
0000
1030
0000
0010
1000
0010
0000
1000
0000
0001
0000
0000
0000
,
2000
0000
3100
0000
0001
0010
0100
0000
,
1000
2000
0000
0000
3001
0000
1001
0000
,
1000
0000
0100
0000
0010
0001
1000
0020
,
0000
0000
0130
0000
0001
0000
1000
0000
0100
0000
0010
0001
0010
0000
0001
0000
,
2000
0000
3010
0000
0100
0001
1000
0000
,
0001
0002
0000
0000
1003
0000
0100
0020
,
0000
0000
0031
1000
0010
0100
0010
1000
,
0000
0000
0001
0000
1000
0000
1000
0000
0100
0000
0100
0010
0100
0000
0010
0000
,
0001
0100
1000
0100
0001
0000
0000
2000
,
0000
3100
0010
0001
1000
0010
0100
0001
,
1000
0100
0010
2000
0000
0010
0000
3010
,
0000
0001
1000
0001
0010
0100
0010
0001
,
1000
0010
0001
0010
1000
0000
0000
0002
,
0000
1003
0100
0010
0100
1000
0001
0100
,
0001
0010
0100
0002
0000
0103
0010
0001
,
1000
0100
1000
0020
0000
0130
0001
1000
,
0002
0000
0010
0010
0010
0000
0000
2003
,
0000
3001
0010
0100
0001
0100
1000
0001
,
2000
0000
0010
0010
0010
0000
0000
3002
,
0000
1003
0010
0100
1000
0100
0001
1000
,
0001
0010
0100
1000
0001
0001
1000
1000
,
0000
0010
1000
0100
0001
0100
1000
0000
,
0002
1000
1000
0000
0010
0000
1003
0000
,
0001
0000
0010
0000
0100
0000
1000
0000
0000
0000
0000
0001
1000
0001
1000
0000
,
0000
0000
2002
0000
,
0000
0000
0000
0000
,
0000
0000
0000
0000
,
0000
0000
0000
3003
,
0000
0000
0000
0000
0000
0000
0000
0000
0120
0000
0000
0000
0000
0000
0000
0000
0000
0000
0000
0000
0000
0000
0000
0000
0000
0000
0000
0000
0000
0000
0000
0000
0000
0130
0000
0000
0010
0000
0000
0100
0000
0000
0010
0000
0000
0000
0000
0000
;

//---------------dance-single - ----------------
#NOTEDATA:;
#CHARTNAME:;
#STEPSTYPE:dance-single;
#DESCRIPTION:;
#CHARTSTYLE:;
#DIFFICULTY:Medium;
#METER:9;
#RADARVALUES:0.329229,0.415077,0.074342,0.396491,0.004130,279.000000,270.000000,9.000000,48.000000,0.000000,0.000000,0.000000,0.000000,0.000000,0.329229,0.415077,0.074342,0.396491,0.004130,279.000000,270.000000,9.000000,48.000000,0.000000,0.000000,0.000000,0.000000,0.000000;
#CREDIT:Kekkle;
#NOTES:
0000
0000
0000
0000
,
0000
0000
0000
0000
,
0000
0000
0000
0000
,
0000
0000
0000
0000
,
0000
0000
0000
0000
,
0000
0000
0000
0000
,
2000
0000
0000
3000
,
0001
0100
0000
0100
,
0001
2000
3200
0320
,
0032
0000
0000
0000
0000
0000
1003
1000
,
0000
0002
0203
0320
,
2030
0000
3001
1000
0000
1000
0000
1000
,
0000
0002
0023
0230
,
2300
0000
0000
0000
0000
3010
0000
0020
,
0000
0000
0000
0030
,
1000
0100
0100
0000
,
0010
0000
0010
0001
0000
1001
0000
1001
,
0000
1000
1000
0000
,
0010
0000
0010
0100
0000
0001
1000
0000
,
0002
1000
1000
1003
,
2000
0001
0001
3001
,
0100
0000
0010
0002
0000
0000
0003
0000
,
0010
0000
1000
0001
1000
0000
0100
0000
,
0010
0000
0001
0000
0100
0000
0000
0020
,
0000
1030
0001
0010
,
0100
0000
0010
2000
0000
0000
3000
0000
,
0010
0000
0100
0010
0100
0000
1000
0000
,
0001
0000
0100
0000
0100
0000
0000
0020
,
0000
0130
0001
1000
,
0010
0000
0001
0020
0000
0000
0030
0000
,
0000
0100
0001
0100
0001
0000
1000
0000
,
0002
1000
0000
0013
,
2000
0001
0000
3010
,
0001
1000
0100
0001
,
0010
0000
1000
0001
0000
0000
0001
0000
,
2000
0001
0000
3100
,
0002
1000
0000
0103
,
1000
0001
0010
1000
,
0100
0000
0001
1000
0000
0000
0001
0000
,
0100
0000
0010
0000
0010
0000
0000
2000
,
0000
0000
3001
0000
0010
0000
1000
0200
,
0000
0010
1000
0310
,
0000
0001
0001
0001
,
0000
1000
0010
0100
,
1000
0100
0001
1000
,
0002
0003
0020
0030
,
2000
3000
0200
0300
,
0001
1000
0010
0100
,
0001
0000
1000
0100
0000
0110
0000
1002
,
0000
0000
1000
0000
0103
0000
0000
0200
,
0000
0000
0310
1000
0000
1001
0000
0000
,
0001
0000
0010
0000
1000
0100
0000
0020
,
0000
0000
0000
0031
0000
0010
0001
0000
,
1000
0000
0010
0000
0001
0100
0000
0020
,
0000
0000
0130
0000
0001
1000
0001
0000
,
0010
0100
1000
1000
,
0001
0001
0000
0000
0000
0000
1001
0000
,
0001
0000
0100
0000
0010
0000
1000
0002
,
0000
0000
0013
0000
1000
0100
1000
0000
,
0001
0100
0010
0010
,
0100
0100
0000
0000
0000
0000
1001
0000
,
0001
1000
0100
0100
,
0000
0010
0001
0010
0001
0010
0001
0000
,
1000
0000
0010
0000
0010
0000
0000
0200
,
0000
0301
1000
0001
,
0010
0100
0010
0200
0000
0000
0000
1300
,
0000
0001
1000
0000
0010
0000
0100
0000
,
0001
0000
1000
0000
1000
0000
0000
0200
,
0000
0310
0001
1000
,
0100
0010
0100
0020
0000
0000
0031
0000
,
1000
0010
1000
0010
0000
0000
0100
0000
,
0002
0000
1000
0000
0103
0000
0000
1000
,
0000
0001
0010
0100
,
2000
0000
0001
0000
3100
0000
0000
0001
,
0000
1000
0010
0100
,
0001
0000
1000
0000
0001
1000
0001
1000
,
0000
0000
0001
0000
0010
0001
0010
0000
,
0002
0000
1000
0103
,
0010
0000
0100
0000
0010
0000
0200
0000
0000
0000
0000
0300
0000
0000
0000
0000
,
0000
0000
2002
0000
,
0000
0000
0000
0000
,
0000
0000
0000
0000
,
0000
0000
3003
0000
,
0000
0000
0220
0000
0000
0000
0000
0000
0000
0330
0000
0000
;

//---------------dance-single - ----------------
#NOTEDATA:;
#CHARTNAME:;
#STEPSTYPE:dance-single;
#DESCRIPTION:;
#CHARTSTYLE:;
#DIFFICULTY:Easy;
#METER:6;
#RADARVALUES:0.244267,0.311307,0.057822,0.165205,0.004130,207.000000,200.000000,7.000000,20.000000,0.000000,0.000000,0.000000,0.000000,0.000000,0.244267,0.311307,0.057822,0.165205,0.004130,207.000000,200.000000,7.000000,20.000000,0.000000,0.000000,0.000000,0.000000,0.000000;
#CREDIT:Kekkle;
#NOTES:
0000
0000
0000
0000
,
0000
0000
0000
0000
,
0000
0000
0000
0000
,
0000
0000
0000
0000
,
0000
0000
0000
0000
,
0000
0000
0000
0000
,
2000
0000
0000
3000
,
1002
0000
0000
0003
,
0000
1000
0001
1000
,
0020
0000
0000
0000
0030
0000
0000
0100
,
0000
0001
1000
0100
,
0010
0000
0000
0001
0000
0001
0000
0001
,
0000
1000
0010
0100
,
0002
0000
0000
0000
0003
0000
0000
2000
,
0000
0000
0000
3000
,
0000
0001
0010
1000
,
0100
0000
0001
0000
0000
0010
0000
0010
,
0000
0001
0100
1000
,
0010
0001
0100
0100
,
0020
0000
0000
0030
,
0200
0000
0000
0300
,
0001
0100
1000
0000
,
0100
0001
0100
0010
,
1000
0001
0010
0000
,
0001
0000
1000
0000
,
0001
0010
1000
0000
,
0010
0001
1000
0010
,
0100
0001
1000
0000
,
0001
0000
1000
0000
,
0100
0010
0200
0000
,
0300
1000
1000
0000
,
1001
1000
0000
1000
,
0100
0010
0000
0010
,
0001
1000
1000
0000
,
0010
0100
0010
0000
,
0100
0001
0000
0001
,
1000
0100
0000
0100
,
0010
0001
0001
0000
,
1000
0001
1000
0000
,
0010
0000
0100
0000
,
0010
1000
0001
0010
,
2000
0000
0000
3000
,
0000
0010
0010
0010
,
0000
0001
1000
0001
,
0000
0100
0010
0100
,
0001
0000
0100
0000
,
1000
0000
0010
0000
,
0000
0001
1000
0100
,
0010
0000
0000
0001
0000
0001
0000
0002
,
0000
0000
0000
0003
,
0000
0000
0000
1000
0000
1001
0000
0000
,
0001
0000
0010
0000
1000
0000
0000
0200
,
0000
0000
0000
0300
0000
0000
0010
0000
,
0001
0000
0100
0000
1000
0000
0000
0020
,
0000
0000
0030
0100
,
0001
0000
1000
0001
,
1000
1000
0000
0000
0000
0000
1001
0000
,
0001
0000
0100
0000
0010
0000
1000
0020
,
0000
0030
0100
0001
,
0100
0010
0100
0100
,
0010
0010
0000
0000
0000
0000
1001
0000
,
1000
0001
0010
0100
,
0000
1000
1000
1000
,
0001
0010
0100
0000
,
1000
0000
0001
0000
,
1000
0010
0001
0000
,
0010
1000
0001
0001
,
1000
0100
0010
0000
,
0001
0000
1000
0000
,
0001
0010
1000
0000
,
0010
0001
0000
1000
,
0020
0000
0130
0000
,
0001
1000
0001
0001
,
0020
0000
0130
0000
,
1000
0001
1000
1000
,
0001
0000
0100
0000
0010
0000
0000
0100
,
0000
0000
0000
0000
,
0000
0001
0001
0001
,
1000
0000
0000
0020
0000
0000
0030
0000
,
0000
0000
2002
0000
,
0000
0000
0000
0000
,
0000
0000
0000
0000
,
0000
0000
3003
0000
,
0000
0000
0220
0000
0000
0000
0000
0000
0000
0330
0000
0000
;

//---------------dance-single - ----------------
#NOTEDATA:;
#CHARTNAME:;
#STEPSTYPE:dance-single;
#DESCRIPTION:;
#CHARTSTYLE:;
#DIFFICULTY:Beginner;
#METER:3;
#RADARVALUES:0.129804,0.206093,0.049561,0.156944,0.000000,110.000000,104.000000,6.000000,19.000000,0.000000,0.000000,0.000000,0.000000,0.000000,0.129804,0.206093,0.049561,0.156944,0.000000,110.000000,104.000000,6.000000,19.000000,0.000000,0.000000,0.000000,0.000000,0.000000;
#CREDIT:Kekkle;
#NOTES:
0000
0000
0000
0000
,
0000
0000
0000
0000
,
0000
0000
0000
0000
,
0000
0000
0000
0000
,
0000
0000
0000
0000
,
0000
0000
0000
0000
,
0000
0000
0000
0000
,
0002
0000
0003
0000
,
0000
0000
1000
0000
,
2000
0000
3000
0000
,
0010
0000
0100
0000
,
0001
0000
1000
0000
,
1000
0000
0000
0000
,
0200
0000
0300
0000
,
0020
0000
0030
0000
,
0000
0000
0001
0000
,
1000
0000
0001
0000
,
0000
0000
0100
0000
,
0010
0000
0100
0000
,
1001
0000
0000
0000
,
1001
0000
0000
0000
,
0001
0000
0001
0000
,
0010
0000
0000
0000
,
0001
0000
1000
0000
,
0001
0000
0100
0000
,
0010
0000
0010
0000
,
1000
0000
0000
0000
,
0001
0000
0010
0000
,
0001
0000
1000
0000
,
0010
0000
0010
0000
,
0000
0000
1001
0000
,
1000
0000
0100
0000
,
1000
0000
0001
0000
,
0100
0000
0100
0000
,
0010
0000
0010
0000
,
1000
0000
0001
0000
,
0010
0000
0001
0000
,
1000
0000
1000
0000
,
0001
0000
0001
0000
,
0100
0000
0000
0000
,
0010
0000
0000
0000
,
2002
0000
0000
0000
,
3003
0000
0000
0000
,
0001
0000
1000
0000
,
0001
0000
1000
0000
,
0200
0000
0300
0000
,
0020
0000
0030
0000
,
0000
0000
0001
0000
,
1000
0000
0010
0000
,
0200
0000
0000
0000
,
0300
0000
0001
0000
,
1000
0000
1000
0000
,
0200
0000
0300
0000
,
0001
0000
0001
0000
,
0200
0000
0300
0000
,
1000
0000
1000
0000
,
0001
0000
0000
0000
,
0200
0000
0000
0000
,
0300
0000
0000
0000
,
0010
0000
0100
0000
,
0010
0000
0000
0000
,
2002
0000
0000
0000
,
3003
0000
0000
0000
,
0001
0000
1000
0000
,
0001
0000
0100
0000
,
0010
0000
0010
0000
,
1000
0000
0000
0000
,
0100
0000
1000
0000
,
0100
0000
0010
0000
,
0001
0000
0001
0000
,
1000
0000
0000
0000
,
0020
0000
0030
0000
,
1000
0000
1000
0000
,
0200
0000
0300
0000
,
0010
0000
0010
0000
,
0001
0000
0001
0000
,
1000
0000
0000
0000
,
0020
0000
0000
0000
,
0000
0000
0000
0030
,
0000
0000
2002
0000
,
0000
0000
0000
0000
,
0000
0000
0000
0000
,
0000
0000
0000
0000
,
0000
0000
3003
0000
0000
0000
0000
0000
0000
0000
0000
0000
;

//---------------dance-double - ----------------
#NOTEDATA:;
#CHARTNAME:;
#STEPSTYPE:dance-double;
#DESCRIPTION:;
#CHARTSTYLE:;
#DIFFICULTY:Hard;
#METER:13;
#RADARVALUES:0.500334,0.554261,0.132164,0.479093,0.057822,424.000000,408.000000,16.000000,58.000000,0.000000,0.000000,0.000000,0.000000,0.000000,0.500334,0.554261,0.132164,0.479093,0.057822,424.000000,408.000000,16.000000,58.000000,0.000000,0.000000,0.000000,0.000000,0.000000;
#CREDIT:Kekkle;
#NOTES:
00000000
00000000
00000000
00000000
,
00000000
00000000
00000000
00000000
,
00000000
00000000
00000000
00000000
,
00000000
00000000
00000000
00000000
,
00000000
00000000
00000000
00000000
00000000
00000000
00000000
00002000
,
00000000
00000000
00000000
00000000
,
00020000
00000000
00000000
00033000
,
00002000
00000000
01000000
01000000
00000000
00000000
01003000
00000000
,
00001000
00010000
01000000
00100000
,
00020000
00000000
10000000
10000000
00000000
00000000
01030000
00001000
,
00000000
00010000
00000100
00000010
,
00000002
00000000
00001003
00000020
00000000
00000100
00000000
00000130
,
00000000
00000001
00001000
00000010
,
00020000
00000000
00000010
00000010
00000000
00031000
00100000
00002000
,
00000000
00000000
00000000
00000000
00000000
00000000
00000000
00000000
01003000
00000000
00010000
01000000
00010000
00000000
10000000
00000000
,
01000000
01100000
00101000
00011000
,
00010000
00001000
00000100
00000020
00000000
00000001
00000000
00000130
,
00000000
00000110
00010010
00011000
,
00001000
00010000
01000000
00200000
00000000
00310000
00100000
01000000
,
00010000
00020000
00000010
00000000
00001000
00000000
00000010
00000000
,
00031000
00000000
00002000
00000000
00100000
00000000
00000000
00000000
00013000
00000000
00000100
00010000
00000100
00000000
00001000
00000000
,
00000001
00001000
00000100
00000002
00000000
00000000
00000103
00001000
,
00000001
00000100
00000000
00000010
00010000
00000010
00001000
00000100
,
00010000
00001000
00000100
00001000
00010000
00000000
00000000
00200000
,
00000000
10300000
00010000
10000000
01000000
00100000
00010000
01000000
,
00001000
00010000
00100000
20000000
00000000
00000000
30010000
01000000
,
00100000
10000000
00000000
00010000
00100000
00001000
00010000
00000010
,
00001000
00000100
00010000
00000100
00001000
00000000
00000000
00000002
,
00000000
00000013
00000100
00001000
00000010
00000100
00001000
00010000
,
00100000
00010000
00001000
00200000
00000000
00000000
00310000
10000000
,
00000000
00000000
00100000
00000000
00100000
00000000
00100000
00000000
00100000
00000000
10000000
00010000
10000000
00000000
01000000
00000000
,
00020000
00000000
01000000
01000000
00000000
00000000
00031000
00000000
,
00002000
00000000
00000100
00000100
00000000
00000000
00013000
00000000
,
00010000
00000000
00000100
00001000
00000001
00001000
00000000
00000010
,
00000001
00000010
00001000
00000100
00000000
00000010
00001000
00010000
,
00002000
00000000
00000010
00000010
00000000
00000000
00013000
00000000
,
00020000
00000000
00100000
00100000
00000000
00000000
00031000
00000000
,
00001000
00000000
01000000
00010000
10000000
00010000
00000000
00100000
,
10000000
00100000
00010000
01000000
00000000
00001000
00010000
00000010
,
00000100
00000001
00001000
00000100
00000010
00000000
00000000
00000002
,
00000000
00000103
00001000
00010000
01000000
00010000
00002000
00020000
,
00000000
00000000
00000000
00033000
,
00000000
00000000
00001000
00000000
00100000
00000000
00100000
00000000
00010000
00000000
00010000
10000000
00010000
00000000
10000000
00000000
,
02000000
00010000
00100000
13000000
,
00010000
00000000
00000000
00000000
01000000
00000000
00001000
00000000
00010000
00000000
00010000
00000010
00010000
00000000
00000010
00000000
,
00000200
00000301
00000020
00001030
,
00020000
00000000
00000000
00000000
01030000
00000000
00000000
00000000
10000000
00000000
00010000
10000000
00010000
00000000
01000000
00000000
,
00100000
20000000
30020000
00230000
,
00301000
00000000
00010000
00010010
00000000
00000110
00000000
00001002
,
00000000
00000000
00000010
00000000
00001003
00000010
00000010
00000200
,
00000000
00000000
00000301
00001001
00000000
00020100
00000000
00000000
,
00031000
00000000
01000000
00000000
10000000
01000000
00000000
01020000
,
00000000
01030000
00001000
00020000
00000000
00000000
00030100
00000000
,
00010000
00000000
00000100
00000000
00000001
00000100
00000000
00002100
,
00000000
00000000
00000000
00000000
00003100
00000000
00010000
00000100
00010000
00000000
00001000
00000000
01000000
00000000
00000000
00000000
,
00020000
00000000
10030000
00000000
00010000
01000000
00100000
00000000
,
10000000
20000000
00000000
00000000
00000000
00000000
30010000
00000000
,
10010000
00000000
10000000
00000000
01000000
00100000
00001000
00020000
,
00000000
00000000
00031000
00000000
00100000
00000000
00001000
00000000
00010000
00000000
00000010
00001000
00000010
00000000
00000100
00000000
,
00000002
00000000
00002003
00000000
00003100
00000010
00000000
00000002
,
00000000
00000000
00001003
00000000
00000010
00000000
00020000
00002000
,
00000000
00000000
00000000
00033000
,
00000000
00000000
00001000
00000000
01000000
00000000
01000000
00000000
00100000
00000000
00100000
10000000
00100000
00000000
10000000
00000000
,
00010000
00100000
00001000
00100000
00010000
00000000
00000000
20000000
,
00000000
30100000
01000000
00001000
00010000
00000100
00001000
00000100
,
00010000
00001000
00000100
00000002
00000000
00000010
00000000
00001003
,
00000000
00000001
00001000
00000100
00010000
00000010
00001000
00000010
,
00010000
00001000
01000000
00010000
00100000
00000000
00000000
00020000
,
00000000
10030000
00010000
01000000
00001000
00010000
00001000
00100000
,
00010000
10000000
00100000
00020000
00000000
00031000
01000000
00010000
,
00100000
00001000
00010000
00000020
00000000
00001030
00000001
00000010
,
00000200
00000000
00010000
00010000
00010000
00000000
00000000
00000320
,
00000000
00000031
00001000
00000010
00000100
00001000
00010000
00100000
,
02000000
00000000
00001000
00001000
00001000
00000000
00000000
03200000
,
00000000
10300000
00010000
00100000
01000000
00010000
00001000
00010000
,
00000010
00001000
00000001
00000100
00000010
00000010
00001000
00001000
,
00000000
00000001
00001000
00000100
00000010
00001000
00010000
00000000
,
00000020
00000100
00000100
00000000
00001000
00000000
00010030
00000000
,
00001000
00000000
00010000
00000000
01000000
00000000
10000000
00000000
00000000
00000000
00000000
00010000
10000000
00010000
10000000
00000000
,
00000000
00000000
20020000
00000000
,
00000000
00000000
00000000
00000000
,
00000000
00000000
00000000
00000000
,
00000000
00000000
30030000
00000000
,
00000000
00000000
00000000
00000000
00000000
00000000
00000000
00000000
00021000
00000000
00000000
00000000
00000000
00000000
00000000
00000000
00000000
00000000
00000000
00000000
00000000
00000000
00000000
00000000
00000000
00000000
00000000
00000000
00000000
00000000
00000000
00000000
00000000
00031000
00000000
00000000
00010000
00000000
00000000
00001000
00000000
00000000
00010000
00000000
00000000
00000000
00000000
00000000
;

//---------------dance-double - ----------------
#NOTEDATA:;
#CHARTNAME:;
#STEPSTYPE:dance-double;
#DESCRIPTION:;
#CHARTSTYLE:;
#DIFFICULTY:Medium;
#METER:9;
#RADARVALUES:0.315069,0.380487,0.057822,0.313889,0.004130,267.000000,260.000000,7.000000,38.000000,0.000000,0.000000,0.000000,0.000000,0.000000,0.315069,0.380487,0.057822,0.313889,0.004130,267.000000,260.000000,7.000000,38.000000,0.000000,0.000000,0.000000,0.000000,0.000000;
#CREDIT:Kekkle;
#NOTES:
00000000
00000000
00000000
00000000
,
00000000
00000000
00000000
00000000
,
00000000
00000000
00000000
00000000
,
00000000
00000000
00000000
00000000
,
00000000
00000000
00000000
00000000
,
00000000
00000000
00000000
00000000
,
00000002
00000000
00000000
00000003
,
00001000
00000100
00000000
00000100
,
00010000
00001000
01000000
00100000
,
20000000
00000000
00000000
00000000
00000000
00000000
30010000
00010000
,
00000000
00100000
00001000
00010000
,
00000010
00000000
00000000
00000100
00000000
00000100
00000000
00000100
,
00000000
00000001
00001000
00000100
,
00020000
00000000
00000000
00000000
00000000
00130000
00000000
00200000
,
00000000
00000000
00000000
00300000
,
00000000
10000000
00100000
01000000
,
00001000
00000000
00010000
00001000
00000000
00011000
00000000
00011000
,
00000000
00010000
00000100
00000010
,
00000001
00000000
00001000
00000010
00000000
00000000
00000100
00000000
,
00000002
00001000
00001000
00001003
,
00002000
00000001
00000001
00003001
,
00000001
00000000
00000100
00002000
00000000
00000000
00003000
00000000
,
00010000
00100000
10000000
00010000
,
00100000
00000000
01000000
00000000
01000000
00000000
00000000
20000000
,
00000000
30010000
00100000
00001000
,
00010000
00000000
00001000
00000200
00000000
00000000
00000300
00000000
,
00000010
00001000
00000001
00000100
,
00000001
00000000
00000010
00000000
00000010
00000000
00000000
00000200
,
00000000
00010300
00001000
01000000
,
00100000
00000000
00010000
00200000
00000000
00000000
00300000
00000000
,
00000000
10000000
00010000
10000000
00010000
00000000
00100000
00000000
,
00002000
00100000
00000000
00013000
,
00020000
00000010
00000000
00031000
,
00010000
00000010
00000100
00000100
,
00000001
00000000
00001000
00000010
00000000
00000000
00010000
00000000
,
00002000
01000000
00000000
00013000
,
00020000
00000100
00000000
00031000
,
00010000
01000000
00100000
00100000
,
00010000
00000000
10000000
00100000
00000000
00000000
01000000
00000000
,
00001000
00000000
00010000
00000000
00010000
00000000
00000000
00000020
,
00000000
00000000
00000130
00000000
00000001
00000000
00000100
00002000
,
00000000
00000000
00000000
00003000
,
00000000
00010000
00010000
00010000
,
00001000
01000000
00010000
00100000
,
10000000
00100000
01000000
10000000
,
00020000
00030000
02000000
03000000
,
00002000
00003000
00000200
00000300
,
00000000
00000001
00000010
00000100
,
00000010
00000000
00000001
00001000
00000000
00000010
00000000
00020010
,
00000000
00000000
00001000
00000000
00031000
00000000
00000000
00002000
,
00000000
00000000
01003000
00100000
00000000
00100000
00000000
00000000
,
10000000
00000000
01000000
00000000
00010000
00001000
00000000
00020000
,
00000000
00000000
00000000
00031000
00000000
00000000
00000010
00000000
,
00000001
00000000
00000100
00000000
00001000
00010000
00000000
00002000
,
00000000
00000000
00013000
00000000
00001000
01000000
00001000
00000000
,
00100000
00010000
00100000
01000000
,
10000000
10000000
00000000
00000000
00000000
00000000
10010000
00000000
,
00010000
00000000
01000000
00000000
00001000
00000000
00010000
00000200
,
00000000
00000000
00000310
00000000
00000001
00001000
00000001
00000000
,
00000100
00000010
00010000
00010000
,
00001000
00001000
00000000
00000000
00000000
00000000
00011000
00000000
,
00001000
01000000
00100000
00100000
,
00000000
10000000
10000000
10000000
,
00010000
00000000
01000000
00000000
01000000
00000000
00000000
00002000
,
00000000
00013000
00000100
00000010
,
00000001
00001000
00000001
00001000
00000000
00000010
00000000
00000010
,
00000000
00010000
00001000
00100000
,
00010000
00000000
10000000
00000000
10000000
00000000
00000000
00200000
,
00000000
01300000
00001000
00010000
,
00000100
00001000
00000100
00001000
00000000
00000000
00000001
00000000
,
00001000
00000010
00001000
00000010
00000000
00000000
00010000
00000000
,
00002000
00000000
00100000
00000000
00103000
00000000
00000000
00200000
,
00000000
00310000
01000000
00001000
,
00020000
00000000
00000010
00000000
00030010
00000000
00000000
00000020
,
00000000
00001030
00000100
00010000
,
00001000
00000000
00001000
00000000
00010000
00001000
00010000
00001000
,
00000000
00000000
01000000
00000000
00100000
01000000
00100000
00000000
,
02000000
00000000
00010000
03100000
,
10000000
00010000
10000000
00020000
00000000
00000000
00030000
00000000
,
00000000
00000000
20020000
00000000
,
00000000
00000000
00000000
00000000
,
00000000
00000000
00000000
00000000
,
00000000
00000000
30030000
00000000
,
00000000
00000000
00022000
00000000
00000000
00000000
00000000
00000000
00000000
00033000
00000000
00000000
;

//---------------dance-double - ----------------
#NOTEDATA:;
#CHARTNAME:;
#STEPSTYPE:dance-double;
#DESCRIPTION:;
#CHARTSTYLE:;
#DIFFICULTY:Easy;
#METER:6;
#RADARVALUES:0.241907,0.276718,0.057822,0.165205,0.004130,205.000000,198.000000,7.000000,20.000000,0.000000,0.000000,0.000000,0.000000,0.000000,0.241907,0.276718,0.057822,0.165205,0.004130,205.000000,198.000000,7.000000,20.000000,0.000000,0.000000,0.000000,0.000000,0.000000;
#CREDIT:Kekkle;
#NOTES:
00000000
00000000
00000000
00000000
,
00000000
00000000
00000000
00000000
,
00000000
00000000
00000000
00000000
,
00000000
00000000
00000000
00000000
,
00000000
00000000
00000000
00000000
,
00000000
00000000
00000000
00000000
,
00000000
00000000
00000000
00000000
,
20010000
00000000
00000000
30000000
,
00000000
00010000
01000000
00001000
,
00020000
00000000
00000000
00000000
00030000
00000000
00000000
00001000
,
00000000
00010000
00000010
00000000
,
00000100
00000000
00000000
00000001
00000000
00000001
00000000
00000001
,
00000000
00001000
00000100
00000000
,
00020000
00000000
00000000
00000000
00030000
00000000
00000000
00002000
,
00000000
00000000
00000000
00003000
,
01000000
00010000
01000000
10000000
,
00100000
00000000
00010000
00000000
00000000
01000000
00000000
01000000
,
00000000
00001000
00010000
00000100
,
00000001
00000010
00001000
00000001
,
00000200
00000000
00000000
00000300
,
00000020
00000000
00000000
00000030
,
00001000
00000010
00000001
00000000
,
00000010
00010000
00001000
00100000
,
00010000
10000000
00100000
00000000
,
01000000
00000000
00001000
00000000
,
00010000
01000000
10000000
00000000
,
00010000
00100000
00001000
00010000
,
00000010
00000100
00000001
00000000
,
00001000
00000000
00000010
00000000
,
00010000
00001000
00020000
00030000
,
00000000
00001000
00001000
00000000
,
00100000
00010000
00100000
00000000
,
00010000
10000000
00010000
00000000
,
10000000
00100000
00010000
01000000
,
10000000
00010000
00010000
00000000
,
00100000
00001000
00001000
00000000
,
00010000
00000010
00000010
00000000
,
00001000
00000010
00000001
00000100
,
00001000
00000001
00000001
00000000
,
00000010
00000100
00000010
00000000
,
00000001
00001000
00000010
00000000
,
00020000
00000000
00000000
00030000
,
00000000
00001000
00001000
00001000
,
00000000
01000000
00010000
01000000
,
00100000
10000000
00010000
00000000
,
00100000
00000000
00001000
00000000
,
00000010
00000000
00000001
00000000
,
00000000
00001000
00000010
00010000
,
00001000
00000000
00000000
00010000
00000000
00010000
00000000
00022000
,
00000000
00000000
00000000
00000000
,
00033000
00000000
00000000
00001000
00000000
00011000
00000000
00000000
,
00001000
00000000
01000000
00000000
00100000
00000000
00000000
20000000
,
00000000
00000000
00000000
30000000
00000000
00000000
01000000
00000000
,
00100000
00000000
00001000
00000000
00010000
00000000
00000000
00000020
,
00000000
00000000
00000030
00000100
,
00000001
00001000
00000100
00000000
,
00010000
00010000
00000000
00000000
00000000
00000000
00011000
00000000
,
00001000
01000000
00001000
00000000
,
00100000
00010000
00100000
00000000
,
00010000
00010000
10000000
00000000
,
00100000
00100000
00000000
00000000
00000000
00000000
01100000
00000000
,
01000000
00001000
00010000
00000000
,
00000000
00000100
00000100
00000100
,
00000010
00000001
00001000
00000000
,
00000010
00010000
00001000
00000000
,
00010000
00000000
00001000
00000000
00000000
01000000
00000000
01000000
,
00000000
00010000
00010000
00010000
,
10000000
01000000
00100000
00000000
,
00010000
01000000
00001000
00000000
,
00010000
00000010
00000100
00000001
,
00001000
00000000
00000000
00000010
00000000
00000000
00000100
00000000
,
00000002
00000000
00001003
00000000
,
00001000
00000100
00010000
00000000
,
00002000
00000000
01003000
00000000
,
01000000
00100000
10000000
00000000
,
00010000
00000000
00100000
00000000
00001000
00000000
00000000
00010000
,
00000000
00000000
00000000
00000000
,
00000000
00020000
00000010
00030010
,
00000010
00000000
00000000
00000200
00000000
00000000
00000300
00000000
,
00000000
00000000
00000220
00000000
,
00000000
00000000
00000000
00000000
,
00000000
00000000
00000000
00000000
,
00000000
00000000
00000330
00000000
,
00000000
00000000
00002002
00000000
00000000
00000000
00000000
00000000
00000000
00003003
00000000
00000000
;

//---------------dance-single - ----------------
#NOTEDATA:;
#CHARTNAME:;
#STEPSTYPE:dance-single;
#DESCRIPTION:;
#CHARTSTYLE:;
#DIFFICULTY:Challenge;
#METER:15;
#RADARVALUES:0.632498,0.762109,0.247807,0.495614,0.148684,536.000000,506.000000,30.000000,60.000000,0.000000,0.000000,0.000000,0.000000,0.000000,0.632498,0.762109,0.247807,0.495614,0.148684,536.000000,506.000000,30.000000,60.000000,0.000000,0.000000,0.000000,0.000000,0.000000;
#CREDIT:Kekkle;
#NOTES:
0000
0000
0000
0000
,
0000
0000
0000
0000
,
0000
0000
0000
0000
,
0000
0000
0000
0000
,
0000
0000
0000
0000
,
0000
0000
0000
0000
,
0001
1000
0001
1000
0001
1000
0001
1000
0001
1000
0001
1000
0001
0000
0010
0000
,
0200
0000
0001
0001
0000
0000
0001
0000
,
0310
0000
0001
0001
1000
0000
0010
0000
,
0200
0000
1000
1000
0000
0310
1000
0001
,
0000
0010
0001
0010
1000
0010
0001
1000
,
0020
0000
0100
0100
0000
0001
0000
2030
,
0000
3001
0010
0100
,
0020
0000
1000
1000
0000
0130
1000
0002
,
0000
0000
0000
0000
1003
0000
0000
0000
0001
0000
0100
0010
1000
0000
0001
0000
,
0010
0000
0110
0001
1001
1000
0010
0100
,
1000
0100
0001
1000
0100
0110
0000
1001
,
0000
0000
0011
1000
1010
0001
1000
0100
,
0001
0100
0010
0001
1000
0010
0200
0000
,
0310
0020
0100
0000
0001
0000
1000
0000
,
0130
0000
0200
0000
0010
0000
0000
0000
0301
0000
1000
0001
0010
0000
0100
0000
,
0001
0100
1000
0020
0001
0000
0100
0130
,
0001
1000
0000
0001
0010
1000
0010
0100
,
0001
0100
1000
0001
0100
0000
0000
0020
,
0000
0130
0001
1000
0100
0010
0001
0010
,
1000
0010
0001
0200
1000
0000
0010
0310
,
1000
0001
0000
0010
0100
1000
0001
0001
,
0100
0010
0001
0010
1000
0000
0000
0002
,
0000
1003
0100
0010
0100
0001
1000
0010
,
0100
1000
0001
0200
0000
0310
1000
1000
,
0000
0000
0010
0000
0110
0000
1000
0000
1001
0000
0001
1000
0100
0000
0010
0000
,
2000
0000
0010
3010
0000
0001
1000
0010
,
0002
0000
0010
0013
0000
1000
0001
0010
,
1000
0010
0001
1000
0001
0001
0000
0010
,
1000
0010
0002
1000
0000
0100
0000
0103
,
2000
0000
0100
3100
0000
0001
1000
0100
,
0002
0000
0100
0103
0000
1000
0001
0100
,
1000
0100
0001
1000
0001
0001
0000
0100
,
1000
0100
0001
2000
0000
3001
0010
0100
,
0001
0100
1000
0001
0100
0000
0010
0002
,
0000
0013
1000
0001
0010
0100
1000
0001
,
0200
0000
1300
0001
0010
1000
0001
0010
,
0000
0000
0100
0000
0010
0000
0010
0000
0001
1000
0001
1000
0001
0000
0100
0000
,
0020
0000
0130
1000
0100
0001
0010
0000
,
0200
0000
0000
0000
0310
0000
1000
0000
0010
0000
0001
1000
0010
0000
1000
0000
,
0002
0000
0100
0100
1000
0000
0010
0000
,
2003
0000
0000
0000
0100
0000
0100
0000
3001
0100
0001
0100
0010
0000
1000
0000
,
1002
0000
0013
0100
0002
0000
0203
0000
,
1300
0001
0100
0010
0000
0110
0000
2001
,
0000
3001
0011
1000
1010
0010
0100
0002
,
0000
1003
0200
0001
0000
0320
0000
0000
,
0032
0000
1003
1000
0010
0001
0000
0021
,
0000
1030
0001
0020
0000
0130
1000
0000
,
1001
0000
0001
0000
0201
0000
0000
0000
0310
1000
0001
1000
0100
0000
0201
0000
,
0000
0000
1300
0000
0001
0000
0100
0010
1000
0000
0001
0000
0020
0000
0000
0000
,
0130
1000
0020
0000
0130
0000
1001
0001
,
0010
0020
0000
0000
0130
0000
1001
0000
,
0001
0100
0010
0001
1000
0100
0010
2000
,
0000
0000
3001
0000
0010
0000
1000
0000
0010
0000
0100
0010
0001
0000
0010
0000
,
0100
1000
0020
0000
0130
0000
1001
1000
,
0010
0020
0000
0000
0130
0000
1001
0000
,
0001
0010
1000
0001
0100
1000
0001
0200
,
0000
0000
0310
0000
0100
0000
0100
0000
0001
1000
0010
1000
0001
0000
0010
0000
,
0200
0000
0001
0301
0000
1000
0010
0001
,
0200
0000
1000
1300
0000
0001
0010
1000
,
0100
0000
0010
0000
1000
0000
0010
0000
0001
0000
1000
0000
0010
0001
0010
0000
,
0000
0100
1000
0100
0001
1000
0100
0010
,
0200
0000
0000
0000
0001
0000
0301
0000
0100
1000
0100
1000
0100
1000
0001
0000
,
0200
0000
0000
0000
1000
0000
1300
0000
0100
0010
0100
0000
0001
0000
1000
0000
,
0100
0010
1000
0010
0001
1000
0010
0100
,
1000
0000
0100
0000
0010
0000
2000
0000
0000
0000
3001
0000
0010
0001
0010
0001
,
1000
0020
0100
0100
0130
0010
0001
2000
,
0000
3100
0101
1001
0001
0010
0110
0000
,
1000
0200
0010
0010
0310
0100
0001
2000
,
0000
0000
3010
0000
0011
0000
1001
0000
1000
0010
0100
0010
1000
0000
1000
0000
,
0001
0010
0110
1000
1001
0001
0100
2000
,
0000
3100
0010
0100
1000
0100
0001
0000
,
1000
0200
0001
0000
0010
0000
1300
0000
,
0001
0000
0100
0000
1000
0000
0200
0000
0000
0000
0000
0310
1000
0001
0010
0000
,
0000
0000
0220
0000
,
0000
0000
0000
0000
,
0000
0000
0000
0000
,
0000
0000
0000
0000
0330
0000
0000
0001
1000
0010
0000
0000
0000
0000
0000
0000
,
0000
0000
0000
0000
0000
0000
0000
0000
0210
0000
0000
0000
0000
0000
0000
0000
0000
0000
0000
0000
0000
0000
0000
0000
0000
0000
0000
0000
0000
0000
0000
0000
0000
0301
0000
0000
1000
0000
0000
0100
0000
0000
0010
0000
0000
0000
0000
0000
;

//---------------dance-double - ----------------
#NOTEDATA:;
#CHARTNAME:;
#STEPSTYPE:dance-double;
#DESCRIPTION:;
#CHARTSTYLE:;
#DIFFICULTY:Challenge;
#METER:15;
#RADARVALUES:0.631318,0.762109,0.198246,0.487354,0.152814,535.000000,511.000000,24.000000,59.000000,0.000000,0.000000,0.000000,0.000000,0.000000,0.631318,0.762109,0.198246,0.487354,0.152814,535.000000,511.000000,24.000000,59.000000,0.000000,0.000000,0.000000,0.000000,0.000000;
#CREDIT:Kekkle;
#NOTES:
// measure 0
00000000
00000000
00000000
00000000
,  // measure 1
00000000
00000000
00000000
00000000
,  // measure 2
00000000
00000000
00000000
00000000
,  // measure 3
00000000
00000000
00000000
00000000
,  // measure 4
00000000
00000000
00000000
00000000
,  // measure 5
00000000
00000000
00000000
00000000
,  // measure 6
00001000
00010000
00001000
00010000
00001000
00010000
00001000
00010000
00001000
00010000
00001000
00010000
00001000
00000000
01000000
00000000
,  // measure 7
00200000
00000000
10000000
10000000
00000000
00000000
01000000
00000000
,  // measure 8
10300000
00000000
00010000
20000000
01000000
00000000
30010000
00000000
,  // measure 9
00200000
00000000
00010000
00010000
00000000
00301000
00010000
00000100
,  // measure 10
00000000
00001000
00000001
00000100
00001000
00000100
00000001
00000100
,  // measure 11
00000020
00000000
00000130
00002000
00000000
00023000
00000000
00230000
,  // measure 12
00000000
00000000
01300000
01000000
00010000
00000000
10000000
00000000
,  // measure 13
02000000
00000000
00010000
00010000
00000000
03100000
00001000
00020000
,  // measure 14
00000000
00000000
00000000
00000000
00031000
00000000
00000000
00000000
00010000
00000000
00001000
00010000
00000010
00000000
00000100
00000000
,  // measure 15
00000001
00000000
00000001
00000100
00001000
00010000
00100000
01000000
,  // measure 16
10000000
01000000
00010000
10000000
01000000
01100000
00000000
10010000
,  // measure 17
00000000
00000000
10000000
01000000
00010000
00001000
00000010
00000100
,  // measure 18
00000001
00000000
00000100
00000000
00001000
00000000
00000001
00000000
00000100
00000000
00000010
00000000
00010000
00001000
00010000
00001000
,  // measure 19
00010000
00020000
00100000
00000000
00001000
00000000
00000010
00000000
,  // measure 20
00031000
00000000
00002000
00000000
00000010
00000000
00000000
00000000
00013000
00000000
00001000
01000000
00010000
00000000
10000000
00000000
,  // measure 21
01000000
00100000
01000000
00010000
10000000
00100000
00010000
00020000
,  // measure 22
00000000
01030000
00000000
00010000
10000000
00100000
00010000
00001000
,  // measure 23
00000100
00000010
00000001
00000010
00001000
00000000
00000000
00000002
,  // measure 24
00000000
00001003
00000100
00000010
00001000
00010000
01000000
00100000
,  // measure 25
00010000
10000000
00100000
00010000
10000000
01000000
00100000
00200000
,  // measure 26
00000000
10300000
00000000
00010000
10000000
01000000
00010000
01000000
,  // measure 27
00100000
00001000
00010000
00000010
00001000
00000000
00000010
00000002
,  // measure 28
00000000
00000013
00000100
00000001
00001000
00000100
00000010
00001000
,  // measure 29
00010000
00001000
00000010
00000200
00000000
00010300
00001000
01000000
,  // measure 30
00000000
00000000
00010000
00000000
10010000
00000000
10000000
00000000
11000000
00000000
01000000
00100000
00010000
00000000
00100000
00000000
,  // measure 31
00002000
00000000
00013000
00010000
00100000
10000000
01000000
00000000
,  // measure 32
00020000
00000000
00031000
00001000
00000010
00000001
00000100
00000000
,  // measure 33
00001000
00010000
00100000
00010000
00001000
00001000
00000000
00010000
,  // measure 34
01000000
00010000
00001000
00020000
00000000
00031000
00000010
00001000
,  // measure 35
00020000
00000000
01030000
01000000
10000000
00100000
00010000
00000000
,  // measure 36
00002000
00000000
00003100
00000100
00000001
00000010
00001000
00000000
,  // measure 37
00010000
00001000
00000100
00001000
00010000
00010000
00000000
00001000
,  // measure 38
00000010
00001000
00010000
00002000
00000000
00013000
00100000
10000000
,  // measure 39
00010000
00100000
10000000
00100000
00010000
10000000
00100000
00020000
,  // measure 40
00000000
00031000
00000100
00000010
00000001
00000010
00001000
00000001
,  // measure 41
00000020
00000000
00001030
00000001
00000100
00001000
00000001
00000100
,  // measure 42
00000000
00000000
00001000
00000000
00010000
00000000
00010000
00000000
00001000
00010000
00001000
00010000
00001000
00000000
01000000
00000000
,  // measure 43
00020000
01000000
10000000
00100000
,  // measure 44
00032000
00000000
00000000
00000000
00000100
00000000
00000000
00000000
00003001
00000100
00000001
00000100
00000010
00000000
00001000
00000000
,  // measure 45
00000002
00000000
00000013
00001000
00020000
00000000
00130000
00000000
,  // measure 46
20000000
00000000
00000000
00000000
30100000
00000000
00010000
00000000
00001000
00010000
00001000
00010000
00000100
00000000
00000010
00000000
,  // measure 47
00001001
00000002
00000203
00002300
,  // measure 48
00013000
00000000
00100000
10000000
00000000
01100000
00000000
20010000
,  // measure 49
00000000
31000000
00010000
00001000
00000010
00001000
00010000
00000020
,  // measure 50
00000000
00000130
00000001
00001001
00000000
00000110
00000000
00000000
,  // measure 51
00000002
00000000
00001003
00000010
00000100
00001000
00010000
00210000
,  // measure 52
00000000
10300000
00010000
00200000
00000000
01300000
10000000
00010000
,  // measure 53
01010000
00000000
01000000
00000000
01001000
00000000
00001000
00000000
00010000
00000100
00001000
00000100
00000010
00000000
00001020
00000000
,  // measure 54
00000000
00000000
00000031
00000000
00001000
00000000
00000010
00000100
00000010
00000000
00000100
00000000
00001000
00000000
00000000
00000000
,  // measure 55
00010000
00100000
00020000
00000000
00031000
00000010
00002000
00000000
,  // measure 56
00013000
00011000
00000000
00000000
00000000
00000000
00012000
00000000
,  // measure 57
01003000
00010000
10000000
01000000
00010000
01000000
00100000
00002000
,  // measure 58
00000000
00000000
00013000
00000000
00100000
00000000
01000000
00000000
00010000
10000000
00010000
00100000
01000000
00000000
00010000
00000000
,  // measure 59
00001000
00000010
00002000
00000000
00013000
00100000
00020000
00000000
,  // measure 60
00031000
00011000
00000000
00000000
00000000
00000000
00021000
00000000
,  // measure 61
00030100
00000010
00000001
00001000
00000010
00000100
00001000
00020000
,  // measure 62
00000000
00000000
00130000
00000000
01000000
00000000
01000000
00000000
00010000
10000000
01000000
10000000
00010000
00000000
01000000
00000000
,  // measure 63
00200000
00000000
00310000
00010000
00001000
00000100
00000001
00000000
,  // measure 64
00000020
00000000
00001030
00001000
00010000
01000000
10000000
00010000
,  // measure 65
01000000
00000000
00100000
00000000
01000000
00000000
20000000
00000000
00000000
00000000
31000000
00000000
00100000
00010000
00100000
00000000
,  // measure 66
00010000
00001000
01000000
00001000
00010000
00000100
00000010
00000100
,  // measure 67
00000002
00000000
00000000
00000000
00000103
00000000
00001000
00000000
00000001
00001000
00000100
00001000
00000001
00000000
00001000
00000000
,  // measure 68
00000000
00000000
00000010
00000000
00000100
00000000
00001000
00000000
00010000
00001000
00010000
00000000
00100000
00000000
01000000
00000000
,  // measure 69
00010000
10000000
01000000
00100000
10000000
00100000
00010000
10000000
,  // measure 70
00100000
00010000
00001000
00020000
00000000
00031000
00000100
00000001
,  // measure 71
00001000
00000200
00000010
00000010
00000310
00000001
00001000
00000010
,  // measure 72
00000100
00001000
00011000
00101000
00100000
00010000
10010000
00000000
,  // measure 73
00010000
02000000
00100000
00100000
03100000
10000000
00010000
00100000
,  // measure 74
01000000
00000000
00010000
00000000
00011000
00000000
00010010
00000000
00000010
00001000
00000001
00001000
00000100
00000000
00000010
00000000
,  // measure 75
00000001
00001000
00000010
00000100
00001000
00010000
00100000
02000000
,  // measure 76
00000000
03010000
10000000
01000000
00010000
01000000
10000000
00000000
,  // measure 77
00010000
02000000
10000000
00000000
00100000
00000000
03001000
00000000
,  // measure 78
00010000
00000000
00001000
00000000
00000010
00000000
00002000
00000000
00000000
00000000
00000000
00103000
00010000
10000000
00100000
00000000
,  // measure 79
00000000
00000000
02200000
00000000
,  // measure 80
00000000
00000000
00000000
00000000
,  // measure 81
00000000
00000000
00000000
00000000
,  // measure 82
00000000
00000000
00000000
00000000
03300000
00000000
00000000
00010000
10000000
01000000
00000000
00000000
00000000
00000000
00000000
00000000
,  // measure 83
00000000
00000000
00000000
00000000
00000000
00000000
00000000
00000000
01200000
00000000
00000000
00000000
00000000
00000000
00000000
00000000
00000000
00000000
00000000
00000000
00000000
00000000
00000000
00000000
00000000
00000000
00000000
00000000
00000000
00000000
00000000
00000000
00000000
00301000
00000000
00000000
00010000
00000000
00000000
00000010
00000000
00000000
00001000
00000000
00000000
00000000
00000000
00000000
;
