#TITLE:Square Missile;
#SUBTITLE:;
#ARTIST:Raxxo;
#TITLETRANSLIT:;
#SUBTITLETRANSLIT:;
#ARTISTTRANSLIT:;
#GENRE:;
#CREDIT:;
#BANNER:Square Missile.png;
#BACKGROUND:Square Missile-bg.png;
#LYRICSPATH:;
#CDTITLE:;
#MUSIC:Square Missile.ogg;
#OFFSET:1.333333;
#SAMPLESTART:53.333336;
#SAMPLELENGTH:12.000000;
#LASTBEATHINT:0.906846;
#SELECTABLE:YES;
#BPMS:0.000000=180.000000
;
#STOPS:
;
#BGCHANGES:;
#KEYSOUNDS:;
#ATTACKS:;

//---------------dance-single - ----------------
#NOTES:
     dance-single:
     :
     Hard:
     15:
     0.836197,1.090125,0.329876,0.820854,0.452621,763.000000,720.000000,43.000000,107.000000,0.000000,0.000000,0.836197,1.090125,0.329876,0.820854,0.452621,763.000000,720.000000,43.000000,107.000000,0.000000,0.000000:
0000
0000
0000
0000
,
0000
0000
0000
0000
,
0000
0000
0000
0000
,
0000
0000
0000
0000
,
0000
0000
0000
0000
,
0001
0000
1000
0000
0100
0000
0001
0000
0100
0000
0010
0000
0001
0100
0010
0000
,
1000
0000
0010
0000
0001
0000
0010
0000
1000
0000
0100
0000
0010
0001
1000
0000
,
0010
0000
0100
0000
0010
0000
0001
0000
0010
0000
1000
0000
0010
1000
0100
0000
,
0010
0000
0001
0000
0010
0000
1000
0000
0010
0000
0100
0000
0010
0001
0100
0001
,
0010
0000
0000
0000
0201
0000
0000
0301
1000
0010
1000
0000
1100
0000
0000
0000
,
0100
0000
0000
0000
0021
0000
0000
0031
0010
0001
0100
0000
0101
0000
0000
0000
,
0001
0000
0000
0000
1200
0000
0000
0310
0001
0100
0001
0000
1001
0000
0000
0000
,
1010
1100
0011
0101
,
0200
0000
0000
0000
0310
0000
1000
0100
1000
0000
0001
0000
0010
0000
0001
0000
,
0200
0000
0000
0000
1300
0000
0100
0010
0100
0000
0001
0000
0010
0000
0100
0000
,
2000
0000
3100
0001
0100
1000
0010
0100
,
0002
0000
0000
0000
0013
0000
0001
1000
0001
1000
0010
0000
0100
0000
1000
0000
,
0001
0000
0010
0000
0100
0000
0001
0010
0001
1000
0010
0000
0100
0000
0001
0000
,
1000
0100
0001
0100
2000
0010
3010
0100
,
0001
0000
1000
0000
0100
0000
1000
0100
1000
0001
0100
0000
0010
0000
1000
0000
,
0200
1000
2300
0002
0000
0000
3003
0000
,
0001
0000
0100
0010
1000
0000
0020
0000
0000
0000
1030
0000
0001
0000
0010
0000
,
0001
0000
0100
0001
0200
0000
0010
0000
0310
0000
1000
0001
0010
0000
0001
0000
,
0100
0000
0010
1000
0001
0000
0020
0000
0000
0000
0031
0000
0100
0000
0001
0000
,
0010
0000
0100
1000
0200
0000
1000
0000
1300
0000
0001
0100
0010
0000
0100
0000
,
0001
0000
1000
0100
1000
0000
0001
0100
0010
0100
0002
0000
1000
0000
1003
0000
,
0100
0000
0001
0000
0100
0000
1000
0001
1000
0000
0020
0000
0100
0000
0130
0000
,
0001
0000
1000
0001
0010
0000
0100
1000
0010
1000
0100
0000
0010
0000
0002
0000
,
0100
0103
0010
2000
0000
3001
1001
0000
,
1000
0100
0001
0200
0000
0310
0001
0100
,
0020
1000
1030
0001
0010
1000
0001
1000
,
0010
0001
0100
0020
0000
0031
0010
2000
,
0100
3100
0010
0001
2002
0000
3003
0000
,
0002
1000
0100
0100
2003
0001
0100
0100
,
3001
0100
1000
0001
0010
1000
0100
0010
,
0002
1000
0010
0010
2003
0001
0010
0010
,
3001
0010
1000
0001
1000
0010
0001
0100
,
0010
2000
0100
3100
0010
0002
0100
0103
,
0010
0001
1000
0100
0001
0020
0100
0130
,
1000
0002
0010
0013
0100
2000
0010
3010
,
0100
0001
1000
0100
0001
2000
0010
3010
,
0011
0000
0001
0000
0200
0000
0000
0310
1000
0100
1000
0000
0100
0000
0010
0000
,
0012
0000
0103
0010
2010
0000
3100
0010
,
0012
0000
0000
0000
0203
0000
0000
0310
1000
0001
1000
0000
0001
0000
1000
0000
,
1200
0000
0310
0001
0201
0000
0310
1000
,
1200
0000
0000
0000
0320
0000
0000
0031
1000
0010
1000
0000
0001
0000
0010
0000
,
0210
0000
1300
0010
0210
0000
0301
0010
,
0210
0000
0000
0000
2300
0000
0000
3010
0100
0001
0100
0000
0010
0000
1000
0000
,
0100
0001
1000
0020
0200
0000
0330
0000
,
1100
0000
1000
0000
0001
0000
0100
0010
0000
1000
0010
0000
0100
0000
1000
0000
,
0002
0000
0000
0013
0000
0000
1000
0000
0200
0000
0000
0301
0000
0000
0100
0000
,
0010
0000
0001
0100
0000
0010
0200
0000
0000
0000
0301
0000
1000
0100
1000
0100
,
0020
0000
0000
0032
0000
0000
0103
0000
0020
0000
0000
2030
0000
0000
3100
0000
,
0110
0000
0010
0000
0001
0000
1000
0010
0000
1000
0100
0000
0010
0000
0001
0000
,
0200
0000
0000
1300
0000
0000
0001
0000
0020
0000
0000
1030
0000
0000
0100
0000
,
0010
0000
0001
1000
0000
0100
1000
0000
0001
0000
0100
0000
0010
1000
0010
1000
,
0200
0000
0000
0320
0000
0000
0032
0000
2000
0000
0000
0000
3003
0000
0000
0000
,
0101
0000
0100
0000
0010
0000
1000
0100
0000
1000
0010
0000
0100
0000
0001
0100
,
0001
0000
0010
0001
0000
0001
0100
0000
0010
0000
1000
0100
0000
0100
0010
0000
,
0001
0000
0100
0010
0000
1000
0010
0000
0100
0000
0001
0000
1000
0001
1000
0001
,
0020
0000
0031
0100
0000
0001
0010
0000
0200
0000
1300
0010
0000
1000
0100
0000
,
1100
0000
1000
0001
0100
0000
0001
0010
0000
0001
0100
0000
0010
0000
1000
0100
,
1000
0000
0001
0010
0000
0010
0100
0000
1000
0000
0010
0100
0000
0100
0001
0000
,
1000
0000
0100
0010
0000
0001
1000
0000
0010
0000
0100
0000
0010
1000
0001
0010
,
0002
0000
0103
0020
0200
0000
0330
0000
,
0100
1000
0100
0002
0000
0013
1000
0002
,
0100
0103
0010
0002
0100
0103
0010
1000
,
0010
0001
1000
0200
0000
0301
0010
2000
,
0010
3010
0001
1000
2002
0000
3003
0000
,
0002
1000
0100
0100
2003
0001
0100
0100
,
3001
0100
0010
0001
1000
0200
0010
0310
,
2000
0001
0100
0100
3002
1000
0100
0100
,
1003
0100
0010
1000
0010
0002
0100
0103
,
0010
2000
0001
3001
0010
0002
1000
1003
,
0010
0100
1000
0001
0010
0200
0001
0301
,
0010
0002
0100
0103
0010
2000
0100
3100
,
0010
1000
0001
0100
1000
0020
0100
0130
,
0002
0000
0000
1003
0100
0000
1000
0010
0100
0010
1000
0000
0001
0000
0010
0000
,
0011
0001
0100
0010
1010
1000
0100
0010
,
0012
0000
0000
1003
0100
0000
1000
0001
0100
0001
1000
0000
0010
0000
0100
0000
,
0101
0001
0010
0100
1100
1000
0010
0100
,
0102
0000
0000
1003
0100
0000
0010
0001
1000
0001
0010
0000
0001
0000
0100
0000
,
0110
0010
1000
0100
0110
0010
0001
0100
,
0120
0000
0000
1030
0100
0000
1000
0001
0100
0010
0100
0000
0010
0000
1000
0000
,
0001
0000
1000
0100
1000
0000
0001
0100
0001
0000
1000
0010
1000
0000
0001
1000
,
0002
0100
1000
0100
,
2003
0100
0001
0100
,
3002
0010
1000
0010
,
2003
0010
0001
3010
,
2020
0000
0000
3030
,
0202
0303
2200
3300
,
0220
0000
0000
0330
,
2002
0000
0000
3003
,
0001
0000
0100
0000
0010
0000
1000
0001
1000
0100
1000
0000
0100
0000
1000
0001
,
1000
0000
0100
1000
0001
0000
0100
0001
0100
0010
0100
0000
0010
0000
1000
0001
,
0010
0000
0001
0100
0001
0000
1000
0100
0010
0001
0100
0000
0010
0000
1000
0001
,
0010
0001
0100
0010
1000
0100
1000
0001
0010
0001
0100
0000
0110
0000
2002
0000
,
0000
0000
0000
0000
,
3003
0000
0000
0000
;

//---------------dance-double - ----------------
#NOTES:
     dance-double:
     :
     Hard:
     16:
     0.796744,1.052535,0.260832,0.713453,0.395084,727.000000,693.000000,34.000000,93.000000,0.000000,0.000000,0.796744,1.052535,0.260832,0.713453,0.395084,727.000000,693.000000,34.000000,93.000000,0.000000,0.000000:
00000000
00000000
00000000
00000000
,
00000000
00000000
00000000
00000000
,
00000000
00000000
00000000
00000000
,
00000000
00000000
00000000
00000000
,
00000000
00000000
00000000
00000000
,
10000000
00000000
00010000
00000000
00100000
00000000
01000000
00000000
00100000
00000000
00001000
00000000
00010000
00000010
00001000
00000000
,
00000100
00000000
00000010
00000000
00000001
00000000
00001000
00000000
00000010
00000000
00010000
00000000
00000100
00010000
00001000
00000000
,
00100000
00000000
00010000
00000000
01000000
00000000
00100000
00000000
10000000
00000000
00010000
00000000
00100000
00010000
01000000
00000000
,
00001000
00000000
00010000
00000000
00000010
00000000
00001000
00000000
00000100
00000000
00000010
00000000
00000001
00001000
00000010
00000000
,
00020010
00000000
00000000
00000000
00031000
00000000
00000000
01000000
00001000
00100000
00010000
00000000
00110000
00000000
00000000
00000000
,
00102000
00000000
00000000
00000000
00013000
00000000
00000000
00000100
00010000
00000010
00001000
00000000
00001010
00000000
00000000
00000000
,
00020100
00000000
00000000
00000000
00031000
00000000
00000000
00100000
00001000
01000000
00010000
00000000
01010000
00000000
00000000
00000000
,
20000000
32000000
03020000
00032000
,
00003020
00000000
00000000
00000000
00000031
00000000
00000100
00000010
00000100
00000000
00000001
00000000
00001000
00000000
00000100
00000000
,
00020000
00000000
00000000
00000000
00031000
00000000
01000000
00010000
01000000
00000000
00100000
00000000
10000000
00000000
00010000
00000000
,
00200000
00000000
00301000
00010000
00000010
00000100
00001000
00010000
,
00000200
00000000
00000310
00000001
00000100
00001000
00010000
01000000
,
00100000
00000000
00010000
00000000
10000000
00000000
00100000
01000000
00001000
01000000
00010000
00000000
00100000
00000000
00001000
00000000
,
00010000
00000000
00000010
00000000
00001000
00000000
00000100
00000010
00000002
00000000
00001000
00000000
00001003
00000000
00000010
00000000
,
00010000
00000000
00000100
00000000
00010000
00000000
00001000
01000000
00010000
00100000
00010000
00000000
01000000
00000000
00100000
00000000
,
10000000
00010000
00100000
00002000
00000000
00013000
00011000
00000000
,
00010000
00000000
00000010
00001000
00000010
00000000
00000200
00000000
00000000
00000000
00001300
00000000
00010000
00000000
00000100
00000000
,
00000010
00001000
00010000
00000010
00001000
00010000
01000000
01000000
,
00100000
00000000
10000000
01000000
10000000
00000000
00020000
00000000
00000000
00000000
01030000
00000000
00100000
00000000
00010000
00000000
,
00001000
00100000
00010000
00002000
00000000
00003010
00000100
00000100
,
00000001
00000000
00001000
00000100
00001000
00000000
00000100
00000000
00010000
00001000
02000000
00000000
03100000
00000000
10000000
00000000
,
01000000
00010000
00001000
01000000
00100000
00020000
00001000
00031000
,
00000010
00000000
00000001
00000100
00000010
00000000
00001000
00000000
00000100
00010000
00002000
00000000
01003000
00000000
00010000
00000000
,
00100000
00001000
00010000
02000000
00000000
00000000
03100000
00000000
,
00010000
10000000
00100000
00020000
00000000
00030100
00001000
00010000
,
00001000
00000200
00000000
00000310
00000001
00000001
00000100
00001000
,
00010000
00000100
00001000
00020000
00000000
00130000
00001000
00010000
,
00100000
00010000
00001000
00200000
02000000
00000000
03300000
00000000
,
01000000
10000000
00100000
01000000
00010000
00001000
00000001
00000010
,
00000001
00000100
00000010
00001000
00010000
10000000
01000000
01000000
,
10000000
00010000
01000000
00100000
00010000
00000010
00000100
00000001
,
00001000
00000100
00000010
00000100
00010000
01000000
00100000
00100000
,
00010000
10000000
00010000
00001000
00000010
00000100
00000001
00000001
,
00001000
00000001
00001000
00010000
01000000
00100000
10000000
10000000
,
01000000
00010000
00000100
00000010
00000100
00001000
00000001
00000001
,
00000100
00010000
01000000
00100000
10000000
01000000
10000000
10000000
,
00020000
00000000
00000000
00000000
01030000
00000000
00000000
00100000
10000000
00010000
00100000
00000000
00001000
00000000
00010000
00000000
,
00020010
00031000
00102000
00013000
,
00002010
00000000
00000000
00000000
00003100
00000000
00000000
00000010
00000001
00001000
00000010
00000000
00010000
00000000
00001000
00000000
,
01002000
00013000
00020100
00031000
,
02010000
00000000
00000000
00000000
03100000
00000000
00000000
10000000
00010000
00100000
00010000
00000000
01000000
00000000
00001000
00000000
,
00021000
00030010
00012000
00103000
,
00010020
00000000
00000000
00000000
00000130
00000000
00000000
00000001
00001000
00000010
00001000
00000000
00000100
00000000
00010000
00000000
,
00012000
01003000
00021000
00030100
,
00001000
00000000
00001000
00000000
00000010
00000000
00000100
00000001
00000000
00000100
00000010
00000000
00010000
00000000
00001000
00000000
,
00000200
00000000
00000000
00002300
00000000
00000000
00023000
00000000
02030000
00000000
00000000
03200000
00000000
00000000
00320000
00000000
,
10030000
00000000
00100000
01000000
00000000
00001000
02000000
00000000
00000000
00000000
03010000
00000000
00100000
00001000
00100000
00001000
,
00020000
00000000
00000000
00030020
00000000
00000000
00000230
00000000
00002300
00000000
00000000
00023000
00000000
00000000
00030200
00000000
,
00010300
00000000
00001000
00000000
01000000
00000000
00010000
00100000
00000000
00010000
01000000
00000000
00100000
00000000
10000000
00000000
,
00020000
00000000
00000000
00230000
00000000
00000000
00302000
00000000
00023000
00000000
00000000
00230000
00000000
00000000
00320000
00000000
,
00031000
00000000
00000010
00001000
00000000
00000010
00000100
00000000
00001000
00000000
00000001
00000000
00000100
00000010
00000100
00000010
,
00020000
00000000
00000000
00032000
00000000
00000000
02003000
00000000
00020000
00000000
00000000
00000000
03030000
00000000
00000000
00000000
,
10010000
00000000
10000000
00000000
01000000
00000000
00100000
00010000
00000000
01000000
00001000
00000000
00010000
00000000
00000010
00001000
,
00000010
00000000
00000100
00000001
00000000
00000001
00001000
00000000
00000100
00000000
00010000
00001000
00000000
00100000
00010000
00000000
,
01000000
00000000
00100000
10000000
00000000
01000000
10000000
00000000
00010000
00000000
00100000
00000000
00001000
00010000
00000010
00001000
,
00000020
00000000
00000000
00000230
00000000
00000000
00002300
00000000
00023000
00000000
00000000
00030200
00000000
00000000
00000320
00000000
,
00000031
00000000
00001000
00000010
00010000
00000000
00000100
00001000
00000000
00000100
00010000
00000000
00001000
00000000
01000000
00010000
,
01000000
00000000
00100000
10000000
00000000
10000000
01000000
00000000
00100000
00000000
00001000
00010000
00000000
00000010
00001000
00000000
,
00000100
00000000
00000010
00000001
00000000
00001000
00000010
00000000
00000100
00000000
00001000
00000000
00010000
00001000
00100000
00010000
,
00200000
00000000
01300000
20000000
00020000
00000000
30000000
00000000
,
01030000
00100000
00010000
00002000
00000000
00003010
00000001
00000100
,
00001000
00020000
00000000
00030100
00001000
00010000
00100000
00100000
,
00010000
10000000
00100000
00020000
00000000
00031000
00000010
00001000
,
00010000
00000010
00000100
00001000
00000200
00000000
00000300
00000000
,
00000001
00001000
00000010
00001000
00010000
10000000
01000000
10000000
,
00010000
01000000
00010000
00001000
00000001
00000010
00000100
00000100
,
00000010
00000001
00000100
00010000
01000000
00010000
00100000
01000000
,
10000000
00010000
00100000
00001000
00000010
00000001
00000100
00000100
,
00000010
00001000
00010000
10000000
01000000
10000000
00100000
00100000
,
01000000
00010000
00001000
00000001
00000010
00000100
00000010
00000010
,
00000001
00000100
00010000
01000000
00010000
00100000
01000000
01000000
,
10000000
01000000
00001000
00000100
00000010
00000001
00000100
00000100
,
00000020
00000000
00000000
00000000
00001030
00000000
00000100
00010000
00001000
00010000
00000100
00000000
00010000
00000000
00001000
00000000
,
01001000
01000000
00001000
00010000
00010100
00000100
00010000
00001000
,
00201000
00000000
00000000
00000000
00310000
00000000
10000000
00100000
01000000
00010000
01000000
00000000
00001000
00000000
00010000
00000000
,
00010100
00000100
00010000
00001000
00101000
00100000
00001000
00010000
,
00010020
00000000
00000000
00000000
00000130
00000000
00000001
00000010
00000100
00000010
00000001
00000000
00001000
00000000
00000010
00000000
,
00010010
00010000
00001000
00100000
00101000
00001000
00010000
00000100
,
00020100
00000000
00000000
00000000
00031000
00000000
01000000
00010000
10000000
01000000
10000000
00000000
00010000
00000000
01000000
00000000
,
00010000
00000000
10000000
01000000
10000000
00000000
01000000
00010000
01000000
00000000
00010000
00001000
00010000
00000000
00001000
00000010
,
00002000
00010000
01000000
00010000
,
00023000
00001000
00000100
00001000
,
00032000
00010000
00100000
00010000
,
00023000
00001000
00000010
00031000
,
00022000
00000000
00000000
00033000
,
02002000
03003000
02200000
03300000
,
20200000
00000000
00000000
30300000
,
20020000
00000000
00000000
30030000
,
10000000
00000000
00010000
00000000
00100000
00000000
00001000
00010000
00000010
00010000
00001000
00000000
00010000
00000000
00000010
00001000
,
00000010
00000000
00000100
00000001
00001000
00000000
00000100
00010000
00001000
00100000
00010000
00000000
01000000
00000000
00010000
10000000
,
00010000
00000000
00100000
00001000
00010000
00000000
00001000
00010000
00000010
00001000
00000100
00000000
00000010
00000000
00000001
00001000
,
00000010
00001000
00000100
00010000
00001000
00010000
00001000
01000000
00010000
01000000
00100000
00000000
10000000
00000000
20020000
00000000
,
00000000
00000000
00000000
00000000
,
30030000
00000000
00000000
00000000
;

//---------------dance-single - ----------------
#NOTES:
     dance-single:
     :
     Medium:
     13:
     0.640025,0.640669,0.214803,0.521664,0.080551,584.000000,556.000000,28.000000,68.000000,0.000000,0.000000,0.640025,0.640669,0.214803,0.521664,0.080551,584.000000,556.000000,28.000000,68.000000,0.000000,0.000000:
0000
0000
0000
0000
,
0000
0000
0000
0000
,
0000
0000
0000
0000
,
0000
0000
0000
0000
,
0000
0000
0000
0000
,
0001
0100
0010
1000
0100
0010
0001
0000
,
0010
1000
0010
0001
0100
0010
1000
0000
,
0010
0100
0001
1000
0100
0010
0100
0000
,
1000
0010
0001
0010
1000
0100
0010
0001
,
0200
0000
0310
0000
1000
0001
1001
0000
,
2000
0000
3001
0000
0010
0001
0011
0000
,
0020
0000
0031
0000
0100
0001
0101
0000
,
2010
0001
0100
3001
,
0200
0000
0310
1000
0100
0010
0100
0001
,
0200
0000
0310
0001
0100
0100
0010
0001
,
0020
0000
1030
0001
0010
0100
0010
0001
,
0200
0000
0310
1000
0100
0010
0001
0100
,
0001
0010
0001
0200
0000
1300
0100
0001
,
0010
0100
1000
0100
0010
0001
0100
0010
,
1000
0010
0100
0002
0000
1003
0100
0010
,
0100
1000
0001
0200
0000
0000
0300
0000
,
0010
0010
0001
0020
0000
1030
0001
0010
,
0100
0200
0000
0301
0100
0010
0001
1000
,
0010
0010
1000
0020
0000
0031
0010
1000
,
0100
0010
0100
0200
0000
0310
0001
0100
,
0010
1000
0010
0002
0000
1003
0100
0001
,
0010
0100
0010
0001
0100
0010
1000
0010
,
0001
0010
1000
0200
0000
0301
0100
0010
,
0002
0000
0000
2000
0000
0000
3003
0000
,
0001
0200
0000
0010
0000
0301
1000
0100
,
1000
0020
0000
0130
0001
1000
0100
0010
,
0100
2000
0000
0001
0000
3010
0100
0001
,
0010
0100
0010
0001
0200
0000
0300
0000
,
0010
1000
0010
0001
0010
1000
0100
0000
,
0010
0001
0100
0001
0010
0001
0100
0100
,
0001
0010
1000
0010
0001
0010
1000
0000
,
0010
0100
1000
0100
0010
0100
1000
1000
,
0010
0001
0010
1000
0100
0001
0100
0000
,
0010
0001
1000
0010
1000
0100
1000
1000
,
0010
0100
1000
0100
0001
0010
0100
0000
,
0001
0100
1000
0010
0100
0001
0100
0100
,
0020
0000
1030
0000
0001
0010
0001
0000
,
1002
0103
2001
3100
,
1002
0000
0103
0000
0010
1000
0010
0000
,
2100
3001
0102
1003
,
1200
0000
0310
0000
0001
0100
0001
0000
,
0021
0130
1020
0130
,
0021
0000
0130
0000
1000
0001
1000
0000
,
0010
0100
0010
1000
0020
0000
0030
0000
,
1000
0000
0001
0000
0010
0000
0000
0001
0000
0000
0100
0000
0010
0000
1000
0000
,
0010
0000
0000
0010
0000
0000
0010
0000
0100
0000
0000
0100
0000
0000
0100
0000
,
0001
0000
0000
1000
0000
0000
0200
0000
0000
0000
0310
0000
0001
0000
0100
0000
,
0001
0000
0000
0001
0000
0000
0001
0000
1000
0000
0000
1000
0000
0000
1000
0000
,
0100
0000
0010
0000
0100
0000
0000
1000
0000
0000
0010
0000
0100
0000
1000
0000
,
0100
0000
0000
0100
0000
0000
0100
0000
0001
0000
0000
0001
0000
0000
0001
0000
,
1000
0000
0000
0100
0000
0000
0020
0000
0000
0000
0031
0000
0100
0000
0010
0000
,
1000
0000
0000
0001
0000
0000
0001
0000
2002
0000
0000
0000
3003
0000
0000
0000
,
1000
0000
0001
0000
0010
0000
0000
0001
0000
0000
0100
0000
0010
0000
1000
0000
,
0001
0000
0010
0001
0000
0000
0100
0000
0010
0000
1000
0010
0000
0000
0100
0000
,
0001
0000
0000
0010
0000
0000
0010
0000
0001
0000
0100
0000
0010
0000
1000
0000
,
0100
0000
0000
0100
0000
0000
0100
0000
0010
0000
0000
0010
0000
0000
0010
0000
,
0001
0000
1000
0000
0010
0000
0000
0100
0000
0000
0001
0000
1000
0000
0100
0000
,
0010
0000
0100
1000
0000
0000
0001
0000
0100
0000
0010
1000
0000
0000
0001
0000
,
0010
0000
0000
0001
0000
0000
0001
0000
0100
0000
0010
0000
1000
0000
0001
0000
,
0012
0000
0000
1000
2000
0000
3003
0000
,
0001
2000
0000
0010
0000
3001
0010
1000
,
0010
0002
0000
0103
1000
0100
0001
0010
,
0100
0020
0000
0001
0000
0130
1000
0100
,
0001
0100
0010
0001
2000
0000
3000
0000
,
0001
0100
0010
0001
0010
1000
0100
0000
,
0001
0100
0010
0100
1000
0010
0100
0100
,
0010
0001
0010
0100
0001
1000
0100
0000
,
0010
0100
1000
0001
0100
0010
1000
1000
,
0001
0010
1000
0001
0100
1000
0010
0000
,
0100
0001
0010
0001
0100
0010
1000
1000
,
0010
0100
1000
0001
0010
0100
0001
0000
,
0010
0001
0100
0001
0010
0100
1000
0010
,
0200
0000
0301
0000
1000
0100
0010
0100
,
1200
0310
0201
0310
,
1200
0000
0310
0000
0001
0100
0010
1000
,
1002
0013
2001
3010
,
0210
0000
0301
0000
1000
0100
0010
0001
,
0201
0310
1200
0310
,
0201
0000
0310
0000
1000
0100
0001
0100
,
1000
0010
1000
0010
0100
0001
0010
0100
,
2000
0001
0001
0001
,
3002
1000
1000
1000
,
0203
0010
0010
0010
,
0320
0100
0100
0130
,
0220
0000
0000
0330
,
2002
0000
0000
3003
,
0220
0000
0000
0330
,
2002
0000
0000
3003
,
0001
0100
0010
1000
0100
0001
0100
1000
,
0010
0100
0001
0100
1000
0100
0001
0010
,
0100
0010
0001
0100
0010
1000
0010
0001
,
0010
1000
0100
0010
0100
1000
0002
2000
,
0000
0000
0000
0000
,
0000
3003
0000
0000
;

//---------------dance-double - ----------------
#NOTES:
     dance-double:
     :
     Medium:
     14:
     0.630162,0.640669,0.191788,0.575365,0.080551,575.000000,550.000000,25.000000,75.000000,0.000000,0.000000,0.630162,0.640669,0.191788,0.575365,0.080551,575.000000,550.000000,25.000000,75.000000,0.000000,0.000000:
00000000
00000000
00000000
00000000
,
00000000
00000000
00000000
00000000
,
00000000
00000000
00000000
00000000
,
00000000
00000000
00000000
00000000
,
00000000
00000000
00000000
00000000
,
10000000
01000000
00010000
00001000
00010000
01000000
00100000
00000000
,
00001000
00010000
00000010
00000100
00001000
00000100
00000001
00000000
,
00000010
00001000
00010000
00000010
00001000
00010000
01000000
00000000
,
00100000
00010000
00001000
00100000
00010000
00001000
00000100
00000010
,
00000002
00000000
00001003
00000000
00000010
00010000
00011000
00000000
,
00200000
00000000
00310000
00000000
01000000
00001000
00011000
00000000
,
00000200
00000000
00000310
00000000
00000100
00010000
00011000
00000000
,
00002000
00010000
01000000
00103000
,
00020000
00000000
10030000
01000000
00000000
00010000
01000000
00100000
,
00002000
00000000
00013000
00000010
00000100
00001000
00000100
00000010
,
00000200
00000000
00000301
00001000
00000000
00000100
00000010
00001000
,
00020000
00000000
00030010
00002000
00000000
00013000
01000000
00100000
,
10000000
00010000
00100000
00002000
00000000
00013000
00000010
00000100
,
00001000
00020000
00000000
00031000
00100000
01000000
00010000
01000000
,
10000000
00010000
01000000
00002000
00000000
00013000
00000010
00000100
,
00000002
00000000
00001000
00002000
00000000
00000000
00003003
00000000
,
00001000
00001000
00000100
00020000
00000000
00031000
00100000
01000000
,
00010000
00020000
00000000
01030000
10000000
00100000
00010000
00001000
,
00000100
00000100
00000010
00020000
00000000
00030100
00001000
00010000
,
00001000
00000100
00000010
00000020
00000000
00000031
00000100
00000010
,
00010000
00010000
00000100
00002000
00000000
00003100
00010000
00001000
,
00100000
00200000
00000000
01300000
00010000
00001000
00010000
01000000
,
00100000
00100000
00001000
00020000
00000000
00030010
00000100
00001000
,
00020000
00000000
00000000
00000200
00000000
00000000
00030300
00000000
,
00000100
00000020
00000000
00001000
00000000
00000031
00000100
00000010
,
00010000
00000200
00000000
00001300
00010000
00100000
00001000
00010000
,
00100000
20000000
00000000
01000000
00000000
30010000
01000000
00100000
,
00010000
00001000
00000100
00000010
00002000
00000000
00003000
00000000
,
00000001
00000010
00001000
00000010
00000100
00010000
00001000
00000000
,
01000000
00100000
00010000
00001000
00010000
00100000
10000000
00100000
,
01000000
00001000
00010000
00001000
00000010
00000001
00000010
00000000
,
00001000
00010000
00001000
00000010
00001000
00010000
00000010
00001000
,
00010000
01000000
00010000
00001000
00010000
10000000
01000000
00000000
,
00010000
00001000
00000010
00001000
00010000
00001000
01000000
00100000
,
10000000
00100000
00010000
00001000
00100000
00001000
00010000
00000000
,
00000010
00001000
00010000
00001000
00000010
00001000
00000100
00000010
,
00000002
00000000
00001003
00000000
00000010
00010000
00000010
00000000
,
00021000
00030010
00012000
00103000
,
00021000
00000000
00030010
00000000
00001000
00000100
00001000
00000000
,
00020100
00031000
01002000
00013000
,
00020100
00000000
00031000
00000000
01000000
00010000
01000000
00000000
,
00102000
00013000
00020010
00031000
,
00102000
00000000
00013000
00000000
00001000
01000000
00001000
00000000
,
00010000
00000010
00001000
00000010
00000200
00000000
00000300
00000000
,
00000001
00000000
00000100
00000000
00001000
00000000
00000000
00010000
00000000
00000000
00001000
00000000
00000100
00000000
00000010
00000000
,
00002000
00000000
00000000
00003100
00000000
00000000
00010000
00000000
00002000
00000000
00000000
00103000
00000000
00000000
00001000
00000000
,
00010000
00000000
00000000
00000010
00000000
00000000
00000200
00000000
00000000
00000000
00000301
00000000
00001000
00000000
00000100
00000000
,
00010000
00000000
00000000
00010000
00000000
00000000
00010000
00000000
00001000
00000000
00000000
00001000
00000000
00000000
00001000
00000000
,
01000000
00000000
00100000
00000000
10000000
00000000
00000000
00010000
00000000
00000000
00100000
00000000
00001000
00000000
01000000
00000000
,
00020000
00000000
00000000
00130000
00000000
00000000
00001000
00000000
00020000
00000000
00000000
00030010
00000000
00000000
00001000
00000000
,
00000100
00000000
00000000
00010000
00000000
00000000
00002000
00000000
00000000
00000000
01003000
00000000
00010000
00000000
10000000
00000000
,
01000000
00000000
00000000
00010000
00000000
00000000
00001000
00000000
00000020
00000000
00000000
00000000
00000030
00000000
00000000
00000000
,
00000001
00000000
00001000
00000000
00000010
00000000
00000000
00010000
00000000
00000000
00001000
00000000
00100000
00000000
00010000
00000000
,
01000000
00000000
00100000
10000000
00000000
00000000
00010000
00000000
00100000
00000000
00001000
00010000
00000000
00000000
00000010
00000000
,
00001000
00000000
00000000
00000100
00000000
00000000
00000100
00000000
00000010
00000000
00000001
00000000
00001000
00000000
00000010
00000000
,
00010000
00000000
00000000
00010000
00000000
00000000
00010000
00000000
00001000
00000000
00000000
00001000
00000000
00000000
00001000
00000000
,
01000000
00000000
00010000
00000000
10000000
00000000
00000000
01000000
00000000
00000000
10000000
00000000
00100000
00000000
01000000
00000000
,
00010000
00000000
01000000
00001000
00000000
00000000
00010000
00000000
00000010
00000000
00001000
00000010
00000000
00000000
00000100
00000000
,
00000001
00000000
00000000
00001000
00000000
00000000
00001000
00000000
00000100
00000000
00010000
00000000
00001000
00000000
01000000
00000000
,
00020000
00000000
00000000
01000000
02000000
00000000
03030000
00000000
,
00010000
00200000
00000000
01000000
00000000
00301000
00010000
00000010
,
00000100
00002000
00000000
00013000
00000100
00000010
00001000
00000010
,
00000001
00000200
00000000
00010000
00000000
00000310
00001000
00000100
,
00010000
00001000
00010000
01000000
00200000
00000000
00300000
00000000
,
00010000
10000000
00100000
00010000
00001000
00010000
00100000
00000000
,
01000000
00001000
00010000
00000100
00001000
00010000
00001000
00000100
,
00001000
00000010
00000001
00000010
00001000
00000100
00000010
00000000
,
00000100
00010000
00001000
00010000
01000000
00100000
00001000
00010000
,
00100000
00010000
00001000
00100000
01000000
00010000
01000000
00000000
,
10000000
00100000
00010000
00001000
00010000
01000000
00010000
00001000
,
00000010
00001000
00010000
00000010
00001000
00000100
00000010
00000000
,
00000001
00000100
00001000
00010000
01000000
10000000
00010000
01000000
,
00200000
00000000
10300000
00010000
00100000
00001000
00010000
00000000
,
00020010
00031000
00102000
00013000
,
00020010
00000000
00030100
00001000
00000100
00000001
00000100
00000000
,
00020100
00031000
01002000
00013000
,
00020100
00000000
00031000
00100000
01000000
00100000
00001000
00000000
,
00021000
00030010
00012000
00103000
,
00021000
00000000
00030100
00000010
00000100
00010000
00001000
00000000
,
01000000
00100000
00010000
00001000
00000100
00000001
00000100
00001000
,
00020000
00001000
00001000
00001000
,
00032000
01000000
01000000
01000000
,
02003000
00100000
00100000
00100000
,
03020000
10000000
10000000
10030000
,
20020000
00000000
00000000
30030000
,
02200000
00000000
00000000
03300000
,
02002000
00000000
00000000
03003000
,
00022000
00000000
00000000
00033000
,
00010000
00000010
00001000
00000100
00000001
00000100
00001000
00000010
,
00001000
00000100
00010000
00001000
00010000
01000000
10000000
00010000
,
01000000
00100000
00010000
00001000
00010000
00100000
01000000
00010000
,
00001000
00000100
00000010
00000100
00001000
00010000
20000000
00020000
,
00000000
00000000
00000000
00000000
,
00000000
30030000
00000000
00000000
;

//---------------dance-single - ----------------
#NOTES:
     dance-single:
     :
     Easy:
     9:
     0.378097,0.452237,0.115073,0.429606,0.030686,345.000000,330.000000,15.000000,56.000000,0.000000,0.000000,0.378097,0.452237,0.115073,0.429606,0.030686,345.000000,330.000000,15.000000,56.000000,0.000000,0.000000:
0000
0000
0000
0000
,
0000
0000
0000
0000
,
0000
0000
0000
0000
,
0000
0000
0000
0000
,
0000
0000
0000
0000
,
0001
0000
0100
0000
0010
1000
0010
0000
,
0100
0000
0001
0000
0010
0001
0010
0000
,
0001
0000
0100
0000
0010
1000
0010
0000
,
0100
0000
0001
0000
0010
0001
0010
0000
,
0002
1000
0000
1000
,
2003
0010
0000
0010
,
3020
0100
0000
0130
,
0001
1000
0001
1001
,
2000
0000
0000
3001
0000
0000
0100
0001
,
0200
0000
0000
0310
1000
0000
1000
0000
,
0002
0000
0000
0013
0000
0000
0100
1000
,
0200
0000
0000
1300
0000
0000
0010
0100
,
0020
0000
0000
1030
0000
0000
0001
0010
,
0002
0000
0000
0103
0010
0000
0010
0000
,
2000
0000
0000
3100
0000
0000
1000
0001
,
2000
0000
0000
0002
0000
0000
3003
0000
,
0001
0100
0000
0100
0000
0000
0010
0000
,
1000
0000
0100
0000
0010
0001
0010
0000
,
0001
1000
0000
1000
0000
0000
0010
0000
,
0100
0001
0000
0001
0000
0000
1000
0000
,
0001
0010
0000
0010
0000
0000
0001
0000
,
0100
0000
0010
0000
1000
0001
1000
0000
,
0100
1000
0000
1000
0000
0000
0001
0000
,
0100
0010
0000
0020
0000
0000
0030
0000
,
1000
0000
0020
0000
0000
1030
0001
0000
,
0010
0000
0002
0000
0000
1003
0010
0000
,
0100
0000
0020
0000
0000
0130
0001
0000
,
1000
1000
0001
0001
,
0100
0010
1000
1001
,
0001
0010
0001
0101
,
0100
0010
1000
1010
,
0010
0100
0001
0011
,
0010
0010
0001
0001
,
1000
0010
0100
0101
,
0001
0001
1000
1000
,
0100
0010
0001
1001
,
2000
0000
0010
0010
,
3020
0000
0230
0000
,
0302
0000
1000
1000
,
2003
0000
3200
0000
,
0320
0000
0001
0001
,
0032
0000
0203
0000
,
0320
0000
1000
1000
,
2030
0000
0002
3003
,
0001
0000
0000
0000
0100
0000
0000
0001
0000
0000
0001
0000
1000
0000
0000
0000
,
0001
0010
0001
0100
,
0020
0000
1000
1030
,
0001
0010
0001
1001
,
1000
0000
0000
0000
0010
0000
0000
0100
0000
0000
0100
0000
0001
0000
0000
0000
,
1000
0100
1000
0010
,
0200
0000
0001
0301
,
1000
0001
2002
3003
,
1000
0000
0000
0000
0001
0000
0000
0010
0000
0000
0010
0000
0001
0000
0000
0000
,
1000
0000
0000
1000
0000
0000
1000
0000
0010
0000
0000
0000
0100
0000
0000
0000
,
0001
0000
0000
0010
0000
0000
0001
0000
0000
0000
0001
0000
1000
0000
0000
0000
,
0020
0100
0100
0130
,
0001
0000
0000
0000
1000
0000
0000
0100
0000
0000
0100
0000
1000
0000
0000
0000
,
0001
0000
0000
0001
0000
0000
0001
0000
0010
0000
0000
0000
0001
0000
0000
0000
,
0100
0000
0000
0010
0000
0000
1000
0000
0000
0000
1000
0000
0100
0000
0000
0000
,
2000
0000
0002
3003
,
0001
0000
2000
0000
0000
3010
0100
0000
,
0001
0000
2000
0000
0000
3100
0010
0000
,
0001
0000
2000
0000
0000
3010
0100
0000
,
0001
0001
1000
1000
,
0001
0010
0001
0101
,
0100
0010
1000
1100
,
0100
0010
0001
1001
,
1000
0010
0100
0110
,
0010
0010
1000
1000
,
0001
0010
0100
1100
,
1000
1000
0001
0001
,
0100
0010
1000
1010
,
0020
0000
0100
0100
,
0230
0000
0302
0000
,
2003
0000
0100
0100
,
3200
0000
0320
0000
,
0032
0000
0100
0100
,
0203
0000
0320
0000
,
2030
0000
0001
0001
,
3002
0000
0023
0000
,
0200
0000
0000
0000
,
0330
0000
0000
0000
,
0100
0100
0100
0000
,
0010
0010
0010
0000
,
0002
0000
0000
0000
,
2003
0000
0000
0000
,
3020
0000
0000
0000
,
0230
0000
0000
0000
,
0301
0000
1000
0000
0100
0010
0100
0000
,
1000
0000
0001
0000
0100
0010
0100
0000
,
0010
1000
0001
0010
,
0001
0000
1000
0000
0010
0100
0010
0200
,
0000
0000
0000
0000
,
0000
0300
0000
0000
;

//---------------dance-double - ----------------
#NOTES:
     dance-double:
     :
     Easy:
     9:
     0.363850,0.452237,0.069044,0.437277,0.038358,332.000000,323.000000,9.000000,57.000000,0.000000,0.000000,0.363850,0.452237,0.069044,0.437277,0.038358,332.000000,323.000000,9.000000,57.000000,0.000000,0.000000:
00000000
00000000
00000000
00000000
,
00000000
00000000
00000000
00000000
,
00000000
00000000
00000000
00000000
,
00000000
00000000
00000000
00000000
,
00000000
00000000
00000000
00000000
,
10000000
00000000
00010000
00000000
01000000
00010000
01000000
00000000
,
00001000
00000000
00010000
00000000
00000100
00001000
00000100
00000000
,
00000010
00000000
00000001
00000000
00001000
00000010
00001000
00000000
,
00000100
00000000
00010000
00000000
00001000
00100000
00001000
00000000
,
02000000
00010000
00000000
00010000
,
03002000
00100000
00000000
00100000
,
00023000
00000010
00000000
00030010
,
00000100
00000100
00000001
00000001
,
00002000
00000000
00000000
00003100
00000000
00000000
00010000
00001000
,
00020000
00000000
00000000
00031000
01000000
00000000
00100000
00000000
,
20000000
00000000
00000000
30010000
00000000
00000000
00100000
00001000
,
00200000
00000000
00000000
00301000
00000000
00000000
00010000
00000010
,
00020000
00000000
00000000
00030100
00000000
00000000
00001000
00000010
,
00002000
00000000
00000000
00003001
00000010
00000000
00000001
00000000
,
00002000
00000000
00000000
00003100
00000000
00000000
00010000
00001000
,
00020000
00000000
00000000
00002000
00000000
00000000
00033000
00000000
,
00001000
01000000
00000000
01000000
00000000
00000000
00100000
00000000
,
00010000
00001000
00000010
00000100
,
00001000
00000001
00000000
00000001
00000000
00000000
00000100
00000000
,
00000010
00010000
00000000
00010000
00000000
00000000
00000100
00000000
,
00010000
00001000
00000000
00001000
00000000
00000000
00100000
00000000
,
00010000
01000000
00100000
00010000
,
00001000
01000000
00000000
01000000
00000000
00000000
00001000
00000000
,
00020000
00000000
00000000
00002000
00000000
00000000
00033000
00000000
,
00010000
00000000
00000020
00000000
00000000
00001030
00000001
00000000
,
00001000
00000100
00001000
00010000
,
00100000
00000000
00020000
00000000
00000000
10030000
00100000
00000000
,
01000000
01000000
00020000
00030000
,
10000000
00010000
00100000
00101000
,
00001000
00010000
00000010
00010010
,
00010000
00001000
01000000
01001000
,
00001000
00010000
00000100
00010100
,
00010000
00010000
00001000
00001000
,
01000000
00010000
10000000
01000000
,
00100000
00100000
00001000
00001000
,
00010000
00000010
00010000
00000100
,
00002000
00000000
00000010
00000010
,
00003020
00000000
00020030
00000000
,
00032000
00000000
00100000
00100000
,
00203000
00000000
02300000
00000000
,
23000000
00000000
00100000
00100000
,
30200000
00000000
02300000
00000000
,
03002000
00000000
00010000
00010000
,
00023000
00000000
00000200
00030300
,
00000100
00000000
00000000
00000000
00001000
00000000
00000000
00001000
00000000
00000000
00001000
00000000
00000010
00000000
00000000
00000000
,
00010000
00000100
00010000
00001000
,
00200000
00000000
00010000
00310000
,
01000000
00000000
00000000
01000000
00000000
00000000
01000000
00000000
00100000
00000000
00000000
00100000
00000000
00000000
00100000
00000000
,
10000000
00000000
00000000
00000000
00010000
00000000
00000000
00010000
00000000
00000000
00010000
00000000
01000000
00000000
00000000
00000000
,
00001000
00010000
00000010
00000100
,
00000002
00000000
00001000
00001003
,
00000100
00010000
00022000
00033000
,
00001000
00000000
00000000
00000000
01000000
00000000
00000000
00010000
00000000
00000000
00010000
00000000
01000000
00000000
00000000
00000000
,
00100000
00000000
00000000
00100000
00000000
00000000
00100000
00000000
10000000
00000000
00000000
00000000
00010000
00000000
00000000
00000000
,
00100000
00000000
00000000
00001000
00000000
00000000
00001000
00000000
00010000
00000000
00000000
00000000
00000010
00000000
00000000
00000000
,
00002000
00000100
00000100
00003100
,
00000010
00000000
00000000
00000000
00000001
00000000
00000000
00001000
00000000
00000000
00001000
00000000
00000100
00000000
00000000
00000000
,
00010000
00000000
00000000
00010000
00000000
00000000
00010000
00000000
00001000
00000000
00000000
00000000
01000000
00000000
00000000
00000000
,
00100000
00000000
00000000
10000000
00000000
00000000
10000000
00000000
00010000
00000000
00000000
00000000
00100000
00000000
00000000
00000000
,
00002000
00000000
00020000
00033000
,
00001000
00000000
02000000
00000000
00000000
03100000
10000000
00000000
,
00010000
00100000
00001000
00010000
,
00000010
00000000
00002000
00000000
00000000
00003100
00000010
00000000
,
00000001
00000001
00002000
00003000
,
00000100
00010000
00001000
01001000
,
01000000
00001000
00010000
00010100
,
00000100
00010000
00001000
00101000
,
00100000
00001000
00010000
00010010
,
00000010
00000010
00000100
00000100
,
00000001
00001000
00000100
00010000
,
00001000
00001000
00100000
00100000
,
00010000
01000000
00001000
00010000
,
00000020
00000000
00001000
00001000
,
00002030
00000000
00003200
00000000
,
00020300
00000000
00001000
00001000
,
00032000
00000000
00203000
00000000
,
00320000
00000000
01000000
01000000
,
02030000
00000000
03002000
00000000
,
00023000
00000000
00000100
00000100
,
00030200
00000000
00000320
00000000
,
00000002
00000000
00000000
00000000
,
00000033
00000000
00000000
00000000
,
00000001
00000001
00000001
00000000
,
00001000
00001000
00001000
00000000
,
00000200
00000000
00000000
00000000
,
00020300
00000000
00000000
00000000
,
00032000
00000000
00000000
00000000
,
02003000
00000000
00000000
00000000
,
03100000
00100000
10000000
00000000
,
00010000
00010000
00100000
00000000
,
00001000
00010000
00000010
00001000
,
00000100
00000000
00000010
00000000
00000001
00001000
00000001
00002000
,
00000000
00000000
00000000
00000000
,
00000000
00003000
00000000
00000000
;

//---------------dance-single - ----------------
#NOTES:
     dance-single:
     :
     Beginner:
     5:
     0.253161,0.301491,0.268504,0.230146,0.000000,231.000000,196.000000,35.000000,30.000000,0.000000,0.000000,0.253161,0.301491,0.268504,0.230146,0.000000,231.000000,196.000000,35.000000,30.000000,0.000000,0.000000:
0000
0000
0000
0000
,
0000
0000
0000
0000
,
0000
0000
0000
0000
,
0000
0000
0000
0000
,
0000
0000
0000
0000
,
0001
0001
0001
0000
,
1000
1000
1000
0000
,
0010
0010
0010
0000
,
0100
0100
0100
0000
,
0002
0000
0000
0000
,
2003
0000
0000
0000
,
3002
0000
0000
0000
,
1003
0000
1001
0000
,
0002
0000
1003
0000
,
2000
0000
3100
0000
,
0200
0000
0310
0000
,
0020
0000
0031
0000
,
1000
0000
1001
0000
,
0001
0000
1001
0000
,
0100
0000
0110
0000
,
0020
0000
0130
0000
,
0001
0000
0001
0000
,
1000
1000
1000
0000
,
0100
0000
0100
0000
,
0010
0010
0010
0000
,
0001
0000
0001
0000
,
0100
0100
0100
0000
,
0010
0000
1000
0000
,
0001
0000
1001
0000
,
2000
0000
3010
0000
,
0100
0000
0001
0001
,
0002
0000
1003
0000
,
0100
0100
0100
0000
,
1000
0000
1001
0000
,
0001
0001
0001
0000
,
0100
0000
0110
0000
,
0010
0010
0010
0000
,
1000
0000
1001
0000
,
0001
0001
0001
0000
,
0010
0000
0110
0000
,
0100
0100
0100
0000
,
2000
0000
3001
0000
,
1001
0000
1001
0000
,
0002
0000
1003
0000
,
1001
0000
1001
0000
,
0020
0000
0130
0000
,
0110
0000
0110
0000
,
0200
0000
0310
0000
,
0110
0000
0110
0000
,
0010
0000
1000
0000
,
0001
0000
0010
0010
,
0020
0000
0031
0000
,
1000
0000
1000
0000
,
0010
0000
0100
0000
,
0001
0000
1000
1000
,
2000
0000
3100
0000
,
1000
0000
1001
0000
,
0001
0000
0100
0100
,
0100
0000
0010
0000
,
1000
1000
1000
0000
,
0001
0000
1000
0000
,
0100
0000
1000
1000
,
1000
0000
0010
0000
,
0100
0100
0100
0000
,
0001
0000
1001
0000
,
2000
0000
3001
0000
,
0100
0000
0010
0010
,
0020
0000
1030
0000
,
0001
0001
0001
0000
,
1000
0000
1001
0000
,
0001
0001
0001
0000
,
0010
0000
0110
0000
,
0100
0100
0100
0000
,
1000
0000
1001
0000
,
0001
0001
0001
0000
,
0100
0000
0110
0000
,
0010
0010
0010
0000
,
2000
0000
3001
0000
,
1001
0000
1001
0000
,
2000
0000
3010
0000
,
0110
0000
0110
0000
,
0200
0000
0301
0000
,
1001
0000
1001
0000
,
2000
0000
3100
0000
,
0110
0000
0110
0000
,
0020
0000
0000
0000
,
0030
0000
0000
0000
,
0200
0000
0000
0000
,
0300
0000
0000
0000
,
2000
0000
3000
0000
,
0002
0000
0003
0000
,
0200
0000
0300
0000
,
0020
0000
0030
0000
,
1000
0000
1001
0000
,
0010
0000
0110
0000
,
1000
0000
1001
0000
,
0100
0000
0220
0000
,
0000
0000
0000
0000
,
0000
0330
0000
0000
;

//---------------dance-single - ----------------
#NOTES:
     dance-single:
     :
     Challenge:
     17:
     0.910721,1.202897,0.368234,0.560022,0.713453,831.000000,783.000000,48.000000,73.000000,0.000000,0.000000,0.910721,1.202897,0.368234,0.560022,0.713453,831.000000,783.000000,48.000000,73.000000,0.000000,0.000000:
// measure 0
0000
0000
0000
0000
,  // measure 1
0000
0000
0000
0000
,  // measure 2
0000
0000
0000
0000
,  // measure 3
0000
0000
0000
0000
,  // measure 4
0000
0000
0000
0000
,  // measure 5
0001
0100
0001
0010
0100
1000
0100
0010
0001
1000
0010
0100
0010
1000
0001
0000
,  // measure 6
1000
0100
0010
0100
1000
0001
1000
0010
0100
0001
0100
0010
1000
0001
1000
0000
,  // measure 7
0100
0010
0100
1000
0001
0100
0010
1000
0001
1000
0100
0010
0001
0010
0100
0000
,  // measure 8
1000
0001
1000
0010
0100
0001
1000
0001
0010
0100
1000
0001
0100
0010
0100
0001
,  // measure 9
1000
0000
1100
0000
0100
0010
1001
0000
,  // measure 10
0001
0000
0101
0000
0100
0010
1001
0000
,  // measure 11
1000
0000
1100
0000
0100
0010
1001
0000
,  // measure 12
0002
0203
0320
2030
,  // measure 13
3001
0000
0100
0010
1000
0000
0002
0000
0000
0000
1003
0000
0010
0000
0100
0000
,  // measure 14
2000
0000
0000
0000
3100
0000
0001
0100
0010
0000
1000
0000
0001
0000
1000
0000
,  // measure 15
0100
0000
0001
0100
0010
0000
0002
0000
0000
0000
0103
0000
0010
0000
0100
0000
,  // measure 16
1000
0000
0100
0010
1000
0000
0002
0000
0000
0000
1003
0000
0100
0000
0010
0000
,  // measure 17
0110
0000
0100
1000
0001
0000
0100
0010
1000
0010
0100
0000
0001
0000
1000
0100
,  // measure 18
0010
0000
0010
0000
0001
0000
1000
0010
0200
0000
0302
0000
2003
0000
3200
0000
,  // measure 19
0310
0000
0001
0100
0010
0000
1000
0001
1000
0100
0010
0000
0001
0000
0100
0000
,  // measure 20
0010
0000
1000
0001
0010
0000
0020
0000
0000
0000
0000
0000
0130
0000
0000
0000
,  // measure 21
1000
0000
0001
0100
0010
0000
0020
0000
0000
0000
1030
0000
0001
0000
0010
0000
,  // measure 22
0100
0000
0001
0100
1000
0000
1000
0000
0010
0000
0001
0010
1000
0000
1000
0000
,  // measure 23
0001
0000
1000
0100
0010
0000
0020
0000
0000
0000
0031
0000
0100
0000
1000
0000
,  // measure 24
0100
0100
0001
0020
0000
1030
0010
0001
,  // measure 25
1001
0000
1000
0010
0100
0000
0001
1000
0100
1000
0001
0000
0010
0000
0100
1000
,  // measure 26
0001
0000
0001
0000
0100
0000
0010
1000
0200
0000
0302
0000
0203
0000
2300
0000
,  // measure 27
3010
0000
0100
0001
1000
0000
0001
0010
0100
0010
0001
0000
1000
0000
0010
0000
,  // measure 28
0100
0200
0000
0320
0000
0000
0130
0000
,  // measure 29
0001
1000
0100
0200
0000
0301
0100
1000
,  // measure 30
0001
0000
0001
0000
1000
0000
0010
0100
0001
1000
0010
0000
0100
0000
0100
0000
,  // measure 31
0001
1000
0100
0200
0000
0301
0100
1000
,  // measure 32
1001
1100
0011
1001
,  // measure 33
1000
0000
0001
0100
0010
0000
0100
0000
1000
0100
0010
0000
1000
0000
0001
0000
,  // measure 34
1000
0000
0100
0010
0001
0000
0010
0000
1000
0010
0100
0000
1000
0000
1000
0000
,  // measure 35
0010
0000
0001
0010
0100
0000
0010
0000
1000
0010
0100
0000
0001
0000
1000
0000
,  // measure 36
0100
0000
0001
0100
0010
0000
0100
0000
0010
0100
1000
0000
0001
0000
0001
0000
,  // measure 37
1000
0000
0001
0100
1000
0000
0001
0000
1000
0100
0001
0000
1000
0000
0100
0000
,  // measure 38
0010
0000
0001
0010
1000
0000
0001
0000
1000
0010
0001
0000
1000
0000
1000
0000
,  // measure 39
0001
0000
1000
0010
0001
0000
1000
0000
0001
0010
1000
0000
0001
0000
0010
0000
,  // measure 40
0100
0000
1000
0100
0001
0000
1000
0000
0001
0100
1000
0000
0001
0000
0001
0000
,  // measure 41
0100
0000
0001
0000
1001
0000
1000
0001
0100
0010
1000
0000
0100
0000
0001
0000
,  // measure 42
0201
1300
1020
0031
,  // measure 43
1200
0000
0000
0000
0301
0000
1000
0001
0010
0100
1000
0000
0001
0000
1000
0000
,  // measure 44
1200
0301
1020
0031
,  // measure 45
0201
0000
0000
0000
1300
0000
0100
0010
1000
0001
0010
0000
0100
0000
1000
0000
,  // measure 46
1200
0301
0201
1300
,  // measure 47
1020
0000
0000
0000
0031
0000
0010
1000
0001
1000
0100
0000
0010
0000
0001
0000
,  // measure 48
0100
0100
0010
2000
0002
0000
3003
0000
,  // measure 49
0001
0000
1000
0000
0100
0000
0001
0100
0000
0010
0001
0000
1000
0000
0010
0000
,  // measure 50
0100
0000
1000
0200
0000
0000
0301
0000
1000
0000
0100
0002
0000
0000
0103
0000
,  // measure 51
1000
0000
0001
0100
0000
1000
0200
0000
0000
0000
0301
0000
1000
0100
0010
0001
,  // measure 52
0200
0000
0000
0320
0000
0000
1030
0000
0002
0000
0000
0023
0000
0000
0130
0000
,  // measure 53
1000
0000
0001
0000
0100
0000
1000
0100
0000
0010
1000
0000
0001
0000
0010
0000
,  // measure 54
1000
0000
0010
0001
0000
0010
0100
0000
1000
0000
0010
0001
0000
0010
0100
0000
,  // measure 55
0010
0000
1000
0100
0000
0001
0100
0000
0010
0000
0001
0000
1000
0010
0100
0001
,  // measure 56
2000
0000
0000
0001
0000
0000
3001
0000
2002
0000
0000
0000
3003
0000
0000
0000
,  // measure 57
0001
0000
1000
0010
0100
0000
0010
0001
0000
0010
0100
0000
0001
0000
1000
0000
,  // measure 58
1001
0000
0001
0020
0000
0000
0130
0000
1001
0000
1000
0020
0000
0000
0130
0000
,  // measure 59
0101
0000
0001
0100
0000
1000
0100
0000
0010
0000
1000
0000
0001
0010
0100
1000
,  // measure 60
0001
0000
0100
0010
0000
0100
1000
0000
0100
0000
0001
0010
0000
1000
0010
0000
,  // measure 61
0001
0000
1000
0010
0100
0000
1000
0100
0000
0001
0100
0000
0010
0000
1000
0000
,  // measure 62
1001
0000
0001
0100
0000
0010
1000
0000
1001
0000
1000
0100
0000
0010
0001
0000
,  // measure 63
1001
0000
1000
0010
0000
0001
0010
0000
0100
0000
0001
0000
1000
0100
0010
0001
,  // measure 64
2000
0000
0000
0001
0002
0000
3003
0000
,  // measure 65
0001
0100
0010
0020
0000
1030
0001
0010
,  // measure 66
1000
0000
1000
0000
0010
0000
0001
0100
0010
1000
0001
0000
1000
0000
0001
0000
,  // measure 67
0010
0100
1000
2000
0000
3001
0100
0010
,  // measure 68
1010
0101
0011
1100
,  // measure 69
1000
0000
0001
0100
0010
0000
0100
0000
1000
0100
0010
0000
1000
0000
0001
0000
,  // measure 70
1000
0000
0100
0010
0001
0000
0010
0000
1000
0010
0100
0000
1000
0000
1000
0000
,  // measure 71
0001
0000
1000
0010
0001
0000
1000
0000
0001
0010
1000
0000
0001
0000
0010
0000
,  // measure 72
0100
0000
1000
0100
0001
0000
1000
0000
0001
0100
1000
0000
0001
0000
0001
0000
,  // measure 73
1000
0000
0001
1000
0100
0000
0001
0000
0100
0010
0001
0000
1000
0000
0001
0000
,  // measure 74
0100
0000
0001
1000
0010
0000
0100
0000
1000
0100
0010
0000
1000
0000
1000
0000
,  // measure 75
0001
0000
1000
0100
0001
0000
1000
0000
0001
0100
1000
0000
0001
0000
0100
0000
,  // measure 76
0010
0000
1000
0010
0001
0000
1000
0000
0001
0010
1000
0000
0001
0000
0001
0000
,  // measure 77
1000
0000
0100
0010
0001
0000
1000
0010
0100
0001
1000
0000
0001
0000
0100
0000
,  // measure 78
2100
0000
3001
0010
2010
0000
3001
0010
,  // measure 79
0110
0000
0100
1000
0001
0000
1000
0100
0010
0001
1000
0000
0001
0000
0100
0000
,  // measure 80
0201
0000
1300
0001
0021
0000
1030
0001
,  // measure 81
0011
0000
0010
0100
1000
0000
0010
0100
0001
1000
0010
0000
1000
0000
0100
0000
,  // measure 82
1200
0000
0301
1000
1020
0000
0031
0100
,  // measure 83
0110
0000
0010
1000
0001
0000
0010
0100
1000
0001
0010
0000
0001
0000
1000
0000
,  // measure 84
0010
0000
0100
0010
1000
0000
0010
0100
0001
0000
1000
0100
0010
0000
0001
0010
,  // measure 85
0200
1000
0010
1000
,  // measure 86
0320
0001
0100
0001
,  // measure 87
0032
0100
1000
0100
,  // measure 88
2003
0100
0001
3100
,  // measure 89
0220
0000
0000
0330
,  // measure 90
0022
0033
2200
3300
,  // measure 91
0202
0000
0000
0303
,  // measure 92
2002
0000
0000
3003
,  // measure 93
0001
0100
0010
1000
0001
1000
0100
0010
0001
1000
0001
0100
0010
1000
0010
0000
,  // measure 94
1000
0001
1000
0100
0010
0100
1000
0001
1000
0010
0100
0001
1000
0010
0100
0000
,  // measure 95
0001
1000
0100
0010
0001
0010
0100
1000
0001
0100
1000
0100
0010
1000
0001
0000
,  // measure 96
1000
0010
0100
0010
1000
0001
1000
0100
0001
0100
0010
0100
1000
0000
2002
0000
,  // measure 97
0000
0000
0000
0000
,  // measure 98
3003
0000
0000
0000
;

//---------------dance-double - ----------------
#NOTES:
     dance-double:
     :
     Challenge:
     17:
     0.832910,1.202897,0.260832,0.606051,0.586872,760.000000,726.000000,34.000000,79.000000,0.000000,0.000000,0.832910,1.202897,0.260832,0.606051,0.586872,760.000000,726.000000,34.000000,79.000000,0.000000,0.000000:
00000000
00000000
00000000
00000000
,
00000000
00000000
00000000
00000000
,
00000000
00000000
00000000
00000000
,
00000000
00000000
00000000
00000000
,
00000000
00000000
00000000
00000000
,
00000001
00000100
00000001
00001000
00000100
00001000
00000100
00010000
00001000
00010000
00001000
01000000
00010000
01000000
00100000
00000000
,
10000000
00100000
10000000
00010000
01000000
00010000
01000000
00001000
00010000
00001000
00010000
00000010
00001000
00000010
00000100
00000000
,
00000001
00000010
00000001
00000010
00000100
00001000
00000100
00010000
00001000
01000000
00010000
01000000
00100000
10000000
00010000
00000000
,
10000000
01000000
10000000
01000000
00100000
00010000
00100000
00001000
00010000
00000010
00001000
00000010
00000100
00000001
00001000
00000000
,
00002001
00003001
00002010
00003010
,
00012000
00013000
01020000
01030000
,
10020000
10030000
00120000
00130000
,
00021000
00031000
00002100
00003100
,
00000010
00000000
00000001
00001000
00000010
00000000
00020000
00000000
00000000
00000000
00030100
00000000
00001000
00000000
00010000
00000000
,
00200000
00000000
00000000
00000000
00310000
00000000
10000000
00000000
00100000
00000000
01000000
00010000
10000000
00000000
01000000
00000000
,
00100000
00000000
00001000
00010000
00001000
00000000
02000000
00000000
00000000
00000000
03010000
00000000
00010000
00000000
01000000
00000000
,
00001000
00000000
00010000
00001000
00010000
00000000
00000200
00000000
00000000
00000000
00001300
00000000
00000010
00000000
00000100
00000000
,
00000001
00000000
00001000
00000010
00000100
00000000
00000010
00010000
00001000
00010000
00001000
00000000
01000000
00000000
00010000
10000000
,
01000000
00000000
01000000
00000000
00100000
00000000
00010000
10000000
00200000
00000000
02300000
00000000
03002000
00000000
00023000
00000000
,
00030100
00000000
00001000
00000010
00000100
00000000
00000001
00001000
00000100
00001000
00000100
00000000
00010000
00000000
00001000
00000000
,
01000000
00000000
00010000
01000000
00100000
00000000
00200000
00000000
00000000
00000000
00000000
00000000
01300000
00000000
00000000
00000000
,
00010000
00000000
10000000
01000000
00100000
00000000
00200000
00000000
00000000
00000000
00301000
00000000
00010000
00000000
00000010
00000000
,
00001000
00000000
00000010
00000100
00001000
00000000
00001000
00000000
00010000
00000000
00001000
00000100
00000010
00000000
00000010
00000000
,
00001000
00000000
00000001
00000010
00000100
00000000
00000200
00000000
00000000
00000000
00010300
00000000
00001000
00000000
01000000
00000000
,
00010000
00000000
00100000
01000000
10000000
00000000
20000000
00000000
00000000
00000000
30010000
00000000
01000000
00000000
00100000
00000000
,
10000000
00000000
00010000
00100000
01000000
00000000
00100000
00001000
00010000
00001000
00010000
00000000
00000010
00000000
00001000
00000001
,
00000010
00000000
00000010
00000000
00000100
00000000
00010000
00000100
00002000
00000000
00003200
00000000
00020300
00000000
00032000
00000000
,
01003000
00000000
00100000
10000000
00010000
00000000
10000000
01000000
00100000
01000000
10000000
00000000
00010000
00000000
01000000
00000000
,
00001000
00002000
00000000
00023000
00000000
00000000
00031000
00000000
,
00010000
00000010
00000100
00002000
00000000
00003100
00000001
00001000
,
00000100
00010000
00000000
00001000
00010000
01000000
10000000
00010000
,
01000000
00100000
01000000
20000000
00000000
31000000
00010000
01000000
,
00001000
00010000
00000100
00000010
00000002
00000000
00000003
00000000
,
00001000
00000010
00001000
00010000
10000000
01000000
00010000
00000000
,
01000000
00100000
00001000
00010000
00000010
00000100
00001000
00000000
,
00000100
00000001
00001000
00000100
00001000
00010000
00100000
00000000
,
10000000
00100000
00010000
01000000
00001000
00010000
00000010
00000000
,
00000100
00001000
00010000
10000000
01000000
00010000
10000000
00000000
,
01000000
00010000
00001000
00000010
00000001
00001000
00000010
00000000
,
00000001
00001000
00010000
00100000
00010000
00001000
00000100
00000000
,
00001000
00010000
00100000
10000000
01000000
00010000
00001000
00010000
,
00010020
00000000
00000000
00000000
00000130
00000000
00000001
00001000
00000100
00000010
00000100
00000000
00010000
00000000
00001000
00000000
,
01002000
00013000
00020100
00031000
,
02001000
00000000
00000000
00000000
03100000
00000000
10000000
00010000
10000000
01000000
00100000
00000000
00001000
00000000
00010000
00000000
,
00012000
00103000
00021000
00030010
,
00002010
00000000
00000000
00000000
00003010
00000000
00000100
00000001
00001000
00000010
00000100
00000000
00000010
00000000
00010000
00000000
,
00012000
00103000
00021000
00030100
,
00012000
00000000
00000000
00000000
00103000
00000000
01000000
00100000
00010000
10000000
01000000
00000000
00100000
00000000
00001000
00000000
,
00010000
00000010
00000100
00000002
00002000
00000000
00003003
00000000
,
00000001
00000000
00001000
00000000
00000100
00000000
00010000
00001000
00000000
00010000
01000000
00000000
00100000
00000000
00010000
00000000
,
10000000
00000000
00100000
02000000
00000000
00000000
03010000
00000000
00001000
00000000
00000010
00000200
00000000
00000000
00000301
00000000
,
00001000
00000000
00000100
00000001
00000000
00000100
00002000
00000000
00000000
00000000
00003100
00000000
00010000
00001000
01000000
00010000
,
02000000
00000000
00000000
03200000
00000000
00000000
10300000
00000000
00020000
00000000
00000000
00230000
00000000
00000000
00301000
00000000
,
00010000
00000000
00000010
00001000
00000001
00000000
00001000
00000100
00000000
00000010
00000001
00000000
00001000
00000000
00000010
00000000
,
00010000
00000000
00001000
01000000
00000000
00100000
01000000
00000000
00010000
00000000
10000000
01000000
00000000
00100000
00001000
00000000
,
00010000
00000000
00000010
00001000
00000000
00000010
00000001
00000000
00000010
00000000
00001000
00000000
00000001
00000010
00000100
00001000
,
00000200
00000000
00000000
00020300
00000000
00000000
00031000
00000000
00022000
00000000
00000000
00000000
00033000
00000000
00000000
00000000
,
00001000
00000000
01000000
00100000
10000000
00000000
00010000
00100000
00000000
10000000
00100000
00000000
00010000
00000000
01000000
00000000
,
00001000
00000000
00010000
00000010
00000000
00000100
00000010
00000000
00001000
00000000
00000100
00000001
00000000
00000100
00001000
00000000
,
00000010
00000000
00010000
00000100
00000000
00010000
00001000
00000000
01000000
00000000
00010000
00000000
00100000
01000000
10000000
00010000
,
00100000
00000000
00001000
00010000
00000000
00001000
00010000
00000000
00000010
00000000
00010000
00001000
00000000
00010000
00001000
00000000
,
01000000
00000000
00010000
10000000
00100000
00000000
01000000
10000000
00000000
01000000
00010000
00000000
10000000
00000000
01000000
00000000
,
00100000
00000000
00001000
00010000
00000000
00000010
00001000
00000000
00000010
00000000
00000100
00000001
00000000
00001000
00000100
00000000
,
00000001
00000000
00000100
00000010
00000000
00000100
00010000
00000000
00001000
00000000
01000000
00000000
00010000
00100000
01000000
10000000
,
00020000
00000000
00000000
10000000
20000000
00000000
30030000
00000000
,
10000000
00100000
00010000
00200000
00000000
01300000
00001000
00010000
,
00000100
00000010
00000000
00001000
00000010
00000001
00000100
00000010
,
00001000
00010000
00001000
00000020
00000000
00001030
00000100
00001000
,
00010000
00100000
01000000
00100000
00020000
00000000
00030000
00000000
,
10000000
00100000
00010000
00001000
00000100
00001000
00010000
00000000
,
00001000
00000010
00000001
00001000
00000010
00001000
00010000
00000000
,
10000000
00010000
00001000
00010000
01000000
00001000
00010000
00000000
,
00000100
00000001
00000100
00010000
00001000
00000100
00000010
00000000
,
00001000
00010000
10000000
01000000
00010000
00001000
00100000
00000000
,
00001000
00010000
00001000
00000100
00010000
00001000
00000001
00000000
,
00000010
00001000
00010000
00100000
00010000
00001000
00000010
00000000
,
00001000
00010000
01000000
00100000
00001000
00010000
00000010
00000100
,
00000001
00000000
00001000
00000100
00010000
00000000
00000100
00010000
00001000
00010000
00000100
00000000
00010000
00000000
00001000
00000000
,
01002000
00013000
00020100
00031000
,
01001000
00000000
01000000
00100000
10000000
00000000
00010000
10000000
01000000
10000000
00010000
00000000
00100000
00000000
00001000
00000000
,
00102000
00013000
00020010
00031000
,
00101000
00000000
00100000
00010000
10000000
00000000
00010000
01000000
00001000
01000000
00010000
00000000
00100000
00000000
00001000
00000000
,
00021000
00030010
00012000
00103000
,
00011000
00000000
00010000
00000010
00001000
00000000
00000010
00000100
00000001
00000100
00000010
00000000
00001000
00000000
00000001
00000000
,
00000010
00000000
00000100
00010000
00001000
00000000
00010000
00001000
01000000
00000000
00010000
01000000
00100000
00000000
01000000
00100000
,
20000000
01000000
00010000
01000000
,
30020000
00100000
00001000
00100000
,
00032000
00000100
00000001
00000100
,
00003002
00000100
00001000
00000103
,
00000220
00000000
00000000
00000330
,
00020020
00030030
00022000
00033000
,
00202000
00000000
00000000
00303000
,
02200000
00000000
00000000
03300000
,
01000000
10000000
01000000
00100000
00010000
01000000
00010000
01000000
00001000
00010000
00000010
00001000
00000010
00000100
00000001
00000000
,
00000100
00000001
00000100
00000010
00001000
00000100
00001000
00000100
00010000
00001000
01000000
00010000
01000000
00100000
10000000
00000000
,
01000000
00100000
00010000
00100000
00010000
00001000
00000100
00001000
00000100
00000010
00000001
00001000
00000010
00000100
00000001
00000000
,
00000100
00000010
00001000
00000010
00001000
00010000
01000000
00010000
01000000
00100000
10000000
00010000
00100000
00000000
02200000
00000000
,
00000000
00000000
00000000
00000000
,
03300000
00000000
00000000
00000000
;
