#VERSION:0.83;
#TITLE:Someday of my life;
#SUBTITLE:;
#ARTIST:高坂穂乃果(CV.新田恵海);
#TITLETRANSLIT:;
#SUBTITLETRANSLIT:;
#ARTISTTRANSLIT:Kousaka Honoka (CV. Emi Nitta);
#GENRE:;
#ORIGIN:;
#CREDIT:;
#BANNER:Someday of my life.png;
#BACKGROUND:Someday of my life-bg.png;
#PREVIEWVID:;
#JACKET:Someday of my life-jacket.png;
#CDIMAGE:;
#DISCIMAGE:;
#LYRICSPATH:;
#CDTITLE:;
#MUSIC:Someday of my life.ogg;
#OFFSET:1.832061;
#SAMPLESTART:67.786255;
#SAMPLELENGTH:12.000000;
#SELECTABLE:YES;
#BPMS:0.000=131.000;
#STOPS:;
#DELAYS:;
#WARPS:;
#TIMESIGNATURES:0.000=4=4;
#TICKCOUNTS:0.000=4;
#COMBOS:0.000=1;
#SPEEDS:0.000=1.000=0.000=0;
#SCROLLS:0.000=1.000;
#FAKES:;
#LABELS:0.000=Song Start;
#BGCHANGES:;
#KEYSOUNDS:;
#ATTACKS:
;

//---------------dance-single - ----------------
#NOTEDATA:;
#CHARTNAME:;
#STEPSTYPE:dance-single;
#DESCRIPTION:;
#CHARTSTYLE:;
#DIFFICULTY:Hard;
#METER:11;
#RADARVALUES:0.461320,0.538971,0.247697,0.366959,0.256871,352.000000,325.000000,27.000000,40.000000,0.000000,0.000000,0.000000,0.000000,0.000000,0.461320,0.538971,0.247697,0.366959,0.256871,352.000000,325.000000,27.000000,40.000000,0.000000,0.000000,0.000000,0.000000,0.000000;
#CREDIT:Kekkle;
#NOTES:
0000
0000
0000
0000
,
0000
0000
0000
0000
,
0000
0000
0000
0000
,
0000
0000
0000
0000
,
0000
0000
0000
0000
,
2002
0000
0000
3003
,
0001
0100
0010
1000
0001
0010
0001
1000
,
0200
0001
0010
1300
,
0001
0010
0100
0010
0001
1000
0010
0100
,
0002
0000
2003
0000
3200
0010
0310
0001
,
1000
0010
1000
0000
0010
0001
0010
0000
,
0001
0100
0001
0000
0100
1000
0100
0000
,
1000
0001
1000
0010
0100
0100
0010
0010
,
0000
1000
0000
0000
0001
0000
0000
2002
0000
0000
0000
0000
3003
0000
0000
0000
,
0001
1000
0100
0010
0001
0000
1000
0010
,
0200
0000
0000
0001
0000
0000
0020
0000
0000
0000
0330
0000
0010
0000
1000
0000
,
0100
0010
0100
1000
0001
0000
0100
0010
,
2000
0000
0000
0001
0000
0000
0200
0000
3300
0000
0100
0000
0010
0000
0001
0000
,
0100
0000
0000
1000
0000
0000
0100
0000
0001
0000
0000
0010
0000
0000
1000
0000
,
0100
0000
0000
0001
0000
0000
1000
0000
0200
0000
0000
0000
1300
0000
0001
0000
,
0010
0000
0000
0000
0100
0000
1000
0000
0001
0000
0000
0100
0000
0000
0100
0000
,
0020
0000
0001
0000
0100
0000
1030
0001
,
0010
0000
0100
0000
0010
0000
0001
1000
0000
1000
0010
0000
1010
0000
0000
0000
,
1000
0000
0001
0000
1000
0000
0100
0010
0000
0010
0001
0000
0011
0000
0000
0000
,
0010
0000
0100
0000
1000
0000
0001
0100
0000
0100
0010
0000
1010
0000
0000
0000
,
1000
0000
0001
0000
0010
0000
0100
1000
0000
1000
0001
0000
0100
0000
0010
0000
,
1000
0000
0001
0000
0010
0000
0001
0100
0000
0001
0100
0000
0110
0000
0000
0000
,
0010
0000
1000
0000
0001
0000
1000
0100
0000
1000
0100
0000
0110
0000
0000
0000
,
0020
0000
0000
0001
0000
0000
0031
0000
2000
0000
0000
0010
0000
0000
3010
0000
,
1000
0100
0001
0010
0001
0100
2000
0000
,
3010
0100
0001
1000
0100
0100
0020
0000
,
0032
0000
0000
0100
0000
0000
1000
0000
2000
0000
0000
0000
3003
0000
1000
0000
,
0001
0010
1000
0100
1000
0010
0001
0000
,
2000
0000
0000
0001
0000
3001
0000
0000
0200
0000
0000
0020
0000
0000
0330
0000
,
0010
0000
1000
0000
0001
0000
0000
0001
0000
0000
0010
0000
0110
0000
0000
0000
,
0100
0000
1000
0000
0001
0000
0000
0001
0000
0000
0100
0000
0110
0000
0000
0000
,
0010
1000
0100
0000
0010
0001
0100
0000
,
0001
1000
1000
0100
0010
0010
0100
0000
,
1000
0001
0100
0010
1000
0100
0001
0010
,
1000
0000
0001
0000
0020
0000
0000
1000
0000
0130
0000
0000
0110
0000
0000
0000
,
0010
0000
0001
0000
0200
0000
0000
1000
0000
0310
0000
0000
0110
0000
0000
0000
,
0100
0000
0000
0001
0000
0000
0010
0000
1000
0000
0000
0100
0000
0000
1000
0000
,
0010
0000
0001
0000
1000
0000
0010
0000
0000
0100
0000
0100
0001
0000
1000
0000
,
0001
0000
0010
0000
0200
0000
0000
0001
0000
0310
0000
0000
0110
0000
0000
0000
,
0100
0000
1000
0000
0020
0000
0000
0001
0000
0000
0130
0000
0001
1000
0000
0000
,
1100
0000
0001
0201
0000
0310
1000
0001
,
0011
0000
0000
0110
0000
0000
2002
0000
0000
0000
0000
0000
3003
0000
0001
0000
,
1000
0000
0001
0000
0200
0000
0000
1000
0000
0310
0000
0000
0110
0000
0000
0000
,
0010
0000
1000
0000
0200
0000
0000
0001
0000
0310
0000
0000
0110
0000
0000
0000
,
0100
0000
0000
1000
0000
0000
0010
0000
0001
0000
0000
0100
0000
0000
0001
0000
,
0010
0000
0100
0000
0001
0000
1000
0000
0000
0001
0000
0001
0010
0000
0100
0000
,
1000
0000
0001
0000
0020
0000
0000
1000
0000
0130
0000
0000
0110
0000
0000
0000
,
0100
0000
1000
0000
0020
0000
0000
0001
0000
0000
0130
0000
0001
1000
0000
0000
,
1010
0000
0001
0021
0000
0130
1000
0001
,
0101
0000
0000
0110
0000
0000
2001
0000
0000
0000
3001
0000
0010
0000
0001
0000
,
2001
0000
0000
0000
0000
0000
0000
0000
0000
0000
3010
0000
0000
1000
0000
0000
,
0200
0000
0000
0000
0000
0000
0000
0000
0000
0000
0301
0000
0000
0010
0000
0000
,
0100
0000
0220
0000
,
0000
0000
0000
0330
;

//---------------dance-single - ----------------
#NOTEDATA:;
#CHARTNAME:;
#STEPSTYPE:dance-single;
#DESCRIPTION:;
#CHARTSTYLE:;
#DIFFICULTY:Medium;
#METER:9;
#RADARVALUES:0.359096,0.377280,0.119262,0.229349,0.100914,274.000000,261.000000,13.000000,25.000000,0.000000,0.000000,0.000000,0.000000,0.000000,0.359096,0.377280,0.119262,0.229349,0.100914,274.000000,261.000000,13.000000,25.000000,0.000000,0.000000,0.000000,0.000000,0.000000;
#CREDIT:Kekkle;
#NOTES:
0000
0000
0000
0000
,
0000
0000
0000
0000
,
0000
0000
0000
0000
,
0000
0000
0000
0000
,
0000
0000
0000
0000
,
2002
0000
0000
3003
,
0001
0000
1000
0100
2000
0000
0000
0000
,
3002
1000
0100
0100
,
0203
0000
0001
0310
,
1000
0000
0001
0000
0010
0100
0010
0001
,
1000
0000
0001
0100
0001
0000
0010
0000
,
0100
0000
1000
0001
1000
0000
0010
0000
,
0100
0001
1000
0000
0100
1000
0001
1000
,
0000
0100
0000
0000
1000
0000
0000
1001
0000
0000
0000
0000
0000
0000
0000
0000
,
0001
0000
0000
0100
0000
0000
0020
0000
0000
0000
1030
0000
0001
0000
1000
0000
,
0100
0000
0000
0100
0000
0000
0200
0000
0000
0000
0000
0000
0310
0000
0001
0000
,
1000
0000
0000
0010
0000
0000
0200
0000
0000
0000
0301
0000
1000
0000
0001
0000
,
0010
0000
0000
0010
0000
0000
0020
0000
0000
0000
0000
0000
0130
0000
1000
0000
,
0001
0000
0000
0001
0000
0000
1000
0000
0010
0000
0000
0010
0000
0000
1000
0000
,
0001
0000
0000
0010
0000
0000
0100
0000
0020
0000
0000
0000
0031
0000
0000
0000
,
1000
0000
0010
0100
0001
0000
1000
0000
,
0200
0000
0010
0310
,
0001
0000
0100
0000
0001
0000
0000
0100
0000
0000
0100
0000
0001
0000
0000
0000
,
0100
0000
1000
0000
0100
0000
0000
1000
0000
0000
1000
0000
0100
0000
0000
0000
,
1000
0000
0010
0000
1000
0000
0000
0010
0000
0000
0010
0000
1000
0000
0000
0000
,
0010
0000
0001
0000
0010
0000
0000
0001
0000
0000
0001
0000
0010
0000
0000
0000
,
0001
0000
1000
0000
0010
0000
0000
1000
0000
0000
1000
0000
0001
0000
0000
0000
,
0010
0000
0001
0000
1000
0000
0000
0100
0000
0000
0100
0000
0010
0000
0000
0000
,
0001
0000
0000
0001
0000
0000
0001
0000
1000
0000
0000
1000
0000
0000
1000
0000
,
0010
0100
0010
1000
0001
0010
0100
0000
,
0010
0001
1000
0000
0010
0000
0110
0000
,
0100
0000
0000
0001
0000
0000
1000
0000
0200
0000
0000
0000
0300
0000
0000
0000
,
0010
0001
1000
0000
0010
0000
0010
0000
,
0100
1000
0001
0000
0100
1000
0001
0000
,
0100
0010
1000
0000
0001
0000
1000
0100
,
0010
0011
2200
3300
,
1000
0010
0001
0000
0100
0001
0010
0000
,
1000
0000
0001
0010
0000
0100
1000
0001
,
0200
0320
2030
3001
,
0010
0001
1000
0000
0001
0100
0010
0000
,
1000
0010
0100
0000
0001
0010
0100
0000
,
1000
0100
0001
0010
,
0001
0000
0100
0000
1000
0001
1000
0000
,
0001
0100
0010
0000
0100
0010
1000
0000
,
0001
0010
0100
0000
0010
0001
1000
0000
,
1010
0000
0000
0101
0000
0000
0001
0000
,
0100
0000
0000
0100
0000
0000
0200
0000
0000
0000
0000
0000
0310
0000
0000
0000
,
1000
0001
0010
0000
0001
0010
0100
0000
,
1000
0001
0100
0000
0010
1000
0100
0000
,
0010
1000
0100
1000
,
0010
0000
0001
0000
0100
0010
0100
0000
,
0010
1000
0001
0000
0010
0100
1000
0000
,
0100
0010
0001
0000
0100
0010
1000
0000
,
1100
0000
0000
0011
0000
0000
0001
0000
,
1000
0000
0000
1000
0000
0000
2000
0000
0000
0000
0000
0000
3010
0000
0000
0000
,
0220
0000
0000
0000
0000
0000
0000
0000
0330
0000
0001
0000
0000
0001
0000
0000
,
0202
0000
0000
0000
0000
0000
0000
0000
0303
0000
1000
0000
0000
1000
0000
0000
,
1100
0000
0220
0000
,
0000
0000
0000
0330
;

//---------------dance-single - ----------------
#NOTEDATA:;
#CHARTNAME:;
#STEPSTYPE:dance-single;
#DESCRIPTION:;
#CHARTSTYLE:;
#DIFFICULTY:Easy;
#METER:5;
#RADARVALUES:0.281772,0.296434,0.128436,0.211001,0.018348,215.000000,201.000000,14.000000,23.000000,0.000000,0.000000,0.000000,0.000000,0.000000,0.281772,0.296434,0.128436,0.211001,0.018348,215.000000,201.000000,14.000000,23.000000,0.000000,0.000000,0.000000,0.000000,0.000000;
#CREDIT:Kekkle;
#NOTES:
0000
0000
0000
0000
,
0000
0000
0000
0000
,
0000
0000
0000
0000
,
0000
0000
0000
0000
,
0000
0000
0000
0000
,
2002
0000
0000
3003
,
0001
1000
0100
0000
,
1000
0010
0100
0100
,
0002
0000
0003
1000
,
0100
0000
1000
0000
0010
0100
0010
0000
,
1000
0001
0010
0010
,
0001
1000
0010
0010
,
0100
1000
0010
0001
,
0000
1000
0000
0000
0001
0000
0000
1000
0000
0000
0000
0000
0000
0000
0000
0000
,
0001
0100
0010
1000
,
0001
0000
0010
0001
0010
0000
0001
0000
,
1000
0010
0100
0010
,
1000
0000
0001
1000
0001
1000
0001
0000
,
0010
0100
0010
0001
,
1000
0010
0200
0300
,
0001
0010
0100
0010
,
0002
0000
1000
1003
,
0010
0000
0100
0001
0000
0001
0100
0000
,
0010
0000
1000
0100
0000
0100
1000
0000
,
0001
0000
0100
0010
0000
0010
0100
0000
,
0010
0000
1000
0001
0000
0001
1000
0000
,
0100
0000
0010
0001
0000
0010
0001
0000
,
0100
0000
0010
1000
0000
0010
1000
0000
,
0001
0100
0010
1000
,
0100
0001
0010
1000
,
0002
0010
0013
0110
,
0100
1000
0002
0003
,
2000
0010
3010
0110
,
0100
0001
2000
3000
,
0001
0100
0010
0010
,
1000
0001
1001
0000
,
2000
3100
0002
0013
,
0220
0000
0000
0330
,
0100
0100
0010
0010
,
1000
0001
0010
0110
,
0100
1000
0010
0110
,
0100
1000
0010
0001
,
0100
0000
0010
0000
1000
0001
1000
0000
,
0001
0010
0100
0110
,
0010
0001
0100
0110
,
0020
0000
0000
2030
0000
0000
3001
0000
,
1000
0000
0000
0001
0000
0000
2000
0000
0000
0000
0000
0000
3001
0000
0000
0000
,
0100
0010
1000
1001
,
0001
0100
0010
1001
,
1000
0100
0001
0010
,
0100
0000
0001
0000
1000
0001
1000
0000
,
0010
0100
0001
1001
,
1000
0100
0010
1001
,
0002
0000
0000
0203
0000
0000
0310
0000
,
1000
0000
0000
0001
0000
0000
2000
0000
0000
0000
0000
0000
3001
0000
0000
0000
,
0200
0000
0000
0010
,
0320
0000
0000
0100
,
0130
0000
0220
0000
,
0000
0000
0000
0330
;

//---------------dance-single - ----------------
#NOTEDATA:;
#CHARTNAME:;
#STEPSTYPE:dance-single;
#DESCRIPTION:;
#CHARTSTYLE:;
#DIFFICULTY:Beginner;
#METER:2;
#RADARVALUES:0.169063,0.215588,0.165132,0.128436,0.000000,129.000000,111.000000,18.000000,14.000000,0.000000,0.000000,0.000000,0.000000,0.000000,0.169063,0.215588,0.165132,0.128436,0.000000,129.000000,111.000000,18.000000,14.000000,0.000000,0.000000,0.000000,0.000000,0.000000;
#CREDIT:Kekkle;
#NOTES:
0000
0000
0000
0000
,
0000
0000
0000
0000
,
0000
0000
0000
0000
,
0000
0000
0000
0000
,
0000
0000
0000
0000
,
1001
0000
0000
0000
,
0001
0000
0100
0000
,
0010
0010
1000
0000
,
0001
0000
0010
0000
,
0100
0000
0110
0000
,
0010
0000
0001
0000
,
0100
0000
1000
0000
,
0010
0000
0001
0000
,
2000
0000
3000
0000
,
0001
0000
0100
0000
,
0010
1000
1000
0000
,
0001
0000
0010
0000
,
0001
1000
1000
0000
,
0010
0000
0100
0000
,
0001
0000
1001
0000
,
1000
0000
0100
0000
,
0002
0000
0003
0000
,
1000
0000
0010
0000
,
0100
0100
1000
0000
,
0001
0000
0100
0000
,
0010
0010
0100
0000
,
0001
0000
1001
0000
,
1000
0000
1001
0000
,
0001
0000
1001
0000
,
2000
0000
3000
0000
,
0010
0000
0100
0000
,
0001
1000
1000
0000
,
0100
0000
0010
0000
,
0001
0000
1001
0000
,
2000
0000
3010
0000
,
0002
0000
0103
0000
,
2000
0000
3010
0000
,
2002
0000
0000
0000
,
0000
0000
3003
0000
,
0001
0001
1000
0000
,
1000
1000
0001
0000
,
0010
0000
1000
0000
,
0100
0000
1001
0000
,
1000
1000
0001
0000
,
0001
0001
1000
0000
,
0010
0000
0100
0000
,
0110
0000
1001
0000
,
0001
0001
1000
0000
,
1000
1000
0001
0000
,
0100
0000
1000
0000
,
0010
0000
1001
0000
,
1000
1000
0001
0000
,
0001
0001
1000
0000
,
0010
0000
0100
0000
,
0110
0000
1001
0000
,
2002
0000
0000
3003
,
0220
0000
0000
0330
,
1001
0000
2002
0000
,
0000
0000
0000
3003
;

//---------------dance-single - ----------------
#NOTEDATA:;
#CHARTNAME:;
#STEPSTYPE:dance-single;
#DESCRIPTION:;
#CHARTSTYLE:;
#DIFFICULTY:Challenge;
#METER:14;
#RADARVALUES:0.566165,0.700662,0.183480,0.541265,0.490808,432.000000,412.000000,20.000000,59.000000,0.000000,0.000000,0.000000,0.000000,0.000000,0.566165,0.700662,0.183480,0.541265,0.490808,432.000000,412.000000,20.000000,59.000000,0.000000,0.000000,0.000000,0.000000,0.000000;
#CREDIT:Kekkle;
#NOTES:
// measure 0
0000
0000
0000
0000
,  // measure 1
0000
0000
0000
0000
,  // measure 2
0000
0000
0000
0000
,  // measure 3
0000
0000
0000
0000
,  // measure 4
0000
0000
0000
0000
,  // measure 5
2002
0000
0000
3003
,  // measure 6
1000
0001
0010
0010
0100
1000
0010
0010
,  // measure 7
0100
0001
0200
0000
1000
0000
0010
0000
,  // measure 8
0302
0000
1000
0000
1003
0100
0010
0001
,  // measure 9
0200
0000
0000
0000
1000
0000
0000
0000
0310
0000
1000
0001
1000
0001
1000
0000
,  // measure 10
0001
0000
0010
0001
0010
0000
0001
0000
0010
0000
1000
0010
1000
0000
0010
0000
,  // measure 11
1000
0000
0100
1000
0100
0000
1000
0000
0100
0000
0001
0100
0001
0000
0100
0000
,  // measure 12
0001
1000
0001
1000
0100
0010
0100
0010
0001
1000
0001
0100
0010
1000
0001
2000
,  // measure 13
0000
3020
0000
0000
0130
0000
0000
2002
0000
0000
0000
0000
3003
0000
0000
0000
,  // measure 14
0001
0000
1000
0000
0100
0000
1000
0010
0000
0000
0100
0000
0001
0000
0010
0000
,  // measure 15
0200
0000
0000
0001
0000
0000
2000
0000
0000
0000
3300
0000
1000
0000
0010
0000
,  // measure 16
1000
0000
0100
0000
0010
0000
0001
1000
0000
0000
0010
0000
0100
0000
1000
0000
,  // measure 17
0200
0000
0000
1000
0000
0000
0002
0000
0303
0000
0001
1000
0001
1000
0100
0000
,  // measure 18
0020
0000
0000
0031
0000
0000
0100
0000
0020
0000
0000
1030
0000
0000
0100
0000
,  // measure 19
0002
0000
0000
0013
0000
0000
1000
0000
1002
0000
0000
0000
0103
0000
0010
0000
,  // measure 20
2000
0000
0000
0000
3001
0000
0010
0000
0100
0000
0000
0100
0000
0000
1000
0000
,  // measure 21
1002
0000
0100
0000
1000
0000
0103
0010
,  // measure 22
1000
0000
0001
0000
0010
0000
0100
0010
0000
0010
0001
0000
1001
0000
1000
0010
,  // measure 23
1000
0000
0010
0000
0100
0000
0001
1000
0000
1000
0100
0000
0110
0000
0010
0001
,  // measure 24
0010
0000
0001
0000
0100
0000
0010
1000
0000
1000
0001
0000
0011
0000
0010
0100
,  // measure 25
0010
0000
0001
0000
1000
0000
0010
0100
0000
0100
0001
1000
0001
1000
0010
0000
,  // measure 26
0100
0000
0001
0000
1000
0000
0100
0010
0000
0001
1000
0000
1001
0000
1000
0010
,  // measure 27
0100
0000
0001
0000
1000
0000
0010
0100
0000
0001
0100
0000
0110
0000
0010
0000
,  // measure 28
1000
0000
0001
0000
0010
0000
0100
1000
0000
0001
1000
0000
1001
0000
0001
0000
,  // measure 29
0100
0010
0100
0010
1000
0001
1000
0100
0010
0001
1000
0001
0100
0020
0000
0000
,  // measure 30
1030
0001
1000
0200
0000
0310
0100
1000
,  // measure 31
0010
0001
0100
0001
0020
0000
1030
0001
,  // measure 32
0010
0010
0100
2000
0000
3001
0200
0000
,  // measure 33
0310
1000
0010
1000
0000
0001
0000
0000
0010
0001
1000
0002
0000
0000
0103
0000
,  // measure 34
0010
0000
1000
0000
0100
0000
0010
0002
0000
0000
1003
0000
0010
0000
0100
0000
,  // measure 35
1000
0000
0100
0000
0001
0000
1000
0002
0000
0000
1003
0000
0100
0000
1000
0000
,  // measure 36
0001
0000
0100
0010
0000
0000
1000
0000
0001
0000
0010
0100
0000
0000
1000
0000
,  // measure 37
0002
0000
1003
0100
1000
0000
0002
0000
1003
0010
1000
0000
0001
0000
1000
0010
,  // measure 38
0100
0001
0100
0000
1000
0100
1000
0000
0010
1000
0010
0000
0001
0010
0001
0000
,  // measure 39
1000
0000
0010
0100
0001
0000
0100
0020
0000
0001
0000
0000
0130
0000
0001
0000
,  // measure 40
1000
0000
0001
0010
0100
0000
1000
0200
0000
0001
0000
0000
0310
0000
0001
0000
,  // measure 41
2000
0000
0000
3200
0000
0000
0302
0000
0023
0000
0000
2030
0000
0000
3001
0000
,  // measure 42
0100
0000
0001
0000
1000
0000
0100
0000
0010
0001
0000
1000
0001
0000
1000
0000
,  // measure 43
0001
0000
0100
0010
1000
0000
0010
0200
0000
1000
0000
0000
0310
0000
1000
0000
,  // measure 44
0001
0000
0010
0100
1000
0000
0100
0020
0000
0000
1030
0000
0010
0001
0000
0000
,  // measure 45
2001
0000
0000
0000
3001
0000
0201
0000
0000
0000
0310
0000
1000
0000
0001
0100
,  // measure 46
0010
0000
0000
1010
0000
0000
2002
0000
0000
0000
0000
0000
3003
0000
0001
0000
,  // measure 47
1000
0000
0001
0010
0100
0000
1000
0200
0000
0001
0000
0000
1300
0000
0001
0000
,  // measure 48
0100
0000
0001
1000
0010
0000
0100
0020
0000
0001
0000
0000
1030
0000
0001
0000
,  // measure 49
2000
0000
0000
3020
0000
0000
0032
0000
0203
0000
0000
2300
0000
0000
3020
0000
,  // measure 50
0130
0000
0001
0000
1000
0000
0100
0000
0010
0001
0000
1000
0001
0000
0100
0000
,  // measure 51
0010
0000
1000
0001
0010
0000
0100
0020
0000
1000
0000
0000
0031
0000
1000
0000
,  // measure 52
0001
0000
1000
0010
0100
0000
0001
0200
0000
0000
1300
0000
0100
0001
0000
0000
,  // measure 53
2001
0000
0000
0000
3010
0000
0210
0000
0000
0000
0301
0000
1000
0000
0001
0010
,  // measure 54
0100
0000
0000
1100
0000
0000
1002
0000
0000
0000
0000
0000
0103
0000
0010
0000
,  // measure 55
2010
0000
0000
0000
0000
0000
0000
0000
0000
0000
3001
0000
0000
0010
0000
0000
,  // measure 56
2000
0000
0000
0000
0000
0000
0000
0000
0000
0000
3100
0000
0000
0001
0000
0000
,  // measure 57
1000
0000
2002
0000
,  // measure 58
0000
0000
0000
3003
;

//---------------dance-double - ----------------
#NOTEDATA:;
#CHARTNAME:;
#STEPSTYPE:dance-double;
#DESCRIPTION:;
#CHARTSTYLE:;
#DIFFICULTY:Challenge;
#METER:14;
#RADARVALUES:0.556991,0.700662,0.192653,0.577960,0.490808,425.000000,404.000000,21.000000,63.000000,0.000000,0.000000,0.000000,0.000000,0.000000,0.556991,0.700662,0.192653,0.577960,0.490808,425.000000,404.000000,21.000000,63.000000,0.000000,0.000000,0.000000,0.000000,0.000000;
#CREDIT:Kekkle;
#NOTES:
00000000
00000000
00000000
00000000
,
00000000
00000000
00000000
00000000
,
00000000
00000000
00000000
00000000
,
00000000
00000000
00000000
00000000
,
00000000
00000000
00000000
00000000
,
00022000
00000000
00000000
00033000
,
00001000
01000000
00010000
00100000
01000000
10000000
01000000
00100000
,
00010000
01000000
00002000
00000000
00023000
00000000
00030020
00000000
,
00000230
00000000
00000001
00000000
00000301
00000010
00000100
00001000
,
00000200
00000000
00000000
00000000
00010000
00000000
00000000
00000000
00010300
00000000
00001000
00010000
00001000
00010000
00001000
00000000
,
01000000
00000000
00010000
01000000
00100000
00000000
10000000
00000000
00100000
00000000
01000000
00001000
00010000
00000000
00001000
00000000
,
00010000
00000000
00000010
00001000
00000001
00000000
00001000
00000000
00000100
00000000
00000010
00000001
00001000
00000000
00000010
00000000
,
00001000
00000010
00010000
00001000
01000000
00010000
01000000
00100000
10000000
00010000
10000000
01000000
00100000
00010000
00100000
00002000
,
00000000
00023000
00000000
00000000
00031000
00000000
00000000
00011000
00000000
00000000
00000000
00000000
00000000
00000000
00000000
00000000
,
00010000
00000000
00000010
00000000
00001000
00000000
00000010
00000100
00000000
00000000
00000001
00000000
00001000
00000000
00000100
00000000
,
00000020
00000000
00000000
00001000
00000000
00000000
00000002
00000000
00000000
00000000
00000033
00000000
00000001
00000000
00001000
00000000
,
00000010
00000000
00010000
00000000
00001000
00000000
00100000
00010000
00000000
00000000
10000000
00000000
00010000
00000000
10000000
00000000
,
02000000
00000000
00000000
00010000
00000000
00000000
20000000
00000000
33000000
00000000
10000000
00010000
10000000
00010000
01000000
00000000
,
00200000
00000000
00000000
00310000
00000000
00000000
00001000
00000000
00000200
00000000
00000000
00000301
00000000
00000000
00001000
00000000
,
00000200
00000000
00000000
00000301
00000000
00000000
00000100
00000000
00020000
00000000
00000000
00000000
00031000
00000000
01000000
00000000
,
00200000
00000000
00000000
00000000
10300000
00000000
00010000
00000000
00100000
00000000
00000000
00100000
00000000
00000000
00100000
00000000
,
00002000
00000000
01000000
00000000
00010000
00000000
00003100
00000010
,
00001000
00000000
00000001
00000000
00001000
00000000
00000100
00000010
00000000
00000001
00000010
00000000
00000110
00000000
00000100
00010000
,
00001000
00000000
00010000
00000000
00001000
00000000
01000000
00010000
00000000
01000000
00100000
00000000
01100000
00000000
01000000
00010000
,
10000000
00000000
00010000
00000000
00100000
00000000
01000000
00100000
00000000
00010000
00100000
00000000
00101000
00000000
00001000
00010000
,
00000010
00000000
00001000
00000000
00000010
00000000
00000100
00000001
00000000
00000100
00000010
00001000
00000001
00001000
00000001
00000000
,
00000010
00000000
00000001
00000000
00001000
00000000
00000010
00001000
00000000
00010000
00001000
00000000
00001010
00000000
00000010
00010000
,
00001000
00000000
01000000
00000000
00010000
00000000
00100000
00010000
00000000
00001000
00010000
00000000
00110000
00000000
00100000
00000000
,
02000000
00000000
00000000
23000000
00000000
00000000
30200000
00000000
00320000
00000000
00000000
00032000
00000000
00000000
00003200
00000000
,
00000301
00001000
00000100
00001000
00000001
00000010
00000100
00000010
00000001
00001000
00000100
00010000
00001000
00020000
00000000
00000000
,
00031000
01000000
00010000
00200000
00000000
10300000
00200000
00000000
,
00310000
01000000
00001000
00010000
00200000
00000000
00310000
00001000
,
00000100
00000001
00001000
00000200
00000000
00000310
00000001
00001000
,
00000010
00010000
00001000
00010000
00000000
00001000
00000000
00000000
01000000
00010000
01000000
00200000
00000000
00000000
10300000
00000000
,
00010000
00000000
00100000
00000000
00001000
00000000
00010000
00001000
00000000
00000000
00001000
00000000
00010000
00000000
00000010
00000000
,
00000100
00000000
00000001
00000000
00001000
00000000
00000100
00000020
00000000
00000000
00000000
00000000
00000031
00000000
00001000
00000000
,
00000010
00000000
00010000
00001000
00000000
00000000
00001000
00000000
00100000
00000000
00001000
00010000
00000000
00000000
00010000
00000000
,
00000010
00000000
00001000
00000001
00001000
00000000
00000100
00000000
00000010
00000001
00000010
00000000
00000001
00000000
00000100
00000001
,
00000100
00000010
00000100
00000000
00001000
00010000
00001000
00000000
00010000
00100000
00010000
00000000
00100000
10000000
00100000
00000000
,
10000000
00000000
00010000
10000000
01000000
00000000
00100000
00020000
00000000
00001000
00000000
00000000
00130000
00000000
00000000
00000000
,
00001000
00000000
00010000
00000010
00000100
00000000
00000010
00002000
00000000
00010000
00000000
00000000
00003010
00000000
00000100
00000000
,
00000002
00000000
00000000
00000023
00000000
00000000
00002030
00000000
00023000
00000000
00000000
02030000
00000000
00000000
23000000
00000000
,
30010000
00000000
01000000
00000000
00100000
00000000
10000000
00000000
00010000
00100000
00000000
00001000
00010000
00000000
00001000
00000000
,
00011000
00000000
00010000
00000100
00000010
00000000
00000100
00002000
00000000
00010000
00000000
00000000
00003100
00000000
00000000
00000000
,
00010000
00000000
00001000
01000000
00100000
00000000
01000000
00020000
00000000
00000000
00031000
00000000
00010000
01000000
00000000
00000000
,
01200000
00000000
00000000
00000000
10300000
00000000
10020000
00000000
00000000
00000000
00130000
00000000
00001000
00000000
00010000
00000010
,
00000100
00000000
00000000
00000110
00000000
00000000
00002002
00000000
00000000
00000000
00000000
00000000
00003003
00000000
00000001
00000000
,
00001001
00000000
00001000
00000100
00010000
00000000
00001000
00020000
00000000
01000000
00000000
00000000
00031000
00000000
00000000
00000000
,
01000000
00000000
00010000
01000000
00001000
00000000
00010000
00002000
00000000
00000100
00000000
00000000
00013000
00000000
00000100
00000000
,
00000020
00000000
00000000
00000032
00000000
00000000
00000203
00000000
00002300
00000000
00000000
00023000
00000000
00000000
00230000
00000000
,
10300000
00000000
00010000
00000000
10000000
00000000
01000000
00000000
00100000
00001000
00000000
00010000
00001000
00000000
00010000
00000000
,
00011000
00000000
00001000
00000100
00000010
00000000
00010000
00002000
00000000
00000100
00000000
00000000
00013000
00000000
00000000
00000000
,
00001000
00000000
00010000
00100000
01000000
00000000
00001000
00020000
00000000
00000000
01030000
00000000
00010000
00001000
00000000
00000000
,
00021000
00000000
00000000
00000000
00030010
00000000
00002010
00000000
00000000
00000000
00003001
00000000
00000010
00000000
00000100
00010000
,
00001000
00000000
00000000
00011000
00000000
00000000
02010000
00000000
00000000
00000000
00000000
00000000
03100000
00000000
10000000
00000000
,
20010000
00000000
00000000
00000000
00000000
00000000
00000000
00000000
00000000
00000000
31000000
00000000
00000000
00010000
00000000
00000000
,
00021000
00000000
00000000
00000000
00000000
00000000
00000000
00000000
00000000
00000000
00031000
00000000
00000000
00000010
00000000
00000000
,
00000001
00000000
00002002
00000000
,
00000000
00000000
00000000
00003003
;

//---------------dance-double - ----------------
#NOTEDATA:;
#CHARTNAME:;
#STEPSTYPE:dance-double;
#DESCRIPTION:;
#CHARTSTYLE:;
#DIFFICULTY:Hard;
#METER:11;
#RADARVALUES:0.460009,0.538971,0.238523,0.321089,0.252284,351.000000,325.000000,26.000000,35.000000,0.000000,0.000000,0.000000,0.000000,0.000000,0.460009,0.538971,0.238523,0.321089,0.252284,351.000000,325.000000,26.000000,35.000000,0.000000,0.000000,0.000000,0.000000,0.000000;
#CREDIT:Kekkle;
#NOTES:
00000000
00000000
00000000
00000000
,
00000000
00000000
00000000
00000000
,
00000000
00000000
00000000
00000000
,
00000000
00000000
00000000
00000000
,
00000000
00000000
00000000
00000000
,
00022000
00000000
00000000
00033000
,
00001000
01000000
00100000
10000000
00010000
00100000
01000000
00100000
,
00001000
00010000
00000020
00000000
00010000
00000000
00001000
00000000
,
00000130
00000001
00001000
00000100
00000010
00000100
00010000
00001000
,
02000000
00000000
00010000
00000000
03100000
10000000
10000000
00010000
,
00100000
00001000
00010000
00000000
00000010
00010000
00001000
00000000
,
01000000
00001000
00010000
00000000
00000100
00010000
00001000
00000000
,
01000000
00100000
10000000
00010000
00100000
00100000
00001000
00001000
,
00000000
00011000
00000000
00000000
00010010
00000000
00000000
00000220
00000000
00000000
00000000
00000000
00000330
00000000
00000000
00000000
,
00000010
00001000
00000001
00000100
00000010
00000000
00010000
00000100
,
00020000
00000000
00000000
00001000
00000000
00000000
02000000
00000000
00000000
00000000
03030000
00000000
01000000
00000000
10000000
00000000
,
00010000
01000000
00100000
00010000
00001000
00000000
00100000
00001000
,
00020000
00000000
00000000
01000000
00000000
00000000
00002000
00000000
00000000
00000000
00033000
00000000
00001000
00000000
00010000
00000000
,
00000010
00000000
00000000
00000100
00000000
00000000
00001000
00000000
00010000
00000000
00000000
00000010
00000000
00000000
00000100
00000000
,
00000001
00000000
00000000
00000100
00000000
00000000
00001000
00000000
00020000
00000000
00000000
00000000
00030100
00000000
00010000
00000000
,
00001000
00000000
00000000
00000000
00100000
00000000
01000000
00000000
10000000
00000000
00000000
00010000
00000000
00000000
00010000
00000000
,
02000000
00000000
10000000
00000000
00100000
00000000
03001000
00010000
,
00000100
00000000
00000010
00000000
00000001
00000000
00001000
00000010
00000000
00000010
00010000
00000000
00011000
00000000
00000000
00000000
,
00001000
00000000
01000000
00000000
00010000
00000000
00100000
00001000
00000000
00001000
00010000
00000000
00011000
00000000
00000000
00000000
,
00001000
00000000
00000100
00000000
00000001
00000000
00001000
00000100
00000000
00000100
00010000
00000000
00011000
00000000
00000000
00000000
,
00001000
00000000
00100000
00000000
01000000
00000000
00100000
00001000
00000000
00001000
00010000
00000000
00000010
00000000
00000100
00000000
,
00000001
00000000
00001000
00000000
00000100
00000000
00010000
00001000
00000000
00010000
00001000
00000000
00011000
00000000
00000000
00000000
,
00010000
00000000
01000000
00000000
00100000
00000000
00001000
00010000
00000000
00001000
00010000
00000000
00011000
00000000
00000000
00000000
,
00001000
00000000
00000100
00000000
00000010
00000000
00010000
00001000
00000000
00010000
00001000
00000000
00011000
00000000
00000000
00000000
,
00001000
01000000
00100000
00010000
00001000
00010000
00200000
00000000
,
10300000
00010000
00100000
00002000
00000000
00013000
00000010
00000000
,
00000100
00000001
00001000
00000100
00020000
00000000
00031000
01000000
,
00100000
00010000
00100000
20000000
00000000
30010000
00100000
00000000
,
00002000
00000000
00000000
00010000
00000000
00013000
00000000
00000000
00000020
00000000
00000000
00000200
00000000
00000000
00000330
00000000
,
00000010
00000000
00001000
00000000
00000001
00000000
00000000
00001000
00000000
00000000
00001000
00000000
00001100
00000000
00000000
00000000
,
00000100
00000000
00010000
00000000
00001000
00000000
00000000
02000000
00000000
00000000
00000000
00000000
03100000
00000000
00000000
00000000
,
10000000
00010000
00100000
00000000
00001000
00010000
00000010
00000000
,
00000100
00000001
00000001
00000100
00001000
00001000
00010000
00000000
,
00000100
00010000
00001000
00100000
00001000
00010000
00000010
00010000
,
00001000
00000000
01000000
00000000
00200000
00000000
00000000
10000000
00000000
10300000
00000000
00000000
10010000
00000000
00000000
00000000
,
00010000
00000000
00100000
00000000
00002000
00000000
00000000
00010000
00000000
00013000
00000000
00000000
00011000
00000000
00000000
00000000
,
00001000
00000000
00000000
00000100
00000000
00000000
00000001
00000000
00000010
00000000
00000000
00001000
00000000
00000000
00010000
00000000
,
01000000
00000000
00100000
00000000
00010000
00000000
10000000
00000000
00000000
00100000
00000000
00100000
01000000
00000000
00001000
00000000
,
00010000
00000000
00000010
00000000
00002000
00000000
00000000
00000100
00000000
00003100
00000000
00000000
00000110
00000000
00000000
00000000
,
00000010
00000000
00000001
00000000
00002000
00000000
00000000
00003010
00000000
00000000
00010000
00000000
00001000
00010000
00000000
00000000
,
00011000
00000000
01000000
01010000
00000000
00010000
10000000
01000000
,
00010000
00000000
00000000
00001000
00000000
00000000
00022000
00000000
00000000
00000000
00000000
00000000
00033000
00000000
00001000
00000000
,
00010000
00000000
00000010
00000000
00000200
00000000
00000000
00000001
00000000
00000301
00000000
00000000
00001001
00000000
00000000
00000000
,
00001000
00000000
00000100
00000000
00020000
00000000
00000000
00001000
00000000
00031000
00000000
00000000
00011000
00000000
00000000
00000000
,
00010000
00000000
00000000
01000000
00000000
00000000
10000000
00000000
00100000
00000000
00000000
00010000
00000000
00000000
00001000
00000000
,
00000100
00000000
00000001
00000000
00001000
00000000
00000100
00000000
00000000
00000010
00000000
00000010
00000001
00000000
00001000
00000000
,
00000010
00000000
00010000
00000000
00002000
00000000
00000000
01000000
00000000
01003000
00000000
00000000
01010000
00000000
00000000
00000000
,
00010000
00000000
10000000
00000000
02000000
00000000
00000000
03100000
00000000
00000000
00001000
00000000
00010000
00001000
00000000
00000000
,
00011000
00000000
00000010
00001010
00000000
00001000
00000001
00000010
,
00000110
00000000
00000000
00010100
00000000
00000000
00012000
00000000
00000000
00000000
00000000
00000000
01003000
00000000
00100000
00000000
,
20000000
00000000
00000000
00000000
00000000
00000000
00000000
00000000
00000000
00000000
30010000
00000000
00000000
00100000
00000000
00000000
,
00002000
00000000
00000000
00000000
00000000
00000000
00000000
00000000
00000000
00000000
00013000
00000000
00000000
00000010
00000000
00000000
,
00000100
00000000
00000220
00000000
,
00000000
00000000
00000000
00000330
;

//---------------dance-double - ----------------
#NOTEDATA:;
#CHARTNAME:;
#STEPSTYPE:dance-double;
#DESCRIPTION:;
#CHARTSTYLE:;
#DIFFICULTY:Medium;
#METER:9;
#RADARVALUES:0.348611,0.377280,0.055044,0.183480,0.105501,266.000000,260.000000,6.000000,20.000000,0.000000,0.000000,0.000000,0.000000,0.000000,0.348611,0.377280,0.055044,0.183480,0.105501,266.000000,260.000000,6.000000,20.000000,0.000000,0.000000,0.000000,0.000000,0.000000;
#CREDIT:Kekkle;
#NOTES:
00000000
00000000
00000000
00000000
,
00000000
00000000
00000000
00000000
,
00000000
00000000
00000000
00000000
,
00000000
00000000
00000000
00000000
,
00000000
00000000
00000000
00000000
,
00022000
00000000
00000000
00033000
,
00010000
00000000
00000100
00001000
00000200
00000000
00000000
00000000
,
00000000
00000320
00000032
00002003
,
00003020
00000000
00000000
00000000
00000030
00010000
00001000
01000000
,
00020000
00000000
10030000
01000000
,
00100000
00010000
10000000
00000000
00010000
00000000
01000000
00000000
,
00001000
00010000
00000100
00000000
00000010
00000000
00000001
00000000
,
00001000
00000010
00000100
00000000
00000010
00010000
00001000
00010000
,
00000000
00001000
00000000
00000000
00010000
00000000
00000000
00011000
00000000
00000000
00000000
00000000
00000000
00000000
00000000
00000000
,
00001000
00000000
00000000
01000000
00000000
00000000
00100000
00000000
00000000
00000000
10000000
00000000
00010000
00000000
00100000
00000000
,
00001000
00000000
00000000
00001000
00000000
00000000
00001000
00000000
00000000
00000000
00000000
00000000
00010000
00000000
00000010
00000000
,
00000100
00000000
00000000
00000001
00000000
00000000
00001000
00000000
00000000
00000000
00000010
00000000
00010000
00000000
00001000
00000000
,
00010000
00000000
00000000
00010000
00000000
00000000
00010000
00000000
00000000
00000000
00000000
00000000
00001000
00000000
01000000
00000000
,
00100000
00000000
00000000
00100000
00000000
00000000
10000000
00000000
00010000
00000000
00000000
00010000
00000000
00000000
00100000
00000000
,
00001000
00000000
00000000
00001000
00000000
00000000
00010000
00000000
00000010
00000000
00000000
00000000
00000100
00000000
00000001
00000000
,
00001000
00000000
00000000
00000000
00000010
00000000
00010000
00000000
00001000
00000000
00000000
00001000
00000000
00000000
00001000
00000000
,
00020000
00000000
00000000
00000000
00030000
00000000
00001000
01000000
,
00100000
00000000
10000000
00000000
00010000
00000000
00000000
10000000
00000000
00000000
10000000
00000000
01000000
00000000
00000000
00000000
,
00100000
00000000
00001000
00000000
00010000
00000000
00000000
00001000
00000000
00000000
00001000
00000000
00010000
00000000
00000000
00000000
,
00000100
00000000
00000010
00000000
00000001
00000000
00000000
00001000
00000000
00000000
00001000
00000000
00000010
00000000
00000000
00000000
,
00010000
00000000
00001000
00000000
01000000
00000000
00000000
00100000
00000000
00000000
00100000
00000000
10000000
00000000
00010000
00000000
,
00100000
00000000
00001000
00000000
00010000
00000000
00000000
00001000
00000000
00000000
00001000
00000000
01000000
00000000
00000000
00000000
,
00010000
00000000
00100000
00000000
00001000
00000000
00000000
00010000
00000000
00000000
00010000
00000000
00000100
00000000
00000000
00000000
,
00001000
00000000
00000000
00000100
00000000
00000000
00000010
00000000
00000001
00000000
00000000
00001000
00000000
00000000
00000010
00000000
,
00010000
00001000
01000000
00000000
00010000
00100000
01000000
00000000
,
10000000
00010000
01000000
00000000
00010000
00000000
01000000
00000000
,
00001000
00000000
00000000
00001000
00000000
00000000
00001000
00000000
00020000
00000000
00000000
00000000
00030000
00000000
00000000
00000000
,
00000100
00000010
00000001
00000000
00001000
00000000
00000010
00000000
,
00010000
00001000
01000000
00000000
00010000
01000000
00100000
00000000
,
10000000
00000000
00010000
00000000
00100000
00001000
00010000
00000000
,
00000010
00001010
00000202
00000303
,
00000001
00001000
00000100
00000000
00001000
00000100
00010000
00000000
,
00001000
00000000
01000000
00001000
00000000
01000000
00100000
00000000
,
20000000
30020000
00230000
00302000
,
00013000
00000010
00000100
00000000
00000001
00001000
00000100
00000000
,
00000010
00000100
00001000
00000000
00000100
00010000
00001000
00000000
,
01000000
00100000
10000000
00010000
,
00100000
00001000
00010000
00000000
00000010
00000000
00000010
00000000
,
00001000
00000001
00000010
00000000
00000001
00000100
00000010
00000000
,
00001000
00000010
00010000
00000000
00000100
00010000
00001000
00000000
,
01000000
00000000
00100000
10000000
00000000
00010000
01000000
00000000
,
00001000
00000000
00000000
00001000
00000000
00000000
00002000
00000000
00000000
00000000
00000000
00000000
00003000
00000000
00000000
00000000
,
00010000
00000100
00000010
00000000
00000100
00001000
00000001
00000000
,
00001000
00000100
00010000
00000000
00001000
01000000
00010000
00000000
,
01000000
00100000
10000000
00010000
,
00100000
00001000
00010000
00000000
00000010
00000000
00000010
00000000
,
00001000
00000100
00000010
00000000
00000001
00000010
00000100
00000000
,
00010000
00000100
00001000
00000000
00000100
00010000
00001000
00000000
,
01000000
00000000
00010000
00100000
00000000
00001000
01000000
00000000
,
00100000
00000000
00000000
00100000
00000000
00000000
00200000
00000000
00000000
00000000
00000000
00000000
00300000
00000000
00000000
00000000
,
10010000
00000000
00000000
00000000
00000000
00000000
00000000
00000000
00000000
00000000
00010000
00000000
00000000
01000000
00000000
00000000
,
00001000
00000000
00000000
00000000
00000000
00000000
00000000
00000000
00000000
00000000
00010000
00000000
00000000
00000100
00000000
00000000
,
00000010
00000000
00000220
00000000
,
00000000
00000000
00000000
00000330
;

//---------------dance-double - ----------------
#NOTEDATA:;
#CHARTNAME:;
#STEPSTYPE:dance-double;
#DESCRIPTION:;
#CHARTSTYLE:;
#DIFFICULTY:Easy;
#METER:4;
#RADARVALUES:0.260803,0.296434,0.091740,0.201827,0.018348,199.000000,189.000000,10.000000,22.000000,0.000000,0.000000,0.000000,0.000000,0.000000,0.260803,0.296434,0.091740,0.201827,0.018348,199.000000,189.000000,10.000000,22.000000,0.000000,0.000000,0.000000,0.000000,0.000000;
#CREDIT:Kekkle;
#NOTES:
00000000
00000000
00000000
00000000
,
00000000
00000000
00000000
00000000
,
00000000
00000000
00000000
00000000
,
00000000
00000000
00000000
00000000
,
00000000
00000000
00000000
00000000
,
00022000
00000000
00000000
00033000
,
00001000
01000000
00100000
00000000
,
10000000
00010000
00100000
00100000
,
00002000
00000000
00003000
00010000
,
00000020
00000030
00000100
00000001
,
00001000
00000100
00010000
00010000
,
00001000
01000000
00100000
00100000
,
10000000
00010000
00100000
00001000
,
00000000
00010000
00000000
00000000
00001000
00000000
00000000
00010000
00000000
00000000
00000000
00000000
00000000
00000000
00000000
00000000
,
00000010
00001000
00000001
00000010
,
00000100
00000000
00000010
00000000
00000001
00001000
00000001
00000000
,
00001000
00000010
00010000
00000100
,
00010000
00000000
00001000
00000000
01000000
00010000
01000000
00000000
,
00100000
00100000
10000000
10000000
,
00010000
00100000
00002000
00003000
,
00010000
00000000
00000010
00001000
,
00000020
00000000
00000000
00000030
,
00001000
00000000
00000001
00000100
00000000
00000001
00000100
00000000
,
00000010
00000000
00010000
00001000
00000000
00010000
00001000
00000000
,
01000000
00000000
00010000
00100000
00000000
00010000
00100000
00000000
,
01000000
00000000
10000000
00010000
00000000
10000000
00010000
00000000
,
01000000
00000000
00001000
00010000
00000000
00001000
00010000
00000000
,
00000100
00000000
00010000
00001000
00000000
00010000
00001000
00000000
,
00100000
00000000
00001000
00010000
00000000
00001000
00010000
00000000
,
00000010
00000010
00000100
00000100
,
00000001
00001000
00000100
00000100
,
00010000
00001000
01000000
00000000
,
00100000
00100000
10000000
00010000
,
00200000
00300000
00002000
00003000
,
00010000
00000010
00000100
00000100
,
00000001
00001000
00000200
00000300
,
00010000
00010000
00001000
00001000
,
02000000
00000000
00000000
03000000
,
00010000
10000000
00010000
00100000
,
00001000
00010000
00000010
00001010
,
00001000
00000001
00000010
00000011
,
00000001
00000001
00001000
00001000
,
00000010
00010000
00002000
00003000
,
01000000
00010000
10000000
11000000
,
01000000
00100000
00001000
00011000
,
00020000
00000000
00000000
00030020
00000000
00000000
00000130
00000000
,
00000001
00000000
00000000
00001000
00000000
00000000
00000002
00000000
00000000
00000000
00000000
00000000
00000003
00000000
00000000
00000000
,
00001000
00000010
00010000
00011000
,
00001000
00100000
01000000
01100000
,
00100000
00100000
00010000
00010000
,
10000000
00100000
02000000
03000000
,
00001000
00010000
00000100
00001100
,
00001000
00000001
00000100
00000101
,
00000002
00000000
00000000
00002003
00000000
00000000
00003100
00000000
,
00010000
00000000
00000000
00001000
00000000
00000000
00020000
00000000
00000000
00000000
00000000
00000000
00030000
00000000
00000000
00000000
,
00002000
00000000
00000000
01000000
,
02003000
00000000
00000000
00100000
,
03100000
00000000
20020000
00000000
,
00000000
00000000
00000000
30030000
;
