#TITLE:生命の環を紡いで;
#SUBTITLE:;
#ARTIST:han@*mori;
#TITLETRANSLIT:Seimei no wa wo tsumuide;
#SUBTITLETRANSLIT:;
#ARTISTTRANSLIT:;
#GENRE:ANGELION;
#CREDIT:;
#BANNER:Seimei no wa wo tsumuide.png;
#BACKGROUND:Seimei no wa wo tsumuide-bg.png;
#LYRICSPATH:;
#CDTITLE:;
#MUSIC:Seimei no wa wo tsumuide.ogg;
#OFFSET:1.777778;
#SAMPLESTART:87.152740;
#SAMPLELENGTH:12.000000;
#LASTBEATHINT:1.680136;
#SELECTABLE:YES;
#BPMS:0.000000=135.000000
,27.000000=124.999992
,28.000000=120.000000
,30.000000=115.000000
,31.000000=105.000000
,32.000000=142.000000
,35.000000=156.000000
,115.000000=172.000000
,147.000000=156.000000
,195.000000=142.000000
,198.000000=125.999992
,222.000000=156.000000
,290.000000=162.000000
,302.000000=168.000000
,310.000000=172.000000
;
#STOPS:
;
#BGCHANGES:;
#KEYSOUNDS:;
#ATTACKS:;

//---------------dance-single - ----------------
#NOTES:
     dance-single:
     :
     Challenge:
     19:
     1.046607,1.298510,0.671389,0.169692,1.571492,993.000000,902.000000,91.000000,23.000000,0.000000,0.000000,1.046607,1.298510,0.671389,0.169692,1.571492,993.000000,902.000000,91.000000,23.000000,0.000000,0.000000:
// measure 0
0000
0000
0000
0000
,  // measure 1
0000
0000
0000
0000
,  // measure 2
0000
0000
0000
0000
,  // measure 3
0000
0000
0000
0000
,  // measure 4
0000
0000
0000
0000
,  // measure 5
2000
0000
3001
0100
0010
1000
0100
0010
0001
1000
0010
0100
,  // measure 6
0101
0000
0001
0001
1000
0100
1100
0000
1000
1000
0010
0100
,  // measure 7
0101
0000
0001
0001
1000
0100
0001
1000
0010
0001
0100
0010
,  // measure 8
0210
0000
0000
0000
0000
0000
0000
0000
0301
1000
0100
0010
0001
0000
0100
0000
,  // measure 9
0100
0000
0000
0010
0000
0000
1000
0000
0000
0001
0000
0000
0010
0001
0010
0001
0000
0000
1000
0000
0000
1001
0000
0000
,  // measure 10
0001
0000
0000
0100
0000
0000
0100
0000
0000
0010
0000
0000
1000
0000
0000
0001
0000
0000
0010
0000
0000
0100
1000
0100
,  // measure 11
1000
0001
0100
0010
1000
0010
0001
0010
0100
0001
1000
0100
0010
0000
0001
0000
,  // measure 12
1000
0000
0000
0010
0000
0000
0100
0000
0000
0001
0000
0000
1000
0100
1000
0100
0000
0000
0010
0000
0000
0001
1000
0001
,  // measure 13
0100
0000
0000
0010
0000
0000
0010
0000
0000
1000
0000
0000
0001
0000
0000
0100
0000
0000
0010
0000
0000
1000
0001
1000
,  // measure 14
0001
0010
0100
0010
0001
1000
0010
0001
1000
0100
0001
0100
0010
1000
0001
0100
,  // measure 15
1000
0100
0101
0000
1001
0000
1000
0100
0001
0100
1000
0001
0010
0100
1000
0000
,  // measure 16
0001
0100
0010
0001
1000
0100
0101
0000
0110
0000
0010
1000
0100
0001
1000
0010
,  // measure 17
0001
0100
0002
0000
1003
0000
0100
0010
1000
0010
0100
1000
0001
0100
1000
0001
,  // measure 18
0010
0100
0001
0000
1000
0000
1100
0000
0010
0000
0101
0000
0001
0100
0010
1000
,  // measure 19
0001
0000
0011
0000
0100
0000
1010
0000
1000
0100
0001
0000
0100
0000
0110
0000
,  // measure 20
0001
0000
0000
0000
0000
0000
1001
0000
0000
0000
0000
0000
1000
0000
0010
0000
1000
0000
0010
0000
0000
0100
0000
0000
0001
0000
0000
0010
0000
0000
0100
0000
0000
1000
0000
0000
0001
0000
0000
0100
0000
0000
0010
0000
0000
0001
0000
0000
,  // measure 21
1000
0000
0000
0001
0000
0000
0010
0000
0000
0000
0000
0000
1000
0000
0000
0000
0000
0000
1010
0000
0000
0000
0000
0000
0010
0000
0000
0000
0000
0000
1000
0000
0001
0000
1000
0000
0010
0000
0000
0000
0000
0000
1000
0000
0001
0000
0010
0000
,  // measure 22
0001
0000
0000
0000
0000
0000
0101
0000
0000
0000
0000
0000
0100
0000
0010
0000
1000
0000
0010
0000
0000
0000
0000
0000
1000
0000
0000
0100
0000
0000
0001
0000
0000
0000
0000
0000
0100
0000
0000
0000
0000
0000
0110
0000
0000
0000
0000
0000
,  // measure 23
1000
0000
1001
0000
0001
0010
0100
1000
0010
0100
0010
0001
0010
1000
0001
0010
,  // measure 24
1000
0010
0001
0100
0010
1000
0001
0010
0110
0000
1100
0000
1000
0010
0100
1000
,  // measure 25
0001
0010
0100
0001
1000
0000
0100
0010
0001
1000
0010
0100
0101
0000
0110
0000
,  // measure 26
0010
1000
0100
0010
0001
0010
1000
0010
0200
0000
1300
0000
0001
1000
0100
0001
,  // measure 27
0100
0010
0001
1000
0010
0100
0010
0001
0010
1000
0001
0010
1000
0010
0001
1000
,  // measure 28
0010
0001
1000
0200
0000
0000
0000
0000
0000
0000
0000
0000
0310
1000
0001
0010
,  // measure 29
0100
1000
0002
0000
0000
0000
1003
0010
0100
0000
0010
1000
0001
0010
1000
0010
,  // measure 30
0001
1000
0020
0000
0000
0000
0130
0001
1000
0100
0010
0100
1000
0100
0010
0001
,  // measure 31
0100
0010
0100
0001
0100
0010
1000
0001
0010
0100
1000
0100
0001
0100
0010
0001
,  // measure 32
1000
0000
1001
0000
0001
0100
0010
0100
1000
0100
0001
1000
0100
0001
0100
1000
,  // measure 33
0001
0100
0020
0000
0000
0000
1030
0001
0100
0000
0001
0010
1000
0001
0100
1000
,  // measure 34
0001
0000
0000
0100
0000
0000
0020
0000
0000
0000
0000
0000
0000
0000
0000
0000
0000
0000
1030
0000
0000
0001
0000
0000
0010
0000
0000
0100
0000
0000
1000
0000
0000
0010
0000
0000
0110
0000
0000
0000
0000
0000
0000
0000
0100
0000
0000
0000
,  // measure 35
0000
0101
0000
1100
0000
1000
0000
1010
0000
0011
0000
1001
,  // measure 36
0000
0000
1100
0000
0000
0000
0101
0000
0000
0000
0011
0000
0000
0000
1010
0000
0000
0000
1000
0000
0000
0010
0000
0000
,  // measure 37
0100
0000
0000
0100
0000
0000
0001
0000
0000
1000
0000
0000
0100
0010
0001
0010
0000
0000
0001
0000
0000
0100
0000
0000
,  // measure 38
0010
0010
1000
0001
0010
1000
0001
0001
,  // measure 39
0100
0000
0000
0000
0000
0000
1000
0000
0000
0000
0000
0000
0001
0000
0000
0100
0000
0000
0001
0000
1000
0000
0010
0000
0100
0000
0000
0000
0000
0000
0001
0000
0000
0000
0000
0000
1001
0000
0000
0000
0000
0000
1000
0000
0000
0000
0000
0000
,  // measure 40
0100
0000
0110
0000
0010
0000
0001
0000
1000
0010
0100
0010
0001
0010
0100
0001
,  // measure 41
1000
0001
0010
0100
1100
0000
1000
0000
0001
0000
0101
0000
0100
0000
0010
0000
,  // measure 42
1000
0001
0010
1000
0001
1000
0020
0000
0031
0100
1000
0100
0002
0000
1003
0100
,  // measure 43
0010
0000
0000
0001
0000
0000
0020
0000
0000
0000
0000
0000
0130
0000
1000
0000
0001
0000
0100
0000
0000
0010
0000
0000
1000
0000
0000
0010
0000
0000
0001
0000
0000
1000
0000
0000
0100
0000
0000
0010
0000
0000
0100
0000
0000
0001
0000
0000
,  // measure 44
1000
0001
0010
0001
0200
0000
0310
0001
0010
1000
0001
0010
0100
1000
0001
1000
,  // measure 45
0010
0000
0000
0001
0000
0000
1000
0000
0000
0100
0000
0000
0001
0000
0000
1000
0000
0000
0001
0000
0000
0000
0000
0000
0011
0000
0000
0000
0000
0000
1100
0000
0000
0000
0000
0000
1000
0000
0010
0000
0100
0000
0010
0000
1000
0000
0010
0000
,  // measure 46
0100
0000
0010
0000
1000
0000
0001
0000
0010
0000
0100
0000
1000
0000
0001
0000
1000
0000
0010
0000
0100
0000
0001
0000
1000
0000
0000
0100
0000
0000
1000
0000
0000
0001
0000
0000
1000
0000
0000
0100
0000
0000
0001
0000
0000
0100
0000
0000
,  // measure 47
1000
0010
0100
0001
1000
0100
0001
0100
1000
0100
0001
0100
1000
0010
0100
0010
,  // measure 48
0001
0010
1000
0010
0001
0010
1000
0001
0010
0100
1000
0010
0200
0000
0000
0000
,  // measure 49
0000
0300
0000
0000
0101
0001
1000
1100
,  // measure 50
0001
0100
0110
0000
0000
1010
1000
0010
,  // measure 51
0101
0001
1000
1100
0000
0000
0110
0010
,  // measure 52
0001
1010
1000
0001
0101
1000
1000
0011
,  // measure 53
1000
1000
0110
0001
0001
1100
0001
0001
,  // measure 54
2010
0000
0000
0000
0000
0000
0000
0000
0000
0000
0000
0000
0001
0000
0000
0000
0000
0000
3001
0000
0000
0000
0000
0000
0000
0000
0000
0000
0000
0000
0010
0000
0000
0000
0000
0000
0001
0000
1000
0000
0010
0000
0100
0000
0000
0001
0000
0000
,  // measure 55
1000
0000
0000
0100
0000
0000
0010
0000
0000
0001
0000
0000
0010
0000
0000
1000
0000
0000
0010
0000
0000
0001
0000
0000
1001
0000
0000
0000
1000
0000
0000
0000
0010
0000
0000
0000
0100
0000
0000
0000
0001
0000
0000
0000
1000
0000
0000
0000
,  // measure 56
1100
0100
0001
0100
0010
0001
1001
1000
0010
0001
1000
0100
,  // measure 57
0001
0010
0100
0010
0001
1000
1010
0010
0100
0001
0010
0100
,  // measure 58
1100
1000
0001
0100
0001
0010
0110
0100
1000
0100
0001
1000
,  // measure 59
0010
0000
0100
0000
1000
0000
0001
0000
0100
0000
0010
0000
0100
0001
0100
0010
0100
0001
0100
0010
1000
0001
1000
0100
,  // measure 60
0010
0001
1000
0010
0100
0000
0001
0000
0010
0000
0001
0000
1000
0010
0100
0010
1000
0010
0100
0001
1000
0001
0010
0100
,  // measure 61
1000
0000
0001
0000
1000
0000
0100
0000
0010
0000
0001
0000
0101
0000
0100
0000
0010
0000
1000
0001
0010
0100
1000
0001
,  // measure 62
0100
0000
0001
0000
0100
0000
0010
1000
0001
0010
0100
1000
0001
0000
1000
0000
0100
0000
0001
0000
1000
0000
0010
0000
,  // measure 63
0100
1000
0001
0100
0010
0010
2000
0000
3001
0010
1000
0001
,  // measure 64
0200
0000
0310
0001
1000
0010
0100
0000
0101
0000
1100
0000
,  // measure 65
1000
0010
0100
1000
0001
0010
0110
0000
1001
0000
1000
0100
,  // measure 66
0002
0000
0000
0000
0103
0000
1000
0000
0001
0000
0100
0000
0010
1000
0010
0100
0001
0010
0100
0000
1000
0000
0010
0000
,  // measure 67
1000
0100
0010
0001
0100
0010
1000
0000
0001
0000
0100
0000
0101
0000
0000
0000
1010
0000
1000
0000
0001
0000
0010
0000
,  // measure 68
0011
0000
0000
0000
1100
0000
0000
0000
1001
0000
0000
0000
0001
0100
0001
0010
0100
1000
0001
0000
0010
0000
0100
0000
,  // measure 69
0010
0001
0010
0100
1000
0010
0100
0000
0010
0000
1000
0000
1010
0000
0000
0000
0110
0000
0000
0000
0100
0000
0001
0000
,  // measure 70
1001
0000
1100
0000
0100
0010
0011
0000
1001
0000
1000
0010
,  // measure 71
0110
0000
0101
0000
0001
1000
0100
0100
0010
0010
0001
1000
,  // measure 72
0010
0010
0100
0100
0001
1000
0100
0001
1000
0010
0001
0100
,  // measure 73
0001
0010
1000
0001
0100
1000
1010
0000
0010
0100
1001
0000
,  // measure 74
1000
0000
1100
0000
0011
0001
1000
0000
1000
0010
0101
0000
,  // measure 75
0100
0001
1000
0100
0001
0100
1100
1000
0001
0100
0010
1000
,  // measure 76
1010
0010
0100
0001
0010
1000
1010
0010
0001
0100
0010
0001
,  // measure 77
0011
0010
1000
0001
0100
0010
1000
0100
0100
0001
0010
0010
,  // measure 78
1000
0010
0010
0001
0100
0100
1000
1001
0001
0100
1010
1000
,  // measure 79
0100
0011
0001
0100
0110
2002
0000
0000
0000
0003
0000
0000
,  // measure 80
0000
3010
1000
0001
,  // measure 81
0010
0010
0001
0100
,  // measure 82
0010
1000
0002
0100
,  // measure 83
0103
0010
1000
0001
,  // measure 84
0010
0100
2000
0002
,  // measure 85
0000
0000
0000
0000
,  // measure 86
0000
0000
0000
0000
,  // measure 87
0000
0000
0000
0000
,  // measure 88
3003
0000
0000
0000
;

//---------------dance-double - ----------------
#NOTES:
     dance-double:
     :
     Challenge:
     19:
     0.999178,1.298510,0.479563,0.154936,1.516158,948.000000,883.000000,65.000000,21.000000,0.000000,0.000000,0.999178,1.298510,0.479563,0.154936,1.516158,948.000000,883.000000,65.000000,21.000000,0.000000,0.000000:
00000000
00000000
00000000
00000000
,
00000000
00000000
00000000
00000000
,
00000000
00000000
00000000
00000000
,
00000000
00000000
00000000
00000000
,
00000000
00000000
00000000
00000000
,
00000002
00000000
00000103
00001000
00000100
00000010
00010000
00000000
00001000
00000000
01000000
00000000
,
10010000
00000000
10000000
10000000
01000000
00010000
00001000
00000000
00001000
00001000
00000010
00000001
,
00000100
00000000
00001000
00001000
00010000
00100000
10000000
01000000
00010000
00001000
00000100
00000010
,
00000200
00000000
00000000
00000000
00000000
00000000
00000000
00000000
00000301
00001000
00000100
00000010
00000001
00000000
00001000
00000000
,
00000010
00000000
00000000
00000100
00000000
00000000
00001000
00000000
00000000
00010000
00000000
00000000
00100000
10000000
00100000
10000000
00000000
00000000
00010000
00000000
00000000
00110000
00000000
00000000
,
00100000
00000000
00000000
00001000
00000000
00000000
00010000
00000000
00000000
00000100
00000000
00000000
00000010
00000000
00000000
00000100
00000000
00000000
00001000
00000000
00000000
00000001
00001000
00000001
,
00001000
00000010
00010000
00000100
00010000
00001000
00100000
00010000
00100000
01000000
10000000
00010000
01000000
00000000
00100000
00000000
,
00010000
00000000
00000000
00001000
00000000
00000000
00000100
00000000
00000000
00000010
00000000
00000000
00001000
00000001
00001000
00000001
00000000
00000000
00000010
00000000
00000000
00000110
00000000
00000000
,
00000100
00000000
00000000
00010000
00000000
00000000
00001000
00000000
00000000
00000100
00000000
00000000
00001000
00000000
00000000
00010000
00000000
00000000
00100000
00000000
00000000
10000000
00010000
10000000
,
00010000
01000000
00100000
00010000
00001000
00010000
00000010
00001000
00000100
00000010
00000001
00001000
00000010
00010000
00000100
00001000
,
00000100
00010000
00011000
00000000
01001000
00000000
01000000
00100000
10000000
00010000
00100000
01000000
00010000
00001000
00010000
00000000
,
00000010
00001000
00000010
00000001
00000010
00001000
00001010
00000000
00010010
00000000
00010000
00000100
00010000
00001000
00010000
01000000
,
10000000
00010000
02000000
00000000
03100000
00000000
10000000
00010000
01000000
00001000
00100000
00001000
00010000
00000010
00001000
00000010
,
00000100
00000001
00001000
00000000
00000100
00000000
00010100
00000000
00010000
00000000
00011000
00000000
00001000
01000000
00010000
01000000
,
00100000
00000000
10100000
00000000
10000000
00000000
10010000
00000000
00010000
01000000
00001000
00000000
00010000
00000000
00010010
00000000
,
00000010
00000000
00000000
00000000
00000000
00000000
00000110
00000000
00000000
00000000
00000000
00000000
00000100
00000000
00000001
00000000
00000100
00000000
00000001
00000000
00000000
00001000
00000000
00000000
00000100
00000000
00000000
00000010
00000000
00000000
00000100
00000000
00000000
00010000
00000000
00000000
00001000
00000000
00000000
01000000
00000000
00000000
00010000
00000000
00000000
01000000
00000000
00000000
,
00100000
00000000
00000000
00010000
00000000
00000000
00100000
00000000
00000000
00000000
00000000
00000000
10000000
00000000
00000000
00000000
00000000
00000000
10010000
00000000
00000000
00000000
00000000
00000000
00010000
00000000
00000000
00000000
00000000
00000000
00100000
00000000
00001000
00000000
00100000
00000000
00001000
00000000
00000000
00000000
00000000
00000000
00010000
00000000
00001000
00000000
00010000
00000000
,
00001000
00000000
00000000
00000000
00000000
00000000
00000100
00000000
00000000
00000000
00000000
00000000
00000010
00000000
00001000
00000000
00000010
00000000
00000100
00000000
00000000
00000000
00000000
00000000
00000001
00000000
00000000
00001000
00000000
00000000
00000100
00000000
00000000
00000000
00000000
00000000
00010000
00000000
00000000
00000000
00000000
00000000
00011000
00000000
00000000
00000000
00000000
00000000
,
00001000
00000000
00101000
00000000
00100000
01000000
10000000
00010000
01000000
00100000
01000000
00001000
00100000
00001000
00010000
00000010
,
00001000
00000010
00000100
00000001
00001000
00000100
00000001
00000100
00001100
00000000
00010010
00000000
00010000
00000100
00010000
00001000
,
00100000
00010000
10000000
01000000
00010000
00000000
01000000
10000000
00010000
01000000
00001000
00100000
00101000
00000000
00011000
00000000
,
00010000
00000010
00001000
00000010
00000100
00001000
00000100
00000001
00002000
00000000
00003100
00000000
00010000
00001000
00010000
00100000
,
10000000
00010000
00100000
01000000
00100000
00010000
01000000
00100000
00010000
00001000
00000100
00000010
00001000
00000001
00000010
00001000
,
00010000
00001000
00000100
00000002
00000000
00000000
00000000
00000000
00000000
00000000
00000000
00000000
00001003
00000010
00010000
00001000
,
00100000
00010000
20000000
00000000
00000000
00000000
30010000
00100000
01000000
00000000
10000000
00100000
01000000
00001000
00010000
00000010
,
00001000
00000010
00000200
00000000
00000000
00000000
00000301
00001000
00000100
00001000
00000001
00000100
00000010
00000100
00001000
00010000
,
00001000
01000000
00010000
00100000
01000000
10000000
00010000
01000000
00100000
00010000
00100000
10000000
00100000
01000000
00010000
10000000
,
01000000
00000000
01100000
00000000
00100000
00001000
00010000
00000010
00001000
00000010
00000100
00001000
00010000
00000100
00010000
00001000
,
00100000
01000000
00200000
00000000
00000000
00000000
00310000
10000000
01000000
00000000
10000000
00100000
00010000
00001000
00000100
00000010
,
00001000
00000000
00000000
00000001
00000000
00000000
00002000
00000000
00000000
00000000
00000000
00000000
00000000
00000000
00000000
00000000
00000000
00000000
00003100
00000000
00000000
00010000
00000000
00000000
00001000
00000000
00000000
01000000
00000000
00000000
00100000
00000000
00000000
01000000
00000000
00000000
01010000
00000000
00000000
00000000
00000000
00000000
00000000
00000000
00010000
00000000
00000000
00000000
,
00000000
00001000
00000000
00001010
00000000
00000010
00000000
00000100
00000000
00001000
00000000
00010000
,
00000000
00000000
10000000
00000000
00000000
00000000
00010000
00000000
00000000
00000000
00001000
00000000
00000000
00000000
00000001
00000000
00000000
00000000
00001000
00000000
00000000
01000000
00000000
00000000
,
00100000
00000000
00000000
10000000
00000000
00000000
00010000
00000000
00000000
00100000
00000000
00000000
00001000
00010000
00001000
00010000
00000000
00000000
00000010
00000000
00000000
00000001
00000000
00000000
,
00000010
00001000
00000100
00010000
00001000
00100000
01000000
10000000
,
00010000
00000000
00000000
00000000
00000000
00000000
01000000
00000000
00000000
00000000
00000000
00000000
00100000
00000000
00000000
00010000
00000000
00000000
00001000
00000000
00010000
00000000
00001000
00000000
00010000
00000000
00000000
00000000
00000000
00000000
00000010
00000000
00000000
00000000
00000000
00000000
00001010
00000000
00000000
00000000
00000000
00000000
00001000
00000000
00000000
00000000
00000000
00000000
,
00000001
00000000
00000011
00000000
00000010
00000000
00001000
00000000
00010000
00001000
00100000
00001000
00010000
00000010
00010000
00000100
,
00010000
00001000
00100000
01000000
11000000
00000000
10000000
00000000
00010000
00000000
01010000
00000000
01000000
00000000
00100000
00000000
,
00010000
00001000
00000100
00000010
00001000
00000001
00002000
00000000
00003100
00000001
00000100
00001000
00000200
00000000
00010300
00001000
,
01000000
00000000
00000000
00100000
00000000
00000000
20000000
00000000
00000000
00000000
00000000
00000000
30010000
00000000
00100000
00000000
00010000
00000000
00100000
00000000
00000000
01000000
00000000
00000000
10000000
00000000
00000000
00010000
00000000
00000000
01000000
00000000
00000000
00001000
00000000
00000000
00100000
00000000
00000000
00010000
00000000
00000000
00100000
00000000
00000000
01000000
00000000
00000000
,
00100000
00001000
00010000
00000010
00000200
00000000
00000301
00001000
00000100
00000001
00000100
00001000
00000010
00010000
00000100
00010000
,
00001000
00000000
00000000
01000000
00000000
00000000
00100000
00000000
00000000
00010000
00000000
00000000
00100000
00000000
00000000
01000000
00000000
00000000
00010000
00000000
00000000
00000000
00000000
00000000
10010000
00000000
00000000
00000000
00000000
00000000
10100000
00000000
00000000
00000000
00000000
00000000
00100000
00000000
01000000
00000000
00100000
00000000
01000000
00000000
00100000
00000000
01000000
00000000
,
00100000
00000000
01000000
00000000
00100000
00000000
10000000
00000000
00010000
00000000
10000000
00000000
00010000
00000000
10000000
00000000
00010000
00000000
10000000
00000000
00010000
00000000
10000000
00000000
00010000
00000000
00000000
01000000
00000000
00000000
00001000
00000000
00000000
00010000
00000000
00000000
00000100
00000000
00000000
00001000
00000000
00000000
00000100
00000000
00000000
00000010
00000000
00000000
,
00001000
00000010
00000001
00000100
00001000
00010000
00001000
00000100
00001000
00010000
00001000
01000000
00100000
10000000
00010000
00100000
,
01000000
00010000
00001000
00010000
01000000
00010000
00001000
00000100
00000010
00001000
00000001
00000010
00000200
00000000
00000000
00000000
,
00000000
00000300
00000000
00000000
00010100
00010000
00001000
01001000
,
01000000
00100000
00010000
00000000
00000000
00011000
00001000
00000100
,
00000101
00000001
00000010
00001010
00000000
00000000
00001000
00010000
,
01000000
10000000
01000000
00010000
00011000
00001000
00000100
00000110
,
00000010
00010000
00011000
00010000
01000000
01100000
00100000
00001000
,
00020000
00000000
00000000
00000000
00000000
00000000
00030010
00000000
00000000
00000000
00000100
00000000
00000001
00001000
00000100
00010000
,
00000010
00000000
00000000
00001000
00000000
00000000
00000100
00000000
00000000
00010000
00000000
00000000
00001000
00000000
00000000
00100000
00000000
00000000
00010000
00000000
00000000
00100000
00000000
00000000
01000000
00000000
00000000
00000000
10000000
00000000
00000000
00000000
01000000
00000000
00000000
00000000
00010000
00000000
00000000
00000000
00001000
00000000
00000000
00000000
00010000
00000000
00000000
00000000
,
00100000
10000000
01000000
00010000
00001000
00000010
00001000
00010000
00000010
00001000
00000010
00000100
,
00000001
00000010
00001000
00010000
00001000
00000100
00001000
00010000
00100000
10000000
00010000
00100000
,
01000000
00010000
00001000
00000010
00001000
00010000
01000000
00010000
00001000
01000000
00100000
00010000
,
00001000
00000000
00000100
00000000
00000001
00000000
00001000
00000000
00000100
00000000
00000010
00000000
00000001
00000010
00000001
00000010
00000100
00000010
00000100
00000010
00000100
00001000
00000100
00001000
,
00000100
00010000
00000100
00010000
00001000
00000000
01000000
00000000
00100000
00000000
10000000
00000000
00010000
10000000
00010000
10000000
01000000
10000000
01000000
10000000
01000000
00100000
01000000
00100000
,
00010000
00000000
01000000
00000000
01001000
00000000
00000000
00000000
00011000
00000000
00000000
00000000
00010000
00000000
00000010
00000000
00001000
00000000
00000010
00000000
00000100
00000001
00000100
00000001
,
00001000
00000000
00000100
00000000
00010000
00000000
00001000
00000000
00100000
00010000
00100000
01000000
00200000
00000000
00000000
00000000
00310000
00000000
10000000
00000000
00100000
00000000
00010000
00000000
,
00001000
00000010
00000001
00000100
00001000
00000100
00000110
00000000
00000010
00010000
00001000
00100000
,
00110000
00000000
00010000
10000000
00100000
01000000
01001000
00000000
00011000
00000000
00010100
00000000
,
00000110
00000010
00000001
00001000
00000010
00010000
00010100
00000000
00011000
00000000
00001000
00010000
,
02000000
00000000
00000000
00000000
03100000
00000000
00010000
00000000
10000000
00000000
00100000
00000000
01000000
00001000
01000000
00001000
00010000
00000000
00000010
00000000
00001000
00000000
00000001
00000000
,
00001000
00000100
00001000
00000100
00010000
00000000
00001000
00000000
01000000
00000000
00100000
00000000
10100000
00000000
00000000
00000000
10010000
00000000
00010000
00000000
00100000
00000000
00001000
00000000
,
00011000
00000000
00000000
00000000
00010010
00000000
00000000
00000000
00000110
00000000
00000000
00000000
00000100
00000001
00001000
00000010
00001000
00000000
00000100
00000000
00010000
00000000
00001000
00000000
,
00100000
00010000
00100000
01000000
10000000
00000000
00010000
00000000
01000000
00000000
00100000
00000000
10000000
00000000
00000000
00000000
01000000
00000000
00000000
00000000
00010000
00000000
00001000
00000000
,
00011000
00000000
00001000
00000000
00000100
00000001
00000101
00000000
00000001
00000000
00000010
00001000
,
00001010
00000000
00001000
00000000
00010000
01000000
10000000
00100000
00010000
00001000
00000100
00000001
,
00001000
00000001
00000010
00001000
00010000
00100000
10000000
00100000
00010000
00001000
00000100
00000001
,
00001001
00000000
00001100
00000000
00010100
00000000
00011000
00000000
00001000
01000000
01100000
00000000
,
01001000
00000000
00011000
00000000
00010100
00000100
00000010
00000000
00000001
00000100
00000110
00000000
,
00000010
00010000
00001000
00010000
00100000
10000000
01000000
00010000
00001000
00010000
00100000
00010000
,
00001000
00000100
00000001
00001000
00010000
00001000
00000001
00000100
00001000
00010000
01000000
10000000
,
00010000
00001000
00010000
10000000
01000000
00100000
00001000
00010000
00000010
00010000
00001000
00100000
,
01000000
00010000
00001000
00000010
00000001
00000100
00010000
00000100
00000001
00000010
00001000
00010000
,
01000000
10000000
00100000
00001000
00100000
20000000
00000000
00000000
00000000
00000000
00000000
00000000
,
00000000
30010000
00100000
00001000
,
00000100
00000001
00001000
00000100
,
00010000
01000000
00200000
00001000
,
00301000
00010000
00000010
00000001
,
00001000
00000100
00002000
00020000
,
00000000
00000000
00000000
00000000
,
00000000
00000000
00000000
00000000
,
00000000
00000000
00000000
00000000
,
00033000
00000000
00000000
00000000
;

//---------------dance-single - ----------------
#NOTES:
     dance-single:
     :
     Hard:
     17:
     0.882186,1.071271,0.376273,0.191825,1.268998,837.000000,786.000000,51.000000,26.000000,0.000000,0.000000,0.882186,1.071271,0.376273,0.191825,1.268998,837.000000,786.000000,51.000000,26.000000,0.000000,0.000000:
0000
0000
0000
0000
,
0000
0000
0000
0000
,
0000
0000
0000
0000
,
0000
0000
0000
0000
,
0000
0000
0000
0000
,
0002
0000
1003
0010
0100
0001
1000
0000
0100
0000
0010
0000
,
1001
0000
0001
0000
0100
0000
1010
0000
1000
0000
0001
0000
,
0011
0000
0010
0000
0100
0000
1001
0000
0001
0000
0100
0000
,
0220
0000
0000
0000
0330
0000
0010
1000
,
0001
0000
0010
0000
0100
0000
1000
0000
0001
0100
0010
0000
1000
0000
0001
0000
,
0001
0010
1000
0001
0100
1000
0020
0000
,
0130
0001
1000
0100
0010
0001
0010
0100
0010
0001
1000
0010
0100
0000
0001
0000
,
1000
0000
0100
0000
0010
0000
0100
0000
1000
0001
0100
0000
0010
0000
1000
0000
,
1000
0001
0010
1000
0001
0100
2000
0000
,
3001
0100
0010
1000
0010
0100
0001
0010
0100
1000
0001
0100
0010
1000
0100
1000
,
0001
0010
0100
0000
0100
0000
1000
0001
0100
0010
0100
0001
1000
0100
0010
0000
,
0001
0010
0100
1000
0010
0100
0001
0000
0001
0000
1000
0100
0001
0100
1000
0001
,
0100
0010
2000
0000
0000
0000
3001
0010
0100
1000
0001
0100
0010
1000
0001
0100
,
0001
0010
0100
0000
1000
0000
1001
0000
0001
0000
0101
0000
0000
0000
0100
0000
,
0010
0000
1010
0000
1000
0000
1001
0000
0001
0010
0100
0000
1000
0000
1100
0000
,
0100
0000
0110
0000
0000
0000
0010
0001
1000
0010
0100
0001
0100
0010
1000
0001
,
0010
0100
1000
0000
0001
0000
0101
0000
0100
0000
0110
0000
0000
0000
0010
0000
,
1000
0000
1001
0000
0001
0000
0011
0000
0010
0001
1000
0000
0010
0000
0110
0000
,
0100
0000
0101
0000
0000
0000
0001
1000
0100
0010
0100
1000
0001
0100
0010
0100
,
1000
0100
0001
1000
0100
0010
0001
1000
0010
0000
0010
0000
0100
0001
0100
1000
,
0100
0010
0100
0001
1000
0000
0100
0010
0001
0010
0100
1000
0010
0000
0010
0000
,
0100
0001
0100
0010
1000
0001
0010
0100
0020
0000
0000
0000
0031
1000
0010
1000
,
0001
0010
0001
1000
0100
0010
0100
1000
0100
0010
0001
0100
0010
1000
0010
0100
,
1000
0100
0001
2000
0000
0000
0000
0000
0000
0000
0000
0000
3001
0100
0001
0100
,
0010
1000
0002
0000
0000
0000
1003
0100
1000
0000
0001
0000
0100
0010
1000
0001
,
1000
0100
0020
0000
0000
0000
0031
1000
0010
0100
0001
0000
1000
0100
1000
0100
,
0010
0001
1000
0010
0100
0001
0100
0001
0010
0100
0010
0001
1000
0010
0100
0001
,
0100
0000
0110
0000
0010
1000
0010
1000
0001
0010
0100
0010
0001
0010
0100
1000
,
0001
1000
0020
0000
0000
0000
0130
0001
0100
0000
0010
0000
1000
0001
0010
0001
,
1000
0000
0000
0010
0000
0000
0200
0000
0000
0000
0000
0000
0000
0000
0000
0000
0000
0000
0301
0000
0000
1000
0000
0000
0100
0000
0000
0010
0000
0000
0001
0000
0000
0000
0000
0000
1001
0000
0000
0000
0000
0000
0000
0000
1000
0000
0000
0000
,
0000
0010
0000
0100
0000
0001
0000
1000
0000
0100
0000
0100
,
0000
0000
0100
0000
0000
0000
0010
0000
0000
0000
0010
0000
0000
0000
0010
0000
0000
0000
0001
0000
0000
1000
0000
0000
,
0010
0000
0100
0000
0001
0000
0100
0000
0010
1000
0001
0000
0010
0000
0001
0000
,
0010
1000
0010
0001
0100
0010
1000
0001
,
0100
0000
1000
0000
0100
0010
1000
0001
1000
0000
0001
0000
0011
0000
0010
0000
,
0100
0000
1100
0000
1000
0000
0001
0000
0100
0001
0100
0001
0010
0100
1000
0100
,
1000
0001
0100
0010
1000
0000
0001
0000
0010
0000
0110
0000
0100
0000
1000
0000
,
0001
0100
0001
0010
0100
1000
0200
0000
0310
0001
1000
0010
2000
0000
3001
0100
,
0010
0100
0002
0000
1003
0100
0010
0100
1000
0001
1000
0001
0100
0010
1000
0100
,
1000
0100
0010
0001
0200
0000
0310
1000
0010
1000
0001
0010
0100
0010
0100
1000
,
0001
0100
1000
0100
0010
0100
0001
0000
1000
0000
0100
0000
0010
0001
0010
0100
,
1000
0010
0100
0001
0010
0100
1000
0001
0100
0010
1000
0010
0001
0010
1000
0100
,
0010
0001
1000
0010
0100
0001
0100
0010
0100
0001
0100
0010
1000
0001
0010
0100
,
1000
0001
1000
0100
1000
0001
1000
0100
0010
0001
0100
0010
2000
0000
0000
0000
,
0000
3000
0000
0000
1001
0001
0100
0010
,
1000
0010
0200
0000
0000
0301
1000
0100
,
0001
0100
1000
0020
0000
0000
0130
0001
,
1000
0100
0001
0100
1000
0010
0010
0100
,
0010
0010
0001
0010
0010
0100
0001
1000
,
0200
0000
0000
0310
0000
0000
0001
0100
,
0010
0000
0000
0000
0000
0000
1000
0000
0000
0001
0000
0000
1000
0000
0000
0100
0000
0000
0010
0000
0000
0001
0000
0000
0100
0000
0000
0000
0010
0000
0000
0000
1000
0000
0000
0000
0001
0000
0000
0000
0011
0000
0000
0000
0000
0000
0000
0000
,
0010
0001
1000
0010
1010
0000
0010
0100
0001
1000
0100
0001
,
0100
1000
0001
0100
0010
1000
0010
0100
0001
1000
1100
0000
,
0100
0010
0001
0100
0101
0000
0001
0100
1000
0100
0001
0010
,
0100
1000
0010
0100
0001
0000
1000
0010
0001
1000
0100
0001
,
1000
0000
1010
0000
0101
0000
0001
0010
1000
0001
0100
1000
,
0001
0000
0101
0000
1010
0000
0010
1000
1001
0000
0001
0000
,
0010
0100
0110
0000
0010
0000
0001
0000
0001
1000
0010
0000
,
0100
0001
1000
0100
0001
0100
1000
0000
0001
0100
0010
1000
,
0100
0000
0001
0100
1000
0010
0100
0001
0100
1000
0001
0010
,
1000
0001
0010
0100
1000
0000
1001
0000
0110
0000
0010
1000
,
0002
0000
0023
0000
0230
0000
1300
0001
0100
0010
0001
1000
,
0100
0001
0010
0100
1000
0010
0110
0000
1001
0000
1000
0001
,
0011
0000
0110
0000
1001
0000
1000
0010
0100
0010
0001
1000
,
0100
0001
0010
0100
1000
0010
0100
0000
0101
0000
0001
1000
,
0100
0000
1100
0000
1000
0001
0010
0000
0011
0000
0001
1000
,
0010
0000
1010
0000
1000
0010
0001
1000
0001
0010
1000
0001
,
0010
1000
0001
1000
0010
0001
0100
0010
1000
0001
0010
1000
,
1010
0000
0110
0000
0011
0000
1001
0000
1000
0001
0101
0000
,
0100
0000
0110
0000
0010
1000
0001
0000
0010
0100
1100
0000
,
1000
0010
0001
0010
1000
0000
0001
0010
1000
0001
0100
1000
,
0010
0001
1000
0100
0010
0100
1000
0001
0010
1000
0001
0010
,
0100
1000
0010
0100
0001
1000
0001
0010
0100
1000
0001
0100
,
1000
0100
0001
1000
0100
0001
0100
1000
0010
0010
0001
0010
,
0010
1000
0100
0100
0010
0002
0000
0000
0000
0000
0000
0000
,
0000
1003
0010
0100
,
0001
0010
1000
0010
,
0001
0100
0010
1000
,
1000
0001
0010
0100
,
1000
0001
0200
0020
,
0000
0000
0000
0000
,
0000
0000
0000
0000
,
0000
0000
0000
0000
,
0330
0000
0000
0000
;

//---------------dance-double - ----------------
#NOTES:
     dance-double:
     :
     Hard:
     17:
     0.853728,1.071271,0.280360,0.206581,1.221042,810.000000,772.000000,38.000000,28.000000,0.000000,0.000000,0.853728,1.071271,0.280360,0.206581,1.221042,810.000000,772.000000,38.000000,28.000000,0.000000,0.000000:
00000000
00000000
00000000
00000000
,
00000000
00000000
00000000
00000000
,
00000000
00000000
00000000
00000000
,
00000000
00000000
00000000
00000000
,
00000000
00000000
00000000
00000000
,
20000000
00000000
00000000
00000000
31000000
00000000
00010000
00000000
00001000
00000000
00000010
00000000
,
00000011
00000000
00000001
00000000
00000100
00000000
00001100
00000000
00001000
00000000
00010000
00000000
,
00110000
00000000
00100000
00000000
10000000
00000000
10010000
00000000
00010000
00000000
00100000
00000000
,
00002000
00000000
00000000
00000000
00003000
00000000
00010000
00000010
,
00001000
00000000
00000010
00000000
00000100
00000000
00000001
00000000
00000010
00000100
00001000
00000000
00000100
00000000
00010000
00000000
,
00001000
01000000
00100000
00010000
00100000
10000000
00020000
00000000
,
00130000
00001000
00010000
00001000
00100000
00001000
00010000
00000010
00001000
00000010
00000100
00000010
00001000
00000000
00000001
00000000
,
00000010
00000000
00000100
00000000
00010000
00000000
00001000
00000000
01000000
00001000
00010000
00000000
01000000
00000000
10000000
00000000
,
00010000
01000000
00100000
00010000
00001000
00010000
00200000
00000000
,
01300000
00001000
00010000
00001000
01000000
00001000
00010000
00000100
00001000
00000100
00000010
00000100
00001000
00000001
00000100
00000010
,
00001000
00000010
00010000
00000000
00010000
00000000
00001000
01000000
00010000
00100000
01000000
00100000
00010000
00100000
01000000
00000000
,
10000000
00010000
01000000
00100000
01000000
00001000
00010000
00000000
00010000
00000000
00000100
00001000
00000100
00000010
00000001
00001000
,
00000001
00000100
00000020
00000000
00000000
00000000
00001030
00000001
00001000
00000100
00010000
00001000
00010000
00000100
00010000
00001000
,
01000000
00010000
01000000
00000000
00100000
00000000
10100000
00000000
10000000
00000000
01000000
00000000
00000000
00000000
00010000
00000000
,
00001000
00000000
00001010
00000000
00000010
00000000
00000011
00000000
00000001
00001000
00000010
00000000
00000100
00000000
00001100
00000000
,
00001000
00000000
00020000
00000000
00000000
00000000
01030000
00100000
01000000
10000000
00010000
01000000
00100000
01000000
00010000
01000000
,
00001000
00010000
00001000
00000000
00010000
00000000
00010010
00000000
00000010
00000000
00000100
00000000
00000000
00000000
00001000
00000000
,
00010000
00000000
01010000
00000000
01000000
00000000
01100000
00000000
00100000
00010000
10000000
00000000
00100000
00000000
00110000
00000000
,
00010000
00000000
00002000
00000000
00000000
00000000
00003100
00000010
00000100
00000001
00001000
00000100
00000010
00000100
00001000
00000100
,
00010000
00001000
00010000
00001000
01000000
00100000
10000000
00010000
01000000
00000000
01000000
00000000
00001000
01000000
00001000
00010000
,
00000010
00001000
00000010
00000100
00000001
00000000
00001000
00000100
00000010
00000100
00001000
00000100
00010000
00000000
00010000
00000000
,
00001000
01000000
00010000
01000000
00100000
10000000
00100000
01000000
00020000
00000000
00000000
00000000
10030000
00100000
10000000
01000000
,
00100000
00010000
00100000
00010000
00001000
00000100
00001000
00000100
00000010
00000001
00001000
00000010
00000100
00000010
00010000
00000100
,
00010000
00001000
00010000
00000200
00000000
00000000
00000000
00000000
00000000
00000000
00000000
00000000
00010300
00001000
00010000
00001000
,
01000000
00010000
02000000
00000000
00000000
00000000
03100000
10000000
00100000
00000000
01000000
00000000
00010000
01000000
00010000
01000000
,
00001000
00010000
00002000
00000000
00000000
00000000
00003100
00000010
00001000
00000001
00000100
00000000
00000001
00000010
00000001
00000010
,
00000100
00010000
00000100
00010000
00001000
00010000
00001000
01000000
00100000
10000000
00100000
10000000
00010000
00100000
01000000
00100000
,
00001000
00000000
00010000
00000000
00000010
00001000
00000001
00000100
00000010
00001000
00000001
00000100
00000010
00001000
00000010
00001000
,
00000100
00010000
00000200
00000000
00000000
00000000
00010300
00001000
00010000
00000000
00001000
00000000
00100000
00010000
00100000
00010000
,
01000000
00000000
00000000
00001000
00000000
00000000
02000000
00000000
00000000
00000000
00000000
00000000
00000000
00000000
00000000
00000000
00000000
00000000
03010000
00000000
00000000
10000000
00000000
00000000
00100000
00000000
00000000
01000000
00000000
00000000
00010000
00000000
00000000
00000000
00000000
00000000
10010000
00000000
00000000
00000000
00000000
00000000
00000000
00000000
10000000
00000000
00000000
00000000
,
00000000
00100000
00000000
00110000
00000000
00010000
00000000
00001000
00000000
00000100
00000000
00000100
,
00000000
00000000
00000100
00000000
00000000
00000000
00000010
00000000
00000000
00000000
00000010
00000000
00000000
00000000
00000010
00000000
00000000
00000000
00001000
00000000
00000000
00000001
00000000
00000000
,
00000010
00000000
00000100
00000000
00010000
00000000
00001000
00000000
01000000
00010000
00100000
00000000
01000000
00000000
10000000
00000000
,
00010000
01000000
00100000
10000000
00100000
00010000
00001000
00000100
,
00000010
00000000
00001000
00000000
00000001
00000010
00000100
00001000
00000001
00000000
00000100
00000000
00000110
00000000
00000010
00000000
,
00010000
00000000
00011000
00000000
00001000
00000000
00100000
00000000
01100000
00000000
00000000
11000000
00000000
00000000
10010000
00000000
,
00010000
01000000
01001000
00001000
00010000
00010100
00000100
00000010
,
00000001
00001000
00000010
00001000
00000100
00010000
00002000
00000000
01003000
00010000
01000000
00100000
20000000
00000000
30010000
01000000
,
00001000
00010000
00002000
00000000
00013000
00000010
00001000
00000100
00000010
00000100
00001000
00000100
00000010
00000001
00001000
00000010
,
00001000
00000001
00000100
00000010
00002000
00000000
00003100
00010000
00001000
01000000
00010000
01000000
00010000
00100000
01000000
10000000
,
01000000
10000000
00010000
01000000
00001000
00010000
00001000
01000000
00001000
00010000
00001000
00000000
00010000
00000010
00001000
00000100
,
00010000
00000010
00001000
00000100
00010000
00000010
00001000
00000010
00000100
00000001
00001000
00000001
00000010
00000100
00001000
00000100
,
00010000
00001000
01000000
00010000
00100000
00001000
01000000
00010000
00100000
00001000
01000000
00010000
00100000
00001000
00010000
00000010
,
00001000
00000100
00010000
00000010
00001000
00000100
00010000
00000010
00001000
00000010
00000100
00000001
00002000
00000000
00000000
00000000
,
00000000
00003000
00000000
00000000
00001100
00000100
00010000
00001000
,
01000000
00100000
00010000
00000000
00000000
00001000
00010000
01000000
,
00010000
00001000
00000010
00000001
00000000
00000000
00001000
00000010
,
00000100
00001000
00010000
00100000
10000000
01000000
01000000
00010000
,
00001000
00001000
00000010
00000001
00000001
00000100
00001000
00001000
,
00020000
00000000
00000000
00130000
00000000
00000000
10000000
00010000
,
00100000
00000000
00000000
00000000
00000000
00000000
00001000
00000000
00000000
00010000
00000000
00000000
00000010
00000000
00000000
00001000
00000000
00000000
00000010
00000000
00000000
00000100
00000000
00000000
00000001
00000000
00000000
00000000
00000010
00000000
00000000
00000000
00001000
00000000
00000000
00000000
00000010
00000000
00000000
00000000
00000001
00000000
00000000
00000000
00000000
00000000
00000000
00000000
,
00000100
00001000
00010000
00100000
10000000
00000000
00010000
00100000
01000000
00100000
00001000
00010000
,
00000010
00000100
00001000
00010000
00001000
00000000
00000100
00000001
00000010
00001000
00010000
00000000
,
01000000
10000000
00100000
00010000
00001000
00000000
00010000
00000010
00000100
00001000
00010000
00001000
,
00000100
00000001
00001000
00000100
00010000
00000000
00001000
00010000
01000000
00010000
00001000
00010000
,
01000000
10000000
00100000
00010000
00001000
00000000
00000100
00001000
00010000
00001000
00000100
00001000
,
00010000
00001000
00000100
00000001
00000010
00000000
00000100
00010000
00001000
00000000
00011000
00000000
,
01000000
00001000
00010000
00000000
00011000
00000000
00000100
00000000
00000010
00000001
00000100
00000000
,
00001000
00010000
00100000
10000000
01000000
00010000
00001000
00000000
00010000
00000010
00000100
00000000
,
00000110
00000000
00000010
00001000
00000001
00000000
00000011
00000000
00000010
00001000
00010000
00000000
,
00000100
00001000
00010000
00100000
01000000
10000000
10010000
00000000
01100000
00000000
00100000
00010000
,
00002000
00000000
00003200
00000000
00000302
00000000
00001003
00000100
00000010
00000100
00010000
00001000
,
00010000
01000000
10000000
00100000
01000000
00000000
01001000
00000000
00011000
00000000
00001000
00000100
,
00000020
00000000
00002030
00000000
00003002
00000000
00000013
00001000
00010000
01000000
00010000
00001000
,
00010000
01000000
10000000
00010000
01000000
00000000
01100000
00000000
01001000
00000000
00001000
00010000
,
00000010
00000000
00000110
00000000
00000100
00000001
00001000
00000000
00001100
00000000
00000100
00010000
,
00001000
00000000
00011000
00000000
00010000
01000000
10000000
00100000
00010000
00001000
00000100
00001000
,
00010000
00001000
00000100
00000001
00001000
00000001
00000010
00001000
00010000
00001000
00000100
00001000
,
00010000
00000000
00001000
00000000
01000000
00000000
01100000
00000000
00100000
10000000
00010000
00000000
,
00110000
00000000
00101000
00000000
00001000
00010000
00000010
00000000
00000100
00001000
00010000
00000000
,
00001000
00000100
00000001
00000010
00001000
00000000
00010000
01000000
00100000
00001000
01000000
00010000
,
01000000
00100000
10000000
00100000
00010000
00001000
00010000
00100000
01000000
00001000
00100000
00001000
,
00010000
00001000
00000010
00000001
00001000
00000010
00000100
00001000
00000000
00010000
00100000
00000000
,
10000000
01000000
00000000
00010000
00001000
00000000
00000010
00000001
00000100
00001000
00010000
00100000
,
10000000
01000000
00010000
01000000
10000000
00020000
00000000
00000000
00000000
00000000
00000000
00000000
,
00000000
01030000
00001000
00010000
,
00000010
00000100
00001000
00010000
,
00001000
00000100
00000001
00001000
,
00001000
00000100
00010000
00001000
,
00010000
01000000
20000000
00020000
,
00000000
00000000
00000000
00000000
,
00000000
00000000
00000000
00000000
,
00000000
00000000
00000000
00000000
,
30030000
00000000
00000000
00000000
;

//---------------dance-single - ----------------
#NOTES:
     dance-single:
     :
     Medium:
     15:
     0.713548,0.876494,0.221337,0.221337,0.833702,677.000000,647.000000,30.000000,30.000000,0.000000,0.000000,0.713548,0.876494,0.221337,0.221337,0.833702,677.000000,647.000000,30.000000,30.000000,0.000000,0.000000:
0000
0000
0000
0000
,
0000
0000
0000
0000
,
0000
0000
0000
0000
,
0000
0000
0000
0000
,
0000
0000
0000
0000
,
2000
0000
0000
0000
3010
0000
0100
0000
0001
0000
1000
0000
,
1100
0000
0100
0000
0010
0000
0011
0000
0001
0000
0100
0000
,
0110
0000
0010
0000
1000
0000
1001
0000
0001
0000
0010
0000
,
0220
0000
0000
0000
0330
0000
0100
1000
,
0001
0100
0010
1000
0001
0010
0010
1000
,
0010
0001
0100
0010
1000
0100
0020
0000
,
0031
1000
0001
0000
1000
0100
1000
0000
0010
0100
0001
0100
0010
0000
1000
0000
,
0001
0010
0100
1000
0010
0010
0001
0010
,
1000
0001
0010
0100
1000
0001
0200
0000
,
0310
1000
0010
0000
0100
0001
0100
0000
0010
1000
0001
1000
0010
0000
0100
0000
,
0001
0000
0001
0000
1000
0000
0100
0000
0010
0000
0100
0010
0001
1000
0010
0000
,
0100
0000
0001
0000
1000
0000
1000
0000
0010
0000
0001
0000
0010
0000
1000
0001
,
0010
0100
2000
0000
0000
0000
3001
0100
0010
0000
1000
0001
0010
0000
0100
1000
,
0001
1000
0001
0000
0100
0000
0010
0000
1000
0000
1010
0000
0000
0000
0010
0000
,
0100
0001
0010
0011
0000
0001
1000
0010
,
0100
0000
0002
0000
0000
0000
1003
0100
1000
0000
0001
0100
0001
0000
0010
0001
,
0010
0100
1000
0000
0001
0000
0100
0000
0010
0000
1010
0000
0000
0000
1000
0000
,
0001
0010
0100
1100
0000
1000
0010
0001
,
0010
0000
2000
0000
0000
0000
3001
0010
0001
0000
1000
0010
1000
0000
0100
0010
,
0001
1000
0100
0000
0010
0000
0001
0000
0001
0000
1000
0000
0010
0000
0100
0000
,
0001
0010
0100
1000
0001
0000
0100
0000
0010
0000
1000
0000
1000
0000
0001
0000
,
0010
0000
0100
0000
1000
0001
1000
0010
0200
0000
0000
0000
0301
1000
0100
0000
,
0010
0000
0001
0100
0010
0000
0100
0000
0010
1000
0010
1000
0001
0010
0001
0010
,
0100
1000
0001
2000
0000
0000
0000
0000
0000
0000
0000
0000
3001
0000
0100
0000
,
0010
1000
0020
0000
0000
0000
0130
0000
0100
0000
0001
0000
1000
0000
0100
0000
,
0010
0001
0020
0000
0000
0000
0031
0000
0001
0000
1000
0000
0001
0010
0001
0000
,
1000
0010
1000
0000
0100
0010
0001
1000
0010
1000
0010
0000
0100
0001
0100
0001
,
1000
0000
1000
0000
0010
0000
0100
0000
0001
0010
0001
0010
0100
0000
1000
0000
,
0001
0100
0002
0000
0000
0000
1003
0000
1000
0000
0100
0000
0001
0000
0100
0000
,
0010
0001
0020
0000
0000
0000
0031
0000
0001
0000
1000
0000
1010
0000
0000
0000
,
0000
0010
0000
0101
0000
0000
0000
0001
0000
1000
0000
1000
,
0000
0000
1000
0000
0000
0000
0001
0000
0000
0000
0001
0000
0000
0000
0001
0000
0000
0000
1000
0000
0000
0010
0000
0000
,
0100
0001
0010
0001
0100
0010
1000
0100
,
0001
0100
1000
0010
0001
1000
0100
0001
,
1000
0100
0010
0001
0001
1000
1020
0000
,
0130
0000
0102
0000
0000
0000
1003
0000
1100
0000
0000
1010
0000
0000
0110
0000
,
0100
0001
2001
0000
3100
0120
0000
0031
,
1000
0010
1000
0010
1000
0010
0100
0000
0001
1000
0100
1000
0001
0000
0100
0010
,
0100
0000
0001
0000
1000
0100
1000
0000
0001
0100
0010
0100
0001
0000
1000
0001
,
0010
0001
1000
0000
0001
0000
1000
0100
1000
0000
0010
0000
0100
0001
0100
0000
,
0010
1000
0001
1000
0001
1000
0100
0000
0010
0000
0010
0000
0001
0100
0001
0100
,
0010
0000
1000
0100
1000
0100
0010
0000
0001
1000
0010
1000
0001
1000
0010
0000
,
1000
0001
1000
0000
0100
0010
0001
0010
0100
0000
1000
0000
1000
0000
0010
0000
,
0100
0001
0100
0010
0100
0000
0010
1000
0001
0010
0100
0000
0020
0000
0000
0000
,
0000
0030
0000
0000
0001
0001
1000
0010
,
0100
0001
0100
0000
0000
0010
1000
0001
,
0010
1000
0010
0001
0000
0000
0100
0010
,
1000
0001
0010
0100
1100
0000
1000
1001
,
0000
0001
0101
0000
0100
0110
0000
0000
,
0020
0000
0000
1030
0000
0000
0001
0010
,
0100
0000
0000
1000
0000
0000
0001
0000
0000
0100
0000
0000
0010
0000
0000
0000
1000
0000
0100
0000
1000
0000
0000
0000
,
0010
0000
0100
0001
0100
0000
0001
0010
0100
0010
0001
0010
,
0100
1000
0001
0100
0010
0000
1000
0000
0001
0100
0001
0000
,
0010
0000
0100
1000
0100
0000
1000
0010
0100
0001
0100
0010
,
1000
0001
0010
0100
1000
0000
0001
0100
0010
0100
1000
0100
,
0010
0000
1000
0000
1000
0000
0100
0001
0100
1000
0100
0010
,
0001
0000
1000
0000
1000
0000
0010
0100
0001
0000
1001
0000
,
1000
0100
0010
0000
0011
0000
0001
0000
0001
0000
1000
0000
,
0010
0100
0001
1000
0100
0000
0010
0000
0001
0000
0101
0000
,
0010
0000
1000
0000
1100
0000
1001
0000
0101
0000
0110
0000
,
0010
1000
0010
0100
0001
0000
1000
0000
1000
0000
0100
0010
,
0001
0000
1000
0000
1000
0000
0010
0100
0001
1000
0100
0000
,
0001
0100
1000
0001
1000
0000
0001
0000
0001
0000
1000
0010
,
0100
0000
0001
0000
0001
0000
1000
0100
0010
0001
0100
0000
,
1000
0100
0001
1000
0001
0000
0020
0000
0001
0000
0031
0000
,
2000
0000
0010
0000
3010
0000
0200
0000
0001
0000
0301
0000
,
0020
0000
0100
0000
0130
0000
1000
0100
1000
0001
0100
0000
,
0010
1000
0001
0010
0100
0000
1000
0001
0100
0000
0110
0000
,
0020
0000
2030
0000
3002
0000
0013
0000
0100
1000
0100
0000
,
0010
0000
0001
0000
1000
0010
0100
0000
0001
0010
0100
0000
,
1000
0010
0001
0010
1000
0000
0001
0010
0100
1000
0001
0000
,
1000
0010
0100
0001
1000
0000
0001
0010
1000
0010
0001
0000
,
1000
0010
0001
0010
1000
0000
0001
0010
0000
0010
0100
0000
,
0100
1000
0000
1000
0001
0000
0001
0100
1000
0100
0010
0100
,
0001
0010
0100
1000
0001
2000
0000
0000
0000
0000
0000
0000
,
0000
3001
0100
0010
,
1000
0001
0010
0100
,
1000
0010
0200
0000
,
0300
0001
1000
0100
,
0010
0001
0100
0020
,
0000
0000
0000
0000
,
0000
0000
0000
0000
,
0000
0000
0000
0000
,
0030
0000
0000
0000
;

//---------------dance-double - ----------------
#NOTES:
     dance-double:
     :
     Medium:
     15:
     0.707224,0.876494,0.206581,0.213959,0.811569,671.000000,643.000000,28.000000,29.000000,0.000000,0.000000,0.707224,0.876494,0.206581,0.213959,0.811569,671.000000,643.000000,28.000000,29.000000,0.000000,0.000000:
00000000
00000000
00000000
00000000
,
00000000
00000000
00000000
00000000
,
00000000
00000000
00000000
00000000
,
00000000
00000000
00000000
00000000
,
00000000
00000000
00000000
00000000
,
00000002
00000000
00000000
00000000
00000103
00000000
00000010
00000000
00010000
00000000
00000100
00000000
,
00010100
00000000
00010000
00000000
00001000
00000000
01001000
00000000
01000000
00000000
00100000
00000000
,
10100000
00000000
10000000
00000000
00010000
00000000
00110000
00000000
00100000
00000000
00001000
00000000
,
00020000
00000000
00000000
00000000
00030000
00000000
00001000
00010000
,
00000010
00001000
00000100
00000010
00000001
00000100
00000100
00001000
,
00000100
00000010
00010000
00000100
00010000
00001000
00200000
00000000
,
01300000
10000000
01000000
00000000
00100000
00010000
00100000
00000000
00010000
01000000
00001000
01000000
00010000
00000000
00100000
00000000
,
00001000
00010000
00000010
00001000
00000100
00000010
00000010
00000001
,
00000010
00000100
00001000
00000100
00010000
00001000
00020000
00000000
,
00030100
00001000
00000100
00000000
00010000
00001000
00010000
00000000
00001000
01000000
00010000
01000000
00001000
00000000
00100000
00000000
,
00010000
00000000
00100000
00000000
00100000
00000000
01000000
00000000
10000000
00000000
00010000
01000000
00100000
10000000
00010000
00000000
,
01000000
00000000
00001000
00000000
00010000
00000000
00000100
00000000
00000100
00000000
00001000
00000000
00000100
00000000
00000010
00000001
,
00001000
00000001
00000020
00000000
00000000
00000000
00000031
00000100
00000001
00000000
00001000
00000100
00001000
00000000
00000100
00010000
,
00001000
00010000
00000100
00000000
00010000
00000000
00001000
00000000
01000000
00000000
01010000
00000000
00000000
00000000
00010000
00000000
,
01000000
00001000
00010000
00010100
00000000
00000100
00000010
00000001
,
00001000
00000000
00000020
00000000
00000000
00000000
00010030
00000100
00010000
00000000
00001000
00010000
00001000
00000000
01000000
00010000
,
10000000
00010000
01000000
00000000
00100000
00000000
10000000
00000000
00010000
00000000
00110000
00000000
00000000
00000000
00100000
00000000
,
00001000
00010000
00000010
00001010
00000000
00001000
00000001
00000010
,
00000100
00000000
00002000
00000000
00000000
00000000
00003100
00000010
00000100
00000000
00001000
00000001
00001000
00000000
00000100
00010000
,
00001000
00010000
00000100
00000000
00010000
00000000
00001000
00000000
01000000
00000000
01000000
00000000
00100000
00000000
10000000
00000000
,
00010000
00100000
01000000
10000000
00010000
00000000
01000000
00000000
00001000
00000000
00010000
00000000
00000010
00000000
00000010
00000000
,
00001000
00000000
00000010
00000000
00000100
00000001
00001000
00000010
00000200
00000000
00000000
00000000
00000301
00001000
00000001
00000000
,
00000010
00000000
00000100
00001000
00000100
00000000
00010000
00000000
00001000
01000000
00001000
01000000
00010000
00100000
00010000
00100000
,
01000000
10000000
00010000
00200000
00000000
00000000
00000000
00000000
00000000
00000000
00000000
00000000
00310000
00000000
10000000
00000000
,
00100000
10000000
00200000
00000000
00000000
00000000
01300000
00000000
00001000
00000000
00010000
00000000
00000100
00000000
00001000
00000000
,
00000010
00001000
00000020
00000000
00000000
00000000
00000130
00000000
00000001
00000000
00001000
00000000
00000100
00001000
00000100
00000000
,
00010000
00001000
00010000
00000000
00001000
01000000
00001000
01000000
00010000
01000000
00010000
00000000
10000000
01000000
10000000
01000000
,
00100000
00000000
00100000
00000000
00001000
00010000
00001000
00000000
00010000
00000010
00010000
00000010
00001000
00000000
00000100
00000000
,
00000010
00000001
00000020
00000000
00000000
00000000
00000031
00000000
00001000
00000000
00000010
00000000
00001000
00000000
00000100
00000000
,
00010000
00001000
00020000
00000000
00000000
00000000
00031000
00000000
01000000
00000000
00010000
00000000
10010000
00000000
00000000
00000000
,
00000000
00010000
00000000
01001000
00000000
00000000
00000000
00001000
00000000
00010000
00000000
00010000
,
00000000
00000000
00010000
00000000
00000000
00000000
00001000
00000000
00000000
00000000
00001000
00000000
00000000
00000000
00001000
00000000
00000000
00000000
00010000
00000000
00000000
00000100
00000000
00000000
,
00001000
00000010
00001000
00000100
00010000
00001000
01000000
00010000
,
00100000
00010000
01000000
00001000
00010000
00000010
00001000
00000010
,
00000100
00000001
00001000
00000100
00010000
00001000
02001000
00000000
,
03010000
00000000
20010000
00000000
00000000
00000000
30100000
00000000
10100000
00000000
00000000
10010000
00000000
00000000
00101000
00000000
,
00100000
00001000
00021000
00000000
00030010
00002010
00000000
00003010
,
00001000
00000001
00001000
00000001
00001000
00000001
00000010
00000000
00000100
00010000
00000100
00000000
00010000
00000000
00001000
01000000
,
00001000
00000000
00100000
00000000
00010000
00100000
00010000
00000000
10000000
00100000
10000000
00100000
01000000
00000000
00010000
00100000
,
00010000
00100000
01000000
00000000
10000000
00000000
00010000
01000000
00010000
00000000
00100000
00000000
00001000
00010000
00001000
00000000
,
00010000
00000010
00010000
00000010
00010000
00000010
00001000
00000000
00000010
00000000
00000010
00000000
00001000
00000001
00001000
00000001
,
00000010
00000000
00000100
00010000
00000100
00010000
00001000
00000000
01000000
00010000
01000000
00010000
10000000
00100000
10000000
00000000
,
00010000
00000000
00100000
00000000
00001000
00010000
00001000
00010000
00001000
00010000
00000100
00000000
00010000
00000000
00001000
00000000
,
00100000
00010000
00100000
00010000
00100000
00010000
10000000
00000000
00010000
00000000
01000000
00000000
02200000
00000000
00000000
00000000
,
00000000
03300000
00000000
00000000
00100000
10000000
00010000
01000000
,
00001000
00100000
00002000
00000000
00000000
00013000
00000010
00001000
,
00000100
00000010
00000001
00000020
00000000
00000000
00000130
00001000
,
00000100
00000010
00000100
00010000
00011000
00000000
00001000
01001000
,
00000000
01000000
01010000
00000000
00010000
10010000
00000000
00000000
,
20000000
00000000
00000000
30010000
00000000
00000000
00100000
00001000
,
00010000
00000000
00000000
00000010
00000000
00000000
00000100
00000000
00000000
00000001
00000000
00000000
00001000
00000000
00000000
00000000
00000100
00000000
00010000
00000000
00000100
00000000
00000000
00000000
,
00010000
00000000
00001000
01000000
00001000
00000000
00100000
00010000
00100000
01000000
10000000
00010000
,
10000000
00100000
01000000
00010000
01000000
00000000
00001000
00000000
00100000
00001000
00100000
00000000
,
00001000
00000000
00010000
00000010
00010000
00000000
00000010
00000000
00001000
00000001
00000010
00000100
,
00001000
00000000
00000100
00010000
00001000
00000000
01000000
00100000
10000000
00010000
01000000
00100000
,
10000000
00000000
00010000
00000000
00100000
00000000
00001000
00010000
00000100
00010000
00001000
00100000
,
00001000
00000000
00010000
00000000
00000010
00000000
00001000
00000001
00000010
00000000
00000110
00000000
,
00000100
00010000
00001000
00000000
00011000
00000000
00010000
00000000
00001000
01000000
00010000
00000000
,
01000000
00100000
10000000
00100000
01000000
00010000
10000000
00000000
01000000
00000000
01000000
00000000
,
00100000
00000000
00001000
00000000
00001000
00000000
00010000
00000000
00000010
00000000
00000010
00000000
,
00001000
00000001
00001000
00000010
00000100
00000000
00000001
00000000
00000001
00000000
00001000
00000100
,
00000010
00000000
00000100
00000000
00000100
00000000
00010000
00001000
01000000
00010000
01000000
00000000
,
00100000
10000000
00010000
00100000
01000000
00000000
00100000
00000000
00100000
00000000
00010000
10000000
,
00100000
00000000
01000000
00000000
01000000
00000000
00001000
00100000
00001000
00010000
00000010
00000000
,
00001000
00000010
00000100
00000001
00001000
00000000
00000001
00000000
00000010
00000000
00000011
00000000
,
00000001
00000000
00001000
00000000
00001010
00000000
00000010
00000000
00010000
00000000
00011000
00000000
,
00001000
00000000
01000000
00000000
01010000
00000000
00010000
10000000
00100000
10000000
00010000
00000000
,
01000000
00001000
00010000
00001000
01000000
00000000
00001000
00010000
00000010
00001000
00000100
00000000
,
00000020
00000000
00000032
00000000
00002003
00000000
00003010
00000000
00010000
00000100
00010000
00000000
,
00001000
00000000
00100000
00000000
00010000
10000000
00100000
00000000
01000000
00010000
10000000
00000000
,
00100000
01000000
00010000
01000000
00100000
00000000
10000000
00000000
00010000
00100000
00001000
00000000
,
00010000
00000000
00000010
00001000
00000100
00000000
00000010
00000000
00000001
00001000
00000100
00000000
,
00000010
00000000
00000100
00010000
00001000
00000000
00010000
00001000
00000000
00001000
01000000
00000000
,
01000000
00100000
00000000
00100000
10000000
00000000
10000000
00010000
00100000
01000000
00100000
00010000
,
01000000
00001000
00010000
00000100
00010000
00002000
00000000
00000000
00000000
00000000
00000000
00000000
,
00000000
00013000
00000010
00001000
,
00000001
00000010
00000100
00001000
,
00000100
00010000
00002000
00000000
,
00000000
01003000
00100000
00010000
,
00100000
10000000
00020000
20000000
,
00000000
00000000
00000000
00000000
,
00000000
00000000
00000000
00000000
,
00000000
00000000
00000000
00000000
,
30030000
00000000
00000000
00000000
;

//---------------dance-single - ----------------
#NOTES:
     dance-single:
     :
     Easy:
     12:
     0.476401,0.553434,0.103291,0.184447,0.357828,452.000000,438.000000,14.000000,25.000000,0.000000,0.000000,0.476401,0.553434,0.103291,0.184447,0.357828,452.000000,438.000000,14.000000,25.000000,0.000000,0.000000:
0000
0000
0000
0000
,
0000
0000
0000
0000
,
0000
0000
0000
0000
,
0000
0000
0000
0000
,
0000
0000
0000
0000
,
0002
0000
0000
0000
0003
0000
1000
0000
0010
0000
0100
0000
,
0001
0000
1000
0000
0100
0000
0010
0000
0001
0000
1000
0000
,
0010
0000
0100
0000
0001
0000
0100
0000
0010
0000
1000
0000
,
0020
0000
0000
0000
0030
0000
1000
0001
,
0010
0000
0001
0000
0100
0010
1000
0000
,
0010
0000
0100
0001
1000
0001
0100
0000
,
0020
0000
0000
0000
0030
0000
1000
0001
,
0010
0000
0001
0000
0010
0100
1000
0000
,
0001
0000
0100
0010
1000
0010
0100
0000
,
0002
0000
0000
0000
0003
0000
1000
0100
,
0010
0100
1000
0001
1000
0010
0100
0100
,
0001
0010
0100
1000
0100
0010
0001
0100
,
0010
0020
0000
1030
0001
0010
1000
0010
,
0001
1000
0000
1010
0000
1001
0000
0001
,
0000
0011
0000
1001
0000
1000
0000
0010
,
0100
0001
0000
0200
0000
0000
0000
0300
,
0000
0010
0000
1010
0000
1001
0000
0001
,
0000
0011
0000
0110
0000
0100
0000
1000
,
0001
0100
0000
0020
0000
0000
0000
0030
,
0000
1000
0001
0010
0100
0010
0001
1000
,
0010
0100
0100
0001
0010
0100
1000
0010
,
0100
0001
0100
0010
0020
0000
1030
0001
,
0010
0001
1000
0010
1000
0100
0001
0100
,
1000
0002
0000
0000
0000
0000
1003
0010
,
0100
0001
0000
0000
1001
0000
1000
0100
,
0010
0001
0000
0000
1001
0000
1000
0100
,
1000
0100
0010
0001
0010
0001
1000
0010
,
0100
0001
0100
0010
1000
0000
0010
1000
,
0001
0100
0000
0000
0110
0000
0010
1000
,
0001
0010
0000
0000
0110
0000
0200
0000
,
0000
0000
0000
1300
0000
0000
0000
0000
0000
0001
0000
1000
,
0000
0000
0001
0000
0000
0000
1000
0000
0000
0000
0001
0000
0000
0000
1000
0000
0000
0000
0010
0000
0000
0100
0000
0000
,
0001
0100
0010
0000
1000
0001
0010
0001
,
1000
0010
0100
0001
1000
0100
0010
0000
,
0001
0010
0100
1000
0001
0000
0201
0000
,
0000
0310
0000
0000
1000
0001
0010
0100
,
1000
0000
2100
0000
0000
3001
0000
0000
,
0100
0001
0100
0010
0000
1000
0001
0010
,
0100
0010
0001
1000
0010
0100
0100
0010
,
0100
0100
0001
1000
0100
0010
0001
1000
,
0010
0100
0100
0010
0000
0000
1000
0100
,
0010
0001
0100
0010
1000
0001
0010
0001
,
1000
0010
0100
0100
0100
0001
1000
0100
,
0010
0010
0010
0001
1000
0010
0200
0000
,
0000
0300
0000
0000
0001
0100
0001
1000
,
0100
1000
0100
0000
0000
0010
0001
0010
,
0100
1000
0001
1000
0000
0000
0010
0100
,
0001
0100
0010
1000
0001
0000
1000
0100
,
0000
0010
0100
0000
0001
0100
0000
0010
,
0002
0000
0000
1003
0000
0000
0001
0010
,
0100
0000
0000
0010
0000
0000
0001
0000
0000
1000
0000
0000
0010
0000
0000
0000
0010
0000
0000
0000
0100
0000
0000
0000
,
0001
0000
0001
0000
1000
0000
0100
0000
0010
0000
0100
0000
,
1000
0000
0001
0000
0100
0000
0010
0000
0010
0000
1000
0000
,
0001
0000
0100
0000
0001
0000
1000
0000
0100
0000
0010
0000
,
0100
0000
1000
0000
0001
0000
0100
0000
0010
0000
0100
0000
,
0010
0000
1000
0000
0001
0000
0010
0000
0100
0000
0010
0000
,
0100
0000
1000
0000
0001
0000
0100
0000
0100
0000
0010
0000
,
1000
0000
1000
0000
0001
0000
0010
0000
0001
0000
1000
0000
,
0010
0000
0100
0000
0001
0000
0200
0000
0000
0000
0310
0000
,
2000
0000
0000
0000
3001
0000
0020
0000
0100
0000
0130
0000
,
1000
0000
0001
0000
1000
0000
0010
0000
0020
0000
0000
0000
,
0130
0000
0001
0000
1000
0000
0100
0000
0100
0000
0010
0000
,
0001
0000
0001
0000
1000
0000
0010
0000
0100
0000
0001
0000
,
1000
0000
1000
0000
1000
0000
0100
0000
0010
0000
0001
0000
,
1000
0000
0010
0000
0100
0000
0002
0000
0000
0000
0103
0000
,
0002
0000
0000
0000
1003
0000
0002
0000
0000
0000
0013
0000
,
0002
0000
0000
0000
0103
0000
0010
0000
1000
0000
0010
0000
,
0100
0000
0001
0000
1000
0000
0100
0000
0001
0000
0100
0000
,
1000
0000
0010
0000
0100
0000
0001
0000
1000
0000
1000
0000
,
0100
0000
0010
0000
0001
0000
1000
0000
0010
0000
0010
0000
,
0200
0000
0000
0000
0000
0000
0301
0000
1000
0000
0100
0000
,
0010
0000
0001
0000
1000
0000
0010
0000
0100
0000
0001
0000
,
0100
0000
0010
0000
1000
0000
0001
0000
0000
0100
0000
0000
,
0010
0000
0000
1000
0000
0000
0001
0010
0000
0001
0010
0000
,
0100
1000
0000
0100
2000
0000
0000
0000
0000
0000
0000
0000
,
0000
3001
0100
0001
,
0010
0100
0010
0001
,
1000
0010
0100
0000
,
0000
0001
1000
0100
,
0010
0001
0100
0020
,
0000
0000
0000
0000
,
0000
0000
0000
0000
,
0000
0000
0000
0000
,
0000
0030
0000
0000
;

//---------------dance-double - ----------------
#NOTES:
     dance-double:
     :
     Easy:
     12:
     0.464807,0.551867,0.059023,0.199203,0.346761,441.000000,433.000000,8.000000,27.000000,0.000000,0.000000,0.464807,0.551867,0.059023,0.199203,0.346761,441.000000,433.000000,8.000000,27.000000,0.000000,0.000000:
00000000
00000000
00000000
00000000
,
00000000
00000000
00000000
00000000
,
00000000
00000000
00000000
00000000
,
00000000
00000000
00000000
00000000
,
00000000
00000000
00000000
00000000
,
20000000
00000000
00000000
00000000
30000000
00000000
00010000
00000000
01000000
00000000
00001000
00000000
,
00010000
00000000
00000100
00000000
00001000
00000000
00000100
00000000
00010000
00000000
00001000
00000000
,
01000000
00000000
00010000
00000000
01000000
00000000
00100000
00000000
10000000
00000000
00010000
00000000
,
20000000
00000000
00000000
00000000
30000000
00000000
01000000
00100000
,
00010000
00000000
10000000
00000000
00010000
01000000
00001000
00000000
,
00010000
00000000
00001000
00000100
00000010
00000100
00001000
00000000
,
00000200
00000000
00000000
00000000
00000300
00000000
00000001
00001000
,
00000100
00000000
00000010
00000000
00000100
00010000
00001000
00000000
,
00010000
00000000
00001000
01000000
00010000
01000000
00001000
00000000
,
02000000
00000000
00000000
00000000
03000000
00000000
00100000
10000000
,
00010000
00100000
00001000
00100000
00010000
01000000
00001000
00001000
,
00010000
00000100
00001000
00000001
00000100
00000010
00001000
00000001
,
00001000
00000200
00000000
00000310
00000001
00001000
00000100
00010000
,
00001000
00100000
00000000
00010000
00000000
00110000
00000000
00100000
,
00000000
01000000
00000000
10010000
00000000
00010000
00000000
01000000
,
00001000
00010000
00000000
00002000
00000000
00000000
00000000
00003000
,
00000000
00010000
00000000
00000010
00000000
00001010
00000000
00001000
,
00000000
00000001
00000000
00000011
00000000
00000010
00000000
00000100
,
00001000
00000001
00000000
00002000
00000000
00000000
00000000
00003000
,
00000000
00000010
00010000
00000100
00001000
00000100
00010000
00001000
,
01000000
00010000
00010000
10000000
01000000
00100000
01000000
10000000
,
00010000
01000000
00001000
00010000
00002000
00000000
00013000
00000010
,
00001000
00000010
00000100
00000001
00001000
00000100
00010000
00001000
,
00010000
00000200
00000000
00000000
00000000
00000000
00010300
00001000
,
01000000
00010000
00000000
00000000
10010000
00000000
10000000
01000000
,
00100000
00001000
00000000
00000000
00011000
00000000
00010000
00000010
,
00010000
00000010
00001000
00000100
00001000
00000100
00000010
00000001
,
00001000
00000010
00001000
00000100
00010000
00000000
00001000
00100000
,
00010000
10000000
00000000
00000000
10100000
00000000
00100000
01000000
,
00001000
00010000
00000000
00000000
00010100
00000000
00000200
00000000
,
00000000
00000000
00000000
00000310
00000000
00000000
00000000
00000000
00000000
00000001
00000000
00001000
,
00000000
00000000
00000001
00000000
00000000
00000000
00001000
00000000
00000000
00000000
00000001
00000000
00000000
00000000
00001000
00000000
00000000
00000000
00000010
00000000
00000000
00010000
00000000
00000000
,
00000100
00010000
00001000
00000000
01000000
00010000
01000000
00100000
,
10000000
00000000
00010000
00100000
00001000
00010000
00001000
00000000
,
00000100
00000010
00001000
00000001
00001000
00000000
00000200
00000000
,
00000000
00010300
00000000
00000000
00001000
01000000
00010000
00100000
,
01000000
00000000
20000000
00000000
00000000
31000000
00000000
00000000
,
00100000
00001000
00010000
00000010
00000000
00001000
00000001
00000010
,
00000010
00000001
00001000
00001000
00000010
00010000
00001000
00010000
,
00001000
01000000
00100000
10000000
10000000
00100000
01000000
01000000
,
00010000
10000000
01000000
00200000
00000000
00300000
00001000
00010000
,
00000010
00001000
00000010
00000100
00000001
00001000
00000100
00000010
,
00000100
00010000
00001000
01000000
00010000
00100000
00001000
01000000
,
00010000
00100000
00001000
00010000
00000010
00001000
00000020
00000000
,
00000000
00000030
00000000
00000000
00001000
00000010
00001000
00000010
,
00010000
00000010
00010000
00000000
00000000
00001000
00010000
00001000
,
00100000
00010000
00100000
00010000
00000000
00000000
10000000
00100000
,
10000000
00010000
00100000
00001000
00100000
00000000
00001000
00010000
,
00000000
00001000
00000100
00000000
00000010
00000100
00000000
00000001
,
00002000
00000000
00000000
00003100
00000000
00000000
00010000
00001000
,
01000000
00000000
00000000
00010000
00000000
00000000
01000000
00000000
00000000
00100000
00000000
00000000
10000000
00000000
00000000
00000000
00010000
00000000
00000000
00000000
00010000
00000000
00000000
00000000
,
00100000
00000000
00010000
00000000
00010000
00000000
00001000
00000000
00000100
00000000
00000010
00000000
,
00000001
00000000
00000100
00000000
00000100
00000000
00000010
00000000
00001000
00000000
00001000
00000000
,
00000100
00000000
00001000
00000000
00001000
00000000
00010000
00000000
00100000
00000000
01000000
00000000
,
10000000
00000000
00010000
00000000
00010000
00000000
10000000
00000000
01000000
00000000
00100000
00000000
,
00001000
00000000
00010000
00000000
00010000
00000000
00000010
00000000
00001000
00000000
00000001
00000000
,
00001000
00000000
00000100
00000000
00000100
00000000
00010000
00000000
00001000
00000000
01000000
00000000
,
00001000
00000000
00010000
00000000
00000100
00000000
00010000
00000000
00001000
00000000
00100000
00000000
,
01000000
00000000
00100000
00000000
00010000
00000000
20000000
00000000
00000000
00000000
30100000
00000000
,
02000000
00000000
00000000
00000000
03001000
00000000
00020000
00000000
00000100
00000000
00030100
00000000
,
00000010
00000000
00000001
00000000
00001000
00000000
00000010
00000000
00000020
00000000
00000000
00000000
,
00000000
00000000
00000000
00000000
00000030
00000000
00010000
00000000
00000100
00000000
00010000
00000000
,
00001000
00000000
00100000
00000000
01000000
00000000
00100000
00000000
00200000
00000000
00000000
00000000
,
00010000
00000000
00010000
00000000
00310000
00000000
10000000
00000000
00100000
00000000
01000000
00000000
,
00010000
00000000
01000000
00000000
00001000
00000000
00020000
00000000
00000000
00000000
00030100
00000000
,
00002000
00000000
00000000
00000000
00003001
00000000
00000020
00000000
00000000
00000000
00000130
00000000
,
00020000
00000000
00000000
00000000
00031000
00000000
01000000
00000000
00010000
00000000
10000000
00000000
,
01000000
00000000
10000000
00000000
00010000
00000000
01000000
00000000
00001000
00000000
00010000
00000000
,
00000010
00000000
00001000
00000000
00000010
00000000
00000100
00000000
00000001
00000000
00000001
00000000
,
00001000
00000000
00000100
00000000
00000100
00000000
00010000
00000000
00001000
00000000
00001000
00000000
,
02000000
00000000
00000000
00000000
00000000
00000000
03100000
00000000
10000000
00000000
00010000
00000000
,
01000000
00000000
00001000
00000000
00010000
00000000
00000010
00000000
00001000
00000000
00000010
00000000
,
00000100
00000000
00000001
00000000
00001000
00000000
00000100
00000000
00000000
00010000
00000000
00000000
,
00001000
00000000
00000000
01000000
00000000
00000000
00010000
10000000
00000000
00010000
10000000
00000000
,
01000000
00100000
00000000
01000000
00200000
00000000
00000000
00000000
00000000
00000000
00000000
00000000
,
00000000
00310000
01000000
00010000
,
10000000
01000000
10000000
00010000
,
01000000
00010000
01000000
00000000
,
00000000
00001000
00010000
00000010
,
00001000
00000001
00000100
00000020
,
00000000
00000000
00000000
00000000
,
00000000
00000000
00000000
00000000
,
00000000
00000000
00000000
00000000
,
00000030
00000000
00000000
00000000
;

//---------------dance-single - ----------------
#NOTES:
     dance-single:
     :
     Beginner:
     9:
     0.338329,0.422016,0.059023,0.177070,0.243471,321.000000,313.000000,8.000000,24.000000,0.000000,0.000000,0.338329,0.422016,0.059023,0.177070,0.243471,321.000000,313.000000,8.000000,24.000000,0.000000,0.000000:
0000
0000
0000
0000
,
0000
0000
0000
0000
,
0000
0000
0000
0000
,
0000
0000
0000
0000
,
0000
0000
0000
0000
,
0000
0000
0000
0000
,
1001
0000
0110
0000
,
1001
0000
0110
0000
,
2002
0000
3003
0001
,
0100
0000
0001
0000
1000
0100
1000
0000
,
0001
0100
0010
1000
,
2000
0000
3000
0001
,
0010
0000
0001
0000
1000
0010
1000
0000
,
0010
0100
0001
0100
,
0200
0000
0300
0001
,
1000
0000
0001
0100
0000
0010
1000
0010
,
1000
0000
0001
0000
0010
0001
0000
0010
,
0001
0010
0000
0001
0000
1000
0000
0010
,
0000
0100
0000
0001
0000
0001
0000
1000
,
0000
0100
0000
0100
0000
0010
0000
0001
,
1000
0001
0000
0200
0000
0000
0000
0300
,
0000
0010
0000
1000
0000
1000
0000
0100
,
0000
0010
0000
0010
0000
0001
0000
1000
,
0001
1000
0000
0020
0000
0000
0000
0030
,
0000
0100
0000
0001
0000
1000
0100
0000
,
0010
0001
0010
0001
0000
1000
0000
0010
,
0100
0000
0001
1000
0001
0000
1000
0100
,
0000
1000
0001
0000
0100
0001
0000
0100
,
0010
0200
0000
0000
0300
0000
0001
0000
,
0001
2000
0000
0000
3100
0000
1000
0000
,
1000
0002
0000
0000
0103
0000
0010
0000
,
0010
1000
1000
0001
,
0010
0100
0100
0010
,
0010
0002
0000
0000
1003
0000
0010
0000
,
0010
2000
0000
0000
3001
0000
0100
0000
,
0000
0110
0000
0020
,
0000
2030
0000
3001
,
0010
0001
1000
0010
,
1000
0001
0010
0001
,
1000
0100
1000
0001
,
0000
1001
0000
0000
1000
0000
0000
0001
,
0000
0100
0010
0000
0000
0110
0000
0000
,
0100
0000
0001
1000
0000
0001
1000
0000
,
0001
0100
0000
0001
0100
0000
0010
1000
,
0000
0010
1000
0000
0001
0010
0000
0001
,
0010
0000
0100
1000
0000
0000
0010
0000
,
1000
0001
0000
1000
0100
0000
0010
0001
,
0000
1000
0001
0000
0100
0010
0000
1000
,
0010
0000
0100
0001
0000
1000
0002
0000
,
0000
0003
0000
0000
0010
0000
0000
0001
,
0000
0000
1000
0000
0000
0010
0000
0000
,
0100
0000
0000
0100
0000
0000
0001
0000
,
0000
1000
0000
0000
0200
0000
0000
0310
,
0000
0000
0002
0000
0000
1003
0000
0000
,
0020
0000
0000
0130
0000
0000
0002
0000
,
0000
0000
0000
0000
0000
0000
0000
0000
0000
0003
0000
0000
1000
0000
0000
0000
0001
0000
0000
0000
1000
0000
0000
0000
,
0001
0000
0000
0000
0000
0000
0100
0000
0010
0000
0100
0000
,
0010
0000
0000
0000
0000
0000
1000
0000
0001
0000
1000
0000
,
0001
0000
0000
0000
0000
0000
0010
0000
0001
0000
0010
0000
,
0001
0000
0000
0000
0000
0000
1000
0000
0010
0000
1000
0000
,
0010
0000
1000
0000
0010
0000
0100
0000
0001
0000
0100
0000
,
0001
0000
0100
0000
0001
0000
0100
0000
0000
0000
0010
0000
,
1000
0000
0000
0000
0001
0000
0010
0000
0000
0000
0100
0000
,
1000
0000
0001
0000
1000
0000
0002
0000
0000
0000
0000
0000
,
0203
0000
0320
0000
,
2030
0000
0000
0000
0000
0000
3001
0000
0001
0000
0000
0000
,
0000
0000
1000
0000
0100
0000
1000
0000
0001
0000
1000
0000
,
0001
0000
0100
0000
0001
0000
0100
0000
0100
0000
0000
0000
,
0010
0000
1000
0000
0010
0000
0100
0000
0001
0000
0100
0000
,
0001
0000
1000
0000
0001
0000
1000
0000
0000
0000
0010
0000
,
1000
0000
0000
0000
0010
0000
0100
0000
0000
0000
0001
0000
,
0100
0000
0000
0000
0001
0000
1000
0000
0100
0000
1000
0000
,
0100
0000
0000
0000
0000
0000
1000
0000
0001
0000
1000
0000
,
0001
0000
0100
0000
0001
0000
0100
0000
0000
0000
0010
0000
,
1000
0000
0000
0000
0001
0000
1000
0000
0000
0000
0100
0000
,
0010
0000
0100
0000
0010
0000
0001
0000
1000
0000
0001
0000
,
1000
0000
0100
0000
1000
0000
0100
0000
0010
0000
0100
0000
,
0010
0000
0001
0000
0010
0000
0000
0001
0000
0000
1000
0000
,
0000
0001
0000
0000
1000
0000
0000
0010
0000
0000
0100
0000
,
0000
0010
0000
0000
0200
0000
0000
0000
0000
0000
0000
0000
,
0000
0301
1000
0001
,
1000
0100
1000
0001
,
0100
0001
0100
0000
,
0000
0010
1000
0010
,
0100
0001
0100
0002
,
0000
0000
0000
0000
,
0000
0000
0000
0000
,
0000
0000
0000
0000
,
0003
0000
0000
0000
;
