#TITLE:REFLECT;
#SUBTITLE:;
#ARTIST:Gawr Gura;
#TITLETRANSLIT:;
#SUBTITLETRANSLIT:;
#ARTISTTRANSLIT:;
#GENRE:;
#CREDIT:;
#BANNER:REFLECT.png;
#BACKGROUND:REFLECT-bg.png;
#LYRICSPATH:;
#CDTITLE:;
#MUSIC:REFLECT.ogg;
#OFFSET:0.000000;
#SAMPLESTART:56.869999;
#SAMPLELENGTH:15.000000;
#SELECTABLE:YES;
#BPMS:0.000000=124.999992
;
#STOPS:
;
#BGCHANGES:;
#KEYSOUNDS:;
#ATTACKS:;

//---------------dance-single - ----------------
#NOTES:
     dance-single:
     :
     Hard:
     14:
     0.550643,0.767465,0.195256,0.441134,0.636390,533.000000,506.000000,27.000000,61.000000,9.000000,0.000000,0.550643,0.767465,0.195256,0.441134,0.636390,533.000000,506.000000,27.000000,61.000000,9.000000,0.000000:
0000
0000
0000
0000
,
0000
0000
0000
0000
,
0000
0000
0000
0000
,
0000
0000
0000
0000
,
0000
0000
0000
0000
,
0000
0000
0000
0000
,
1000
0000
0001
0000
1000
0000
0010
0200
0000
0000
0001
0000
0010
0000
0301
0000
,
1000
0000
0000
0000
0000
0000
0001
0000
0000
0000
0000
0000
0010
0000
0000
0000
0000
0000
0100
0000
0000
1000
0000
0000
0001
0000
0000
0000
0000
0000
1000
0000
0001
0000
1000
0000
0100
0000
0000
0000
0000
0000
1000
0000
0000
0000
0000
0000
,
0001
0000
0100
0000
0010
0000
1000
0001
0100
0010
0001
0000
0010
0000
1000
0000
,
0002
0000
0000
0023
0000
0000
0230
0000
0000
2300
0000
0000
3002
0000
0000
0000
,
0103
0000
0001
0000
1000
0000
0100
0020
0000
0000
0001
0000
0100
0000
0031
0000
,
1000
0000
0000
0000
0000
0000
0001
0000
0000
0000
0000
0000
0100
0000
0000
0000
0000
0000
0010
0000
0000
1000
0000
0000
0001
0000
0000
0000
0000
0000
1000
0000
0001
0000
1000
0000
0010
0000
0000
0000
0000
0000
1000
0000
0000
0000
0000
0000
,
0001
0010
0100
0010
0001
1000
0010
0100
0001
0100
0010
1000
0001
0010
0100
1000
,
0001
0000
0001
0100
000M
0100
1000
0000
1000
0010
M000
0010
0001
1000
0010
0100
,
0001
0000
0000
0000
0100
0000
0000
0000
0020
0000
0000
0000
1030
0000
1000
0001
,
0020
0000
0000
1000
0000
0000
0100
0000
0230
0000
0000
0001
0000
0000
0010
0000
,
0320
0000
0000
0032
0000
0000
2003
0000
0000
0000
0000
0000
3010
0000
0000
0000
,
1000
0000
0001
0000
0100
0000
0000
0010
0000
0000
0010
0000
1001
0000
0000
0000
,
0001
0000
0010
0000
0100
0000
0000
0000
2000
0000
0000
0000
3001
0000
0001
1000
,
0200
0000
0000
0001
0000
0000
0010
0000
0320
0000
0000
1000
0000
0000
0100
0000
,
0230
0000
0000
0020
0000
0000
0330
0000
,
0001
0000
1000
0010
0100
0000
0000
0010
0000
0010
0000
0010
0100
0000
0000
0000
,
1002
0000
0000
0023
0000
0000
0230
0000
0010
0000
0310
0000
0000
0000
0000
0000
,
0020
0000
0000
0032
0000
0000
1000
0000
1003
0000
0000
0000
1001
0000
0000
0000
,
0002
0000
0000
2003
0000
0000
3020
0000
0100
0000
0130
0000
0000
0000
0000
0000
,
0200
0000
0000
0302
0000
0000
1000
0000
1003
0000
0000
0000
1001
0000
0000
0000
,
0011
0000
0000
1010
0000
0000
1000
0000
1010
0000
0001
0010
0000
0000
0100
0000
,
1100
0000
0000
0000
0000
0000
0000
0000
0000
0101
0000
0000
0000
0000
0000
0000
0000
0000
0001
0000
0000
0000
0000
0000
0101
0000
0000
0000
0000
0000
0000
0000
0000
1100
0000
0000
0000
0000
0000
0000
0000
0000
1000
0000
0001
0000
1000
0000
,
0100
0000
0100
0000
0010
0000
0010
0000
0001
1000
0010
0100
0001
0010
0100
1000
,
0002
0000
0000
0000
0000
0000
0000
0000
0000
0000
0103
0000
1001
0000
0001
0020
,
0000
0000
1000
0000
0100
0000
0130
0010
0000
0000
0001
0000
1000
0000
0010
0200
,
0000
0000
1000
0000
0010
0000
0310
0100
0000
0000
0001
0000
1000
0000
0001
0000
,
0010
0000
0100
0001
0M00
0001
0000
0020
0000
0000
0031
0000
1000
0000
0010
0000
,
0200
0000
0000
0000
0302
0000
1003
0100
0000
0000
0010
0000
0001
0000
1000
0020
,
0000
0000
0001
0000
0100
0000
0130
0010
0000
0000
1000
0000
0001
0000
0010
0200
,
0000
0000
0001
0000
0010
0000
0310
0100
0000
0000
1000
0000
0001
0000
1000
0000
,
0010
0000
0100
1000
0M00
1000
0000
0020
0000
0000
0130
0000
0001
0000
1000
0000
,
1100
0000
0000
0011
0000
0001
2000
0000
0000
3010
0100
0001
2000
0000
3000
0000
,
0000
0000
0001
0000
1001
0000
1000
0000
0010
0000
0100
2000
0000
0000
3001
0010
,
0100
0000
0001
0000
1000
0000
0100
0010
0002
0000
0100
0000
2003
0000
0010
0000
,
3000
0000
0001
0000
1000
0000
0001
0000
0010
0000
0100
0002
0000
0000
1003
0000
,
0010
0000
0001
0000
1000
0000
0010
0100
0000
0000
0001
0000
1000
0000
0100
0020
,
0000
0000
1000
0000
0100
0000
0130
0010
0000
0000
0001
0000
1000
0000
0010
0200
,
0000
0000
1000
0000
0010
0000
0310
0100
0000
0000
0001
0000
1000
0000
0001
0000
,
0100
0000
0010
0001
00M0
0001
0000
0200
0000
0000
0301
0000
1000
0000
0001
0010
,
0011
0000
0000
1010
0000
0000
0101
0000
0000
1100
0000
0000
1002
0000
0000
0000
,
0013
0000
0100
1000
0001
0200
0000
0000
0310
1000
0000
1000
,
0001
0000
0010
0100
0000
0100
0010
0000
0000
0001
0100
0010
,
1000
0000
0000
0001
0010
0000
1000
0000
0010
0001
0000
0000
,
1000
0000
0010
0001
0000
0000
2000
0000
3100
0002
0000
1003
,
0100
0000
0100
0000
0000
0010
0100
0001
0100
0010
1000
0010
,
0001
0000
0001
1000
0010
0100
0010
0000
0010
1000
0100
0010
,
1000
0001
0100
0010
0000
0010
0001
0000
0001
1000
0010
0200
,
0010
0000
0000
0310
0000
0000
0220
0000
0000
0330
0000
1000
,
0001
0000
0001
0000
0000
0010
1000
0010
0100
1000
0000
0001
,
0100
0000
0100
0010
0000
0010
0002
0000
0000
0013
0000
1000
,
0001
0000
0010
0100
0001
0100
1000
0000
1000
0001
0000
0001
,
0101
1100
0011
2010
,
3001
0000
1000
0100
0000
0100
0000
0000
0001
0100
0000
0100
,
0000
0000
1000
0001
0000
0001
0100
0000
0100
0010
0000
0000
,
0100
0010
0001
0010
0000
0010
1000
0100
0010
1000
0010
0002
,
0000
2000
0000
3003
,
0001
0000
0100
0000
0010
0000
1000
0002
0000
0000
0010
0000
1000
0000
0013
0000
,
0001
0000
0000
0000
0000
0000
1000
0000
0000
0000
0000
0000
0100
0000
0000
0000
0000
0000
0010
0000
0000
0001
0000
0000
1000
0000
0000
0000
0000
0000
0001
0000
0100
0000
0010
0000
1000
0000
0000
0000
0000
0000
0001
0000
0000
0000
0000
0000
,
1000
0000
0100
0000
1000
0000
0001
0010
0100
0010
1000
0000
0010
0000
0001
0000
,
1001
0000
1000
0010
M000
0010
0001
0000
0001
0100
000M
0100
1000
0001
0100
0010
,
1000
0000
0001
0000
0010
0000
0100
2000
0000
0000
0010
0000
0001
0000
3010
0000
,
1000
0000
0000
0000
0000
0000
0010
0000
0000
0000
0000
0000
0100
0000
0000
0000
0000
0000
0001
0000
0000
1000
0000
0000
0100
0000
0000
0000
0000
0000
0010
0000
0001
0000
1000
0000
0100
0000
0000
0000
0000
0000
1000
0000
0000
0000
0000
0000
,
0001
0010
0100
1000
0001
0100
0010
1000
0010
0100
0001
1000
0100
0010
0001
1000
,
0001
0000
0001
0010
000M
0010
1000
0000
1000
0100
M000
0100
0001
1000
0001
0010
,
0220
0000
0000
0330
;

//---------------dance-double - ----------------
#NOTES:
     dance-double:
     :
     Hard:
     15:
     0.544444,0.741882,0.159097,0.455597,0.632774,527.000000,505.000000,22.000000,63.000000,3.000000,0.000000,0.544444,0.741882,0.159097,0.455597,0.632774,527.000000,505.000000,22.000000,63.000000,3.000000,0.000000:
// measure 0
00000000
00000000
00000000
00000000
,  // measure 1
00000000
00000000
00000000
00000000
,  // measure 2
00000000
00000000
00000000
00000000
,  // measure 3
00000000
00000000
00000000
00000000
,  // measure 4
00000000
00000000
00000000
00000000
,  // measure 5
00000000
00000000
00000000
00000000
,  // measure 6
00000001
00000000
00000100
00000000
00000010
00000000
00010000
00002000
00000000
00000000
00000010
00000000
00010000
00000000
00003010
00000000
,  // measure 7
00001000
00000000
00000000
00000000
00000000
00000000
00010000
00000000
00000000
00000000
00000000
00000000
00001000
00000000
00000000
00000000
00000000
00000000
01000000
00000000
00000000
00100000
00000000
00000000
10000000
00000000
00000000
00000000
00000000
00000000
00010000
00000000
10000000
00000000
00010000
00000000
00100000
00000000
00000000
00000000
00000000
00000000
01000000
00000000
00000000
00000000
00000000
00000000
,  // measure 8
10000000
00000000
00010000
00000000
01000000
00000000
00100000
00010000
00001000
00010000
00000100
00000000
00001000
00000000
00000100
00000000
,  // measure 9
00000020
00000000
00000000
00000032
00000000
00000000
00000203
00000000
00000000
00002300
00000000
00000000
00023000
00000000
00000000
00000000
,  // measure 10
00030010
00000000
00001000
00000000
00000010
00000000
00010000
00002000
00000000
00000000
00000100
00000000
00010000
00000000
00003100
00000000
,  // measure 11
00001000
00000000
00000000
00000000
00000000
00000000
01000000
00000000
00000000
00000000
00000000
00000000
00010000
00000000
00000000
00000000
00000000
00000000
00100000
00000000
00000000
01000000
00000000
00000000
10000000
00000000
00000000
00000000
00000000
00000000
00010000
00000000
10000000
00000000
00010000
00000000
00100000
00000000
00000000
00000000
00000000
00000000
01000000
00000000
00000000
00000000
00000000
00000000
,  // measure 12
10000000
00010000
01000000
00001000
00010000
00000100
00010000
00001000
00000100
00000010
00001000
00000001
00001000
00000100
00000010
00000001
,  // measure 13
00001000
00000000
00000001
00000100
00000000
00000100
00001000
00000000
00001000
00010000
00000000
00010000
01000000
10000000
00010000
01000000
,  // measure 14
00100000
00000000
00000000
00000000
10000000
00000000
00000000
00000000
00020000
00000000
00000000
00000000
00130000
00000000
00100000
00001000
,  // measure 15
00020000
00000000
00000000
00100000
00000000
00000000
00001000
00000000
00032000
00000000
00000000
00000010
00000000
00000000
00010000
00000000
,  // measure 16
00023000
00000000
00000000
02030000
00000000
00000000
23000000
00000000
00000000
00000000
00000000
00000000
30010000
00000000
00000000
00000000
,  // measure 17
10000000
00000000
00100000
00000000
01000000
00000000
00000000
00001000
00000000
00000000
00001000
00000000
00011000
00000000
00000000
00000000
,  // measure 18
00010000
00000000
00000100
00000000
00000010
00000000
00000000
00000000
00000002
00000000
00000000
00000000
00001003
00000000
00001000
00000100
,  // measure 19
00020000
00000000
00000000
01000000
00000000
00000000
00001000
00000000
00032000
00000000
00000000
00000100
00000000
00000000
00010000
00000000
,  // measure 20
00023000
00000000
00000000
00002000
00000000
00000000
00033000
00000000
,  // measure 21
00001000
00000000
00100000
00010000
10000000
00000000
00000000
01000000
00000000
01000000
00000000
01000000
00100000
00000000
00000000
00000000
,  // measure 22
20010000
00000000
00000000
30200000
00000000
00000000
00320000
00000000
00001000
00000000
00031000
00000000
00000000
00000000
00000000
00000000
,  // measure 23
00002000
00000000
00000000
00003020
00000000
00000000
00000001
00000000
00000031
00000000
00000000
00000000
00001001
00000000
00000000
00000000
,  // measure 24
00000002
00000000
00000000
00000203
00000000
00000000
00002300
00000000
00010000
00000000
00013000
00000000
00000000
00000000
00000000
00000000
,  // measure 25
00020000
00000000
00000000
02030000
00000000
00000000
10000000
00000000
13000000
00000000
00000000
00000000
10010000
00000000
00000000
00000000
,  // measure 26
12000000
00000000
00000000
03010000
00000000
00000000
00001000
00000000
00010000
00000000
01000000
00010000
00000000
00000000
00001000
00000000
,  // measure 27
00001200
00000000
00000000
00000000
00000000
00000000
00000000
00000000
00000000
00000301
00000000
00000000
00000000
00000000
00000000
00000000
00000000
00000000
00001000
00000000
00000000
00000000
00000000
00000000
00001200
00000000
00000000
00000000
00000000
00000000
00000000
00000000
00000000
00000310
00000000
00000000
00000000
00000000
00000000
00000000
00000000
00000000
00000001
00000000
00001000
00000000
00000001
00000000
,  // measure 28
00000100
00000000
00000100
00000000
00000010
00000000
00000010
00000000
00010000
00000010
00000100
00001000
00010000
00001000
00100000
01000000
,  // measure 29
00200000
00000000
00000000
00000000
00000000
00000000
00000000
00000000
00000000
00000000
01300000
00000000
10010000
00000000
00010000
02000000
,  // measure 30
00000000
00000000
10000000
00000000
00100000
00000000
03100000
01000000
00000000
00000000
00001000
00000000
00010000
00000000
00000100
00000020
,  // measure 31
00000000
00000000
00001000
00000000
00000100
00000000
00000130
00000010
00000000
00000000
00000001
00000000
00001000
00000000
00000010
00000000
,  // measure 32
00000100
00000000
00001000
00010000
0000M000
00010000
00000000
02000000
00000000
00000000
03100000
00000000
10000000
00000000
00010000
00000000
,  // measure 33
00200000
00000000
00000000
00000000
00302000
00000000
00013000
00000010
00000000
00000000
00001000
00000000
00000001
00000000
00000010
00000200
,  // measure 34
00000000
00000000
00000001
00000000
00000010
00000000
00000310
00000100
00000000
00000000
00010000
00000000
00001000
00000000
01000000
00200000
,  // measure 35
00000000
00000000
00010000
00000000
01000000
00000000
01300000
00100000
00000000
00000000
10000000
00000000
00010000
00000000
00100000
00000000
,  // measure 36
01000000
00000000
00010000
00001000
000M0000
00001000
00000000
00000200
00000000
00000000
00000310
00000000
00000001
00000000
00001000
00000000
,  // measure 37
00001010
00000000
00000000
00010010
00000000
00000000
00102000
00000000
00000000
00103000
00010000
10000000
00200000
00000000
00300000
00000000
,  // measure 38
00000000
00000000
01000000
00000000
10010000
00000000
10000000
00000000
01000000
00000000
00010000
00002000
00000000
00000000
00013000
00100000
,  // measure 39
00010000
00000000
00001000
00000000
00000100
00000000
00000010
00001000
00000002
00000000
00000010
00000000
00002003
00000000
00000010
00000000
,  // measure 40
00003000
00000000
00000001
00000000
00001000
00000000
00000100
00000000
00000010
00000000
00001000
00020000
00000000
00000000
00031000
00000000
,  // measure 41
00000100
00000000
00010000
00000000
01000000
00000000
00010000
10000000
00000000
00000000
00100000
00000000
10000000
00000000
00010000
00200000
,  // measure 42
00000000
00000000
10000000
00000000
01000000
00000000
01300000
00100000
00000000
00000000
00001000
00000000
00010000
00000000
00000010
00000200
,  // measure 43
00000000
00000000
00001000
00000000
00000010
00000000
00000310
00000100
00000000
00000000
00000001
00000000
00001000
00000000
00000100
00000000
,  // measure 44
00000010
00000000
00001000
00010000
0000M000
00010000
00000000
00200000
00000000
00000000
01300000
00000000
10000000
00000000
00010000
01000000
,  // measure 45
01010000
00000000
00000000
01001000
00000000
00000000
00010100
00000000
00000000
00000110
00000000
00000000
00002001
00000000
00000000
00000000
,  // measure 46
00003010
00000000
00000100
00000001
00001000
00000200
00000000
00000000
00010300
00001000
00000000
00001000
,  // measure 47
01000000
00000000
00100000
10000000
00000000
10000000
00100000
00000000
00000000
10000000
00010000
01000000
,  // measure 48
00001000
00000000
00000000
00010000
00001000
00000000
00000100
00000000
00000001
00001000
00000000
00000000
,  // measure 49
00000001
00000000
00000010
00001000
00000000
00000000
00020000
00000000
00130000
20000000
00000000
30010000
,  // measure 50
01000000
00000000
01000000
00000000
00000000
00001000
00000100
00001000
00010000
01000000
00010000
00001000
,  // measure 51
00000100
00000000
00000100
00000010
00001000
00000001
00000100
00000000
00000100
00000010
00010000
00001000
,  // measure 52
00000010
00001000
00100000
00010000
00000000
00010000
10000000
00000000
10000000
00100000
01000000
00002000
,  // measure 53
00010000
00000000
00000000
00013000
00000000
00000000
00022000
00000000
00000000
00033000
00000000
00001000
,  // measure 54
00000100
00000000
00000100
00000000
00000000
00000001
00000100
00001000
00010000
00000100
00000000
00000100
,  // measure 55
00010000
00000000
00010000
01000000
00000000
01000000
00020000
00000000
00000000
00031000
00000000
01000000
,  // measure 56
00010000
00000000
00010000
01000000
00100000
00010000
00001000
00000000
00001000
01000000
00000000
01000000
,  // measure 57
01001000
00010100
00101000
00010020
,  // measure 58
00000130
00000000
00000001
00000100
00000000
00001000
00000000
00000000
00010000
01000000
00000000
10000000
,  // measure 59
00000000
00000000
00100000
00001000
00000000
00001000
00000010
00000000
00000010
00000100
00000000
00000000
,  // measure 60
00000001
00001000
00000100
00000010
00000000
00000010
00001000
00010000
00100000
00010000
00001000
00000020
,  // measure 61
00000000
00000200
00000000
00000330
,  // measure 62
00000001
00000000
00001000
00000000
00000010
00000000
00000100
00002000
00000000
00000000
00010000
00000000
00000100
00000000
00013000
00000000
,  // measure 63
00001000
00000000
00000000
00000000
00000000
00000000
01000000
00000000
00000000
00000000
00000000
00000000
00100000
00000000
00000000
00000000
00000000
00000000
10000000
00000000
00000000
00010000
00000000
00000000
00100000
00000000
00000000
00000000
00000000
00000000
01000000
00000000
10000000
00000000
00010000
00000000
01000000
00000000
00000000
00000000
00000000
00000000
00001000
00000000
00000000
00000000
00000000
00000000
,  // measure 64
01000000
00000000
00010000
00000000
00100000
00000000
01000000
00010000
00001000
00010000
00000010
00000000
00000100
00000000
00000001
00000000
,  // measure 65
00001000
00000000
00000001
00000100
00000000
00000100
00001000
00000000
00001000
00010000
00000000
00010000
01000000
10000000
00010000
01000000
,  // measure 66
00100000
00000000
10000000
00000000
00100000
00000000
00010000
00002000
00000000
00000000
00000100
00000000
00010000
00000000
00003100
00000000
,  // measure 67
00001000
00000000
00000000
00000000
00000000
00000000
00010000
00000000
00000000
00000000
00000000
00000000
00000100
00000000
00000000
00000000
00000000
00000000
00000010
00000000
00000000
00000001
00000000
00000000
00001000
00000000
00000000
00000000
00000000
00000000
00000001
00000000
00000100
00000000
00000010
00000000
00001000
00000000
00000000
00000000
00000000
00000000
00000001
00000000
00000000
00000000
00000000
00000000
,  // measure 68
00001000
00000100
00000010
00001000
00010000
01000000
00100000
00010000
10000000
00010000
01000000
00100000
00010000
00001000
00000100
00000010
,  // measure 69
00001000
00000000
00000001
00000010
00000000
00000010
00001000
00000000
00001000
00010000
00000000
00010000
00100000
10000000
00010000
00100000
,  // measure 70
02000000
00000000
00000000
03000000
;

//---------------dance-single - ----------------
#NOTES:
     dance-single:
     :
     Medium:
     11:
     0.373982,0.409314,0.094012,0.253110,0.202488,362.000000,349.000000,13.000000,35.000000,0.000000,0.000000,0.373982,0.409314,0.094012,0.253110,0.202488,362.000000,349.000000,13.000000,35.000000,0.000000,0.000000:
0000
0000
0000
0000
,
0000
0000
0000
0000
,
0000
0000
0000
0000
,
0000
0000
0000
0000
,
0000
0000
0000
0000
,
0000
0000
0000
0000
,
0001
0000
1000
0000
0010
0000
0000
0200
0000
0000
0010
0000
0010
0000
0310
0000
,
1000
0001
0010
0000
0100
1000
1000
0001
,
0100
0010
1000
0000
0001
0010
1000
0010
,
0001
0000
0000
0001
0000
0000
1000
0000
0000
1000
0000
0000
0020
0000
0000
0000
,
0130
0000
0001
0000
1000
0000
0000
0002
0000
0000
1000
0000
1000
0000
1003
0000
,
0001
0010
0100
0000
0010
0001
1000
1000
,
0001
0100
0010
1000
0001
1000
0100
0010
,
0001
0000
0000
0001
0000
0000
1000
0000
0000
1000
0000
0000
0020
0000
0000
0000
,
0130
0000
0001
0000
2000
0000
0000
3001
,
1000
0000
0000
0100
0000
0000
0001
0000
0010
0000
0000
1000
0000
0000
0001
0000
,
0010
0000
0000
0100
0000
0000
0020
0000
0000
0000
0000
0000
0030
0000
0000
0000
,
0001
0000
1000
0000
0010
0000
0000
0100
0000
0000
0100
0000
0010
0000
0000
0000
,
1000
0000
0001
0000
0200
0000
0000
0301
,
1000
0000
0000
0100
0000
0000
0001
0000
0010
0000
0000
1000
0000
0000
0100
0000
,
0020
0000
0000
0200
0000
0000
0330
0000
,
1000
0001
0010
0010
,
0100
0000
0000
1000
0000
0000
0001
0000
0010
0000
0010
0000
0000
0000
0000
0000
,
0001
0000
0000
1000
0000
0000
0010
0000
0010
0000
0000
0000
0110
0000
0000
0000
,
1000
0000
0000
0001
0000
0000
0010
0000
0100
0000
0100
0000
0000
0000
0000
0000
,
1000
0000
0000
0001
0000
0000
0100
0000
0010
0000
0000
0000
0110
0000
0000
0000
,
1000
0000
0000
1010
0000
0000
0000
0000
0001
0000
0000
0011
0000
0000
0000
0000
,
1000
0000
0000
1100
0000
0000
0000
0000
0001
0000
0000
0101
0000
0000
0000
0000
,
0100
0010
0100
0001
1000
0100
0001
0100
,
0020
0000
0000
0000
0000
0031
1000
0010
,
0200
0000
0001
0000
0310
1000
0001
1000
,
0200
0000
0010
0000
1300
0001
1000
0010
,
0200
0000
1000
0000
0001
0000
0310
1000
,
0002
0000
1000
0000
0013
0001
1000
0100
,
0020
0000
0100
0000
0031
1000
0001
0100
,
0020
0000
1000
0000
0130
0001
1000
0001
,
0020
0000
1000
0000
0001
0000
0130
1000
,
0001
0000
0000
0001
0000
0000
1000
0000
0000
1000
0000
0000
2002
0000
0000
0000
,
3003
0000
0001
0000
0100
0000
0010
0000
1000
0000
0000
1000
0000
0000
0001
0000
,
1000
0100
0010
0000
0002
0000
2003
0000
,
3000
0000
0001
0000
0010
0000
0100
0000
1000
0000
0000
1000
0000
0000
0001
0000
,
1000
0000
0100
0000
0010
0000
0000
0010
0000
0000
0001
0000
1000
0000
0010
0000
,
0200
0000
0001
0000
0310
1000
0001
1000
,
0200
0000
0010
0000
1300
0001
1000
0010
,
0200
0000
0010
0000
1000
0000
0301
1000
,
0100
0000
0000
0100
0000
0000
0010
0000
0000
0010
0000
0000
0220
0000
0000
0000
,
0330
0000
0000
0001
0000
0000
1000
0000
0000
0010
0000
0100
,
0010
0000
0000
1000
0000
0001
1000
0000
0000
0001
0000
0001
,
0010
1000
0010
0001
,
0100
0000
0001
1000
0000
0000
0100
0000
1000
0001
0000
0000
,
0020
0000
0000
0031
0000
1000
0010
0000
0010
0100
0000
0000
,
0001
0000
0000
1000
0000
0000
0100
0000
0010
0001
0000
0001
,
1000
0000
0000
0010
0000
0000
0100
0000
0100
0010
0000
0020
,
0000
0000
0000
0000
0000
0000
0130
0000
0000
0000
0000
0001
,
1000
0000
1000
0000
0000
0000
0001
0000
0000
0010
0000
0100
,
1000
0000
0000
0001
0000
0100
0010
0000
0000
0000
0000
1000
,
0010
0001
0010
1000
,
1100
1001
0101
1001
,
0000
0000
1000
0001
0000
0100
0000
0000
0001
1000
0000
0100
,
0000
0010
0001
1000
,
0010
0000
0010
0100
0000
0100
0010
0000
0000
1000
0000
0002
,
0000
2000
0000
3003
,
0001
0000
1000
0000
0100
0000
0000
0020
0000
0000
0100
0000
0100
0000
0130
0000
,
1000
0001
0100
0000
0010
1000
1000
0001
,
1000
0100
0010
0000
0001
0010
1000
0010
,
0001
0000
0000
0001
0000
0000
1000
0000
0000
1000
0000
0000
0200
0000
0000
0000
,
0310
0000
0001
0000
1000
0000
0000
0020
0000
0000
0100
0000
0100
0000
0130
0000
,
0001
1000
0010
0000
1000
0100
0100
0010
,
0001
1000
0010
0100
0001
1000
0001
0010
,
0100
0000
0000
0100
0000
0000
0010
0000
0000
0010
0000
0000
0001
0000
1000
0000
,
2002
0000
0000
3003
;

//---------------dance-double - ----------------
#NOTES:
     dance-double:
     :
     Medium:
     11:
     0.370883,0.409314,0.079549,0.267573,0.191640,359.000000,348.000000,11.000000,37.000000,0.000000,0.000000,0.370883,0.409314,0.079549,0.267573,0.191640,359.000000,348.000000,11.000000,37.000000,0.000000,0.000000:
00000000
00000000
00000000
00000000
,
00000000
00000000
00000000
00000000
,
00000000
00000000
00000000
00000000
,
00000000
00000000
00000000
00000000
,
00000000
00000000
00000000
00000000
,
00000000
00000000
00000000
00000000
,
10000000
00000000
00100000
00000000
01000000
00000000
00000000
00002000
00000000
00000000
00010000
00000000
00010000
00000000
00013000
00000000
,
00000100
00001000
00000001
00000000
00001000
00000010
00000010
00000100
,
00000010
00010000
00001000
00000000
01000000
00100000
00010000
00100000
,
10000000
00000000
00000000
10000000
00000000
00000000
00010000
00000000
00000000
00010000
00000000
00000000
00200000
00000000
00000000
00000000
,
00301000
00000000
00010000
00000000
00000010
00000000
00000000
00000200
00000000
00000000
00000001
00000000
00000001
00000000
00000301
00000000
,
00001000
00000010
00010000
00000000
00001000
00100000
00100000
00010000
,
10000000
00100000
01000000
00001000
01000000
00010000
00100000
00001000
,
00010000
00000000
00000000
00010000
00000000
00000000
00000010
00000000
00000000
00000010
00000000
00000000
00000200
00000000
00000000
00000000
,
00000301
00000000
00001000
00000000
00000020
00000000
00000000
00010030
,
00001000
00000000
00000000
00010000
00000000
00000000
00100000
00000000
10000000
00000000
00000000
01000000
00000000
00000000
00010000
00000000
,
00001000
00000000
00000000
00000010
00000000
00000000
00000200
00000000
00000000
00000000
00000000
00000000
00000300
00000000
00000000
00000000
,
00001000
00000000
00000001
00000000
00001000
00000000
00000000
00000010
00000000
00000000
00000010
00000000
00000100
00000000
00000000
00000000
,
00000001
00000000
00001000
00000000
00000020
00000000
00000000
00010030
,
00001000
00000000
00000000
00010000
00000000
00000000
01000000
00000000
10000000
00000000
00000000
00100000
00000000
00000000
00010000
00000000
,
00002000
00000000
00000000
00020000
00000000
00000000
00033000
00000000
,
00010000
00000010
00000100
00000000
00000001
00000100
00000010
00000000
,
00010000
00000000
00000000
00001000
00000000
00000000
00100000
00000000
00010000
00000000
00010000
00000000
00000000
00000000
00000000
00000000
,
00100000
00000000
00000000
01000000
00000000
00000000
00100000
00000000
00002000
00000000
00000000
00000000
00013000
00000000
00000000
00000000
,
00001000
00000000
00000000
00010000
00000000
00000000
00000010
00000000
00010000
00000000
00010000
00000000
00000000
00000000
00000000
00000000
,
00000010
00000000
00000000
00000100
00000000
00000000
00000010
00000000
00020000
00000000
00000000
00000000
00031000
00000000
00000000
00000000
,
00010000
00000000
00000000
00010100
00000000
00000000
00000000
00000000
00001000
00000000
00000000
01001000
00000000
00000000
00000000
00000000
,
00010000
00000000
00000000
00010010
00000000
00000000
00000000
00000000
00001000
00000000
00000000
00101000
00000000
00000000
00000000
00000000
,
00100000
00010000
10000000
00100000
01000000
00001000
00010000
00000010
,
00020000
00000000
00000000
00000000
00000000
00000000
00031000
00100000
,
00020000
00000000
10000000
00000000
01030000
00001000
00010000
00000100
,
00000020
00000000
00000001
00000000
00000130
00001000
00000001
00000100
,
00000020
00000000
00000001
00000000
00001000
00000000
00000130
00000010
,
00020000
00000000
00000010
00000000
00031000
01000000
00010000
00100000
,
02000000
00000000
10000000
00000000
03100000
00010000
10000000
00100000
,
02000000
00000000
00010000
00000000
03001000
00010000
00000010
00001000
,
00000020
00000000
00000001
00000000
00001000
00000000
00000130
00000001
,
00001000
00000000
00000000
00001000
00000000
00000000
00000001
00000000
00000000
00000001
00000000
00000000
00002002
00000000
00000000
00000000
,
00003003
00000000
00001000
00000000
00000100
00000000
00010000
00000000
00001000
00000000
00000000
00001000
00000000
00000000
01000000
00000000
,
00010000
01000000
00100000
10000000
00020000
00000000
02030000
00000000
,
03000000
00000000
00001000
00000000
00010000
00000000
00000100
00000000
00000010
00000000
00000000
00000010
00000000
00000000
00000001
00000000
,
00001000
00000000
00000100
00000000
00010000
00000000
00000000
00010000
00000000
00000000
00001000
00000000
00100000
00000000
00010000
00000000
,
00200000
00000000
01000000
00000000
00310000
10000000
00100000
01000000
,
00020000
00000000
10000000
00000000
00130000
00001000
00010000
00000010
,
00002000
00000000
00000100
00000000
00000001
00000000
00003010
00010000
,
00001000
00000000
00000000
00001000
00000000
00000000
00010000
00000000
00000000
00010000
00000000
00000000
00022000
00000000
00000000
00000000
,
00033000
00001000
01000000
00010000
,
00100000
00000000
00000000
01000000
00000000
10000000
00010000
00000000
00000000
01000000
00000000
01000000
,
00001000
00010000
00001000
00000100
,
00000001
00000000
00001000
00000100
00000000
00000000
00000010
00000000
00000001
00001000
00000000
00000000
,
00000020
00000000
00000000
00010030
00000000
00000000
00001000
00000000
00100000
00010000
00000000
00000000
,
10000000
00000000
00000000
00100000
00000000
01000000
00010000
00000000
00000000
10000000
00000000
00000000
,
00010000
00000000
00000000
00100000
00000000
00000000
00001000
00000000
00010000
00000010
00000000
00000020
,
00000000
00000000
00000000
00000000
00000000
00000000
00000130
00000000
00000000
00000000
00000000
00000001
,
00001000
00000000
00001000
00000000
00000000
00000000
00000010
00000000
00000000
00010000
00000000
00000000
,
00001000
00000000
00000000
00100000
00000000
00000000
00010000
00000000
00000000
00000000
00000000
10000000
,
00100000
00000000
00000000
01000000
00000000
00010000
01000000
00000000
00000000
00001000
00000000
00000000
,
00101000
00011000
00010010
00011000
,
00000000
00000000
00010000
00000010
00000000
00010000
00000000
00000000
00001000
00100000
00000000
00001000
,
00000000
00010000
00000010
00000100
,
00000001
00000000
00001000
00000010
00000000
00010000
00001000
00000000
00001000
01000000
00000000
00200000
,
00000000
02000000
00000000
03300000
,
00010000
00000000
10000000
00000000
01000000
00000000
00000000
00200000
00000000
00000000
00010000
00000000
00010000
00000000
00310000
00000000
,
10000000
00100000
01000000
00000000
00001000
00010000
00010000
00000010
,
00001000
00000010
00000100
00000000
00000010
00000100
00001000
00000100
,
00000001
00000000
00000000
00000001
00000000
00000000
00001000
00000000
00000000
00001000
00000000
00000000
00000020
00000000
00000000
00000000
,
00010030
00000000
00001000
00000000
00100000
00000000
00000000
00020000
00000000
00000000
10000000
00000000
10000000
00000000
10030000
00000000
,
00100000
01000000
00010000
00000000
01000000
00001000
00001000
00010000
,
00000100
00000010
00000001
00001000
00000010
00010000
00001000
00100000
,
00010000
00000000
00000000
00010000
00000000
00000000
10000000
00000000
00000000
10000000
00000000
00000000
00100000
00000000
01000000
00000000
,
02200000
00000000
00000000
03300000
;

//---------------dance-single - ----------------
#NOTES:
     dance-single:
     :
     Easy:
     6:
     0.217984,0.306986,0.028927,0.238646,0.000000,211.000000,207.000000,4.000000,33.000000,0.000000,0.000000,0.217984,0.306986,0.028927,0.238646,0.000000,211.000000,207.000000,4.000000,33.000000,0.000000,0.000000:
0000
0000
0000
0000
,
0000
0000
0000
0000
,
0000
0000
0000
0000
,
0000
0000
0000
0000
,
0000
0000
0000
0000
,
0000
0000
0000
0000
,
0001
1000
0010
0000
,
1000
0000
0001
0000
0010
0100
0010
0000
,
0100
1000
0100
0001
,
0200
0000
0000
2300
0000
0000
3001
0000
,
1000
0010
0100
0000
,
0001
0000
0100
0000
0010
0100
0010
0000
,
1000
0010
0001
0010
,
2000
0000
0000
3002
0000
0000
0013
0000
,
0000
0100
2000
0000
,
3001
0100
1000
0010
,
0001
1000
0002
0000
,
0103
0000
0100
0100
,
0000
0010
2000
0000
,
3001
0010
1000
0100
,
0001
0000
0000
2000
0000
0000
0000
0000
,
3010
0000
0100
0100
,
0002
0000
1003
0000
,
0001
0010
0001
1001
,
2000
0000
3001
0000
,
1000
0010
1000
1001
,
0002
0000
0000
0003
0000
0000
0000
0000
0200
0000
0000
0300
0000
0000
0000
0000
,
2000
0000
0000
3000
0000
0000
0000
0000
0020
0000
0000
0030
0000
0000
0000
0000
,
0001
0100
1000
0010
,
0002
0000
0000
1003
,
0002
0010
1003
0000
,
2000
0010
3001
0000
,
0001
0001
1000
1000
,
0020
0000
0130
0000
,
0002
0100
1003
0000
,
2000
0100
3001
0000
,
0001
0001
1000
1000
,
0010
0100
0020
0000
,
0030
0000
1001
0000
0001
0000
0010
0100
,
0010
0100
0200
0300
,
0000
0000
1000
0000
0001
0000
0100
0010
,
0100
0010
0010
1000
,
0002
0010
1003
0000
,
2000
0010
3001
0000
,
0001
0001
1000
1000
,
0200
0000
0000
0300
,
0000
0010
0001
1000
,
0010
0010
0100
0000
,
0001
0000
0100
0001
,
1000
0100
0001
0010
,
1000
0000
0001
0001
,
0100
0010
1000
0001
,
0010
0010
0100
2000
,
0000
0000
3000
0000
,
0001
0000
0100
0010
,
1000
1000
0001
0000
,
0010
1000
0010
0001
,
1000
1000
1000
1000
,
0000
0010
0000
0100
,
0000
0001
1000
1000
,
0001
0100
1000
0100
,
0000
0020
0000
0030
,
1000
0001
0010
0000
,
0100
0000
1000
0000
0001
1000
0001
0000
,
0100
1000
0100
0001
,
2000
0000
0000
3002
0000
0000
0013
0000
,
0100
1000
0001
0000
,
1000
0000
0010
0000
0100
0010
0100
0000
,
0001
1000
0001
0000
1000
0001
1000
0000
,
0002
0000
0000
0023
0000
0000
0130
0000
,
0220
0000
0000
0330
;

//---------------dance-double - ----------------
#NOTES:
     dance-double:
     :
     Easy:
     6:
     0.212819,0.306986,0.007232,0.224183,0.000000,206.000000,205.000000,1.000000,31.000000,0.000000,0.000000,0.212819,0.306986,0.007232,0.224183,0.000000,206.000000,205.000000,1.000000,31.000000,0.000000,0.000000:
00000000
00000000
00000000
00000000
,
00000000
00000000
00000000
00000000
,
00000000
00000000
00000000
00000000
,
00000000
00000000
00000000
00000000
,
00000000
00000000
00000000
00000000
,
00000000
00000000
00000000
00000000
,
00000001
00001000
00000010
00000000
,
00001000
00000000
00000010
00000000
00010000
00001000
00010000
00000000
,
00001000
01000000
00010000
00100000
,
02000000
00000000
00000000
23000000
00000000
00000000
30010000
00000000
,
10000000
01000000
00100000
00000000
,
00010000
00000000
00100000
00000000
00001000
00010000
00001000
00000000
,
00010000
00000100
00000010
00000001
,
00002000
00000000
00000000
00003020
00000000
00000000
00010030
00000000
,
00000000
00001000
02000000
00000000
,
03100000
10000000
00100000
00010000
,
00001000
00000100
00000020
00000000
,
00001030
00000000
00001000
00001000
,
00000000
00000001
00000200
00000000
,
00000310
00000001
00000010
00010000
,
00002000
00000000
00000000
00020000
00000000
00000000
00033000
00000000
,
00001000
00000000
00001000
00001000
,
00200000
00000000
01300000
00000000
,
10000000
01000000
00010000
00010000
,
00000020
00000000
00000130
00000000
,
00000001
00000100
00001000
00001000
,
00100000
00000000
00000010
00000000
,
01000000
00000000
00000100
00000000
,
00010000
00001000
01000000
00100000
,
02000000
00000000
00000000
03000000
,
00020000
10000000
00130000
00000000
,
00200000
00010000
00301000
00000000
,
00010000
00010000
00000010
00000010
,
00000200
00000000
00000310
00000000
,
00002000
00000001
00003010
00000000
,
00000020
00001000
00010030
00000000
,
00001000
00001000
00100000
00100000
,
00020000
00000000
00000000
20030000
00000000
00000000
30100000
00000000
,
00000000
10000000
01000000
00010000
,
00001000
00010000
00001000
00000000
00000020
00000000
00000030
00000000
,
00000000
00000001
00000100
00001000
,
00010000
00001000
00010000
00000000
00100000
00000000
10000000
00000000
,
00020000
10000000
01030000
00000000
,
02000000
00010000
03001000
00000000
,
00010000
00010000
00000100
00000100
,
00000020
00000000
00000000
00000030
,
00000000
00000001
00001000
00000010
,
00010000
00010000
00001000
00000000
,
00100000
00000000
10000000
00100000
,
00010000
00010000
01000000
01000000
,
00001000
00000000
00010000
00000010
,
00000100
00000001
00001000
00000000
,
00000001
00000010
00000100
00002000
,
00000000
00000000
00003000
00000000
,
00000010
00000000
00010000
00001000
,
00010000
00100000
10000000
00000000
,
00010000
00100000
00001000
00010000
,
00000010
00000010
00000010
00000010
,
00000000
00001000
00000000
00000001
,
00000000
00000010
00000100
00001000
,
00000001
00000100
00000010
00010000
,
00000000
00002000
00000000
00003000
,
01000000
00010000
10000000
00000000
,
00010000
00000000
00100000
00000000
00001000
00010000
00001000
00000000
,
00010000
00000010
00000100
00000001
,
00002000
00000000
00000000
00003020
00000000
00000000
00010030
00000000
,
00001000
00100000
00010000
00000000
,
10000000
00000000
00010000
00000000
01000000
00100000
01000000
00000000
,
00001000
01000000
00001000
00000000
00010000
00001000
00010000
00000000
,
00000020
00000000
00000000
00000230
00000000
00000000
00000301
00000000
,
00002002
00000000
00000000
00003003
;

//---------------dance-single - ----------------
#NOTES:
     dance-single:
     :
     Beginner:
     3:
     0.135336,0.179075,0.050622,0.094012,0.000000,131.000000,124.000000,7.000000,13.000000,0.000000,0.000000,0.135336,0.179075,0.050622,0.094012,0.000000,131.000000,124.000000,7.000000,13.000000,0.000000,0.000000:
0000
0000
0000
0000
,
0000
0000
0000
0000
,
0000
0000
0000
0000
,
0000
0000
0000
0000
,
0000
0000
0000
0000
,
0000
0000
0000
0000
,
0001
0000
0001
0000
,
1000
0000
1000
0000
,
0010
0000
0010
0000
,
0100
0100
0100
0000
,
0001
0000
0001
0000
,
1000
0000
1000
0000
,
0100
0000
0100
0000
,
0010
0010
0010
0000
,
0001
0000
0001
0000
,
1000
0000
0010
0000
,
0100
0000
0010
0000
,
1000
0000
1000
0000
,
0001
0000
0001
0000
,
1000
0000
0100
0000
,
0010
0000
0100
0000
,
1000
0000
1000
0000
,
0002
0000
0003
0000
,
1000
0000
1000
0000
,
0200
0000
0300
0000
,
0010
0000
0010
0000
,
0001
0000
0100
0000
,
1000
0000
0010
0000
,
0001
0000
0001
0000
,
2000
0000
3000
0000
,
0001
0000
1001
0000
,
1000
0000
1001
0000
,
0001
0000
0001
0000
,
0200
0000
0300
0000
,
0010
0000
0110
0000
,
0100
0000
0110
0000
,
1000
0000
1000
0000
,
0002
0000
0003
0000
,
0000
1000
1000
1000
,
0002
0000
0003
0000
,
0000
0001
0001
0001
,
2000
0000
3000
0000
,
0001
0000
1001
0000
,
1000
0000
1001
0000
,
0001
0000
0001
0000
,
0020
0000
0030
0000
,
0001
0000
0100
0000
,
1000
0000
0100
0000
,
0010
0000
0010
0000
,
0200
0000
0300
0000
,
0001
0000
0010
0000
,
1000
0000
0010
0000
,
0001
0000
0010
0000
,
0200
0000
0300
0000
,
0010
0000
0001
0000
,
1000
0000
1000
0000
,
0010
0000
0100
0000
,
0001
0000
0001
0000
,
0010
0000
1000
0000
,
0010
0000
0100
0000
,
1000
0000
0001
0000
,
0020
0000
0030
0000
,
0100
0000
0100
0000
,
1000
0000
1000
0000
,
0001
0000
0001
0000
,
0100
0100
0100
0000
,
0010
0000
0010
0000
,
1000
0000
1000
0000
,
0001
0000
0001
0000
,
0010
0010
0010
0000
,
0220
0000
0000
0330
;
