#VERSION:0.83;
#TITLE:Outer Contact;
#SUBTITLE:;
#ARTIST:exi;
#TITLETRANSLIT:;
#SUBTITLETRANSLIT:;
#ARTISTTRANSLIT:;
#GENRE:;
#ORIGIN:;
#CREDIT:;
#BANNER:;
#BACKGROUND:;
#PREVIEWVID:;
#JACKET:;
#CDIMAGE:;
#DISCIMAGE:;
#LYRICSPATH:;
#CDTITLE:;
#MUSIC:Outer Contact.ogg;
#OFFSET:0.000000;
#SAMPLESTART:27.391304;
#SAMPLELENGTH:20.869568;
#SELECTABLE:YES;
#DISPLAYBPM:92.000000:184.000000;
#BPMS:0.000=184.000;
#STOPS:;
#DELAYS:;
#WARPS:;
#TIMESIGNATURES:0.000=4=4;
#TICKCOUNTS:0.000=4;
#COMBOS:0.000=1;
#SPEEDS:0.000=1.000=0.000=0,
36.000=2.000=32.000=0,
80.000=4.000=4.000=0,
148.000=2.000=32.000=0,
196.000=4.000=16.000=0;
#SCROLLS:0.000=0.500,
68.000=0.000,
80.000=0.250,
176.000=0.125,
180.000=0.250,
212.000=0.000,
212.500=0.250,
306.000=0.000,
306.250=0.250,
306.500=0.000,
306.750=0.250,
307.000=0.000,
307.250=0.250,
307.500=0.000,
307.750=0.250,
340.000=0.125;
#FAKES:;
#LABELS:0.000=Song Start;
#BGCHANGES:;
#KEYSOUNDS:;
#ATTACKS:
;

//---------------dance-single - ----------------
#NOTEDATA:;
#CHARTNAME:;
#STEPSTYPE:dance-single;
#DESCRIPTION:;
#CHARTSTYLE:;
#DIFFICULTY:Hard;
#METER:15;
#RADARVALUES:0.621598,1.013379,0.105730,0.512383,0.284657,535.000000,522.000000,13.000000,63.000000,0.000000,0.000000,0.000000,0.000000,0.000000,0.621598,1.013379,0.105730,0.512383,0.284657,535.000000,522.000000,13.000000,63.000000,0.000000,0.000000,0.000000,0.000000,0.000000;
#CREDIT:Kekkle;
#DISPLAYBPM:92.000000:184.000000;
#NOTES:
0000
0000
0000
0000
,
0000
0000
0000
0000
,
0000
0000
0000
0000
,
0000
0000
0000
0000
,
0000
0000
0000
0000
,
0001
0000
0000
0000
,
0000
0000
0000
0000
0000
0000
0000
0001
,
0001
0000
0000
0000
,
2000
0000
3010
0000
0100
0000
0002
0000
0013
0000
0100
0000
1000
0001
1000
0001
,
1000
1000
1000
1000
,
0001
0001
0001
0100
,
0010
0010
0010
0010
,
0100
0100
0100
0001
,
1000
0000
0001
0000
0010
0000
0001
0000
1000
0000
0001
0010
0001
0000
0010
0000
,
0001
0000
1000
0000
0010
0000
1000
0000
0001
0000
1000
0010
1000
0000
0010
0000
,
0100
0100
0001
0001
1000
1000
0100
0100
,
0010
0001
0010
0001
0010
0001
1000
0000
0001
1000
0001
1000
0001
1000
0001
1000
,
0020
0000
0000
0000
,
0000
0000
0000
0000
,
0000
0000
0000
0000
,
0000
0000
0000
0030
,
1001
0000
1000
0000
1000
0100
0020
1000
,
0000
0031
0000
0010
0100
0001
0200
0000
,
1300
0000
1000
0000
1000
0010
0200
1000
,
0000
0301
0000
0100
0100
0001
0020
0000
,
0031
0000
0001
0000
0001
0010
0200
0001
,
0000
1300
0000
0100
0010
1000
0020
0000
,
0031
0000
0001
0000
0001
0100
0020
0001
,
0000
0000
1030
0000
0000
0000
0010
0000
0010
0000
0100
0001
1000
0000
0001
1000
,
0100
0010
0011
0000
0001
0002
0000
0203
,
0000
0310
0010
0100
1000
0100
0010
0100
,
0001
1000
1100
0000
1000
2000
0000
3200
,
0000
0310
0010
0100
0001
0100
0010
0100
,
1000
0001
0011
0000
0001
0002
0000
0023
,
0000
0130
0100
0010
1000
0010
0100
0010
,
0001
1000
1010
0000
1000
2000
0000
3020
,
0000
0000
0130
0000
0100
0000
0001
0000
1000
0100
0000
0010
0001
0000
1000
0001
,
1000
0000
1000
0000
2000
0100
0000
0100
,
0000
3100
0000
1000
0100
0001
0100
1000
,
0001
0000
0001
0000
0002
0100
0000
0100
,
0000
0103
0000
0001
0100
1000
0100
0001
,
1000
1000
1000
1000
,
0100
0000
0100
0000
0100
0001
0100
1000
,
0001
0001
0001
0002
,
0000
0000
0000
0003
,
1001
0000
0000
0000
0000
1000
0100
0010
,
0001
0000
0000
0000
0000
0001
0100
0010
,
1000
0000
0000
0000
0000
1000
0100
0010
,
0001
0000
0000
0000
0000
0001
0100
0010
,
1000
0000
0001
1000
0001
0000
0000
0000
0010
0000
0100
0010
0100
0000
0000
0000
,
1000
0000
0001
0000
0100
0000
0010
0000
1000
0001
1000
0001
1000
0001
1000
0001
,
1000
0000
0010
1000
0010
0000
0100
0000
0001
1000
0001
0000
1000
0001
1000
0100
,
0020
1000
0000
0031
0010
1000
0010
0001
,
0000
0000
0000
0000
1000
0100
1000
0000
0100
0010
0100
0000
1000
0100
1000
0000
,
1001
0000
0001
0000
0100
0000
1010
0000
1000
0000
0100
0000
0010
0001
1000
0001
,
1000
0001
0100
2000
0000
3100
0001
1000
,
0100
0001
0100
0020
0000
0000
0031
1000
,
0001
0000
0000
0000
1000
0010
1000
0000
0010
0100
0010
0000
1000
0010
1000
0000
,
0020
0000
0130
0001
0100
0001
2000
0000
3001
0010
0001
0010
0200
0000
0000
0000
,
1300
0001
0100
0020
1030
0020
0130
2000
,
0000
0000
3200
0000
0000
0000
0302
0000
0000
0000
2003
0000
3100
0000
0010
0001
,
1000
0000
0000
0000
0001
0010
0001
0000
0010
0100
0010
0000
0001
0010
0001
0000
,
1000
0000
0000
0000
0010
0000
0000
0000
0100
0000
0000
0000
0001
0000
0000
0000
0010
0000
0000
0000
0100
0000
0000
0000
1000
0000
0000
0001
0000
0000
1000
0000
0000
0001
0000
0000
2000
0000
0000
0000
0000
0000
0000
0000
0000
0000
0000
0000
,
3001
0100
0010
0002
0000
0013
2000
0000
,
3001
0010
0100
0002
0000
0103
1000
0001
,
0201
0000
0310
1000
1200
0000
0310
0001
,
0201
0000
0310
1000
1200
0000
0310
0001
,
0201
0010
0010
0310
,
1000
0000
0001
0000
1000
0000
0001
0000
1000
0100
1000
0001
1000
0010
0100
0010
,
1000
0001
0010
0200
0010
0010
0000
2300
,
0000
3001
0100
0001
1000
0100
0001
0100
,
1000
0001
0100
0020
0100
0100
0000
2030
,
0000
3001
0010
0001
1000
0010
0001
0010
,
0100
0001
0100
0020
0001
0001
0000
0230
,
0000
0301
1000
0100
0001
0100
1000
0100
,
0010
1000
0010
0200
0001
0001
0000
0320
,
0000
0000
0000
0000
0031
0000
0000
0000
1000
0000
0001
0000
1000
0000
0001
0000
0200
0000
0000
0300
0020
0000
0000
0030
0200
0000
0000
0300
0020
0000
0000
0030
,
1000
0001
0010
0200
1000
1000
0000
0320
,
0000
0032
0000
1003
0010
0100
0001
0100
,
2000
0000
3200
0000
0302
0000
1003
0100
,
0010
1000
0010
0002
0000
2000
0000
3003
,
0001
0000
1000
0010
1000
0000
0010
0100
0010
0000
0100
0001
0100
0000
0001
0000
,
1000
0000
0001
0010
0001
0000
0010
0100
0010
0000
0100
0000
0001
0000
0100
0000
,
1000
0100
1000
0001
0010
0100
0010
0000
0001
1000
0010
0100
0001
0100
0010
0100
,
0001
0000
0100
0000
1000
0000
0100
0000
0001
1000
0001
0100
0010
1000
0100
0010
,
0002
0000
0000
0000
,
0000
0000
0000
0000
,
0000
0000
0000
0000
,
0000
0000
0000
0000
,
0003
0000
0000
0000
;

//---------------dance-double - ----------------
#NOTEDATA:;
#CHARTNAME:;
#STEPSTYPE:dance-double;
#DESCRIPTION:;
#CHARTSTYLE:;
#DIFFICULTY:Hard;
#METER:15;
#RADARVALUES:0.625084,0.904803,0.065064,0.504250,0.260258,538.000000,530.000000,8.000000,62.000000,0.000000,0.000000,0.000000,0.000000,0.000000,0.625084,0.904803,0.065064,0.504250,0.260258,538.000000,530.000000,8.000000,62.000000,0.000000,0.000000,0.000000,0.000000,0.000000;
#CREDIT:Kekkle;
#DISPLAYBPM:92.000000:184.000000;
#NOTES:
00000000
00000000
00000000
00000000
,
00000000
00000000
00000000
00000000
,
00000000
00000000
00000000
00000000
,
00000000
00000000
00000000
00000000
,
00000000
00000000
00000000
00000000
,
00001000
00000000
00000000
00000000
,
00000000
00000000
00000000
00000000
00000000
00000000
00000000
00010000
,
00010000
00000000
00000000
00000000
,
00001000
00000000
00010000
00000000
00001000
00000000
01000000
00000000
00100000
00000000
01000000
00000000
00010000
10000000
00010000
10000000
,
00010000
00100000
01000000
10000000
,
01000000
00000000
00100000
00000000
00001000
00010000
00001000
00000000
,
00010000
00000010
00000100
00000001
,
00000100
00000000
00000010
00000000
00010000
00001000
00010000
00000000
,
00001000
00000000
00100000
00000000
00010000
00000000
00100000
00000000
01000000
00000000
10000000
00010000
10000000
00000000
00010000
00000000
,
01000000
00000000
00001000
00000000
00010000
00000000
00000010
00000000
00001000
00000000
00000001
00001000
00000001
00000000
00001000
00000000
,
00000100
00000010
00000100
00000010
00001000
00010000
00001000
00010000
,
00100000
01000000
00100000
00000000
10000000
00100000
10000000
00000000
00010000
10000000
00010000
00000000
00100000
00001000
00100000
00001000
,
00020000
00000000
00000000
00000000
,
00000000
00000000
00000000
00000000
,
00000000
00000000
00000000
00000000
,
00000000
00000000
00000000
00000000
,
00032000
00000000
02003000
00000000
03100000
00010000
00001000
00020000
,
00000000
00230000
00000000
10300000
00010000
00100000
00002000
00000000
,
00023000
00000000
00030200
00000000
00000310
00001000
00010000
00002000
,
00000000
00003020
00000000
00000031
00000100
00001000
00020000
00000000
,
00032000
00000000
00203000
00000000
01300000
00010000
00001000
00020000
,
00000000
02030000
00000000
13000000
00010000
01000000
00002000
00000000
,
00023000
00000000
00030020
00000000
00000130
00001000
00010000
00002000
,
00000000
00000000
00003200
00000000
00000000
00000000
00000301
00000000
00000010
00000000
00000100
00000010
00000100
00000000
00001000
00000001
,
00000010
00000001
00000100
00000001
00000010
00000020
00000000
00002030
,
00000000
00013000
01000000
10000000
00100000
01000000
10000000
01000000
,
00100000
10000000
01000000
10000000
00100000
00200000
00000000
00320000
,
00000000
00031000
00000010
00000001
00000100
00000010
00000001
00000010
,
00000100
00000001
00000010
00000001
00000100
00000200
00000000
00002300
,
00000000
00013000
00100000
10000000
01000000
00100000
10000000
00100000
,
01000000
10000000
00100000
10000000
01000000
02000000
00000000
03020000
,
00000000
00000000
00031000
00000000
00000100
00000000
00000001
00000000
00001000
00000100
00000000
00010000
00000100
00000000
00010000
00001000
,
00010000
00000000
00010000
00000000
00001000
00020000
00000000
00100000
,
00000000
10000000
00000000
00130000
01000000
00100000
01000000
00000000
,
00001000
00000000
00001000
00000000
00010000
00002000
00000000
00000010
,
00000000
00000001
00000000
00003010
00000100
00000010
00000100
00000000
,
00001000
00001000
00001000
00001000
,
00000001
00000001
00000001
00000001
,
00000100
00000100
00000100
00000200
,
00000000
00000000
00000000
00000300
,
00001001
00000000
00000000
00000000
00000000
00000001
00000100
00000010
,
00001000
00000000
00000000
00000000
00000000
00010000
01000000
00100000
,
10000000
00000000
00000000
00000000
00000000
10000000
01000000
00100000
,
00010000
00000000
00000000
00000000
00000000
00001000
00000100
00000010
,
00000001
00000000
00001000
00000001
00001000
00000000
00000000
00000000
00000010
00000000
00010000
00001000
00010000
00000000
00001000
00000000
,
01000000
00000000
00100000
00000000
10000000
00000000
00010000
00000000
00100000
00000000
00001000
00000000
00010000
00001000
00010000
00001000
,
00010000
00000000
00000100
00001000
00000001
00000000
00001000
00000000
00000010
00001000
00000010
00000000
00010000
00000010
00010000
00000010
,
00020000
00001000
00000000
00031000
00010000
00100000
10000000
01000000
,
00020000
00000000
00000000
00000000
00031000
00100000
00001000
00000000
01000000
00010000
01000000
00000000
00001000
00100000
00001000
00000000
,
01000000
00000000
00100000
00000000
10000000
00000000
10010000
00000000
00010000
00000000
00100000
00000000
01000000
00100000
01000000
10000000
,
00010000
00100000
00001000
00020000
00000000
00031000
00000100
00000001
,
00000010
00001000
00000010
00000002
00000000
00000000
00001003
00000010
,
00010000
00000000
00000000
00000000
00000010
00001000
00000010
00000000
00010000
00000100
00010000
00000000
00000010
00001000
00000010
00000000
,
00020000
00000000
00030100
00001000
00000100
00001000
00000002
00000000
00000103
00000010
00000100
00000010
00002000
00000000
00000000
00000000
,
00003001
00000100
00000010
00010000
00001000
00010000
01000000
00001000
,
01000000
00000000
00010000
00000000
00001000
00000000
00100000
00000000
00010000
00000000
10000000
00010000
10000000
00000000
00010000
01000000
,
00001000
00000000
00000000
00000000
01000000
00010000
01000000
00000000
00001000
00100000
00001000
00000000
01000000
00010000
01000000
00000000
,
00001000
00000000
00000000
00000000
00010000
00000000
00000000
00000000
00100000
00000000
00000000
00000000
10000000
00000000
00000000
00000000
00010000
00000000
00000000
00000000
10000000
00000000
00000000
00000000
01000000
00000000
00000000
00100000
00000000
00000000
01000000
00000000
00000000
00100000
00000000
00000000
02000000
00000000
00000000
00000000
00000000
00000000
00000000
00000000
00000000
00000000
00000000
00000000
,
13000000
00010000
01000000
10000000
01000000
00001000
00020000
00000000
,
00031000
00000010
00000100
00000001
00000100
00010000
00001000
00010000
,
00010020
00000000
00010030
00001000
00201000
00000000
00301000
00010000
,
00010200
00000000
00010300
00001000
02001000
00000000
03001000
00010000
,
00012000
00010000
00010000
00013000
,
00001000
00000000
01000000
00000000
00100000
00000000
10000000
00000000
00010000
00100000
00010000
00100000
00001000
00010000
00001000
00010000
,
00001000
00010000
00100000
01000000
10000000
01000000
00100000
02000000
,
00000000
03001000
00010000
01000000
00100000
01000000
10000000
00100000
,
00010000
00001000
00000010
00000100
00000001
00000100
00000010
00000200
,
00000000
00010300
00001000
00000100
00000010
00000100
00000001
00000010
,
00001000
00010000
01000000
00100000
10000000
00100000
01000000
00200000
,
00000000
00301000
00010000
00100000
01000000
00100000
10000000
01000000
,
00010000
00001000
00000100
00000010
00000001
00000010
00000100
00000020
,
00000000
00000000
00000000
00000000
00001030
00000000
00000000
00000000
00000010
00000000
00001000
00000000
00000010
00000000
00010000
00000000
00002000
00000000
00000000
00003000
00020000
00000000
00000000
00030000
00002000
00000000
00000000
00003000
00020000
00000000
00000000
00030000
,
00001000
01000000
00010000
00100000
10000000
00100000
00010000
02000000
,
00000000
03200000
00000000
00310000
00001000
00000100
00000001
00000010
,
00002000
00000000
00003020
00000000
00000032
00000000
00000103
00000010
,
00010000
00001000
00100000
00002000
00000000
00020000
00000000
00033000
,
00001000
00000000
00100000
00010000
00100000
00000000
01000000
10000000
01000000
00000000
10000000
00010000
10000000
00000000
00010000
00000000
,
01000000
00000000
00001000
00010000
00001000
00000000
00010000
00000010
00010000
00000000
00000010
00000100
00000010
00000000
00001000
00000000
,
00000001
00000010
00000100
00000000
00000010
00000100
00001000
00000000
00000100
00010000
00001000
00000000
00010000
00001000
00100000
00000000
,
00010000
00000000
10000000
00000000
00100000
00000000
01000000
00000000
00001000
01000000
00010000
01000000
00001000
00010000
00001000
00000000
,
00022000
00000000
00000000
00000000
,
00000000
00000000
00000000
00000000
,
00000000
00000000
00000000
00000000
,
00000000
00000000
00000000
00000000
,
00033000
00000000
00000000
00000000
;

//---------------dance-single - ----------------
#NOTEDATA:;
#CHARTNAME:;
#STEPSTYPE:dance-single;
#DESCRIPTION:;
#CHARTSTYLE:;
#DIFFICULTY:Medium;
#METER:13;
#RADARVALUES:0.464746,0.615266,0.016266,0.365988,0.000000,400.000000,398.000000,2.000000,45.000000,0.000000,0.000000,0.000000,0.000000,0.000000,0.464746,0.615266,0.016266,0.365988,0.000000,400.000000,398.000000,2.000000,45.000000,0.000000,0.000000,0.000000,0.000000,0.000000;
#CREDIT:Kekkle;
#DISPLAYBPM:92.000000:184.000000;
#NOTES:
0000
0000
0000
0000
,
0000
0000
0000
0000
,
0000
0000
0000
0000
,
0000
0000
0000
0000
,
0000
0000
0000
0000
,
1000
0000
0000
0000
,
0000
0000
0000
0000
0000
0000
0000
0001
,
1000
0000
0000
0000
,
0001
0000
1000
0001
0000
0001
1000
0000
,
0001
0001
0001
0000
,
1000
0000
1000
0000
1000
0001
1000
0000
,
0010
0010
0010
0000
,
0100
0000
0100
0000
0100
0010
0100
0000
,
0010
0000
0100
0000
0001
0100
0001
0000
,
1000
0000
0100
0000
1000
0100
1000
0000
,
0100
0010
0001
1000
,
0001
0100
0001
0100
0010
1000
0010
1000
,
0020
0000
0000
0000
,
0000
0000
0000
0000
,
0000
0000
0000
0000
,
0000
0000
0000
0000
,
1030
0000
1000
0000
0100
0010
0000
0001
,
0000
1000
0000
0010
1000
0010
2000
0000
,
3100
0000
0100
0000
0010
0001
0000
0100
,
0000
0010
0000
1000
0010
1000
0020
0000
,
0130
0000
0100
0000
1000
0100
0000
0010
,
0000
0010
0000
1000
0001
1000
0002
0000
,
0013
0000
0010
0000
1000
0010
0000
0100
,
0000
0100
0000
1000
0001
1000
0001
1000
,
0002
0000
0203
0000
0310
0100
0000
1000
,
0000
0100
0001
0000
0001
0010
0001
0010
,
0002
0000
2003
0000
3100
0010
0000
1000
,
0000
0010
0001
0000
0001
0100
0001
0100
,
0002
0000
0203
0000
0310
1000
0000
0100
,
0000
1000
0010
0000
0010
1000
0001
0010
,
0002
0000
0023
0000
0130
1000
0000
0010
,
0000
1000
0100
0000
0100
0010
0001
1000
,
0001
0001
0100
0100
,
0010
0000
0010
0000
1000
0010
1000
0000
,
1000
1000
0100
0100
,
0010
0000
0010
0000
0001
0010
0001
0000
,
0001
0100
0001
0100
,
0010
1000
0010
1000
,
0001
0010
0001
0020
,
0000
0000
0000
0030
,
1001
0000
0000
0000
0000
0001
0100
0001
,
0100
0000
0000
0000
0000
0010
1000
0010
,
1000
0000
0000
0000
0000
0001
0010
0001
,
0010
0000
0000
0000
0000
0100
1000
0100
,
1000
1000
0001
0001
,
0100
0010
1000
0010
0100
0010
1000
0000
,
0001
1000
0000
1000
0001
0010
0001
0010
,
0001
1000
0000
1000
0010
0100
0001
0100
,
0020
0000
0130
0001
0010
0001
0100
0001
,
0010
0001
0100
0001
0010
0001
0100
0001
,
0010
0100
0010
1000
0000
1000
0010
0000
,
0001
1000
0001
2000
0000
0000
3001
0000
,
0010
0000
0100
1000
0010
1000
0100
1000
,
0010
0100
0001
0100
0010
1000
0020
0000
,
0130
0001
1000
0002
0000
0023
0000
2030
,
0000
3020
0000
0032
0000
0103
0010
0100
,
0010
0000
0100
0001
0010
0001
0100
0001
,
0020
0000
0230
0000
1300
0001
2000
0000
,
3001
0100
0010
1000
0000
1000
0010
0000
,
1000
0100
0010
0001
0000
0001
0010
0000
,
0002
0013
0020
0130
,
0200
1300
2000
3001
,
0002
1000
1000
1003
,
0020
0000
0200
0330
,
1001
0000
0001
0000
0100
0001
0010
0002
,
0000
0103
0010
1000
0010
0100
1000
0100
,
0010
0000
0100
0000
0010
1000
0100
2000
,
0000
3100
0010
0001
0010
0100
0001
0100
,
0010
0000
0001
0000
0010
0001
0100
0002
,
0000
0013
0100
1000
0100
0010
1000
0010
,
0100
0000
1000
0000
0001
0010
0001
0200
,
0000
0000
0000
0000
0310
0000
0000
0000
1000
0000
0000
0000
0001
0000
0000
0000
0020
0000
0000
0030
0200
0000
0000
0300
0020
0000
0000
0030
0200
0000
0000
0300
,
0010
0000
0001
0000
1000
0010
1000
0200
,
0000
0310
0001
0100
0001
0010
0001
0100
,
2000
0000
3200
0000
0310
0000
1000
0100
,
0010
0001
1000
0002
0000
0203
0000
0000
,
0310
1000
0100
0010
0001
0010
0100
0000
,
0010
0001
0100
0010
1000
0010
0100
0000
,
1000
0100
0010
1000
0010
0100
0001
0010
,
0100
1000
0100
0010
0001
0100
0010
1000
,
0020
0000
0000
0000
,
0000
0000
0000
0000
,
0000
0000
0000
0000
,
0000
0000
0000
0000
,
0030
0000
0000
0000
;

//---------------dance-double - ----------------
#NOTEDATA:;
#CHARTNAME:;
#STEPSTYPE:dance-double;
#DESCRIPTION:;
#CHARTSTYLE:;
#DIFFICULTY:Medium;
#METER:12;
#RADARVALUES:0.442671,0.615266,0.040665,0.398520,0.000000,381.000000,376.000000,5.000000,49.000000,0.000000,0.000000,0.000000,0.000000,0.000000,0.442671,0.615266,0.040665,0.398520,0.000000,381.000000,376.000000,5.000000,49.000000,0.000000,0.000000,0.000000,0.000000,0.000000;
#CREDIT:Kekkle;
#DISPLAYBPM:92.000000:184.000000;
#NOTES:
00000000
00000000
00000000
00000000
,
00000000
00000000
00000000
00000000
,
00000000
00000000
00000000
00000000
,
00000000
00000000
00000000
00000000
,
00000000
00000000
00000000
00000000
,
00001000
00000000
00000000
00000000
,
00000000
00000000
00000000
00000000
00000000
00000000
00000000
00010000
,
00001000
00000000
00000000
00000000
,
00010000
00000000
00001000
01000000
00000000
01000000
00010000
00000000
,
10000000
10000000
10000000
00000000
,
00010000
00000000
00010000
00000000
00010000
00100000
00010000
00000000
,
00100000
00100000
00100000
00000000
,
00001000
00000000
00001000
00000000
00001000
00010000
00001000
00000000
,
00010000
00000000
00000100
00000000
00000010
00000100
00000010
00000000
,
00000100
00000000
00000010
00000000
00000001
00001000
00000001
00000000
,
00001000
00001000
00000010
00000010
,
00010000
00001000
00010000
00001000
00010000
00001000
00010000
00000000
,
00002000
00000000
00000000
00000000
,
00000000
00000000
00000000
00000000
,
00000000
00000000
00000000
00000000
,
00000000
00000000
00000000
00000000
,
01003000
00000000
01000000
00000000
00010000
10000000
00000000
01000000
,
00000000
00100000
00000000
00010000
00100000
00001000
00020000
00000000
,
00030100
00000000
00000100
00000000
00001000
00000001
00000000
00000100
,
00000000
00000010
00000000
00010000
00000010
00010000
00002000
00000000
,
00103000
00000000
00100000
00000000
01000000
10000000
00000000
00010000
,
00000000
00010000
00000000
00010000
01000000
00001000
00020000
00000000
,
00030010
00000000
00000010
00000000
00000100
00000001
00000000
00001000
,
00000000
00001000
00000000
00001000
00000100
00010000
00001000
01000000
,
00200000
00000000
20300000
00000000
30010000
00100000
00000000
00100000
,
00000000
00001000
00010000
00000000
00001000
00010000
00001000
00000000
,
00000020
00000000
00000032
00000000
00001003
00000010
00000000
00000010
,
00000000
00010000
00001000
00000000
00010000
00001000
00010000
00000000
,
02000000
00000000
23000000
00000000
30010000
01000000
00000000
01000000
,
00000000
00001000
00010000
00000000
00001000
00010000
00001000
00000000
,
00000200
00000000
00000302
00000000
00001003
00000100
00000000
00000100
,
00000000
00010000
00001000
00000000
00010000
00001000
00100000
00001000
,
00010000
00010000
00001000
00001000
,
00100000
00000000
00100000
00000000
00100000
01000000
00100000
00000000
,
01000000
01000000
00100000
00100000
,
00001000
00000000
00001000
00000000
00010000
00001000
00010000
00000000
,
00001000
00010000
00001000
00010000
,
00001000
00000100
00001000
00000100
,
00000010
00000100
00000010
00000200
,
00000000
00000000
00000000
00000300
,
00001001
00000000
00000000
00000000
00000000
00000001
00000100
00000001
,
00000100
00000000
00000000
00000000
00000000
00000010
00001000
00000010
,
00001000
00000000
00000000
00000000
00000000
00010000
01000000
00010000
,
01000000
00000000
00000000
00000000
00000000
00100000
10000000
00100000
,
10000000
10010000
00010000
00110000
,
00100000
00001000
00100000
00001000
00010000
00001000
00010000
00000000
,
00000100
00010000
00000000
00010000
00000100
00001000
00000100
00000000
,
00000010
00000100
00000000
00000100
00000010
00000001
00001000
00000000
,
00000002
00000000
00001003
00000010
00010000
00000010
00001000
00000010
,
00010000
00001000
00010000
00001000
00100000
00010000
00100000
00000000
,
01000000
10000000
01000000
20000000
00000000
30010000
01000000
00000000
,
00001000
00010000
00001000
00020000
00000000
00000000
00000000
00000000
,
00031000
00000000
00010000
00000010
00001000
00000010
00010000
00000000
,
00001000
00000010
00001000
00000010
00000100
00000010
00000100
00000000
,
00001000
00000001
00001000
00000002
00000000
00000203
00000000
00000320
,
00000000
00020030
00000000
00031000
00000000
00010000
00001000
00010000
,
00000000
00000000
00001000
00100000
00010000
00100000
00001000
00100000
,
00020000
00000000
20030000
00000000
30100000
01000000
00010000
00000000
,
10000000
01000000
00100000
00010000
00000000
00010000
00100000
00000000
,
00001000
00010000
00000010
00001000
00000000
00001000
00000001
00000000
,
00001002
00000000
00002003
00000000
,
00023000
00000000
20030000
00000000
,
30020000
10000000
10000000
10030000
,
02000000
00000000
00200000
03300000
,
10010000
00000000
10000000
00000000
01000000
00020000
00000000
00032000
,
00000000
00103000
00010000
00001000
00000100
00000010
00000100
00000000
,
00001000
00000000
00000001
00000000
00000100
00002000
00000000
00023000
,
00000000
00030010
00001000
00010000
01000000
00100000
01000000
00000000
,
00010000
00000000
10000000
00000000
00100000
00020000
00000000
00032000
,
00000000
01003000
00010000
00001000
00000010
00000100
00000010
00000000
,
00001000
00000000
00000001
00000000
00000010
00002000
00000000
00023000
,
00000000
00000000
00000000
00000000
00030100
00000000
00000000
00000000
00001000
00000000
00000000
00000000
00010000
00000000
00000000
00000000
00200000
00000000
00000000
00300000
02000000
00000000
00000000
03000000
00200000
00000000
00000000
00300000
02000000
00000000
00000000
03000000
,
10000000
00000000
00010000
00000000
01000000
00200000
00000000
00320000
,
00000000
00031000
00100000
00010000
00001000
00000100
00001000
00010000
,
00200000
00000000
00302000
00000000
00023000
00000000
00030010
00000100
,
00000001
00000100
00000010
00002000
00000000
00003002
00000000
00000000
,
00001003
00000100
00000010
00001000
00010000
01000000
00100000
00000000
,
00010000
10000000
00100000
01000000
00001000
01000000
00010000
00000000
,
10000000
01000000
00100000
00010000
00001000
00000100
00000010
00000001
,
00001000
00000010
00000100
00001000
00010000
00100000
00010000
00001000
,
00020000
00000000
00000000
00000000
,
00000000
00000000
00000000
00000000
,
00000000
00000000
00000000
00000000
,
00000000
00000000
00000000
00000000
,
00030000
00000000
00000000
00000000
;

//---------------dance-single - ----------------
#NOTEDATA:;
#CHARTNAME:;
#STEPSTYPE:dance-single;
#DESCRIPTION:;
#CHARTSTYLE:;
#DIFFICULTY:Easy;
#METER:8;
#RADARVALUES:0.300923,0.470497,0.016266,0.065064,0.000000,259.000000,257.000000,2.000000,8.000000,0.000000,0.000000,0.000000,0.000000,0.000000,0.300923,0.470497,0.016266,0.065064,0.000000,259.000000,257.000000,2.000000,8.000000,0.000000,0.000000,0.000000,0.000000,0.000000;
#CREDIT:Kekkle;
#DISPLAYBPM:92.000000:184.000000;
#NOTES:
// measure 0
0000
0000
0000
0000
,  // measure 1
0000
0000
0000
0000
,  // measure 2
0000
0000
0000
0000
,  // measure 3
0000
0000
0000
0000
,  // measure 4
0000
0000
0000
0000
,  // measure 5
1000
0000
0000
0000
,  // measure 6
0000
0000
0000
0000
,  // measure 7
0001
0000
0000
0000
,  // measure 8
1000
0000
0000
0001
0000
0000
1000
0000
,  // measure 9
0010
0000
0100
0000
,  // measure 10
0010
0000
0100
0010
,  // measure 11
0100
0000
0001
0000
,  // measure 12
1000
0000
0001
1000
,  // measure 13
0001
0001
0001
0000
,  // measure 14
1000
1000
1000
0000
,  // measure 15
0010
0100
0010
0100
,  // measure 16
0001
0000
1000
0000
0001
1000
0001
0000
,  // measure 17
1000
0000
0000
0000
,  // measure 18
0000
0000
0000
0000
,  // measure 19
0000
0000
0000
0000
,  // measure 20
0000
0000
0000
0000
,  // measure 21
0001
0001
0100
0000
,  // measure 22
0010
0000
0010
0000
0100
0010
0100
0000
,  // measure 23
0010
0010
1000
0000
,  // measure 24
0001
0000
0001
0000
0010
0100
0010
0000
,  // measure 25
0100
0100
0010
0000
,  // measure 26
0001
0000
0001
0000
1000
0001
1000
0000
,  // measure 27
0100
0100
0010
0000
,  // measure 28
0001
0000
0001
0000
1000
0001
1000
0000
,  // measure 29
0001
0001
0100
0010
,  // measure 30
1000
1000
0010
0010
,  // measure 31
1000
1000
0100
0010
,  // measure 32
0001
0001
0010
0010
,  // measure 33
0001
0001
0010
0100
,  // measure 34
0001
0001
0100
0100
,  // measure 35
1000
1000
0010
0100
,  // measure 36
1000
1000
0100
0100
,  // measure 37
0002
0000
1000
0000
,  // measure 38
1000
0000
1003
0000
,  // measure 39
2000
0000
0001
0000
,  // measure 40
0001
0000
3001
0000
,  // measure 41
0001
0001
0001
0000
,  // measure 42
1000
1000
1000
0000
,  // measure 43
0010
0010
0010
0000
,  // measure 44
0000
0000
0000
0000
,  // measure 45
1001
0000
0000
0001
,  // measure 46
0001
0000
0000
1000
,  // measure 47
1000
0000
0000
0010
,  // measure 48
0010
0000
0000
0100
,  // measure 49
0100
0010
0100
0000
,  // measure 50
0001
1000
0001
1000
,  // measure 51
0100
0000
0100
0000
0010
0100
0010
0000
,  // measure 52
0001
0100
0010
1000
,  // measure 53
0000
0000
0001
0001
,  // measure 54
1000
0000
0010
0000
0100
0010
1000
0000
,  // measure 55
0010
0100
1000
0100
,  // measure 56
0001
0001
0002
0000
,  // measure 57
0003
1000
1000
1000
,  // measure 58
0010
0000
0100
0001
0000
0100
0010
0000
,  // measure 59
0100
0001
0010
0100
,  // measure 60
0001
0000
0100
0000
1000
0000
0001
0100
,  // measure 61
0010
1000
1000
1000
,  // measure 62
0001
0000
0010
0000
0100
0010
0100
0000
,  // measure 63
0010
0001
0200
0000
,  // measure 64
0310
1000
0200
0000
,  // measure 65
0310
0000
0001
0000
,  // measure 66
0100
0000
1000
0000
,  // measure 67
0020
0000
0000
0000
,  // measure 68
0130
0000
0100
0000
,  // measure 69
1001
0000
0001
0000
0100
0000
0000
0010
,  // measure 70
0000
1000
0000
0010
1000
0000
1000
0000
,  // measure 71
0010
0000
1000
0000
0100
0000
0000
0010
,  // measure 72
0000
0001
0000
0010
0001
0000
0001
0000
,  // measure 73
0100
0000
0001
0000
0010
0000
0000
0100
,  // measure 74
0000
0001
0000
0100
0010
0000
0010
0000
,  // measure 75
0100
0000
1000
0000
0010
0000
0000
0100
,  // measure 76
0000
1000
0000
0100
0020
0000
0000
0000
,  // measure 77
0030
0000
1000
0000
0010
0000
0000
0100
,  // measure 78
0000
1000
0000
0100
0010
0000
1000
0000
,  // measure 79
0100
0010
0001
0100
,  // measure 80
0010
0100
0010
0100
0000
0010
0000
0000
,  // measure 81
1000
1000
0001
0001
,  // measure 82
0010
0010
0100
0100
,  // measure 83
0010
0100
0010
0000
0100
0010
0100
0000
,  // measure 84
1000
0000
0001
0000
1000
0001
1000
0001
,  // measure 85
2000
0000
0000
0000
,  // measure 86
0000
0000
0000
0000
,  // measure 87
0000
0000
0000
0000
,  // measure 88
0000
0000
0000
0000
,  // measure 89
3000
0000
0000
0000
;

//---------------dance-double - ----------------
#NOTEDATA:;
#CHARTNAME:;
#STEPSTYPE:dance-double;
#DESCRIPTION:;
#CHARTSTYLE:;
#DIFFICULTY:Easy;
#METER:8;
#RADARVALUES:0.304409,0.434305,0.048798,0.065064,0.000000,262.000000,256.000000,6.000000,8.000000,0.000000,0.000000,0.000000,0.000000,0.000000,0.304409,0.434305,0.048798,0.065064,0.000000,262.000000,256.000000,6.000000,8.000000,0.000000,0.000000,0.000000,0.000000,0.000000;
#CREDIT:Kekkle;
#DISPLAYBPM:92.000000:184.000000;
#NOTES:
00000000
00000000
00000000
00000000
,
00000000
00000000
00000000
00000000
,
00000000
00000000
00000000
00000000
,
00000000
00000000
00000000
00000000
,
00000000
00000000
00000000
00000000
,
00010000
00000000
00000000
00000000
,
00000000
00000000
00000000
00000000
,
00010000
00000000
00000000
00000000
,
00001000
00000000
00000000
00001000
00000000
00000000
00001000
00000000
,
00010000
00001000
00010000
00000000
,
00100000
01000000
00100000
00010000
,
00001000
00010000
00001000
00000000
,
00000010
00000100
00000010
00001000
,
00010000
00010000
00100000
00100000
,
01000000
01000000
00010000
00010000
,
10000000
01000000
00001000
00000100
,
00000010
00000100
00001000
00000000
,
00001001
00000000
00000000
00000000
,
00000000
00000000
00000000
00000000
,
00000000
00000000
00000000
00000000
,
00000000
00000000
00000000
00000000
,
00000001
00001000
00000001
00000000
,
00000100
00001000
01000000
00010000
,
10000000
00010000
10000000
00000000
,
01000000
00001000
00000100
00000010
,
00000001
00001000
00000001
00000000
,
00000010
00001000
00100000
00010000
,
10000000
00010000
10000000
00000000
,
00100000
00001000
00000010
00000100
,
00000001
00000001
00000010
00000010
,
00001000
00010000
01000000
10010000
,
10000000
10000000
00100000
00100000
,
00010000
00001000
00000100
00001001
,
00000001
00000001
00000100
00000100
,
00001000
00010000
00100000
10010000
,
10000000
10000000
01000000
01000000
,
00010000
00001000
00000010
00001001
,
00000001
00001000
00000001
00000000
,
00001000
00010000
00001000
00000000
,
00010000
10000000
00010000
00000000
,
00001000
00010000
00001000
00000000
,
00000001
00000000
00000001
00000000
,
00001000
00000000
00001000
00000000
,
00000100
00000000
00000100
00000000
,
00000000
00000000
00000000
00000000
,
00011000
00000000
00000000
00010000
,
00010000
00000000
00000000
00001000
,
00001000
00000000
00000000
01000000
,
01000000
00000000
00000000
00010000
,
00010000
00010000
10000000
10000000
,
00010000
00000000
00100000
00000000
00001000
00010000
00001000
00000000
,
00010000
00000100
00000010
00000001
,
00001000
00000010
00000100
00001000
,
00000000
00000000
00001000
01000000
,
00100000
00010000
00001000
00010000
,
00100000
00000000
00000000
00100000
00000000
00000000
10000000
00000000
,
00010000
00000000
00000000
00020000
00000000
00000000
00000000
00000000
,
00030000
10000000
00010000
00100000
,
01000000
00000000
00010000
00001000
00000000
00010000
00001000
00000000
,
00000010
00000001
00000100
00001000
,
00010000
00000000
00000010
00000000
00010000
00001000
00010000
00000000
,
00000000
00001000
01000000
00100000
,
00010000
00010000
00010000
00010000
,
00001000
00000100
00000020
00000000
,
00010030
00100000
02000000
00000000
,
03001000
00000000
00000100
00000000
,
00000001
00000000
00000010
00000000
,
00002000
00000000
00000000
00000000
,
00023000
00000000
00032000
00000000
,
01003000
00100000
00010000
00000010
,
00001000
00000000
00000001
00000000
00000010
00000100
00000010
00000000
,
00000100
00000010
00001000
00100000
,
00010000
00000000
10000000
00000000
00100000
01000000
00100000
00000000
,
10000000
01000000
00001000
00010000
,
00100000
00000000
00001000
00000000
00010000
00000100
00001000
00000000
,
00000001
00000100
00010000
00001000
,
00000010
00010000
00002000
00000000
,
00003000
00010000
00001000
00000100
,
00010000
00001000
00000010
00010000
,
00001000
00100000
01000000
10000000
,
00010000
10000000
00010000
10000000
00000000
00010000
00000000
00000000
,
10000000
01000000
00010000
00001000
,
00000100
00000001
00000100
00001000
,
00010000
00001000
00010000
00000000
00001000
00010000
00001000
00000000
,
00010000
00000000
00100000
10000000
01000000
00000000
00010000
00000000
,
00002000
00000000
00000000
00000000
,
00000000
00000000
00000000
00000000
,
00000000
00000000
00000000
00000000
,
00000000
00000000
00000000
00000000
,
00003000
00000000
00000000
00000000
;

//---------------dance-single - ----------------
#NOTEDATA:;
#CHARTNAME:;
#STEPSTYPE:dance-single;
#DESCRIPTION:;
#CHARTSTYLE:;
#DIFFICULTY:Beginner;
#METER:5;
#RADARVALUES:0.190546,0.289537,0.016266,0.032532,0.000000,164.000000,162.000000,2.000000,4.000000,0.000000,0.000000,0.000000,0.000000,0.000000,0.190546,0.289537,0.016266,0.032532,0.000000,164.000000,162.000000,2.000000,4.000000,0.000000,0.000000,0.000000,0.000000,0.000000;
#CREDIT:Kekkle;
#DISPLAYBPM:92.000000:184.000000;
#NOTES:
0000
0000
0000
0000
,
0000
0000
0000
0000
,
0000
0000
0000
0000
,
0000
0000
0000
0000
,
0000
0000
0000
0000
,
1000
0000
0000
0000
,
0000
0000
0000
0000
,
1000
0000
0000
0000
,
1000
0000
1000
0000
,
0001
0000
0100
0000
,
0010
0000
0010
0000
,
1000
0000
0100
0000
,
0010
0000
0010
0000
,
0001
0000
0001
0000
,
1000
0000
1000
0000
,
0010
0000
0100
0000
,
0010
0100
0010
0000
,
1001
0000
0000
0000
,
0000
0000
0000
0000
,
0000
0000
0000
0000
,
0000
0000
0000
0000
,
0001
0000
1000
0000
,
0010
0000
0100
0010
,
0100
0000
0001
0000
,
1000
0000
0100
0010
,
0100
0000
0010
0000
,
0001
0000
1000
0001
,
1000
0000
0010
0000
,
0100
0000
0001
1000
,
0001
0000
0001
0000
,
0010
0000
0100
0100
,
0010
0000
0100
0000
,
1000
0000
0001
0001
,
1000
0000
0001
0000
,
0100
0000
0010
0010
,
0100
0000
0001
0000
,
1000
0000
0100
0100
,
0010
0000
0010
0000
,
0010
0000
0001
0000
,
0100
0000
0100
0000
,
0100
0000
0010
0000
,
1000
0000
1000
0000
,
1000
0000
0100
0000
,
0010
0000
0010
0000
,
0000
0000
0000
0000
,
0001
0000
0000
0000
,
0001
0000
0000
0000
,
1000
0000
0000
0000
,
1000
0000
0000
0000
,
0001
0000
0001
0000
,
0001
0000
0001
0000
,
0100
0000
0010
0000
,
1000
0001
1000
0000
,
0000
0000
0001
0000
,
1000
1000
0001
0000
,
0100
0000
0010
0000
,
0100
0010
0100
0000
,
0010
0000
0100
0000
,
0001
0001
1000
0000
,
0001
0000
0010
0000
,
1000
0000
0010
0000
,
0001
0000
1000
0000
,
0010
0100
0010
0100
,
0010
0000
1000
0000
,
0001
0000
0010
0000
,
0200
0000
0300
0000
,
0020
0000
0030
0000
,
0002
0000
0000
0000
,
0003
0000
0001
0000
,
1001
0000
1000
0000
,
0010
0000
0100
0100
,
0010
0000
1000
0000
,
0001
0000
0010
0100
,
0010
0000
0001
0000
,
1000
0000
0001
0001
,
1000
0000
0001
0000
,
0100
0000
0000
0000
,
0000
0000
0010
0000
,
1000
0000
0010
0010
,
0100
0000
0001
1000
,
0001
0000
1000
0000
,
0001
0001
0001
0000
,
1000
1000
1000
0000
,
0001
1000
0001
0000
,
0100
0010
0100
0010
,
0200
0000
0000
0000
,
0000
0000
0000
0000
,
0000
0000
0000
0000
,
0000
0000
0000
0000
,
0300
0000
0000
0000
;
