#VERSION:0.83;
#TITLE:Noctilucence;
#SUBTITLE:;
#ARTIST:Drisello;
#TITLETRANSLIT:;
#SUBTITLETRANSLIT:;
#ARTISTTRANSLIT:;
#GENRE:;
#ORIGIN:;
#CREDIT:;
#BANNER:Noctilucence.png;
#BACKGROUND:Noctilucence-bg.png;
#PREVIEWVID:;
#JACKET:Noctilucence-jacket.png;
#CDIMAGE:;
#DISCIMAGE:;
#LYRICSPATH:;
#CDTITLE:;
#MUSIC:Noctilucence.ogg;
#OFFSET:-1.318681;
#SAMPLESTART:85.714287;
#SAMPLELENGTH:15.000000;
#SELECTABLE:YES;
#BPMS:0.000=182.000;
#STOPS:;
#DELAYS:;
#WARPS:;
#TIMESIGNATURES:0.000=4=4;
#TICKCOUNTS:0.000=4;
#COMBOS:0.000=1;
#SPEEDS:0.000=1.000=0.000=0;
#SCROLLS:0.000=1.000;
#FAKES:;
#LABELS:0.000=Song Start;
#BGCHANGES:;
#KEYSOUNDS:;
#ATTACKS:
;

//---------------dance-single - ----------------
#NOTEDATA:;
#CHARTNAME:;
#STEPSTYPE:dance-single;
#DESCRIPTION:;
#CHARTSTYLE:;
#DIFFICULTY:Hard;
#METER:17;
#RADARVALUES:0.775330,1.081744,0.000000,0.327125,0.817813,730.000000,730.000000,0.000000,44.000000,0.000000,0.000000,0.000000,0.000000,0.000000,0.775330,1.081744,0.000000,0.327125,0.817813,730.000000,730.000000,0.000000,44.000000,0.000000,0.000000,0.000000,0.000000,0.000000;
#CREDIT:Kekkle;
#NOTES:
0000
0000
0000
0000
,
0000
0000
0000
0000
,
0000
0000
0000
0000
,
0000
0000
0000
0000
,
0000
0000
0000
0000
,
0001
0100
0010
0100
0001
2000
0000
0000
,
3100
0010
0001
1000
0010
0100
0010
0000
,
1000
0001
0010
0100
1000
0020
0000
0000
,
0130
0001
0100
1000
0100
0010
1000
0001
,
0010
0010
1000
1000
,
0010
0010
0001
0001
,
1000
1000
0010
0010
,
0100
0100
0001
0001
,
1000
0000
0100
0000
0010
0000
0001
0010
0001
0000
1000
0000
0010
0000
0100
0000
,
0001
0000
1000
0000
0100
1000
0100
0000
0010
0000
0001
0010
0001
0000
1000
0000
,
0010
1000
0010
1000
0001
0010
0001
0010
0100
1000
0100
1000
0001
0100
0010
0200
,
0020
0000
0000
0330
,
0010
0000
1000
0010
0000
0000
0100
0000
0010
0000
1000
0010
0000
0000
0100
0000
,
0010
0000
1000
0010
0000
0000
0100
0000
0010
0000
1000
0010
0000
0000
0100
0000
,
0001
0000
0010
0100
0000
0000
0010
0000
0001
0000
0010
0100
0000
0000
0010
0000
,
0001
0000
0010
0100
0000
0000
0010
0000
0001
0000
0010
0100
0000
0000
1000
0000
,
0001
0000
1000
0010
1000
0000
0010
0000
0100
0000
0001
1000
0001
1000
0001
0000
,
0010
0000
0100
1000
0100
0000
1000
0000
0001
0000
0100
0010
0100
0010
0100
0000
,
0010
0000
1000
0010
1000
0000
0001
0000
0010
0000
0100
1000
0100
1000
0100
0000
,
0010
0000
0001
1000
0001
0000
0100
0000
0010
0000
1000
0000
0200
0000
0320
0000
,
0032
0000
0000
0013
0100
1000
0001
0000
2000
0000
0000
3010
0100
0001
1000
0000
,
0002
0000
0000
0013
0100
1000
0001
0000
2000
0000
0000
3010
0100
0010
0100
0010
,
2000
0000
0000
3100
0010
0001
1000
0000
0002
0000
0000
0103
0010
1000
0001
0000
,
2000
0000
0000
3100
0010
0001
1000
0000
0001
0000
0100
0010
0100
0010
0100
0010
,
2000
0000
0000
3001
0010
0100
0010
0000
0002
0000
0000
1003
0010
0100
0010
0000
,
2000
0000
0000
3001
0010
0100
0010
0000
0001
0000
1000
0010
1000
0010
0100
0001
,
0200
0000
0000
0310
1000
0010
0100
0000
0002
0000
0000
0013
0100
1000
0100
0000
,
0010
0001
0010
0001
1000
0010
1000
0010
0100
0001
0100
0010
1000
0001
1000
0001
,
0010
0000
0100
1000
0100
1000
0100
0000
1000
0000
0001
0100
0001
0100
0010
1000
,
0001
0010
0001
0000
1000
0010
0000
0100
0001
0000
1000
0100
1000
0000
0001
0000
,
0100
0010
0100
0000
0010
1000
0000
0001
0010
0001
0010
0100
1000
0000
0001
0000
,
1000
0010
1000
0000
0010
0100
0000
0001
1000
0100
1000
0000
0001
0100
0001
0000
,
1000
0100
1000
0000
0100
0010
0000
0001
1000
0000
0010
1000
0010
1000
0001
0000
,
0010
0001
0010
0000
0001
1000
0001
0000
1000
0010
1000
0000
0010
0100
0010
0000
,
1000
0001
1000
0000
0001
0010
0000
0001
1000
0000
0010
0100
0000
0100
0001
0000
,
1000
0010
1000
0000
0010
0100
0010
0100
0001
1000
0001
0000
0010
0001
0010
0000
,
0001
1000
0010
0001
0010
0100
0001
1000
,
0100
0001
1000
0001
0100
1000
0010
0100
,
1000
0001
0010
0100
0001
1000
0100
0010
,
0100
0001
0100
1000
0010
0100
0001
1000
,
0100
0001
0100
0010
0001
1000
0010
0100
,
0001
0002
1000
2003
0100
3200
0010
0320
,
0031
1000
0010
0100
1000
0001
1000
0100
,
0001
1000
0100
0010
0001
0100
1000
0100
,
0002
0000
1003
0100
0020
0000
0000
0000
,
0000
0031
1000
0010
,
0100
0000
0001
2000
0000
0000
0000
0000
,
0000
0000
0000
0000
0000
0000
3100
0010
,
0002
0000
0000
1000
,
0203
0000
0001
0000
,
0320
0000
0000
0000
,
0000
0000
0000
0000
0000
0000
0000
1030
,
0001
0001
0010
0010
,
0100
0100
1000
1000
,
0001
0001
0100
0100
,
1000
1000
0100
0100
,
0001
0000
0100
0000
0010
0000
1000
0010
1000
0000
0010
0000
0100
0000
0001
0000
,
1000
0000
0100
0000
0010
0100
0010
0000
0100
0000
1000
0001
1000
0000
0001
0000
,
0100
0001
0100
0001
1000
0100
1000
0100
0010
0001
1000
0001
1000
0010
0100
0001
,
0200
0000
0000
0000
0310
0100
0100
0000
,
0001
0000
1000
0001
1000
0001
1000
0000
0010
0000
0100
0001
0100
0001
0100
0010
,
1000
0001
1000
0000
0001
1000
0000
0100
1000
0000
0100
0010
0100
0000
1000
0000
,
0001
0100
0010
0000
1000
0010
0000
1000
0100
0010
0100
0010
0001
0000
1000
0010
,
0100
0010
0100
0000
0001
0100
0000
0010
0100
0001
0100
0000
0010
1000
0010
0000
,
1000
0100
1000
0000
0100
0010
0000
0100
1000
0000
0001
0100
0001
0100
0010
0000
,
1000
0100
1000
0000
0001
1000
0001
0000
0010
0001
0010
0000
0100
0010
0100
0000
,
1000
0100
1000
0000
0001
0100
0000
0010
1000
0000
0001
0010
0000
0010
0100
0000
,
1000
0100
1000
0000
0001
0100
0010
0100
0010
1000
0010
0000
1000
0001
1000
0001
,
0010
0100
0010
0000
0001
1000
0000
0010
1000
0010
0000
1000
0001
1000
0000
0001
,
0010
0100
0010
0001
0000
0001
1000
0000
0010
0100
0001
0100
0000
0100
0010
0000
,
1000
0010
0100
0000
0001
0100
0000
0010
1000
0001
1000
0001
1000
0100
0000
0010
,
0001
0010
0100
0000
1000
0001
0000
0010
0001
1000
0001
0000
1000
0010
0000
0100
,
0001
0100
0001
0000
1000
0100
0000
0010
0001
1000
0001
0000
1000
0010
0000
0100
,
0001
1000
0000
0100
1000
0001
0000
0010
0001
1000
0000
0010
1000
0001
0000
0100
,
0001
0100
0010
0000
1000
0001
0000
0010
0100
0010
0100
0010
0100
1000
0000
0001
,
0100
0010
0000
1000
0001
1000
0100
0010
0100
0010
0000
0001
1000
0010
1000
0010
,
2000
0000
3001
0000
,
0020
0000
1000
0000
0031
0000
1000
0010
,
0200
0000
0301
0000
,
2000
0000
0100
0000
3001
0000
0020
0031
,
0200
0000
0310
0000
,
0200
0000
1000
0000
0301
0000
0010
0100
,
1000
0100
0001
0100
1000
0010
0100
0001
,
1000
0100
1000
0100
0010
0001
1000
0001
1000
0010
0100
0001
0100
0001
1000
0100
,
2000
0000
0000
0000
,
3002
0000
0000
0000
,
0203
0000
1000
0000
,
0320
0000
0000
0000
,
2030
0000
0000
0000
,
3002
0000
0000
0000
,
0023
0000
1000
0000
,
0002
0000
0000
0000
,
0033
0000
0000
0000
;

//---------------dance-double - ----------------
#NOTEDATA:;
#CHARTNAME:;
#STEPSTYPE:dance-double;
#DESCRIPTION:;
#CHARTSTYLE:;
#DIFFICULTY:Hard;
#METER:17;
#RADARVALUES:0.759398,1.045686,0.000000,0.356864,0.780640,715.000000,715.000000,0.000000,48.000000,0.000000,0.000000,0.000000,0.000000,0.000000,0.759398,1.045686,0.000000,0.356864,0.780640,715.000000,715.000000,0.000000,48.000000,0.000000,0.000000,0.000000,0.000000,0.000000;
#CREDIT:Kekkle;
#NOTES:
00000000
00000000
00000000
00000000
,
00000000
00000000
00000000
00000000
,
00000000
00000000
00000000
00000000
,
00000000
00000000
00000000
00000000
,
00000000
00000000
00000000
00000000
,
10000000
00100000
01000000
00010000
01000000
00002000
00000000
00000000
,
00013000
00000100
00000010
00000000
00000100
00001000
00000001
00000000
,
00000100
00000010
00001000
00000001
00000010
00000200
00000000
00000000
,
00000310
00000001
00001000
00000000
00000100
00010000
00001000
01000000
,
00010000
00010000
10000000
10000000
,
00010000
00010000
00001000
00001000
,
00000001
00000001
00001000
00001000
,
00000100
00000100
00010000
00010000
,
00001000
00000000
01000000
00000000
00010000
00000000
00100000
00010000
00100000
00000000
01000000
00000000
00100000
00000000
00010000
00000000
,
10000000
00000000
00100000
00000000
01000000
00010000
01000000
00000000
00001000
00000000
00010000
00001000
00010000
00000000
00000100
00000000
,
00001000
00000100
00001000
00000100
00000010
00000001
00001000
00000001
00001000
00000100
00010000
00000100
00010000
00001000
00010000
00002000
,
00020000
00000000
00000000
00033000
,
00001000
00000000
01000000
00010000
00000000
00000000
01000000
00000000
00001000
00000000
00010000
01000000
00000000
00000000
00010000
00000000
,
00001000
00000000
01000000
00010000
00000000
00000000
01000000
00000000
00001000
00000000
00010000
01000000
00000000
00000000
00010000
00000000
,
00010000
00000000
00000010
00001000
00000000
00000000
00000010
00000000
00010000
00000000
00001000
00000010
00000000
00000000
00001000
00000000
,
00010000
00000000
00000010
00001000
00000000
00000000
00000010
00000000
00010000
00000000
00001000
00000010
00000000
00000000
00001000
00000000
,
00010000
00000000
01000000
00000000
00100000
00000000
00010000
00000000
10000000
00000000
00100000
10000000
00100000
10000000
00100000
00000000
,
01000000
00000000
00001000
00000000
00010000
00000000
00000100
00000000
00010000
00000000
00001000
00010000
00001000
00010000
00001000
00000000
,
00000100
00000000
00000010
00000000
00001000
00000000
00000001
00000000
00000010
00000000
00000001
00000010
00000001
00000010
00000001
00000000
,
00001000
00000010
00010000
00000100
00001000
00000010
00002000
00003200
,
00020300
00000000
00000000
00031000
01000000
00010000
01000000
00000000
00002000
00000000
00000000
00013000
00000100
00001000
00000100
00000000
,
00020000
00000000
00000000
00031000
01000000
00010000
01000000
00000000
00002000
00000000
00000000
00013000
00000010
00001000
00000010
00001000
,
00000020
00000000
00000000
00001030
00000010
00010000
00001000
00000000
00200000
00000000
00000000
00310000
00100000
00001000
00010000
00000000
,
00000020
00000000
00000000
00001030
00000010
00010000
00001000
00000000
00100000
00000000
00010000
10000000
00010000
10000000
00010000
00000000
,
02000000
00000000
00000000
03010000
10000000
00010000
01000000
00000000
00002000
00000000
00000000
00013000
00000010
00000100
00000010
00000000
,
00000200
00000000
00000000
00000301
00001000
00000100
00000010
00000000
00000100
00000000
00010000
00000100
00010000
00000100
00010000
00000000
,
00002000
00000000
00000000
01003000
00010000
01000000
00100000
00000000
20000000
00000000
00000000
30010000
00100000
01000000
00100000
00000000
,
00001000
00010000
00001000
00010000
00000010
00001000
00000010
00001000
00000100
00000010
00000100
00000010
00000001
00001000
00000001
00001000
,
00000010
00000000
00001000
00000100
00001000
00000100
00001000
00000000
00000100
00000000
00010000
00001000
00010000
00001000
01000000
00000000
,
00010000
01000000
00010000
00000000
01000000
00100000
00000000
10000000
00100000
00000000
10000000
01000000
10000000
00000000
01000000
00000000
,
00100000
00010000
00100000
00000000
00001000
00010000
00000000
00000010
00001000
00000010
00001000
00000010
00000100
00000000
00000001
00000000
,
00001000
00000100
00001000
00000000
00000100
00000010
00000000
00000100
00010000
00000100
00001000
00000000
00000100
00010000
00001000
00000000
,
01000000
00010000
01000000
00000000
00100000
10000000
00000000
00100000
01000000
00000000
00010000
00100000
00001000
00000000
00010000
00000000
,
00000010
00001000
00000010
00000000
00010000
00001000
00010000
00000000
00001000
01000000
00001000
00000000
00010000
00001000
00010000
00000000
,
00000100
00001000
00000100
00000000
00000010
00000001
00000000
00001000
00000010
00000000
00000100
00001000
00000000
00001000
00010000
00000000
,
00100000
01000000
00100000
00000000
10000000
00010000
00000000
00100000
01000000
00100000
00001000
00000000
00010000
00001000
00010000
00000000
,
00000010
00001000
00000010
00000100
00000001
00001000
00000100
00000001
,
00000100
00001000
00010000
00100000
01000000
00100000
00010000
10000000
,
00100000
00010000
00100000
01000000
00001000
00010000
01000000
00010000
,
00001000
00000010
00000001
00001000
00000010
00000100
00001000
00010000
,
00001000
00000100
00000010
00010000
00001000
00010000
01000000
00100000
,
00010000
00020000
00001000
00032000
00000001
00003002
00000010
00000023
,
00000130
00010000
00000010
00000100
00001000
00010000
00100000
01000000
,
00001000
00010000
01000000
10000000
01000000
00010000
00001000
00000010
,
00000002
00000000
00001003
00000010
00000200
00000000
00000000
00000000
,
00000000
00001300
01000000
00010000
,
00100000
00000000
01000000
20000000
00000000
00000000
00000000
00000000
,
00000000
00000000
00000000
00000000
00000000
00000000
30010000
01000000
,
00002000
00000000
00000000
00013000
,
00000020
00000000
00001000
00000000
,
00000230
00000000
00000000
00000000
,
00000000
00000000
00000000
00000000
00000000
00000000
00000000
00000301
,
00001000
00001000
00000100
00000100
,
00010000
00010000
01000000
01000000
,
10000000
10000000
00010000
00010000
,
00001000
00001000
00000010
00000010
,
00000100
00000000
00000001
00000000
00001000
00000000
00000100
00001000
00000100
00000000
00010000
00000000
00001000
00000000
00010000
00000000
,
00100000
00000000
01000000
00000000
00010000
01000000
00010000
00000000
10000000
00000000
01000000
10000000
01000000
00000000
00100000
00000000
,
00001000
00010000
00001000
00010000
00000100
00001000
00000100
00000010
00000001
00001000
00000001
00001000
00000010
00010000
00000010
00010000
,
00002000
00000000
00000000
00000000
00013000
00001000
00001000
00000000
,
01000000
00010000
01000000
00000000
00100000
10000000
00000000
00010000
00100000
00000000
01000000
00100000
01000000
00100000
00010000
00000000
,
01000000
00001000
01000000
00000000
00001000
00010000
00000000
00000010
00001000
00000000
00000010
00000100
00000010
00000000
00001000
00000000
,
00000001
00000010
00000001
00000000
00001000
00000010
00000000
00010000
00001000
00010000
00001000
01000000
00010000
00000000
00100000
01000000
,
00100000
00010000
10000000
00000000
00100000
10000000
00000000
00010000
00100000
00001000
00100000
00000000
00001000
00010000
00001000
00000000
,
00010000
00000010
00001000
00000000
00000100
00001000
00000000
00000001
00000100
00000000
00000010
00001000
00000001
00000010
00000001
00000000
,
00001000
00000010
00001000
00000000
00000010
00010000
00000010
00000000
00010000
00001000
00010000
00000000
00001000
00100000
00001000
00000000
,
01000000
00010000
01000000
00000000
00100000
10000000
00000000
01000000
00100000
00000000
00010000
01000000
00000000
01000000
00001000
00000000
,
00010000
00000100
00001000
00000000
00000010
00000100
00000001
00000100
00000001
00000100
00000010
00000000
00001000
00000001
00000010
00000000
,
00000100
00010000
00000100
00000000
00010000
00001000
00000000
01000000
00010000
01000000
00000000
00100000
10000000
00010000
00000000
00100000
,
00001000
00010000
00000010
00001000
00000000
00001000
00000100
00000000
00010000
00001000
00100000
00010000
00000000
00010000
01000000
00000000
,
00001000
00010000
00000010
00000000
00001000
00000001
00000000
00000010
00000001
00000010
00000001
00000010
00000001
00001000
00000000
00000010
,
00010000
00001000
00010000
00001000
01000000
00010000
00000000
01000000
00100000
10000000
00100000
10000000
00100000
01000000
00000000
00010000
,
10000000
01000000
10000000
00000000
00100000
01000000
00000000
00001000
00100000
00001000
00010000
00000000
00000100
00001000
00000000
00000010
,
00010000
00002000
00000000
00103000
00001000
00020000
00000000
00030100
00010000
00002000
00000000
01003000
00001000
00020000
00000000
00030010
,
00001000
00000010
00000100
00000000
00000001
00001000
00000000
00000100
00000010
00000001
00000010
00000001
00000010
00000100
00000000
00010000
,
00001000
00010000
00000000
00001000
01000000
00000000
00010000
00000000
10000000
01000000
00000000
10000000
00010000
00000000
00100000
00001000
,
00020000
00000000
00030010
00000000
,
00000200
00000000
00001000
00000000
00000301
00000000
00001000
00000100
,
00000020
00000000
00001030
00000000
,
00020000
00000000
01000000
00000000
00031000
00000000
02000000
03010000
,
20000000
00000000
30010000
00000000
,
00200000
00000000
01000000
00000000
00301000
00000000
00000000
00010000
,
00000010
00001000
00000010
00000100
00000001
00001000
00000100
00000010
,
00000100
00010000
00000100
00010000
00001000
00010000
00001000
01000000
00010000
01000000
00010000
10000000
01000000
10000000
01000000
00100000
,
00020000
00000000
00000000
00000000
,
02030000
00000000
00000000
00000000
,
03002000
00000000
00000100
00000000
,
00023000
00000000
00000000
00000000
,
00030020
00000000
00000000
00000000
,
00000230
00000000
00000000
00000000
,
00020300
00000000
00001000
00000000
,
02000000
00000000
00000000
00000000
,
03030000
00000000
00000000
00000000
;

//---------------dance-single - ----------------
#NOTEDATA:;
#CHARTNAME:;
#STEPSTYPE:dance-single;
#DESCRIPTION:;
#CHARTSTYLE:;
#DIFFICULTY:Medium;
#METER:14;
#RADARVALUES:0.555476,0.757221,0.000000,0.341995,0.275083,523.000000,523.000000,0.000000,46.000000,0.000000,0.000000,0.000000,0.000000,0.000000,0.555476,0.757221,0.000000,0.341995,0.275083,523.000000,523.000000,0.000000,46.000000,0.000000,0.000000,0.000000,0.000000,0.000000;
#CREDIT:Kekkle;
#NOTES:
0000
0000
0000
0000
,
0000
0000
0000
0000
,
0000
0000
0000
0000
,
0000
0000
0000
0000
,
0000
0000
0000
0000
,
1000
0000
0001
0000
0100
0010
0000
0000
,
1000
0000
0001
0000
0010
0100
0010
0000
,
0001
0000
0100
0000
0010
1000
0000
0000
,
0010
0000
0100
0000
0001
1000
0001
0000
,
0010
0010
0100
0100
,
0010
0010
0100
0100
,
1000
1000
0001
0001
,
1000
1000
0001
0001
,
0100
0010
1000
0001
0100
0010
1000
0001
,
0010
0100
1000
0001
0010
0100
1000
0001
,
0010
0000
0001
0010
0001
0000
1000
0010
1000
0000
0001
0000
1000
0001
1000
0001
,
2000
0000
0000
3000
,
0002
0100
2003
0010
,
3002
0100
2003
0010
,
3200
1000
0320
0001
,
0230
1000
0320
0001
,
0130
0000
1000
0000
0100
0000
0010
0000
0001
0000
1000
0000
0001
1000
0001
0000
,
0100
0000
0010
0000
1000
0000
0010
0000
0100
0000
0001
0000
0010
0001
0010
0000
,
0001
0000
1000
0000
0010
0000
0100
0000
0001
0000
0100
0000
0010
0100
0010
0000
,
1000
0010
0100
0010
1000
0001
2000
0000
,
3002
0000
0000
0000
1003
0010
1000
0000
0002
0000
0000
0000
1003
0100
1000
0000
,
0002
0000
0000
0000
1003
0010
1000
0000
0002
0000
0000
0000
1003
0000
0001
0000
,
2000
0000
0000
0000
3001
0010
0001
0000
2000
0000
0000
0000
3001
0100
0001
0000
,
2000
0000
0000
0000
3001
0010
0001
0000
2000
0000
0000
0000
3001
0000
0100
0000
,
0010
1000
0100
1000
0010
1000
0100
0010
,
0001
0100
0001
0010
0001
0100
0010
1000
,
0001
0010
0100
0010
0001
1000
0010
0100
,
0001
0100
0001
0000
1000
0100
1000
0000
0001
0010
0001
0000
1000
0010
1000
0000
,
0001
0000
0100
0000
0000
0010
0000
0000
1000
0000
0000
0000
0001
0000
0010
0000
,
0100
0000
1000
0000
0000
0100
0000
0000
0010
0000
0000
0000
0001
0000
0100
0000
,
0010
0000
1000
0000
0000
0100
0000
0000
1000
0000
0001
0100
0001
0000
1000
0000
,
0100
0000
0010
0000
0000
0100
0000
0000
0001
0000
0100
0000
1000
0000
0010
0000
,
0100
0000
0001
0000
0000
0100
0000
0000
1000
0000
0100
0000
0010
0000
0100
0000
,
0001
2000
0100
3100
1000
0002
0100
0103
,
0010
0000
1000
0000
0000
0100
0000
0000
1000
0000
0000
0001
0000
0000
0100
0000
,
0010
1000
0010
0000
1000
0000
0001
0000
0010
0001
0010
0000
0001
1000
0001
1000
,
0001
0100
0010
0100
1000
0100
0010
0000
,
0100
0001
1000
0100
0010
0001
0100
0010
,
0100
1000
0001
0010
0100
0001
1000
0000
,
0100
0001
0100
0010
0001
1000
0010
0100
,
0010
1000
0001
0010
0100
0010
0001
0000
,
1000
0002
0010
0013
0001
2000
0010
3010
,
0100
0000
0001
0000
0100
0000
1000
0000
0100
0000
0000
0010
0000
0000
0100
0000
,
0001
0010
1000
0010
0001
0100
1000
0100
,
0002
0000
0000
0000
,
2003
0000
0000
0000
,
3200
0000
0000
0000
,
0320
0000
0000
0000
,
0032
0000
0000
0000
,
0203
0000
0000
0000
,
0020
0000
0000
0000
,
0000
0000
0000
0330
,
0100
0100
0010
0010
,
0100
0100
0010
0010
,
1000
1000
0001
0001
,
1000
1000
0001
0001
,
1000
0100
0010
0001
1000
0100
0010
0001
,
1000
0010
0100
0001
1000
0010
0100
0001
,
1000
0000
0100
1000
0100
0000
1000
0001
1000
0000
0001
0000
0100
0010
0100
0010
,
0200
0000
0000
0310
,
1000
0000
0010
0000
0000
0100
0000
0000
0010
0000
1000
0000
0001
0000
0010
0000
,
0100
0000
0010
0000
0000
0001
0000
0000
1000
0000
0100
0000
0001
0000
0100
0000
,
1000
0010
0100
0001
0010
0100
0010
0001
,
0100
0010
0100
0001
1000
0100
1000
0000
,
0010
0000
1000
0000
0000
0001
0000
0000
0100
0000
0010
0000
0100
0000
0001
0000
,
1000
0200
0010
0310
0001
0200
0010
0310
,
1000
0000
0100
0000
0000
0001
0000
0000
0100
0000
0000
1000
0000
0000
0010
0000
,
0100
0000
0001
0000
0100
0001
0100
0000
0010
0000
1000
0000
0010
1000
0010
0000
,
1000
0000
0001
0000
0000
0010
0000
0000
0001
0010
0000
0000
0100
0000
0000
1000
,
0001
0000
0000
0001
0010
0000
0000
0100
1000
0000
0000
1000
0001
0000
0000
0100
,
0010
0000
1000
0000
0000
0001
0000
0010
0001
0010
0001
0000
1000
0010
0000
0000
,
0100
0001
0100
0000
0010
1000
0000
0000
0001
0010
0001
0000
0010
0100
0000
0000
,
1000
0000
0001
0000
0000
0100
0000
0000
0010
0000
0100
0000
0001
0000
0000
0010
,
0100
0000
0000
0100
1000
0000
0000
0001
0100
0000
0000
0100
0010
0000
0000
1000
,
0001
0000
0010
0000
0000
0100
0000
0010
0001
0000
1000
0000
0010
0000
0000
0000
,
0100
0001
0000
0100
0001
0000
0010
0000
0100
1000
0000
0100
1000
0000
0001
0000
,
0200
0000
0310
0000
,
2000
0001
3001
0000
,
0020
0000
0031
0000
,
0200
0000
0010
0000
0310
0000
1000
0001
,
2000
0000
3100
0000
,
0020
0001
0031
0000
,
1000
0001
0100
0000
0001
1000
0100
0000
,
1000
0100
1000
0000
0001
0100
0001
0000
1000
0001
1000
0001
1000
0001
1000
0001
,
2000
0000
0000
0000
,
3002
0000
0000
0000
,
0203
0000
0000
0000
,
0320
0000
0000
0000
,
2030
0000
0000
0000
,
3002
0000
0000
0000
,
0023
0000
0000
0000
,
0200
0000
0000
0000
,
0330
0000
0000
0000
;

//---------------dance-double - ----------------
#NOTEDATA:;
#CHARTNAME:;
#STEPSTYPE:dance-double;
#DESCRIPTION:;
#CHARTSTYLE:;
#DIFFICULTY:Medium;
#METER:14;
#RADARVALUES:0.535296,0.757221,0.000000,0.319691,0.260213,504.000000,504.000000,0.000000,43.000000,0.000000,0.000000,0.000000,0.000000,0.000000,0.535296,0.757221,0.000000,0.319691,0.260213,504.000000,504.000000,0.000000,43.000000,0.000000,0.000000,0.000000,0.000000,0.000000;
#CREDIT:Kekkle;
#NOTES:
00000000
00000000
00000000
00000000
,
00000000
00000000
00000000
00000000
,
00000000
00000000
00000000
00000000
,
00000000
00000000
00000000
00000000
,
00000000
00000000
00000000
00000000
,
10000000
00000000
00010000
00000000
01000000
00010000
00000000
00000000
,
00100000
00000000
00001000
00000000
00010000
00000100
00010000
00000000
,
00000100
00000000
00001000
00000000
00000001
00000100
00000000
00000000
,
00000010
00000000
00010000
00000000
00001000
00010000
00001000
00000000
,
00010000
00010000
00000100
00000100
,
00010000
00010000
00001000
00001000
,
01000000
01000000
00010000
00010000
,
10000000
10000000
01000000
01000000
,
00100000
00001000
00010000
00001000
00100000
00001000
00010000
00000010
,
00001000
00000100
00000010
00000100
00001000
00000100
00000010
00000001
,
00001000
00000000
00000010
00001000
00000010
00000000
00010000
00001000
00010000
00000000
00001000
00000000
01000000
00010000
01000000
00010000
,
02000000
00000000
00000000
03000000
,
00020000
00100000
20030000
01000000
,
30010000
01000000
00001000
00010000
,
00000020
00001000
00000230
00000001
,
00000310
00010000
00001000
01000000
,
00010000
00000000
10000000
00000000
01000000
00000000
00100000
00000000
01000000
00000000
10000000
00000000
00010000
01000000
00010000
00000000
,
01000000
00000000
00001000
00000000
00010000
00000000
00000100
00000000
00001000
00000000
00000100
00000000
00000010
00000100
00000010
00000000
,
00000100
00000000
00001000
00000000
00000001
00000000
00000100
00000000
00000010
00000000
00010000
00000000
00000010
00001000
00000010
00000000
,
00010000
00001000
00010000
00100000
01000000
00100000
20000000
00000000
,
30020000
00000000
10030000
01000000
00020000
00000000
00031000
00000010
,
00000002
00000000
00001003
00000010
00000200
00000000
00000310
00000000
,
00002000
00000000
00003001
00000100
00002000
00000000
00013000
00100000
,
20000000
00000000
30010000
00100000
02000000
00000000
03100000
00000000
,
00010000
10000000
00100000
01000000
00001000
00100000
00010000
00100000
,
00001000
00010000
00000010
00001000
00000100
00010000
00000010
00001000
,
00000100
00000010
00000001
00000100
00000010
00000100
00000001
00001000
,
00000100
00001000
00000100
00000000
00010000
00001000
00010000
00000000
00001000
01000000
00001000
00000000
01000000
00010000
01000000
00000000
,
00100000
00000000
10000000
00000000
00000000
00010000
00000000
00000000
00100000
00000000
01000000
00000000
00100000
00000000
00001000
00000000
,
00010000
00000000
00000010
00000000
00000000
00001000
00000000
00000000
00000200
00000000
00000000
00000000
00000310
00000000
00000001
00000000
,
00001000
00000000
00000010
00000000
00000000
00001000
00000000
00000000
00000100
00000000
00010000
00000100
00010000
00000000
00001000
00000000
,
01000000
00000000
00010000
00000000
00000000
01000000
00000000
00000000
00100000
00000000
10000000
00000000
00010000
00000000
00000000
00000000
,
00100000
00000000
01000000
00000000
00000000
10000000
00000000
00000000
00010000
00000000
01000000
00000000
00001000
00000000
00010000
00000000
,
00002000
00000010
00000010
00000000
00023000
01000000
01000000
00000000
,
00031000
00000000
00000010
00000000
00000000
00000001
00000000
00000000
00001000
00000000
00000000
00000010
00000000
00000000
00000100
00000000
,
00001000
00000000
00010000
00000000
00100000
00000000
10000000
00000000
00010000
00000000
00100000
00000000
01000000
00100000
01000000
00100000
,
01000000
10000000
00010000
01000000
00010000
00001000
00000010
00000000
,
00000100
00000001
00001000
00000100
00000010
00000100
00001000
00000000
,
00000100
00010000
00001000
00010000
01000000
00100000
00010000
10000000
,
00100000
01000000
00001000
00000000
00010000
00000010
00000100
00000000
,
00000001
00001000
00000100
00000001
00000100
00001000
00000100
00010000
,
00002000
01000000
01000000
00000000
00023000
00000100
00000100
00000000
,
00031000
00000000
01000000
00000000
00100000
00000000
10000000
00000000
00100000
00000000
00000000
01000000
00000000
00000000
00010000
00000000
,
00100000
01000000
00010000
00001000
00000010
00000001
00001000
00000001
,
00000200
00000000
00000000
00000000
,
00000320
00000000
00000000
00000000
,
00020030
00000000
00000000
00000000
,
00032000
00000000
00000000
00000000
,
00203000
00000000
00000000
00000000
,
02300000
00000000
00000000
00000000
,
20000000
00000000
00000000
00000000
,
00000000
00000000
00000000
33000000
,
10000000
10000000
00010000
00010000
,
01000000
01000000
00001000
00001000
,
00010000
00010000
00000010
00000010
,
00000100
00000100
00000001
00000001
,
00001000
00000100
00000010
00000100
00010000
00001000
00010000
00000100
,
00010000
00001000
01000000
00010000
00100000
01000000
10000000
01000000
,
00100000
00000000
00010000
00100000
00010000
00000000
10000000
00010000
10000000
00000000
00100000
00000000
01000000
00001000
01000000
00001000
,
00020000
00000000
00000000
00031000
,
00010000
00000000
00000010
00000000
00000000
00000100
00000000
00000000
00000010
00000000
00001000
00000000
00000001
00000000
00000010
00000000
,
00000100
00000000
00010000
00000000
00000000
00001000
00000000
00000000
01000000
00000000
00010000
00000000
00100000
00000000
01000000
00000000
,
10000000
00000000
00010000
00000000
00000000
01000000
00000000
00000000
00010000
01000000
00010000
01000000
00010000
00000000
10000000
00000000
,
01000000
00000000
00010000
00000000
00000000
01000000
00000000
00000000
00100000
00000000
00001000
00000000
00010000
00000000
00000000
00000000
,
00000010
00000000
00001000
00000000
00000000
00000010
00000000
00000000
00000100
00000000
00000010
00000000
00010000
00000000
00001000
00000000
,
00020000
01000000
01000000
00000000
00032000
00000010
00000010
00000000
,
00013000
00000000
01000000
00000000
00000000
00100000
00000000
00000000
00010000
00000000
00000000
10000000
00000000
00000000
00100000
00000000
,
01000000
00010000
01000000
00000000
00001000
00010000
00000000
00000000
00000100
00001000
00000100
00000000
00000010
00000001
00000000
00000000
,
00001000
00000000
00000010
00000000
00000000
00001000
00000000
00000000
00000100
00010000
00000000
00000000
00001000
00000000
00000000
01000000
,
00010000
00000000
00000000
00010000
10000000
00000000
00000000
10000000
01000000
00000000
00000000
01000000
00010000
00000000
00000000
00010000
,
00001000
00000000
00000010
00000000
00000000
00000001
00000000
00001000
00000001
00001000
00000001
00000000
00000100
00000010
00000000
00000000
,
00010000
00000010
00010000
00000000
00001000
00010000
00000000
00000000
00001000
01000000
00001000
00000000
00010000
00001000
00000000
00000000
,
01000000
00000000
00010000
00000000
00000000
01000000
00000000
00000000
00100000
00000000
10000000
00000000
00100000
00000000
00000000
01000000
,
00001000
00000000
00000000
00001000
00010000
00000000
00000000
00010000
00000100
00000000
00000000
00000100
00000010
00000000
00000000
00000010
,
00000001
00000000
00001000
00000000
00000000
00000010
00000000
00000000
00001000
00000000
00000100
00000000
00010000
00000000
00000000
00000000
,
00001000
01000000
00000000
00010000
01000000
00000000
00100000
00000000
10000000
01000000
00000000
10000000
00010000
00000000
01000000
00000000
,
00002000
00000000
00013000
00000000
,
00000020
00000100
00000130
00000000
,
00000002
00000000
00001003
00000000
,
00000200
00000000
00010000
00000000
00010300
00000000
00001000
01000000
,
00200000
00000000
10300000
00000000
,
00020000
00100000
00130000
00000000
,
00001000
00010000
00000010
00000000
00000100
00000010
00001000
00000000
,
00000001
00000010
00000001
00000000
00001000
00000010
00001000
00000000
00000010
00010000
00000010
00000000
00010000
00001000
00010000
00001000
,
00020000
00000000
00000000
00000000
,
00032000
00000000
00000000
00000000
,
00203000
00000000
00000000
00000000
,
02300000
00000000
00000000
00000000
,
23000000
00000000
00000000
00000000
,
30020000
00000000
00000000
00000000
,
02030000
00000000
00000000
00000000
,
00002000
00000000
00000000
00000000
,
03003000
00000000
00000000
00000000
;

//---------------dance-single - ----------------
#NOTEDATA:;
#CHARTNAME:;
#STEPSTYPE:dance-single;
#DESCRIPTION:;
#CHARTSTYLE:;
#DIFFICULTY:Easy;
#METER:9;
#RADARVALUES:0.329250,0.468756,0.000000,0.341995,0.000000,310.000000,310.000000,0.000000,46.000000,0.000000,0.000000,0.000000,0.000000,0.000000,0.329250,0.468756,0.000000,0.341995,0.000000,310.000000,310.000000,0.000000,46.000000,0.000000,0.000000,0.000000,0.000000,0.000000;
#CREDIT:Kekkle;
#NOTES:
0000
0000
0000
0000
,
0000
0000
0000
0000
,
0000
0000
0000
0000
,
0000
0000
0000
0000
,
0000
0000
0000
0000
,
0001
1000
0010
0000
,
1000
0001
0010
0010
,
0100
1000
0001
0000
,
0100
0010
1000
0010
,
0100
0100
0010
0010
,
0100
0100
0010
0000
,
1000
1000
0001
0001
,
1000
1000
0001
0000
,
1000
0100
0010
0001
,
1000
0010
0100
0001
,
1000
0000
0010
0000
1000
0001
1000
0000
,
0002
0000
0000
0003
,
1000
0001
0100
0100
,
0001
1000
0100
0100
,
1000
0010
0100
0100
,
0001
0010
0100
0100
,
1000
0000
0010
0000
0100
0001
0100
0000
,
0010
0000
1000
0000
0001
1000
0001
0000
,
1000
0000
0100
0000
0010
0001
0010
0000
,
0100
0000
1000
0000
0001
1000
0001
0000
,
0200
0310
0020
0130
,
0200
0310
0020
0130
,
0002
1003
2000
3001
,
0002
1003
2000
3001
,
0020
0031
0020
0130
,
0020
1030
0020
0130
,
2000
3100
2000
3001
,
0100
0010
0100
0010
,
1000
0001
0010
0000
,
0100
0000
1000
0000
0001
0100
0001
0000
,
0100
0010
1000
0010
,
0100
0000
0001
0000
0100
0010
0100
0000
,
0010
1000
0001
0000
,
2000
0010
3002
0010
,
1003
0100
0010
0010
,
0001
0000
1000
0000
0010
0100
0010
0000
,
0100
0001
1000
0000
,
0100
0000
0010
0000
0100
0010
0100
0000
,
1000
0001
0100
0000
,
0010
0000
1000
0000
0010
0100
0010
0000
,
0100
0001
1000
0000
,
2000
0100
3002
0100
,
1003
0010
0100
0100
,
0001
1000
0200
0000
,
0320
0000
0000
0000
,
0032
0000
0000
0000
,
2003
0000
0000
0000
,
3020
0000
0000
0000
,
0230
0000
0000
0000
,
0302
0000
0000
0000
,
2003
0000
0000
0000
,
0000
0000
0000
3000
,
0001
0001
1000
1000
,
0001
0001
1000
0000
,
0010
0010
0100
0100
,
0010
0010
0100
0000
,
0001
0100
0010
1000
,
0001
0010
0100
1000
,
0001
0000
0100
0000
0010
1000
0010
1000
,
0002
0000
0000
1003
,
0010
0100
0001
0100
,
0010
0000
0010
0000
1000
0001
1000
0000
,
0001
0010
0100
0010
,
0001
0000
1000
0000
0010
0100
0010
0000
,
0100
0001
1000
0000
,
0200
0010
2300
0001
,
3100
0000
0010
0000
0001
0100
0001
0000
,
1000
0010
0200
0300
,
0001
1000
0100
1000
,
0001
0010
0001
0000
1000
0010
1000
0000
,
0001
0100
0010
0010
,
1000
0001
0010
0000
,
0100
0000
1000
0000
0100
0010
0100
0010
,
0001
0010
0001
0000
1000
0010
1000
0000
,
0010
0100
0001
1000
,
0100
0010
0100
0010
0001
1000
0001
0000
,
2000
0000
3001
0000
,
0020
0000
0130
0000
,
2000
0000
3001
0000
,
0200
0000
0310
0000
,
2000
0000
3100
0000
,
0020
0000
0031
0000
,
1000
0010
0100
0001
,
0100
0010
0200
0000
,
0302
0000
0000
0000
,
2003
0000
0000
0000
,
3200
0000
0000
0000
,
0320
0000
0000
0000
,
0230
0000
0000
0000
,
2300
0000
0000
0000
,
3002
0000
0000
0000
,
0203
0000
0000
0000
,
0300
0000
0000
0000
;

//---------------dance-double - ----------------
#NOTEDATA:;
#CHARTNAME:;
#STEPSTYPE:dance-double;
#DESCRIPTION:;
#CHARTSTYLE:;
#DIFFICULTY:Easy;
#METER:9;
#RADARVALUES:0.329250,0.432698,0.000000,0.230475,0.000000,310.000000,310.000000,0.000000,31.000000,0.000000,0.000000,0.000000,0.000000,0.000000,0.329250,0.432698,0.000000,0.230475,0.000000,310.000000,310.000000,0.000000,31.000000,0.000000,0.000000,0.000000,0.000000,0.000000;
#CREDIT:Kekkle;
#NOTES:
00000000
00000000
00000000
00000000
,
00000000
00000000
00000000
00000000
,
00000000
00000000
00000000
00000000
,
00000000
00000000
00000000
00000000
,
00000000
00000000
00000000
00000000
,
10000000
00010000
01000000
00000000
,
00010000
00100000
01000000
01000000
,
00100000
00001000
00010000
00000000
,
00001000
00010000
00000010
00000100
,
00000001
00000001
00001000
00001000
,
00000001
00000001
00000010
00000010
,
00000100
00000100
00010000
00010000
,
00000100
00000100
00010000
00010000
,
00001000
01000000
00010000
00000000
,
10000000
01000000
00100000
00000000
,
00010000
00000000
10000000
00000000
00100000
01000000
00100000
00000000
,
20000000
00000000
00000000
00000000
,
30010000
00100000
00001000
00010000
,
00100000
00010000
00001000
00100000
,
00010000
00001000
00000100
00001000
,
00010000
00001000
00000100
00010000
,
00001000
00000000
00000100
00000000
00000010
00000100
00000010
00000000
,
00001000
00000000
00000001
00000000
00001000
00000100
00001000
00000000
,
00000100
00000000
00010000
00000000
00001000
00010000
00001000
00000000
,
01000000
00000000
00010000
00000000
00100000
01000000
00100000
00000000
,
00020000
10030000
00020000
01030000
,
00020000
00130000
00020000
00031000
,
00002000
00003001
00002000
00003010
,
00002000
00003100
00002000
00013000
,
00100000
01000000
00100000
00010000
,
10000000
00100000
01000000
00001000
,
00010000
00000100
00001000
00000100
,
00000010
00000000
00000001
00000000
00001000
00000001
00001000
00000000
,
00000010
00010000
00000100
00000000
,
00010000
00000000
00001000
00000000
01000000
00001000
01000000
00000000
,
00010000
00100000
01000000
00000000
,
10000000
00000000
00010000
00000000
01000000
00010000
01000000
00000000
,
00100000
00010000
00001000
00000000
,
00000100
00001000
00010000
01000000
,
00010000
00001000
01000000
01000000
,
00100000
10000000
00010000
00000000
,
00100000
00001000
00010000
00000000
,
00000010
00000000
00001000
00000000
00000010
00000100
00000010
00000000
,
00001000
00000001
00000010
00000000
,
00001000
00000000
00010000
00000000
01000000
00010000
01000000
00000000
,
00100000
00010000
10000000
00000000
,
00100000
00010000
00001000
00000010
,
00001000
00010000
01000000
00000000
,
00100000
00010000
10000000
10000000
,
00020000
00000000
00000000
00000000
,
02030000
00000000
00000000
00000000
,
03002000
00000000
00000000
00000000
,
00023000
00000000
00000000
00000000
,
00030200
00000000
00000000
00000000
,
00000320
00000000
00000000
00000000
,
00000032
00000000
00000000
00000000
,
00000000
00000000
00000000
00000003
,
00001000
00001000
00000001
00000001
,
00001000
00001000
00000001
00000001
,
00000010
00000010
00000100
00000100
,
00010000
00010000
00001000
00001000
,
01000000
00010000
10000000
00000000
,
01000000
00100000
00010000
00000000
,
10000000
00000000
00100000
00000000
01000000
00010000
01000000
00000000
,
00002000
00000000
00000000
00013000
,
00000010
00001000
00000010
00000100
,
00000001
00000000
00001000
00000000
00000100
00001000
00000100
00000000
,
00010000
00001000
01000000
01000000
,
00010000
00000000
00100000
00000000
01000000
00100000
01000000
00000000
,
00100000
00001000
00010000
00010000
,
00000010
00001000
00010000
00100000
,
01000000
00100000
00010000
00010000
,
10000000
00100000
01000000
01000000
,
00001000
00000000
00010000
00000000
00000100
00001000
00000100
00000000
,
00000010
00000001
00001000
00000000
00000010
00001000
00000001
00000000
,
00000010
00000000
00000100
00000000
00010000
00000100
00010000
00000000
,
00001000
01000000
00010000
00000000
,
10000000
00000000
01000000
00000000
10000000
01000000
10000000
00000000
,
00010000
01000000
00100000
00000000
10000000
01000000
00100000
00000000
,
00010000
00000000
01000000
00000000
00001000
01000000
00001000
00000000
,
00010000
00010000
00001000
00001000
,
00020000
00000000
00030010
00000000
,
00002000
00000000
00003010
00000000
,
00020000
00000000
00031000
00000000
,
02000000
00000000
03001000
00000000
,
00200000
00000000
01300000
00000000
,
20000000
00000000
31000000
00000000
,
00100000
00001000
00010000
00000010
,
00001000
00000010
00001000
00000000
00000010
00000100
00000001
00000000
,
00002000
00000000
00000000
00000000
,
00003002
00000000
00000000
00000000
,
00000023
00000000
00000000
00000000
,
00000230
00000000
00000000
00000000
,
00020300
00000000
00000000
00000000
,
00032000
00000000
00000000
00000000
,
02003000
00000000
00000000
00000000
,
03200000
00000000
00000000
00000000
,
00300000
00000000
00000000
00000000
;

//---------------dance-single - ----------------
#NOTEDATA:;
#CHARTNAME:;
#STEPSTYPE:dance-single;
#DESCRIPTION:;
#CHARTSTYLE:;
#DIFFICULTY:Beginner;
#METER:5;
#RADARVALUES:0.191177,0.251106,0.000000,0.200736,0.000000,180.000000,180.000000,0.000000,27.000000,0.000000,0.000000,0.000000,0.000000,0.000000,0.191177,0.251106,0.000000,0.200736,0.000000,180.000000,180.000000,0.000000,27.000000,0.000000,0.000000,0.000000,0.000000,0.000000;
#CREDIT:Kekkle;
#NOTES:
0000
0000
0000
0000
,
0000
0000
0000
0000
,
0000
0000
0000
0000
,
0000
0000
0000
0000
,
0000
0000
0000
0000
,
1000
0000
0001
0000
,
0100
0000
0010
0010
,
0100
0000
0001
0000
,
1000
0000
0100
0000
,
0010
0000
0010
0000
,
0001
0000
0001
0000
,
1000
0000
1000
0000
,
0010
0000
0010
0000
,
0100
0000
0001
0000
,
1000
0000
0100
0000
,
0010
0010
0010
0000
,
0200
0000
0300
0000
,
1000
0000
0001
0000
,
1000
0000
0001
0000
,
0100
0000
0010
0000
,
0100
0000
0010
0000
,
1000
0000
0001
0001
,
1000
0000
0100
0100
,
1000
0000
0001
0001
,
0100
0000
0010
0000
,
2000
0000
3100
0000
,
2000
0000
3001
0000
,
2000
0000
3010
0000
,
2000
0000
3100
0000
,
0010
0000
0001
0000
,
1000
0000
0010
0000
,
0100
0000
0001
0000
,
1000
1000
1000
0000
,
0001
0000
0100
0000
,
0010
0000
1000
1000
,
0001
0000
0010
0000
,
0100
0000
0010
0010
,
0001
0000
1000
0000
,
0010
0000
0010
0000
,
0100
0000
0001
0000
,
1000
0000
0100
0100
,
0010
0000
0001
0000
,
1000
1000
0010
0000
,
0100
0000
0001
0000
,
1000
1000
0100
0000
,
0010
0000
0001
0000
,
0100
0000
0100
0000
,
0010
0000
1000
0000
,
0001
0000
1000
1000
,
0200
0000
0300
0000
,
0020
0000
0030
0000
,
0002
0000
0003
0000
,
2000
0000
3000
0000
,
0020
0000
0030
0000
,
0200
0000
0300
0000
,
0020
0000
0000
0000
,
0000
0000
0030
0000
,
0100
0000
0100
0000
,
0010
0000
0010
0000
,
0100
0000
0100
0000
,
0010
0000
0010
0000
,
1000
0000
0001
0000
,
0010
0000
0100
0000
,
0010
0010
0010
0000
,
0002
0000
0003
0000
,
1000
0000
0010
0000
,
0100
0100
0010
0000
,
1000
0000
0001
0000
,
0010
0010
0001
0000
,
1000
0000
0010
0000
,
1000
0000
1000
0000
,
0001
0000
0010
0000
,
0100
0000
1000
1000
,
0001
0000
0100
0000
,
0010
0010
0100
0100
,
0010
0000
1000
0000
,
0001
0000
0010
0000
,
0100
0000
0010
0000
,
0001
0001
1000
1000
,
0001
0000
0100
0000
,
0010
0000
0100
0000
,
0002
0000
0003
0000
,
2000
0000
3000
0000
,
0020
0000
0030
0000
,
0200
0000
0300
0000
,
0002
0000
0003
0000
,
0020
0000
0030
0000
,
0100
0000
1000
0000
,
0001
0001
0001
0000
,
0200
0000
0300
0000
,
0020
0000
0030
0000
,
0200
0000
0300
0000
,
0002
0000
0003
0000
,
2000
0000
3000
0000
,
0200
0000
0300
0000
,
2000
0000
3000
0000
,
0020
0000
0030
0000
;

//---------------dance-single - ----------------
#NOTEDATA:;
#CHARTNAME:;
#STEPSTYPE:dance-single;
#DESCRIPTION:;
#CHARTSTYLE:;
#DIFFICULTY:Challenge;
#METER:18;
#RADARVALUES:0.901719,1.189919,0.000000,0.275083,1.130069,849.000000,849.000000,0.000000,37.000000,0.000000,0.000000,0.000000,0.000000,0.000000,0.901719,1.189919,0.000000,0.275083,1.130069,849.000000,849.000000,0.000000,37.000000,0.000000,0.000000,0.000000,0.000000,0.000000;
#CREDIT:Kekkle;
#NOTES:
// measure 0
0000
0000
0000
0000
,  // measure 1
0000
0000
0000
0000
,  // measure 2
0000
0000
0000
0000
,  // measure 3
0000
0000
0000
0000
,  // measure 4
0000
0000
0000
0000
,  // measure 5
1000
0000
0001
0000
0010
0000
0001
0010
0100
0000
2000
0000
0000
0000
3010
0100
,  // measure 6
0010
0000
0010
0000
1000
0000
0001
0010
0001
1000
0010
1000
0010
0000
0000
0100
,  // measure 7
0001
0000
1000
0000
0100
0000
0010
0100
1000
0000
0002
0000
0000
0000
0103
0010
,  // measure 8
0100
0000
0001
1000
0001
0000
1000
0100
0010
0100
1000
0001
0200
0000
0000
0000
,  // measure 9
0302
1000
0010
1000
,  // measure 10
0100
1000
0010
1000
,  // measure 11
2003
0010
0001
0100
,  // measure 12
0001
0010
0001
3100
,  // measure 13
1000
0000
0001
0000
0100
0000
0010
1000
0001
0000
0010
0000
0100
0000
0010
0000
,  // measure 14
0001
0000
0001
0000
0100
0010
1000
0000
0010
0000
0100
0001
0010
0000
0100
0000
,  // measure 15
1000
0010
0100
0010
1000
0001
0010
0001
0010
0100
1000
0100
0010
0100
1000
0010
,  // measure 16
1000
0000
0000
0010
0000
0000
0001
0000
0000
0010
0000
0000
1000
0000
0000
0000
0100
0000
0000
0000
0010
0000
0000
0000
0002
0000
0000
0000
0000
0000
2003
0000
0000
0000
0000
0000
3020
0000
0000
0000
0000
0000
0230
0000
0000
0000
0000
0000
,  // measure 17
0301
0000
0100
1000
0000
0000
0100
0000
0001
0000
0010
1000
0000
0000
0010
0000
,  // measure 18
0001
0000
0100
1000
0000
0000
0100
0000
0001
0000
0010
1000
0000
0000
0010
0000
,  // measure 19
0100
0000
1000
0001
0000
0000
0100
0000
0010
0000
1000
0001
0000
0000
0010
0000
,  // measure 20
0100
0000
1000
0001
0000
0000
0100
0000
0010
0000
1000
0001
0000
0000
0100
0000
,  // measure 21
0010
0000
1000
0100
1000
0000
0001
0100
0001
0000
0010
0001
0010
0100
0010
0001
,  // measure 22
0010
0000
0001
0100
0001
0000
1000
0100
1000
0000
0001
0100
0010
0100
0001
0100
,  // measure 23
0010
0000
1000
0100
0010
0000
0001
1000
0010
0000
0100
0010
1000
0010
0100
0010
,  // measure 24
1000
0000
0001
0010
0100
0000
1000
0010
0100
0000
0010
1000
0002
0000
0023
0000
,  // measure 25
0130
0000
1000
0100
0010
0100
1000
0000
0001
0000
0001
0100
0010
0100
0001
0000
,  // measure 26
1000
0000
1000
0100
0010
0100
1000
0000
0001
0000
0001
0100
0010
1000
0001
0010
,  // measure 27
0100
0000
0010
0001
1000
0001
0010
0000
0001
0000
0001
1000
0010
1000
0001
0000
,  // measure 28
1000
0000
1000
0001
0010
0001
1000
0000
0010
0000
0010
0100
0001
0100
0010
1000
,  // measure 29
0001
0000
1000
0100
0010
0001
0100
0000
0010
0000
0010
0100
0001
1000
0001
0000
,  // measure 30
0010
0000
0010
0001
0010
0100
1000
0000
0001
0000
0001
0100
0010
1000
0001
0010
,  // measure 31
0001
0000
0100
1000
0100
0001
0100
0000
0001
0000
0001
0010
1000
0010
0001
0000
,  // measure 32
0100
0010
1000
0010
0100
0001
1000
0001
0010
0100
1000
0010
0100
0001
0010
0100
,  // measure 33
1000
0000
0001
1000
0100
1000
0100
0010
0100
0000
1000
0001
0100
0010
0100
0001
,  // measure 34
1000
0100
1000
0000
0100
0010
0000
0100
0001
0000
0100
0010
0100
0000
1000
0000
,  // measure 35
0001
0100
0010
0000
1000
0100
0000
0010
0001
0100
0001
0010
0100
0000
1000
0001
,  // measure 36
0100
0010
1000
0000
0010
0100
0000
0001
1000
0100
0010
0000
0001
0100
0001
0000
,  // measure 37
0010
0100
1000
0000
0001
0100
0000
1000
0100
0000
0010
1000
0100
0010
0100
0000
,  // measure 38
1000
0100
0010
0000
0100
0010
0001
0000
1000
0010
0100
0000
0010
0100
0001
0000
,  // measure 39
1000
0100
0010
0000
0100
0001
0000
0100
0010
0000
0001
1000
0000
0010
1000
0000
,  // measure 40
0001
0010
0100
0000
1000
0100
0010
0100
1000
0001
0100
0000
0010
1000
0001
1000
,  // measure 41
0100
0000
0010
0001
1000
0001
0010
0000
0001
0000
0100
0010
1000
0010
0100
0001
,  // measure 42
1000
0100
0010
0000
0100
1000
0000
0001
0100
0000
0010
1000
0001
0000
0010
0000
,  // measure 43
0100
1000
0100
0000
0010
0001
0000
0100
1000
0100
0010
0100
0001
0000
1000
0100
,  // measure 44
0010
0100
1000
0000
0010
0100
0000
0001
0100
0010
1000
0000
0001
0010
0100
0000
,  // measure 45
0010
0001
1000
0000
0010
0001
0000
0010
0100
0000
0001
1000
0100
0010
0001
0000
,  // measure 46
1000
0010
0100
0000
0010
0100
0001
0000
1000
0100
0010
0000
0100
0010
0001
0000
,  // measure 47
1000
0010
0100
0000
0010
0001
0000
0010
0100
0000
0001
1000
0000
0100
0010
0000
,  // measure 48
0001
0100
0010
1000
0010
0100
0001
0010
0100
0010
0001
1000
0010
0001
0010
1000
,  // measure 49
0200
0000
1300
0001
0200
0000
0000
0000
,  // measure 50
0000
0301
0001
1000
,  // measure 51
0100
0000
0001
0200
0000
0000
0000
0000
,  // measure 52
0000
0000
0000
0000
0000
0000
1300
0001
,  // measure 53
0200
0000
0000
1300
,  // measure 54
0002
0000
0023
0000
,  // measure 55
0200
0000
0000
0000
,  // measure 56
0000
0000
0000
0000
0000
0000
0330
0010
,  // measure 57
0200
1000
0010
0001
,  // measure 58
0010
1000
0310
1000
,  // measure 59
0200
0001
0010
1000
,  // measure 60
0010
0001
0010
1300
,  // measure 61
0001
0000
0100
0000
0010
0000
1000
0100
0010
0000
0001
0000
0100
0000
0100
0000
,  // measure 62
1000
0000
0100
0000
0001
1000
0100
0000
0001
0000
0100
0010
0001
0000
1000
0000
,  // measure 63
0010
0100
0001
0100
0010
0100
0001
1000
0100
0010
0100
1000
0001
0100
0010
1000
,  // measure 64
0001
0010
0100
1000
0010
0100
0001
1000
0100
0010
0001
0100
0010
1000
0100
0010
,  // measure 65
0001
0000
1000
0100
1000
0001
0100
0010
1000
0000
0100
1000
0100
0010
0001
0100
,  // measure 66
0001
0100
0010
0000
1000
0100
0000
0010
0100
0000
1000
0001
0100
0000
0010
0000
,  // measure 67
1000
0100
0010
0000
0001
0100
0000
0010
1000
0100
1000
0100
0010
0000
0001
0100
,  // measure 68
0010
0100
1000
0000
0100
0010
0000
1000
0100
1000
0001
0000
0100
0010
0001
0000
,  // measure 69
0010
1000
0100
0000
0001
0100
0000
0010
0001
0000
1000
0001
1000
0010
0100
0000
,  // measure 70
0001
1000
0100
0000
0001
0100
0001
0000
0100
1000
0001
0000
1000
0010
0001
0000
,  // measure 71
0010
1000
0100
0000
0001
0100
0000
0100
1000
0000
0010
0100
0000
0010
0001
0000
,  // measure 72
0010
1000
0100
1000
0100
0010
0001
0000
0100
0001
0100
0001
0010
0100
1000
0000
,  // measure 73
0001
0100
0010
0000
1000
0010
0000
1000
0100
1000
0001
0000
0100
0001
0000
0100
,  // measure 74
0010
0100
1000
0100
0000
0010
1000
0001
0010
0001
0010
0100
0000
1000
0100
0001
,  // measure 75
0100
0010
0001
0000
1000
0010
0000
0100
0001
0100
0010
1000
0010
1000
0000
0100
,  // measure 76
0001
0100
0010
0001
0010
0001
0000
0100
1000
0100
0010
1000
0010
1000
0000
0001
,  // measure 77
0010
0100
0010
0000
0001
1000
0000
0010
1000
0100
1000
0000
0001
0100
0000
1000
,  // measure 78
0100
0001
0000
0100
0010
1000
0000
0001
0010
1000
0000
0010
0001
0100
0000
0010
,  // measure 79
1000
0001
0010
0000
1000
0010
0000
0001
0100
0001
0100
0010
0001
0010
0000
1000
,  // measure 80
0001
0010
0001
0100
0010
0000
1000
0000
0001
0010
0001
1000
0010
0001
0010
0100
,  // measure 81
0002
1000
1003
0100
,  // measure 82
0200
0000
0301
0100
1000
0000
0001
0100
,  // measure 83
0020
0100
0130
0001
,  // measure 84
0002
0000
1003
0100
0001
0000
0200
0310
,  // measure 85
0002
0100
0103
0010
,  // measure 86
0020
0000
0031
0010
1000
0000
0001
0010
,  // measure 87
0100
1000
0001
0000
0100
0010
1000
0000
0001
0010
1000
0010
0001
1000
0010
0000
,  // measure 88
0100
0010
1000
0001
0010
0001
0100
0010
1000
0001
0010
1000
0010
0001
0100
0010
,  // measure 89
2000
0000
0000
3001
0100
0020
0000
0000
,  // measure 90
2030
0000
0000
0000
,  // measure 91
3200
0000
0001
0000
,  // measure 92
2300
0000
0000
0000
,  // measure 93
3002
0000
0000
1003
0010
0002
0000
0000
,  // measure 94
2003
0000
0000
0000
,  // measure 95
3200
0000
1000
0000
,  // measure 96
0020
0000
0000
0000
,  // measure 97
0330
0000
0000
0000
;

//---------------dance-double - ----------------
#NOTEDATA:;
#CHARTNAME:;
#STEPSTYPE:dance-double;
#DESCRIPTION:;
#CHARTSTYLE:;
#DIFFICULTY:Challenge;
#METER:18;
#RADARVALUES:0.899595,1.189919,0.000000,0.319691,1.104048,847.000000,847.000000,0.000000,43.000000,0.000000,0.000000,0.000000,0.000000,0.000000,0.899595,1.189919,0.000000,0.319691,1.104048,847.000000,847.000000,0.000000,43.000000,0.000000,0.000000,0.000000,0.000000,0.000000;
#CREDIT:;
#NOTES:
00000000
00000000
00000000
00000000
,
00000000
00000000
00000000
00000000
,
00000000
00000000
00000000
00000000
,
00000000
00000000
00000000
00000000
,
00000000
00000000
00000000
00000000
,
00000001
00000000
00001000
00000000
00000010
00000000
00001000
00000001
00001000
00000000
00000200
00000000
00000000
00000000
00010300
00001000
,
00010000
00000000
00001000
00000000
01000000
00000000
00010000
01000000
00100000
10000000
00010000
10000000
01000000
00000000
00000000
00100000
,
00001000
00000000
00010000
00000000
00000010
00000000
00001000
00000100
00000010
00000000
00000002
00000000
00000000
00000000
00001003
00000010
,
00001000
00000000
00000010
00010000
00000010
00000000
00010000
00000100
00010000
00001000
00100000
00001000
00020000
00000000
00000000
00000000
,
00032000
01000000
00010000
00100000
,
00010000
01000000
00010000
00100000
,
00023000
00000100
00001000
00000010
,
00001000
00000100
00001000
00000010
,
00031000
00000000
01000000
00000000
00010000
00000000
00100000
00010000
00100000
00000000
01000000
00000000
10000000
00000000
10000000
00000000
,
00010000
00000000
01000000
00000000
00010000
00100000
00001000
00000000
00010000
00000000
00000010
00001000
00000100
00000000
00000010
00000000
,
00000001
00001000
00000010
00001000
00000100
00010000
00000100
00010000
00001000
00100000
00010000
00100000
01000000
10000000
00010000
10000000
,
00100000
00000000
00000000
01000000
00000000
00000000
00001000
00000000
00000000
00100000
00000000
00000000
00001000
00000000
00000000
00000000
00010000
00000000
00000000
00000000
00001000
00000000
00000000
00000000
00000100
00000000
00000000
00000000
00000000
00000000
00000001
00000000
00000000
00000000
00000000
00000000
00001000
00000000
00000000
00000000
00000000
00000000
00002000
00000000
00000000
00000000
00000000
00000000
,
00003001
00000000
00001000
00000010
00000000
00000000
00010000
00000000
00000100
00000000
00010000
00001000
00000000
00000000
00100000
00000000
,
00010000
00000000
10000000
00100000
00000000
00000000
01000000
00000000
00001000
00000000
00010000
00001000
00000000
00000000
00001000
00000000
,
00010000
00000000
00000100
00000010
00000000
00000000
00000100
00000000
00010000
00000000
00000010
00000100
00000000
00000000
00001000
00000000
,
00010000
00000000
00100000
10000000
00000000
00000000
00010000
00000000
00100000
00000000
00001000
00010000
00000000
00000000
00010000
00000000
,
00001000
00000000
00010000
00000010
00000100
00000000
00000001
00001000
00000100
00000000
00000010
00000001
00000010
00000100
00000010
00000001
,
00000010
00000000
00000100
00010000
00001000
00000000
00010000
00001000
01000000
00000000
00100000
10000000
00010000
10000000
00100000
10000000
,
00010000
00000000
00100000
00001000
00010000
00000000
00000010
00010000
00001000
00000000
01000000
00001000
00010000
00001000
01000000
00001000
,
00010000
00000000
00001000
00010000
00000010
00000000
00001000
00000001
00000010
00000000
00000100
00010000
00002000
00000000
02003000
00000000
,
03100000
00000000
10000000
00010000
00100000
00010000
10000000
00000000
00100000
00000000
01000000
00001000
00010000
00001000
01000000
00000000
,
00001000
00000000
00100000
00001000
00010000
00001000
00100000
00000000
00001000
00000000
00010000
00000010
00001000
00000010
00000100
00000000
,
00000001
00000000
00001000
00000100
00000010
00000100
00001000
00000000
00000010
00000000
00010000
00000100
00001000
00000100
00010000
00000000
,
00000100
00000000
00010000
00001000
00100000
00001000
00010000
00000000
00001000
00000000
01000000
00010000
01000000
00100000
10000000
00010000
,
10000000
00000000
01000000
00010000
00001000
00010000
01000000
00000000
00100000
00000000
00001000
00100000
00001000
00010000
00001000
00000000
,
00010000
00000000
00001000
00000100
00000010
00000100
00001000
00000000
00000100
00000000
00000001
00001000
00000100
00000010
00000100
00010000
,
00000100
00000000
00010000
00000100
00001000
00000100
00010000
00000000
00001000
00000000
00100000
00010000
10000000
00010000
00100000
00000000
,
00010000
01000000
00100000
10000000
00100000
01000000
00010000
01000000
00001000
00010000
00000100
00001000
00000100
00000010
00000100
00001000
,
00000001
00000000
00001000
00000010
00010000
00000010
00001000
00000000
00000100
00000000
00010000
00001000
00100000
00010000
00100000
01000000
,
00100000
00010000
01000000
00000000
00100000
10000000
00000000
00100000
01000000
00000000
00100000
00010000
00001000
00000000
00100000
00000000
,
00001000
00010000
00000100
00000000
00010000
00000100
00000000
00001000
00000100
00000010
00000100
00000010
00000001
00000000
00001000
00000010
,
00000100
00001000
00000100
00000000
00000010
00010000
00000000
00000100
00010000
00001000
00010000
00000000
00001000
00100000
00010000
00000000
,
00100000
01000000
00010000
00000000
01000000
00100000
00000000
00010000
10000000
00000000
00100000
01000000
00010000
01000000
00001000
00000000
,
00010000
00000010
00001000
00000000
00000010
00001000
00000001
00000000
00001000
00000001
00000010
00000000
00000001
00000010
00000100
00000000
,
00001000
00000100
00010000
00000000
00001000
01000000
00000000
00010000
10000000
00000000
01000000
00010000
00000000
00010000
00001000
00000000
,
00100000
00001000
00010000
00000000
00001000
00010000
00000010
00001000
00000010
00000100
00000010
00000000
00001000
00000001
00000010
00000100
,
00001000
00000000
00000100
00010000
00001000
00010000
00000100
00000000
00010000
00000000
00001000
00100000
00010000
00100000
01000000
00100000
,
00010000
10000000
00100000
00000000
01000000
00001000
00000000
00100000
00010000
00000000
00100000
00001000
00010000
00000000
00000010
00000000
,
00001000
00000010
00000100
00000000
00000001
00001000
00000000
00000100
00000010
00000001
00001000
00000010
00001000
00000000
00000100
00010000
,
00001000
00100000
00010000
00000000
10000000
00010000
00000000
01000000
00100000
00010000
00100000
00000000
10000000
00010000
00100000
00000000
,
00001000
00010000
00000010
00000000
00001000
00000100
00000000
00000010
00000001
00000000
00001000
00000010
00000100
00000001
00001000
00000000
,
00000100
00010000
00001000
00000000
00010000
00001000
00100000
00000000
00001000
00100000
00010000
00000000
00100000
00010000
01000000
00000000
,
00100000
10000000
00010000
00000000
01000000
00100000
00000000
00010000
00100000
00000000
01000000
00001000
00000000
00010000
00000010
00000000
,
00001000
00000100
00000010
00000000
00000001
00001000
00000010
00001000
00000100
00010000
00001000
01000000
00010000
01000000
00100000
10000000
,
00020000
00000000
00130000
00001000
00020000
00000000
00000000
00000000
,
00030010
00000010
00000100
00001000
,
00010000
00000000
00000100
00020000
00000000
00000000
00000000
00000000
,
00000000
00000000
00000000
00000000
00000000
00000000
00031000
00100000
,
02000000
00000000
00000000
03020000
,
00032000
00000000
00003020
00000000
,
00000002
00000000
00000000
00000000
,
00000000
00000000
00000000
00000000
00000000
00000000
00000033
00000001
,
00002000
00000100
00010000
00000100
,
00000001
00000010
00010000
00000010
,
00023000
00100000
00001000
00100000
,
10000000
01000000
00001000
01000000
,
10030000
00000000
00010000
00000000
00100000
00000000
00010000
00100000
00001000
00000000
00010000
00000000
00000010
00000000
00000010
00000000
,
00001000
00000000
00000001
00000000
00000010
00000001
00001000
00000000
00000010
00000000
00001000
00000100
00010000
00000000
00001000
00000000
,
00100000
00010000
00100000
00010000
01000000
00001000
01000000
00001000
00010000
01000000
00010000
01000000
10000000
00010000
10000000
00010000
,
01000000
00001000
01000000
00010000
00100000
00001000
00010000
00000010
00001000
00000010
00000100
00000001
00001000
00000100
00000010
00000100
,
00010000
00000000
00001000
01000000
00010000
01000000
00100000
00000000
10000000
00000000
00010000
00100000
00001000
00100000
00010000
01000000
,
00001000
00010000
00000010
00000000
00000100
00001000
00000000
00000100
00000001
00000000
00001000
00000100
00000010
00000000
00000001
00000000
,
00001000
00000010
00010000
00000000
00000100
00010000
00000000
00001000
00100000
00010000
00100000
00001000
00100000
00000000
00010000
01000000
,
00100000
10000000
00010000
00000000
01000000
00001000
00000000
00010000
00000100
00001000
00000100
00000000
00000010
00000001
00001000
00000000
,
00000001
00000010
00000100
00000000
00001000
00000010
00000000
00010000
00000100
00000000
00010000
00001000
00010000
00000100
00010000
00000000
,
00001000
00100000
00010000
00000000
00100000
00010000
10000000
00000000
00100000
01000000
00001000
00000000
00100000
00001000
00010000
00000000
,
00001000
00010000
00000010
00000000
00000100
00001000
00000000
00000100
00000010
00000000
00001000
00000100
00000000
00000100
00010000
00000000
,
00001000
00100000
00010000
00100000
00010000
10000000
00010000
00000000
01000000
00100000
10000000
00000000
00010000
00100000
00001000
00000000
,
00010000
00000010
00001000
00000000
00000010
00000100
00000000
00000010
00001000
00000001
00000010
00000000
00000001
00000100
00000000
00000010
,
00010000
00000010
00001000
00000100
00000000
00010000
00001000
00000000
00100000
00001000
00100000
00010000
00000000
01000000
00010000
00000000
,
10000000
00010000
00100000
00000000
01000000
00100000
00000000
00001000
00010000
00000010
00001000
00000010
00000100
00000010
00000000
00001000
,
00000001
00000010
00000001
00000100
00000010
00001000
00000000
00000010
00010000
00000100
00010000
00001000
00010000
00001000
00000000
00100000
,
00001000
00100000
00010000
00000000
01000000
00010000
00000000
10000000
01000000
00100000
00010000
00000000
01000000
00001000
00000000
00010000
,
00000010
00001000
00000000
00000010
00001000
00000001
00000000
00000010
00001000
00010000
00000000
00000100
00010000
00001000
00000000
01000000
,
00001000
01000000
00010000
00000000
00100000
00010000
00000000
10000000
00100000
01000000
00001000
00100000
00001000
00010000
00000000
00000010
,
00001000
00000010
00000100
00000001
00001000
00000000
00000100
00000000
00010000
00001000
00010000
00000100
00010000
00001000
00100000
00010000
,
02000000
00000000
03100000
10000000
02000000
00000000
03100000
00010000
,
02000000
03200000
00320000
00032000
,
00003200
00000000
00000310
00001000
00000200
00000000
00000310
00000001
,
00000200
00000000
00000310
00001000
00000200
00000000
00000320
00000031
,
00002000
00000000
00003100
00010000
00002000
00000000
00103000
00001000
,
00020000
00000000
00030010
00010000
00002000
00000000
01003000
00010000
,
10000000
01000000
10000000
00000000
01000000
00010000
01000000
00000000
00100000
00001000
00010000
00000010
00010000
00000010
00001000
00000000
,
00000010
00000100
00000001
00001000
00000001
00001000
00000100
00010000
00001000
00100000
00001000
00100000
00010000
01000000
00100000
10000000
,
00200000
00000000
00000000
01300000
00001000
00020000
00000000
00000000
,
00030200
00000000
00000000
00000000
,
00000320
00000000
00000001
00000000
,
00000230
00000000
00000000
00000000
,
00020300
00000000
00000000
00031000
01000000
00020000
00000000
00000000
,
02030000
00000000
00000000
00000000
,
03200000
00000000
10000000
00000000
,
02000000
00000000
00000000
00000000
,
03300000
00000000
00000000
00000000
;
