#TITLE:ニセモノ注意報;
#SUBTITLE:;
#ARTIST:150P ft. IA;
#TITLETRANSLIT:Nisemono Chuuihou;
#SUBTITLETRANSLIT:;
#ARTISTTRANSLIT:;
#GENRE:;
#CREDIT:;
#BANNER:Nisemono Chuuihou.png;
#BACKGROUND:Nisemono Chuuihou-bg.png;
#LYRICSPATH:;
#CDTITLE:;
#MUSIC:Nisemono Chuuihou.ogg;
#OFFSET:-0.600000;
#SAMPLESTART:1.523000;
#SAMPLELENGTH:12.000000;
#SELECTABLE:YES;
#DISPLAYBPM:130.000000:400.000000;
#BPMS:0.000000=260.000000
,140.000000=130.000000
,156.000000=260.000000
,184.000000=290.000000
,192.000000=300.000000
,352.000000=130.000000
,385.000000=520.000000
,401.000000=320.000000
,593.000000=160.000000
,597.000000=220.000000
,601.000000=270.000000
,605.000000=320.000000
,609.000000=380.000000
,613.000000=400.000000
,633.500000=80.000000
;
#STOPS:
;
#BGCHANGES:;
#KEYSOUNDS:;
#ATTACKS:;

//---------------dance-single - ----------------
#NOTES:
     dance-single:
     :
     Challenge:
     19:
     1.000708,1.349494,0.423931,0.612345,0.279256,1041.000000,978.000000,63.000000,91.000000,1.000000,0.000000,1.000708,1.349494,0.423931,0.612345,0.279256,1041.000000,978.000000,63.000000,91.000000,1.000000,0.000000:
0000
0000
0000
0000
,
0000
0000
0000
0000
,
0000
0000
0000
0000
,
0000
0000
0000
0000
,
0000
0000
0000
0000
,
0000
0000
0000
0000
,
0000
0000
0000
0000
,
0000
0000
0000
0000
,
1001
0101
0000
0000
1001
1200
0000
0310
,
0002
0000
0103
1000
0001
0010
1000
0100
,
0010
0100
1000
0100
0010
0001
0100
0000
,
1000
0100
0001
0010
0100
1000
0100
0000
,
0001
0100
1000
0010
0200
0000
0310
1000
,
1001
0000
1000
0100
0001
0100
1000
0010
,
0001
0010
0100
0001
1000
0100
0001
0000
,
0100
1000
0010
0100
1000
0100
0001
1000
,
1100
0000
0001
0101
0000
1000
1010
0000
,
0001
0011
0000
1000
1100
0000
2002
0000
,
0000
0000
3003
0000
0000
0000
0001
0100
0010
0000
1000
0000
0100
0000
0001
0000
,
2000
0000
3010
0001
0101
0000
0100
1000
,
0100
0010
1000
0100
0001
0100
1000
0001
,
2000
0000
3001
0100
0000
1000
0100
0001
,
0020
0000
0130
1000
0000
0001
0100
0010
,
2010
0000
0000
0000
3001
0000
0100
0010
2000
0000
0000
0000
3001
0000
0010
0000
,
0100
0001
0100
1000
0010
0100
0000
1000
,
0200
0000
0301
1000
0000
0100
0001
0100
,
1000
0010
0100
0001
1000
0100
1000
0001
0100
0001
0010
0100
,
2000
0000
3010
0001
0010
0100
0000
0100
,
0001
0010
1000
0001
0100
0010
0001
1000
,
0010
0000
0100
0000
0001
0010
0100
0001
,
0100
1000
0010
0100
0000
0100
0001
0010
,
0100
1000
0001
0100
0120
0000
1030
0100
,
0001
1000
0010
0001
1000
0010
0000
0100
,
2000
0000
3100
0001
0000
1000
0100
1000
,
0001
0100
1000
0001
1000
0100
0001
1000
,
0002
0100
2003
0010
3002
0000
0013
1000
,
0010
0000
0001
0100
0000
1000
0100
0000
0120
0000
0000
0000
2030
0000
0100
0000
,
3002
0010
2003
0010
3200
0000
0301
0100
,
1000
0000
0010
0100
0000
1000
0100
0000
0220
0000
0000
0000
0330
0000
0000
0000
,
1010
0011
1010
0011
,
1100
0101
1100
0101
,
1001
1100
0011
0101
,
1010
1100
0101
0011
,
0001
0100
1000
0001
0020
0000
1030
0100
,
0001
1000
0020
0000
0031
0100
0010
1000
,
0100
0001
0100
1000
0001
0100
0010
1000
,
1002
0000
2003
0000
,
3001
0010
1000
0010
0002
0000
1003
0010
,
0100
0001
0010
1000
0000
0010
0100
1000
,
0002
0000
0103
0010
0000
0100
1000
0100
,
0002
0000
1003
0100
0000
0010
0001
0100
,
0101
0000
1001
0000
0001
0100
0010
0100
,
2000
0000
3100
0001
0000
0100
0010
1000
,
0002
0000
1003
0100
0000
0010
0001
1000
,
0020
0000
0130
0001
0000
1000
0001
0100
,
0001
0020
0000
0000
1030
0020
0000
0031
,
0100
0000
0010
1000
0010
0100
0001
1000
,
0000
0100
0010
0000
0011
0000
1001
0000
,
1000
0010
0100
0001
0000
1000
0100
0000
,
0010
0001
0100
0000
1000
0100
0001
1000
,
0100
0010
0001
0200
0000
1300
0100
0000
,
0001
1000
0010
0200
0000
0301
1000
0000
,
0100
0001
0100
0020
0000
0031
0100
0000
,
0020
0000
0031
0020
0000
1030
0001
0000
,
1001
0000
0001
0100
0010
1000
0100
0010
,
1000
0000
0010
0001
0000
0100
0010
0000
,
2010
0000
0000
0000
0000
0000
0001
0000
0000
0000
0000
0000
3100
0000
0000
0010
0000
0000
0001
0000
1000
0000
0010
0000
,
0200
0000
1300
0200
0000
0301
0010
0100
,
1000
0000
1001
0000
1000
0010
0001
0010
,
1000
0000
1100
0000
0100
0001
0100
0010
,
0002
0000
0000
0000
,
1003
0010
0100
0010
0001
0010
1000
0100
,
0020
0000
0031
0100
0020
0000
0000
0000
,
0130
0000
0000
1000
0000
0000
0100
0000
0000
0001
0000
0000
1000
0000
0000
0000
0000
0000
0100
0000
1000
0000
0001
0000
,
0010
0001
0010
0001
0100
0010
1000
0010
1000
0010
1000
0100
,
0010
0001
0010
0100
1000
0001
0100
0010
1000
0010
0100
0001
,
1000
1010
0101
1100
,
1000
0100
0010
0001
0000
0000
0101
0000
0000
0100
0010
1000
,
0001
0010
0001
0010
0100
1000
0100
0010
0100
1000
0001
0100
,
0001
0100
0010
1000
0010
0100
0001
1000
0001
1000
0100
0010
,
0002
0000
1003
0010
1000
0100
0010
0100
,
0002
0000
0103
0010
1000
0010
0100
1000
,
0002
0000
1003
0010
0100
0001
1000
0100
,
0020
0000
0031
0100
0010
1000
0001
0010
,
0100
0000
1000
0000
0100
0000
1000
0000
0000
0001
0000
0000
0100
0000
0001
0000
0100
0000
0010
0000
0000
1000
0000
0000
,
0100
0000
0010
0000
0100
0000
1000
0000
0000
0001
0000
0000
0100
0000
0010
0000
1000
0000
0002
0000
0000
0000
0000
0000
,
0000
0000
1003
0100
0010
0001
0100
0010
,
1000
0100
0010
0001
0100
0010
1000
0100
0010
0001
0100
0010
,
1000
0000
0001
0000
0010
0000
1000
0010
0000
0000
0000
0000
0000
0000
0000
0002
,
0000
0000
0013
0000
1000
0000
0010
0001
0000
0000
0000
0000
0000
0000
1000
0000
,
0010
0000
0100
0000
1000
0000
0001
0010
0000
0000
0000
0000
0000
0000
0000
0000
,
0100
0000
0001
0000
1000
0000
0200
0000
0000
0310
0000
0000
0000
0000
0001
0000
,
0100
0000
1000
0000
0001
0000
1000
0100
0000
0000
0000
0000
0000
0000
0000
0000
,
0010
0000
1000
0000
0100
0000
0001
0100
0000
0000
0000
0000
0000
0000
0000
2000
,
0000
0000
3001
0000
0100
0000
0010
1000
0000
0000
0000
0000
0000
0000
0000
0002
,
0000
0000
0000
0000
1003
0000
0100
0010
0000
0000
0000
0000
0000
0000
0000
0000
,
M000
2002
0000
0000
,
0000
0000
0000
0000
,
0000
0000
0000
0000
,
0000
0000
0000
3003
,
0000
0000
1000
0100
0010
0002
0000
0103
,
0010
1000
0001
0010
0100
0020
0000
1030
,
0010
0001
0100
0010
1000
0020
0000
0130
,
0001
1000
1100
0000
0110
0000
0010
0001
,
0100
0010
0001
0010
1000
0020
0000
0130
,
0001
1000
0100
0010
0001
0200
0000
0301
,
0010
0100
1000
0100
0010
0200
0000
0310
,
0001
0100
0010
0002
0000
0000
0013
2000
,
0000
3001
0010
0000
0100
0010
0001
0100
,
0010
1000
0000
0001
0010
0000
0110
0000
,
1001
0000
1000
0010
0001
1000
0000
0100
,
0001
0000
1001
0000
1000
0100
0001
0000
,
0101
0000
0100
0010
0001
0200
0000
1300
,
0100
0001
0010
1000
0010
0002
0000
0103
,
0010
1000
0001
0010
0100
2000
0000
3010
,
0100
0001
1001
0000
1100
0000
0200
0320
,
0032
2003
3010
0100
1000
0100
0001
1000
,
0100
0001
0100
1000
0001
0100
0010
1000
,
0010
0100
1000
0100
0001
0010
0100
0010
,
0001
0100
0020
0000
2030
0000
3001
0010
,
1000
0010
0100
1000
0001
0100
0010
0001
,
0010
0100
0001
1000
0100
0010
0100
1000
,
0001
1000
0010
0001
1000
0100
0001
0010
,
0100
1000
0001
0200
0000
0000
0310
2000
,
0000
3001
0010
0100
0001
0100
1000
0010
,
0100
1000
0000
0100
0001
1000
1001
0000
,
0011
0000
0010
0100
0010
0001
0000
0100
,
0010
0001
1000
0100
0010
0000
1000
0100
,
0001
1000
0010
0100
1000
0002
0000
0103
,
0010
0001
0010
1000
0010
0200
0000
0301
,
1000
0100
0010
0100
1000
0020
0000
0130
,
0001
1000
0200
0000
0301
0200
0000
1300
,
0010
0000
0110
0000
0100
0001
1000
0100
,
0001
0100
1000
0000
0001
0100
1000
0100
,
0010
1000
0100
0000
1000
0010
1000
0001
,
0010
0100
2100
0000
3001
0000
0102
0000
,
1003
0000
1020
0000
0130
1000
0100
0001
,
0010
0100
0001
0000
0100
0010
0001
0100
,
0010
1000
0010
0000
0100
0001
1000
0100
,
0010
0000
0000
0001
0000
0000
0100
0000
0000
0000
0000
0000
0001
0000
0100
0000
0010
0000
1000
0000
0000
0002
0000
0000
,
0000
0013
0100
0001
0100
1000
0010
0100
,
0010
0001
1000
0100
0001
0010
0100
1000
,
0100
0001
0100
1000
0010
0100
0001
0100
,
1000
0100
0001
1000
0100
0010
0002
0000
,
1003
0010
0110
0000
0100
0001
1000
0010
,
0001
0010
1000
0100
0010
0100
1000
0100
,
0001
0100
1000
0010
0100
0001
1000
0100
,
0010
0001
0200
0000
1300
0200
0000
0301
,
0010
0000
0110
0000
0100
1000
0001
0100
,
1000
0100
0010
1000
0100
0010
0100
1000
,
0001
0100
1000
0001
0010
0100
0001
1000
,
0100
0010
0100
1000
0001
0100
1000
0100
,
0001
1000
0100
0010
0001
0100
0001
0010
,
0100
1000
0010
0100
1000
0100
0010
1000
,
0100
0010
0100
1000
0001
0010
1000
0010
,
0001
1000
0010
0000
1000
0100
0000
0001
,
0100
0000
0010
0000
0001
0100
0000
1000
,
0100
0000
0001
1000
0100
0010
0001
0100
,
0010
0000
0000
2002
0000
0000
0000
0000
,
0000
0000
0000
0000
,
0000
0000
0000
0000
0000
0000
0000
3003
0000
0000
0000
0000
0000
0000
0000
0000
;

//---------------dance-single - ----------------
#NOTES:
     dance-single:
     :
     Hard:
     18:
     0.912269,1.133575,0.322995,0.585429,0.104301,949.000000,901.000000,48.000000,87.000000,1.000000,0.000000,0.912269,1.133575,0.322995,0.585429,0.104301,949.000000,901.000000,48.000000,87.000000,1.000000,0.000000:
0000
0000
0000
0000
,
0000
0000
0000
0000
,
0000
0000
0000
0000
,
0000
0000
0000
0000
,
0000
0000
0000
0000
,
0000
0000
0000
0000
,
0000
0000
0000
0000
,
0000
0000
0000
0000
,
1000
1100
0000
0000
0001
0201
0000
0310
,
2000
0000
3001
0010
0100
0010
0001
0100
,
0010
1000
0010
0100
0001
0010
0200
0000
,
1300
0010
0100
0001
0010
0100
2000
0000
,
3001
0100
1000
0100
0001
0000
1000
0001
,
1001
0000
1000
0100
0010
0001
0100
0010
,
0001
0010
0100
0001
0010
0100
2000
0000
,
3001
0100
0010
1000
0100
0001
0100
1000
,
0010
0000
1000
0010
0000
0001
0010
0000
,
1000
0100
0000
0001
0100
0000
1001
0000
,
0000
0000
0000
0000
0001
0100
0010
0001
,
0020
0000
0000
1030
1001
0000
0001
0010
,
0100
1000
0010
0100
1000
0100
0010
1000
,
0200
0000
0310
0001
0000
1000
0010
0000
,
1010
0000
1000
0100
0000
0010
0001
0100
,
0020
0000
1030
0100
0002
0000
1003
0010
,
0001
0100
0010
1000
0010
0100
0001
0010
,
0002
0000
1003
0010
0000
0100
0001
0010
,
0001
1000
0010
0001
1000
0100
0001
0010
,
0100
0000
1000
0010
0100
0001
0100
1000
,
0200
0000
0310
1000
0100
0001
0100
0010
,
0001
0000
1000
0010
0000
0100
0001
0010
,
0200
0000
0000
1300
0000
0001
0100
0010
,
0001
0010
1000
0100
0020
0000
0031
0100
,
0010
1000
0010
0001
0010
0100
0000
0001
,
1000
0000
0100
0001
0000
0100
0010
0001
,
0100
0010
1000
0100
0010
1000
0010
0000
,
0002
0000
0203
0000
2300
0000
3001
0010
,
1000
0000
0100
0001
0000
0100
1000
0000
1001
0000
0000
0000
0002
0000
0000
0000
,
2003
0000
3200
0000
0302
0000
1003
0010
,
0100
0000
1000
0001
0000
0100
0010
0000
0200
0000
0000
0000
0000
0000
0300
0000
,
0101
0110
0101
0110
,
1010
1001
0011
1001
,
1100
0110
1100
0110
,
0011
1001
0101
1001
,
1000
0100
0010
0001
0200
0000
0301
0010
,
0100
1000
0020
0000
0130
0001
1000
0100
,
0010
0001
0100
0010
0100
1000
0100
0001
,
2000
3000
1001
0000
,
0001
0100
1000
0100
0001
0000
1000
0100
,
0010
0100
1000
0020
0000
0130
0001
1000
,
0100
0000
0010
0002
0000
0103
1000
0100
,
0010
0000
1000
0002
0000
0013
0100
0000
,
1100
0000
1001
0000
0001
0100
0010
0001
,
0010
0000
1000
0200
0000
0310
0001
0100
,
1000
0000
0100
0020
0000
1030
0001
0010
,
0100
0000
0001
0200
0000
0310
0001
0100
,
0010
1000
2002
3003
,
0001
0000
0100
0010
1000
0100
0001
0100
,
0000
0010
0001
0000
0101
0000
1010
0000
,
0020
0000
1030
0001
0000
0010
1000
0000
,
0010
0001
1000
0000
0010
0100
0001
1000
,
0100
0010
0001
0200
0000
0310
1000
0000
,
0001
0010
0100
0020
0000
0031
0100
0000
,
1000
0100
0001
0020
0000
0130
1000
0000
,
1001
0000
0001
0100
0000
1000
0100
0000
,
0110
0000
0010
1000
0100
0010
0001
0000
,
0100
0000
1000
0100
0000
0001
0010
0000
,
0200
1000
0320
0001
,
0130
0000
1000
0010
0000
0100
0001
0000
,
1001
0000
1000
0000
0001
0010
0100
1000
,
0010
0000
0100
0000
1000
0100
0001
0010
,
0200
0000
0000
0000
,
1300
0010
0100
1000
0100
0001
0010
0100
,
1000
0000
0001
0100
0020
0000
0000
0000
,
1030
0100
0010
0001
0100
0010
1000
0000
,
0010
0100
0010
0001
0010
1000
0100
0010
,
0100
0010
0100
0010
0100
0010
0001
1000
0001
1000
0001
0100
,
0010
1000
1001
0101
,
0001
0100
1000
0000
1000
0100
0001
1000
,
0001
0100
1000
0001
0010
1000
0100
0000
,
0001
0100
1000
0001
0100
0010
0001
0010
,
2000
0000
3001
0100
0010
1000
0100
0010
,
0002
0000
0013
0100
1000
0100
0001
0100
,
0020
0000
0031
0100
0010
1000
0010
0001
,
0020
0000
0130
0001
1000
0100
0010
0001
,
1000
0010
0100
0001
0010
0100
1000
0010
,
0001
0010
1000
0100
0010
0001
0100
0020
,
0000
0000
1030
0001
0010
0100
0010
0001
,
1000
0000
0010
0000
1000
0000
0010
0000
0000
0100
0000
0000
0001
0000
1000
0000
0001
0000
1000
0000
0001
0000
1000
0000
,
0100
0000
0010
0000
0001
0000
1000
0010
0000
0000
0000
0000
0000
0000
0000
0200
,
0000
0000
0301
0000
1000
0000
0001
0010
0000
0000
0000
0000
0000
0000
0001
0000
,
0100
0000
0010
0000
1000
0000
0001
0010
0000
0000
0000
0000
0000
0000
0000
0000
,
0100
0000
0010
0000
0001
0000
2000
0000
0000
3010
0000
0000
0000
0000
1000
0000
,
0010
0000
0001
0000
0010
0000
0100
0002
0000
0000
0000
0000
0000
0000
0000
0000
,
1003
0000
0100
0000
0010
0000
0100
1000
0000
0000
0000
0000
0000
0000
0000
0002
,
0000
0000
0000
0000
0103
0000
0010
1000
0000
0000
0000
0000
0000
0000
0000
0002
,
0000
0000
0000
0000
1003
0000
0100
0010
0000
0000
0000
0000
0000
0000
0000
0000
,
000M
2002
0000
0000
,
0000
0000
0000
0000
,
0000
0000
0000
0000
,
0000
0000
0000
3003
,
0000
0000
0001
0100
0010
2000
0000
3001
,
0010
0001
0100
0000
0010
2000
0000
3100
,
0010
0001
1000
0000
0010
0200
0000
0301
,
1000
0000
1100
0000
1001
0000
0001
0010
,
0100
1000
0010
0000
0100
0002
0000
1003
,
0100
0010
0100
0000
1000
0020
0000
0130
,
1000
0100
0001
0000
1000
0200
0000
0310
,
0001
0100
1000
0000
0100
0000
0220
0000
,
0330
0000
0020
0000
1030
0100
0010
0100
,
1000
0001
0000
0100
0010
0000
0110
0000
,
1001
0000
2000
0000
3001
0010
0000
1000
,
0010
0000
0011
0000
0001
0100
0010
0000
,
1010
0000
1000
0001
0010
0100
0000
0010
,
0001
0000
0100
0010
0001
0010
0000
1000
,
0001
0000
0010
0100
1000
0001
0000
0100
,
0010
1000
0002
0000
0100
0000
0103
0010
,
1000
0010
0100
0001
1000
0100
0010
0001
,
0100
0001
0010
0100
1000
0010
1000
0100
,
0010
0100
1000
0001
0100
1000
0100
0001
,
0010
0100
0020
0000
0032
0000
1003
0010
,
0100
0000
0001
0010
0100
0010
0001
1000
,
0010
0001
0010
1000
0001
0010
0100
0010
,
0001
0010
0100
1000
0010
1000
0001
0010
,
0100
0010
0002
0000
1003
0000
2002
0000
,
3003
0000
2000
0000
3010
0001
0010
1000
,
0100
0010
0000
0001
0100
0000
0110
0000
,
1001
0000
0002
0000
0103
0010
0000
1000
,
0100
0000
0010
0001
1000
0000
0001
0100
,
0010
1000
0001
0010
0100
0020
0000
0031
,
1000
0000
0010
0100
1000
0200
0000
0310
,
1000
0000
0001
0010
0100
0020
0000
0031
,
1000
2010
0001
3002
,
0000
0000
0023
0000
0130
1000
0100
0010
,
0001
0100
0010
0000
1000
0001
0010
0100
,
0010
0001
0100
0000
0010
1000
0001
0010
,
1000
0010
0002
0000
0000
0000
0203
0000
,
0000
0000
0320
0000
1030
0001
0010
0100
,
0010
0001
0100
0000
1000
0100
0001
0100
,
0010
1000
0001
0000
0010
0001
0100
0010
,
1000
0000
0000
0000
0000
0000
0002
0000
0000
0000
0000
0000
1003
0000
0100
0000
1000
0000
0100
0000
0000
2000
0000
0000
,
0000
3001
0200
0000
0310
1000
0001
0010
,
0100
0010
0001
1000
0010
0100
0001
1000
,
0100
0000
0001
0100
0010
0001
1000
0010
,
0100
0010
0001
0010
0100
0001
1000
0000
,
0001
0010
0200
0000
0310
0001
1000
0010
,
0001
0010
1000
0001
0010
0100
0010
0001
,
0100
0000
0001
1000
0010
0100
0001
0100
,
0010
0000
2000
0000
3001
0020
0000
0130
,
1000
0000
1001
0000
0001
0100
0010
1000
,
0010
0100
0001
1000
0100
0010
0001
0100
,
0001
0010
0001
1000
0001
1000
0010
1000
,
0100
0010
0100
1000
0100
0010
0001
0100
,
0001
0100
0010
0000
1000
0100
1000
0001
,
0100
0010
1000
0010
1000
0001
0010
0100
,
0010
0001
1000
0010
1000
0010
0100
0001
,
1000
0100
0010
0000
0001
0010
0000
0001
,
0010
0000
0100
0000
1000
0010
0000
1000
,
0010
0000
0100
0001
0100
0010
0000
1000
,
0001
0000
0000
2002
0000
0000
0000
0000
,
0000
0000
0000
0000
,
0000
0000
0000
0000
0000
0000
0000
3003
0000
0000
0000
0000
0000
0000
0000
0000
;

//---------------dance-double - ----------------
#NOTES:
     dance-double:
     :
     Challenge:
     19:
     0.944953,1.349494,0.309537,0.612345,0.265798,983.000000,937.000000,46.000000,91.000000,1.000000,0.000000,0.944953,1.349494,0.309537,0.612345,0.265798,983.000000,937.000000,46.000000,91.000000,1.000000,0.000000:
// measure 0
00000000
00000000
00000000
00000000
,  // measure 1
00000000
00000000
00000000
00000000
,  // measure 2
00000000
00000000
00000000
00000000
,  // measure 3
00000000
00000000
00000000
00000000
,  // measure 4
00000000
00000000
00000000
00000000
,  // measure 5
00000000
00000000
00000000
00000000
,  // measure 6
00000000
00000000
00000000
00000000
,  // measure 7
00000000
00000000
00000000
00000000
,  // measure 8
00001000
01001000
00000000
00000000
00010000
00010200
00000000
00000310
,  // measure 9
00000002
00000000
00001003
00000010
00000100
00001000
00010000
01000000
,  // measure 10
10000000
00010000
10000000
00100000
01000000
00001000
00010000
00000000
,  // measure 11
00001000
00000100
00000010
00001000
00000001
00000010
00000100
00000000
,  // measure 12
00010000
00001000
00000100
00001000
00010000
00000000
00100000
01000000
,  // measure 13
01100000
00000000
00100000
10000000
00010000
00100000
01000000
10000000
,  // measure 14
01000000
00010000
00001000
01000000
00100000
00010000
00001000
00000000
,  // measure 15
00010000
00001000
00000100
00000001
00000010
00000100
00010000
00001000
,  // measure 16
01001000
00000000
00010000
00010100
00000000
00001000
00101000
00000000
,  // measure 17
00010000
00010010
00000000
00001000
00011000
00000000
00022000
00000000
,  // measure 18
00000000
00000000
00033000
00000000
00000000
00000000
00001000
00010000
00001000
00000000
01000000
00000000
00010000
00000000
00100000
00000000
,  // measure 19
02000000
00000000
13000000
00010000
01000000
00000000
00100000
00010000
,  // measure 20
00001000
00100000
00001000
00010000
00000100
00001000
00000100
00000010
,  // measure 21
00000001
00000000
00000100
00001000
00000000
00000100
00000010
00000000
,  // measure 22
00020000
00000000
00000000
00030100
00000000
00001000
00010000
00100000
,  // measure 23
02000000
00000000
00000000
00000000
03100000
00000000
00010000
00100000
02000000
00000000
00000000
00000000
13000000
00000000
00010000
00000000
,  // measure 24
01000000
00100000
00010000
00001000
00010000
01000000
00000000
00100000
,  // measure 25
00001000
00000000
00010000
00000010
00000000
00001000
00000002
00000000
,  // measure 26
00000013
00000100
00000010
00000001
00001000
00000010
00010000
00000100
00010000
00001000
00100000
00010000
,  // measure 27
00200000
00000000
01300000
10000000
00010000
01000000
00000000
01000000
,  // measure 28
10000000
01000000
00010000
00100000
00001000
00000000
00010000
00000010
,  // measure 29
00000100
00000000
00000001
00001000
00000100
00000000
00000010
00000000
,  // measure 30
00000001
00000010
00001000
00010000
00000000
00001000
01000000
00100000
,  // measure 31
00010000
00100000
10000000
00010000
20010000
00000000
31000000
00010000
,  // measure 32
00001000
00010000
01000000
00100000
00001000
00010000
00000000
00000010
,  // measure 33
00001000
00000000
00000010
00000001
00000000
00000010
00010000
00000100
,  // measure 34
00001000
00010000
00100000
10000000
00100000
00010000
10000000
00000000
,  // measure 35
10020000
00000000
02030000
00000000
03200000
00000000
00310000
00001000
,  // measure 36
00000100
00000000
00000001
00000010
00000000
00001000
00000010
00000000
00000002
00000000
00000000
00000000
00000203
00000000
00000000
00000000
,  // measure 37
00002300
00000000
02003000
00000000
03020000
00000000
10030000
01000000
,  // measure 38
00010000
00000000
00001000
00000100
00000000
00001000
00010000
00000000
00022000
00000000
00000000
00000000
00033000
00000000
00000000
00000000
,  // measure 39
01001000
01100000
10010000
10000000
,  // measure 40
11000000
01100000
00101000
00001000
,  // measure 41
00010010
00000110
00000101
00000001
,  // measure 42
00001001
00001100
00010100
00010000
,  // measure 43
00001000
01000000
00010000
00100000
00002000
00000000
00013000
00000010
,  // measure 44
00001000
00000100
00020000
00000000
00030100
00001000
00000100
00000010
,  // measure 45
00000001
00000100
00001000
00010000
01000000
10000000
00010000
10000000
,  // measure 46
00200000
00000000
02300000
00000000
,  // measure 47
03001000
00100000
00010000
00001000
00000200
00000000
00000310
00000001
,  // measure 48
00002000
00000000
00003010
00010000
00000000
00001000
00010000
01000000
,  // measure 49
00200000
00000000
00310000
10000000
00000000
00100000
01000000
00001000
,  // measure 50
00020000
00000000
00030100
00000010
00000000
00000001
00001000
00000010
,  // measure 51
00010010
00000000
00011000
00000000
00001000
00010000
01000000
10000000
,  // measure 52
00020000
00000000
10030000
00100000
00000000
01000000
00001000
00100000
,  // measure 53
00020000
00000000
00031000
00000100
00000000
00000010
00000001
00001000
,  // measure 54
00000020
00000000
00010030
00000100
00000000
00010000
00001000
00100000
,  // measure 55
00010000
02000000
00000000
00000000
13000000
02000000
00000000
03010000
,  // measure 56
10000000
00000000
01000000
00100000
00001000
00010000
00000010
00000200
,  // measure 57
00000000
00001300
00000100
00000000
00000101
00000000
00001001
00000000
,  // measure 58
00002000
00000000
00003100
00010000
00000000
00000010
00001000
00000000
,  // measure 59
00000001
00000010
00001000
00000000
00000010
00000100
00010000
00001000
,  // measure 60
01000000
00010000
00100000
02000000
00000000
13000000
00010000
00000000
,  // measure 61
01000000
00001000
00100000
00020000
00000000
00031000
00000100
00000000
,  // measure 62
00000010
00000001
00001000
00000020
00000000
00010030
00001000
00000000
,  // measure 63
00200000
00000000
10300000
00200000
00000000
00310000
01000000
00000000
,  // measure 64
01002000
00000000
00013000
00000010
00001000
00000100
00000010
00000000
,  // measure 65
00000001
00000000
00001000
00000100
00000000
00000010
00000100
00000000
,  // measure 66
00020000
00000000
00000000
00000000
00000000
00000000
00031000
00000000
00000000
00000000
00000000
00000000
01000000
00000000
00000000
00010000
00000000
00000000
10000000
00000000
01000000
00000000
00100000
00000000
,  // measure 67
00020000
00000000
01030000
00001000
00000000
00010000
00000010
00000000
,  // measure 68
00000200
00000000
00000301
00000000
00001000
00000010
00010000
00001000
,  // measure 69
00200000
00000000
01300000
00000000
10000000
01000000
00010000
00001000
,  // measure 70
00020000
00000000
00000000
00000000
,  // measure 71
00030010
00001000
00000001
00000010
00000100
00010000
00001000
01000000
,  // measure 72
00100000
00000000
10000000
00010000
00200000
00000000
00000000
00000000
,  // measure 73
00301000
00010000
00000010
00001000
00000020
00000000
00000130
00000001
,  // measure 74
00001000
00000100
00010000
00001000
00010000
00001000
01000000
00010000
00100000
01000000
00100000
01000000
,  // measure 75
10000000
00010000
10000000
01000000
00100000
00010000
00100000
00001000
00010000
00000010
00001000
00000010
,  // measure 76
00000100
00000002
00002003
00003100
,  // measure 77
00010000
00000000
00000100
00000000
00010000
00000000
00001000
00000000
00000000
00000000
00000000
00000000
02000000
00000000
00000000
00000000
00000000
00000000
03010000
00000000
00000000
10000000
00000000
00000000
,  // measure 78
01000000
00100000
01000000
00100000
00001000
00010000
00000010
00001000
00000010
00001000
00000001
00000010
,  // measure 79
00000100
00001000
00000100
00000010
00000001
00001000
00000010
00010000
00000010
00010000
00001000
00010000
,  // measure 80
00002000
00000000
01003000
00100000
10000000
00010000
10000000
00000000
,  // measure 81
02000000
00000000
03100000
00001000
00010000
00000010
00001000
00000000
,  // measure 82
00000020
00000000
00000130
00000001
00001000
00000100
00010000
00000000
,  // measure 83
00002000
00000000
01003000
00010000
10000000
01000000
00100000
00000000
,  // measure 84
00001000
00000000
00010000
00000000
00001000
00000000
00010000
00000000
00000000
00000010
00000000
00000000
00001000
00000000
00000010
00000000
00001000
00000000
00000001
00000000
00000000
00000100
00000000
00000000
,  // measure 85
00000010
00000000
00010000
00000000
00001000
00000000
00010000
00000000
00000000
00001000
00000000
00000000
01000000
00000000
00010000
00000000
01000000
00000000
00200000
00000000
00000000
00000000
00000000
00000000
,  // measure 86
00000000
00000000
10300000
00010000
00100000
01000000
00100000
00001000
,  // measure 87
00010000
00000010
00001000
00000010
00000100
00000001
00000100
00000010
00001000
00000010
00010000
00001000
,  // measure 88
00010000
00000000
00001000
00000000
01000000
00000000
00100000
10000000
00000000
00000000
00000000
00000000
00000000
00000000
00000000
00020000
,  // measure 89
00000000
00000000
00130000
00000000
00001000
00000000
00010000
00000010
00000000
00000000
00000000
00000000
00000000
00000000
00000100
00000000
,  // measure 90
00000001
00000000
00000010
00000000
00001000
00000000
00010000
00000100
00000000
00000000
00000000
00000000
00000000
00000000
00000000
00000000
,  // measure 91
00010000
00000000
00001000
00000000
00010000
00000000
02000000
00000000
00000000
13000000
00000000
00000000
00000000
00000000
00100000
00000000
,  // measure 92
00010000
00000000
00001000
00000000
00100000
00000000
00001000
00010000
00000000
00000000
00000000
00000000
00000000
00000000
00000000
00000000
,  // measure 93
00000100
00000000
00000010
00000000
00000001
00000000
00000100
00001000
00000000
00000000
00000000
00000000
00000000
00000000
00000000
00020000
,  // measure 94
00000000
00000000
00031000
00000000
00100000
00000000
01000000
00100000
00000000
00000000
00000000
00000000
00000000
00000000
00000000
00002000
,  // measure 95
00000000
00000000
00000000
00000000
00013000
00000000
00000010
00000100
00000000
00000000
00000000
00000000
00000000
00000000
00000000
00000000
,  // measure 96
0000000M
00002002
00000000
00000000
,  // measure 97
00000000
00000000
00000000
00000000
,  // measure 98
00000000
00000000
00000000
00000000
,  // measure 99
00000000
00000000
00000000
00003003
,  // measure 100
00000000
00000000
00000002
00000000
00000013
00000100
00000000
00010000
,  // measure 101
00001000
01000000
00200000
00000000
10300000
00010000
00000000
10000000
,  // measure 102
01000000
00100000
00002000
00000000
00013000
00000010
00000000
00000100
,  // measure 103
00000001
00001000
00001100
00000000
00010100
00000000
00010000
00001000
,  // measure 104
00010000
01000000
20000000
00000000
30010000
01000000
00000000
00100000
,  // measure 105
00010000
00001000
00020000
00000000
00030010
00001000
00000000
00000001
,  // measure 106
00000010
00001000
00020000
00000000
00030100
00001000
00000000
00000100
,  // measure 107
00010000
00001000
00100000
02000000
00000000
00000000
13000000
02000000
,  // measure 108
00000000
03100000
00001000
00000000
00010000
00000010
00001000
00000100
,  // measure 109
00000010
00000001
00000000
00001000
00000010
00000000
00000110
00000000
,  // measure 110
00001001
00000000
00001000
00000000
00000100
00010000
00000000
00001000
,  // measure 111
01000000
00000000
00100000
00000000
10000000
00010000
00100000
00000000
,  // measure 112
00101000
00000000
00001000
00010000
00001000
00000200
00000000
00000301
,  // measure 113
00001000
00000000
00000100
00010000
00001000
00200000
00000000
01300000
,  // measure 114
10000000
00000000
01000000
00010000
00001000
00020000
00000000
00030010
,  // measure 115
00001000
00000000
00001001
00000000
00000011
00000000
00000020
00000230
,  // measure 116
00002300
00003200
00010300
00001000
00010000
00100000
01000000
00010000
,  // measure 117
10000000
01000000
00100000
01000000
10000000
01000000
00010000
00001000
,  // measure 118
00100000
00001000
00010000
00000010
00000100
00001000
00000100
00000001
,  // measure 119
00001000
00000100
00020000
00000000
00032000
00000000
01003000
00010000
,  // measure 120
00100000
01000000
10000000
01000000
00100000
00001000
00010000
00000010
,  // measure 121
00001000
00000100
00000001
00000100
00001000
00000010
00010000
00000100
,  // measure 122
00001000
00010000
00100000
01000000
00100000
00010000
10000000
00100000
,  // measure 123
01000000
00001000
00010000
00000200
00000000
00000000
00000310
00000200
,  // measure 124
00000000
00010300
00001000
00000000
01000000
00010000
00100000
01000000
,  // measure 125
10000000
01000000
00000000
00100000
00001000
00000000
00011000
00000000
,  // measure 126
00010010
00000000
00000010
00000000
00001000
00000100
00000000
00000001
,  // measure 127
00000100
00000000
00010000
00001000
01000000
00000000
00100000
10000000
,  // measure 128
01000000
00010000
00001000
00000010
00000001
00001000
00000000
00000010
,  // measure 129
00000100
00000000
00001000
00010000
00100000
10000000
00000000
00010000
,  // measure 130
00100000
00000000
01000000
00010000
00001000
00000010
00000000
00000100
,  // measure 131
00010000
00000000
00001000
00000000
01000000
00100000
00000000
10000000
,  // measure 132
00010000
00000000
10010000
00000000
10000000
01000000
00100000
00001000
,  // measure 133
01000000
00010000
00100000
00000000
00001000
00010000
00000010
00000100
,  // measure 134
00000001
00001000
00000100
00000000
00000001
00000100
00001000
00000010
,  // measure 135
00010000
00001000
00012000
00000000
01003000
00000000
00021000
00000000
,  // measure 136
00030100
00000000
00011000
00000000
00001000
01000000
00010000
00100000
,  // measure 137
01000000
10000000
01000000
00000000
00010000
01000000
00100000
00001000
,  // measure 138
00010000
00000010
00001000
00000000
00000010
00000001
00000010
00001000
,  // measure 139
00000001
00000000
00000000
00000010
00000000
00000000
00000100
00000000
00000000
00000000
00000000
00000000
00010000
00000000
00000100
00000000
00010000
00000000
00001000
00000000
00000000
02000000
00000000
00000000
,  // measure 140
00000000
03010000
10010000
00000000
10000000
01000000
00100000
01000000
,  // measure 141
10000000
00010000
01000000
00001000
00010000
00000010
00001000
00000001
,  // measure 142
00000010
00001000
00000010
00000001
00000100
00000010
00010000
00000100
,  // measure 143
00010000
00001000
01000000
00100000
00010000
00100000
10000000
00000000
,  // measure 144
00010000
10000000
10010000
00000000
10000000
01000000
00010000
01000000
,  // measure 145
00100000
00001000
00010000
00000010
00001000
00000100
00010000
00000100
,  // measure 146
00001000
00000010
00000100
00001000
00000100
00000001
00001000
00000100
,  // measure 147
00010000
00000000
00002000
00000000
01003000
00200000
00000000
10300000
,  // measure 148
00010000
00000000
00200000
00000000
00310000
01000000
00100000
10000000
,  // measure 149
00010000
00100000
00001000
00010000
00000010
00001000
00000010
00000100
,  // measure 150
00000001
00001000
00000100
00000010
00000100
00001000
00000100
00010000
,  // measure 151
00001000
01000000
00100000
10000000
00010000
00100000
00001000
00010000
,  // measure 152
00000010
00000100
00000002
00000000
00001003
00000100
00010000
00001000
,  // measure 153
01000000
00010000
00100000
00001000
00010000
00000100
00001000
00000010
,  // measure 154
00000100
00000001
00001000
00000100
00010000
00001000
01000000
00010000
,  // measure 155
00100000
00001000
00010000
00000000
00000100
00000010
00000000
00000100
,  // measure 156
00010000
00000000
00001000
00000000
01000000
00100000
00000000
01000000
,  // measure 157
00010000
00000000
10000000
00100000
01000000
00001000
00010000
00000010
,  // measure 158
00000100
00000000
00000000
00002002
00000000
00000000
00000000
00000000
,  // measure 159
00000000
00000000
00000000
00000000
,  // measure 160
00000000
00000000
00000000
00000000
00000000
00000000
00000000
00003003
00000000
00000000
00000000
00000000
00000000
00000000
00000000
00000000
;

//---------------dance-single - ----------------
#NOTES:
     dance-single:
     :
     Medium:
     15:
     0.760385,0.863676,0.094207,0.336453,0.047103,791.000000,777.000000,14.000000,50.000000,1.000000,0.000000,0.760385,0.863676,0.094207,0.336453,0.047103,791.000000,777.000000,14.000000,50.000000,1.000000,0.000000:
0000
0000
0000
0000
,
0000
0000
0000
0000
,
0000
0000
0000
0000
,
0000
0000
0000
0000
,
0000
0000
0000
0000
,
0000
0000
0000
0000
,
0000
0000
0000
0000
,
0000
0000
0000
0000
,
0001
0001
0000
0000
1000
2000
0000
3010
,
0100
0000
0001
0100
0010
1000
0001
1000
,
0100
0010
0001
0010
0100
0010
0001
0000
,
1000
0010
0100
0001
0100
0010
1000
0000
,
0001
0010
0100
1000
0001
0000
1000
0000
,
1001
0000
0001
0010
0100
1000
0001
1000
,
0010
0100
0010
1000
0001
1000
0100
0000
,
0010
0001
0010
0100
1000
0001
1000
0000
,
1001
0000
0001
0100
0000
0100
1000
0000
,
1000
0010
0000
0010
0001
0000
2002
0000
,
0000
0000
3003
0000
,
0001
0000
0100
0010
0000
0010
0000
1000
,
0001
0000
1000
0100
0010
0001
1000
0000
,
0020
0000
0000
0130
0000
0001
1000
0000
,
0200
0000
0000
0310
0000
0001
1000
0010
,
0100
0000
0001
0100
0020
0000
1030
0001
,
0010
0100
1000
0001
0100
0010
0000
1000
,
0002
0000
0000
1003
0000
0100
0010
0001
,
1000
0010
0100
0010
0001
0010
1000
0001
,
1000
0000
0100
0010
0001
1000
0010
0100
,
0001
0000
0001
0000
1000
0100
0000
0100
,
0020
0000
0000
0031
0000
0100
0010
0000
,
2000
0000
0000
3010
0000
0100
0001
1000
,
0100
0010
0100
1000
0002
0000
1003
0010
,
0100
0000
1000
0000
0100
0001
0000
0001
,
2000
0000
0000
3100
0000
0010
0001
0100
,
0010
1000
0001
1000
0100
0001
0100
0000
,
2000
0000
3002
0000
0203
0000
0000
0310
,
1000
0000
0001
0010
0000
0010
0100
0000
1000
0000
0000
0000
0002
0000
0000
0000
,
0203
0000
2300
0000
3200
0000
0000
0310
,
1000
0000
0100
0010
0000
0010
0001
0000
2002
0000
0000
0000
3003
0000
0000
0000
,
0001
0100
0010
0010
,
1000
0001
0010
0010
,
0100
1000
0001
0001
,
0100
0001
1000
1000
,
0001
0010
0100
1000
0001
0000
1000
0010
,
0100
0001
1000
0000
0001
0010
0100
1000
,
0100
0010
0001
1000
0010
0100
0001
0100
,
0020
0000
2030
0000
,
3001
0100
0010
0100
0001
0000
1000
0100
,
0010
0000
0001
0100
0000
0001
0100
0010
,
0100
0000
0010
1000
0000
0010
1000
0001
,
0010
0000
0100
0010
0000
0100
0010
0000
,
0002
0000
1003
0000
0010
1000
0001
0100
,
0010
0000
1000
0010
0000
1000
0010
0100
,
0001
0000
0010
0001
0000
0010
0001
1000
,
0100
0000
1000
0001
0000
1000
0010
0100
,
0010
0100
0220
0330
,
0100
0000
0001
1000
0001
0010
0100
1000
,
0000
1000
0001
0000
0200
0000
0310
0000
,
1000
0000
0001
0010
0000
0010
0100
0000
,
1000
0001
1000
0000
0001
0100
0001
0000
,
0100
0010
1000
0001
0000
0001
1000
0000
,
0100
0010
0001
1000
0000
1000
0001
0000
,
0100
0010
1000
0002
0000
0000
1003
0000
,
0100
0000
1000
0001
0000
0100
0010
0000
,
2000
0000
0000
0000
3001
0100
0010
1000
,
0010
0000
0100
0001
0000
1000
0010
0000
,
2000
0000
3002
0000
,
0013
0000
0100
0010
0000
0010
0001
0000
,
2000
0000
3010
0100
,
0001
0000
1000
0100
0000
0000
1000
0000
,
2002
0000
0000
3003
,
0001
0100
0010
1000
0001
1000
0100
0010
,
0001
1000
0020
0000
,
0000
0000
0030
1000
,
0001
0010
0100
0000
1000
0001
0100
0000
,
0010
1000
0001
1000
0100
0010
0001
1000
,
0001
0010
0011
1001
,
0001
0100
0010
0000
1000
0000
0010
0100
,
0001
1000
0100
0000
0010
0100
1000
0000
,
0001
0100
0010
0100
0001
1000
0001
1000
,
0100
0000
1000
0000
0001
0010
0001
0000
,
1000
0000
0010
0000
0100
0001
0100
0000
,
0001
0000
0010
0000
0100
1000
0100
0000
,
0010
0000
0001
0000
0100
0010
0100
0000
,
0010
1000
0100
0000
0010
0001
0100
0000
,
0010
1000
0100
0010
0001
1000
0020
0000
,
0000
0000
0130
0000
0001
0000
1000
0100
,
0010
0001
0100
0010
1000
0100
0010
0000
,
0001
0000
0100
0000
0010
0000
1000
0010
0000
0000
0000
0000
0000
0000
0000
0000
,
0000
0000
0100
0000
0001
0000
1000
0100
0000
0000
0000
0000
0000
0000
0010
0000
,
0001
0000
0100
0000
0010
0000
1000
0010
0000
0000
0000
0000
0000
0000
0000
0000
,
0100
0000
0001
0000
1000
0000
0200
0000
0000
0310
0000
0000
0000
0000
0001
0000
,
1000
0000
0010
0000
0100
0000
0001
0100
0000
0000
0000
0000
0000
0000
0000
0000
,
0010
0000
1000
0000
0001
0000
0010
0001
0000
0000
0000
0000
0000
0000
0000
2000
,
0000
0000
0000
0000
3001
0000
0100
0010
0000
0000
0000
0000
0000
0000
0000
0200
,
0000
0000
0000
0000
0301
0000
1000
0100
0000
0000
0000
0000
0000
0000
0000
0000
,
00M0
0220
0000
0000
,
0000
0000
0000
0000
,
0000
0000
0000
0000
,
0000
0000
0000
0330
,
0000
0000
0010
0000
0001
0100
0000
0001
,
1000
0000
0100
0000
0010
0001
0000
1000
,
0010
0000
0100
0000
0001
1000
0000
0100
,
0010
0001
2000
0000
3010
0000
0100
0001
,
0100
0000
0001
0000
1000
0100
0000
0010
,
0001
0000
0100
0000
0010
1000
0000
0001
,
0100
0000
0010
0000
1000
0001
0000
0010
,
0100
1000
0100
0000
1000
0000
2002
0000
,
3003
0000
0001
0000
0100
0000
0010
1000
,
0001
1000
0000
0001
0010
0000
0100
0000
,
0010
0000
0001
0000
0100
0010
0000
0010
,
1000
0000
0001
0000
1000
0001
1000
0000
,
0100
0000
0010
0001
1000
0001
0000
1000
,
0001
0000
0100
0010
1000
0001
0000
1000
,
0001
0000
0010
0100
1000
0001
0000
1000
,
0001
0000
0100
0000
0100
0000
0010
0100
,
0001
0100
0010
1000
0001
1000
0000
0100
,
0010
0001
1000
0000
0001
0100
0000
0010
,
1000
0010
0100
0000
0001
0100
0000
0001
,
1000
0001
0020
0000
0130
0000
1000
0100
,
1000
0100
0010
0000
0001
0100
0000
0001
,
0100
0010
0100
0000
0001
1000
0000
0100
,
0010
0001
1000
0000
0001
0100
0000
0010
,
1000
0001
0100
0000
0001
0000
2002
0000
,
3003
0000
1000
0000
0100
0010
0001
0010
,
0100
1000
0000
0001
0100
0000
0010
0000
,
1000
0000
0010
0000
0100
0001
0000
1000
,
0100
0000
1000
0001
1000
0000
0001
0100
,
0001
0000
0100
0010
1000
0001
0000
0010
,
0001
0000
1000
0100
0010
0001
0000
1000
,
0010
0000
0100
0001
0100
0010
0000
1000
,
0001
0200
0000
0310
,
0000
0000
1000
0000
0001
0000
1000
0100
,
0010
0000
0001
0000
0100
0000
0010
0100
,
0001
0000
1000
0000
0001
0000
0010
0100
,
1000
0002
0000
0103
,
0000
0000
0010
0000
1000
0000
0010
0100
,
0001
0000
1000
0000
0001
0000
0010
0001
,
1000
0000
0100
0000
0010
0000
0001
0100
,
0010
0000
1000
0000
0010
0000
0100
0010
,
0000
0010
0100
0000
0001
1000
0001
0000
,
1000
0100
0010
0001
1000
0000
0001
0100
,
0001
0000
0100
0000
0010
1000
0001
0000
,
1000
0000
0100
0010
0001
1000
0100
0000
,
1000
0000
1001
0000
0001
0100
0001
0000
,
1000
0001
0100
0010
1000
0000
0001
0100
,
0001
0000
1000
0000
0100
0010
0001
0000
,
1000
0000
0001
0000
0001
0100
0000
0100
,
0010
0000
0110
0000
0100
0001
0100
0010
,
1000
0001
1000
0100
0010
0001
0100
0001
,
0100
0000
0010
1000
0001
1000
0100
0010
,
0001
0100
0010
1000
,
0001
1000
0001
0000
1000
0000
0100
0000
,
0010
0001
0100
0001
,
0010
1000
0010
0001
,
0100
0000
0010
0000
1000
0001
0000
1000
,
0001
0000
0010
0000
0100
1000
0000
0100
,
1000
0000
0001
0000
0100
0001
0000
0100
,
0001
0000
0000
2002
0000
0000
0000
0000
,
0000
0000
0000
0000
,
0000
0000
0000
0000
0000
0000
0000
3003
0000
0000
0000
0000
0000
0000
0000
0000
;

//---------------dance-single - ----------------
#NOTES:
     dance-single:
     :
     Easy:
     13:
     0.582545,0.701737,0.154769,0.195143,0.033645,606.000000,583.000000,23.000000,29.000000,1.000000,0.000000,0.582545,0.701737,0.154769,0.195143,0.033645,606.000000,583.000000,23.000000,29.000000,1.000000,0.000000:
0000
0000
0000
0000
,
0000
0000
0000
0000
,
0000
0000
0000
0000
,
0000
0000
0000
0000
,
0000
0000
0000
0000
,
0000
0000
0000
0000
,
0000
0000
0000
0000
,
0000
0000
0000
0000
,
1001
0000
1001
0000
,
0001
0100
0010
1000
,
0001
0000
1000
0000
0100
0010
0001
0000
,
1000
0001
0100
0010
,
1000
0001
1000
0001
1000
0000
0000
0000
,
0001
1000
0100
0010
,
0100
0000
1000
0000
0010
0100
0001
0000
,
1000
0010
0100
0001
,
0101
0000
0000
1010
0000
0000
1100
0000
,
0000
0011
0000
0000
1001
0000
2002
0000
,
0000
0000
3003
0000
,
0001
0000
0000
0100
0010
0000
1000
0000
,
0001
0000
0010
0000
0100
1000
0000
1000
,
0001
0000
0000
0001
0000
0100
0010
0000
,
1000
0000
0000
1000
0000
0100
0010
0100
,
1000
0001
1001
0000
,
1000
0000
0010
0000
0100
0001
0000
0001
,
1000
0000
0000
1000
0000
0100
0010
0000
,
0001
0000
1000
0000
0001
1000
0001
0000
,
0100
0000
0010
0000
1000
0001
0000
1000
,
0100
0000
0010
0000
0001
1000
0000
0001
,
0100
0000
0000
0100
0000
0010
1000
0000
,
0001
0000
0000
0001
0000
0010
0001
0000
,
1000
0001
1001
0000
,
1000
0000
0010
0000
0100
0001
0000
0001
,
1000
0000
0000
1000
0000
0100
0010
0000
,
0001
0000
1000
0000
0001
1000
0001
0000
,
1000
0000
0001
0000
0200
0000
0300
0010
,
1000
0001
0010
0100
1000
0000
0001
0000
,
0100
0000
0001
0000
0020
0000
0030
0100
,
1000
0001
0100
0010
0200
0000
0300
0000
,
0001
0100
0001
0100
,
0010
1000
0010
1000
,
0100
1000
0100
1000
,
0001
0010
0001
0010
,
0001
1000
0010
0100
,
0001
1000
0010
0100
,
0010
0100
0010
0000
1000
0000
0001
0000
,
1001
0000
0000
0000
,
1000
0000
0001
1000
0001
0000
0000
0000
,
1000
0000
0001
0100
0000
0001
0100
0000
,
0010
1000
0001
1000
,
0100
0000
0010
0001
0000
0010
0001
0000
,
1000
1000
0001
0100
,
0010
0000
1000
0100
0000
1000
0100
0000
,
0010
0001
0100
0010
,
1000
0000
0001
0100
0000
0001
0100
0000
,
0010
1000
1001
0000
,
0001
0000
1000
0000
0100
0000
0010
0001
,
0000
0001
1000
0000
0010
0000
0100
0000
,
0001
0100
0010
1000
,
0001
0100
0010
0010
,
1000
0000
0001
0010
0000
0000
0010
0000
,
0001
0000
1000
0100
0000
0000
0100
0000
,
1000
0000
0001
0100
0000
0000
0001
0000
,
1001
0000
0000
1001
0000
0000
1001
0000
,
2000
0000
3010
0100
,
0001
0000
1000
0001
0000
1000
0001
0000
,
0020
0000
0230
0000
,
1300
0000
0001
0100
0000
0001
0100
0000
,
0020
0000
1030
0001
,
0010
0100
1000
0001
,
1001
0000
0000
0000
,
1000
0000
0001
0000
1000
0001
1000
0001
,
1000
0000
0020
0000
,
0000
0000
0030
0000
,
1000
0001
0010
0100
,
1000
0001
1000
0000
0001
0100
0001
0000
,
0100
0000
0010
1000
,
0001
0001
1000
1000
,
0100
0010
0001
0100
,
0010
0000
1000
0000
0001
0100
0001
0100
,
0002
0000
1003
0100
,
0020
0000
0130
1000
,
0002
0000
0103
0010
,
2000
0000
3010
0100
,
0001
1000
0001
0000
1000
0000
0100
0000
,
0010
0001
0010
0000
0001
0000
0002
0000
,
0000
1003
0010
0100
,
0001
0100
0001
0000
1000
0001
1000
0000
,
0100
0000
0010
0000
0001
0000
0010
0001
0000
0000
0000
0000
0000
0000
0000
0000
,
0000
0000
0001
0000
1000
0000
0001
1000
0000
0000
0000
0000
0000
0000
0001
0000
,
0100
0000
0010
0000
1000
0000
0010
1000
0000
0000
0000
0000
0000
0000
0000
0000
,
0001
0000
1000
0000
0001
0000
0020
0000
0000
0130
0000
0000
0000
0000
1000
0000
,
0001
0000
0010
0000
0001
0000
0010
0100
0000
0000
0000
0000
0000
0000
0000
0000
,
1000
0000
0001
0000
1000
0000
0010
0100
0000
0000
0000
0000
0000
0000
0000
0002
,
0000
0000
0000
0000
1003
0000
0100
1000
0000
0000
0000
0000
0000
0000
0000
2000
,
0000
0000
0000
0000
3001
0000
0010
0001
0000
0000
0000
0000
0000
0000
0000
0000
,
000M
2002
0000
0000
,
0000
0000
0000
0000
,
0000
0000
0000
0000
,
0000
0000
0000
3003
,
0000
0002
0000
1003
,
0010
0000
0100
0000
0001
0100
0000
0001
,
0100
0010
1000
0001
,
1000
2000
0000
3100
,
0010
0000
0001
0000
1000
0010
0000
1000
,
0010
0100
0001
1000
,
0100
0000
0010
0000
0001
1000
0000
0001
,
1000
0100
0010
0110
,
0000
0010
0001
1000
,
0001
0100
0100
0010
,
0000
1000
0010
0100
,
0001
0000
1000
0000
0001
1000
0001
0000
,
1000
0000
0001
0000
0010
0001
0000
0000
,
0001
0000
0100
0000
0010
1000
0000
0000
,
1000
0000
0100
0000
0010
0001
0000
0000
,
0001
0100
0010
1000
,
1000
0000
0001
0000
0010
0001
0000
0010
,
0001
0000
1000
0000
0010
1000
0000
0010
,
1000
0000
0001
0000
0100
0001
0000
0100
,
0001
2000
0000
3001
,
0010
0000
0100
0000
1000
0100
0000
1000
,
0100
0000
0010
0000
0001
0100
0000
0001
,
0100
0000
0010
0000
1000
0010
0000
1000
,
0010
0100
0001
1001
,
0000
1000
0100
0010
,
0001
0100
0100
0010
,
0000
1000
0001
0010
,
0100
0010
0010
0001
,
0000
0000
1000
0000
0001
0100
0000
0000
,
0100
0000
0010
0000
1000
0001
0000
0000
,
0001
0000
0010
0000
0001
0100
0000
0000
,
0100
0020
0000
2030
,
0000
3001
0000
1000
,
0010
0100
0000
0001
,
0010
0100
0010
0001
,
1000
0020
0000
0230
,
0000
0301
0000
1000
,
0100
0010
0000
0001
,
0100
0010
1000
0001
,
1000
0000
0100
0000
0010
0000
0001
1000
,
0000
1000
0001
0000
0100
0000
0001
0000
,
0010
0100
1000
0001
,
0100
1000
0100
0001
,
1000
0000
0001
1000
0001
1000
0001
0000
,
0000
1000
0100
0010
,
0001
0100
0001
0010
,
1000
0010
0001
0100
,
0001
0000
1001
0000
0000
0110
0000
0000
,
1001
0001
1000
0010
,
0100
0001
1000
0100
,
1000
0001
0100
0001
,
0010
0100
0010
0001
,
0100
0010
1000
0010
,
0100
0001
1000
0100
,
0010
0001
0100
0001
,
0010
0000
0100
0000
0000
0100
0000
0000
,
0100
0000
0010
0000
0000
0010
0000
0000
,
0010
0000
0001
0000
0000
1000
0000
0000
,
0001
0000
0000
2002
0000
0000
0000
0000
,
0000
0000
0000
0000
,
0000
0000
0000
0000
0000
0000
0000
3003
0000
0000
0000
0000
0000
0000
0000
0000
;

//---------------dance-single - ----------------
#NOTES:
     dance-single:
     :
     Beginner:
     9:
     0.357602,0.485818,0.161498,0.134581,0.000000,372.000000,348.000000,24.000000,20.000000,1.000000,0.000000,0.357602,0.485818,0.161498,0.134581,0.000000,372.000000,348.000000,24.000000,20.000000,1.000000,0.000000:
0000
0000
0000
0000
,
0000
0000
0000
0000
,
0000
0000
0000
0000
,
0000
0000
0000
0000
,
0000
0000
0000
0000
,
0000
0000
0000
0000
,
0000
0000
0000
0000
,
0000
0000
0000
0000
,
0001
0000
0001
0000
,
1000
0100
0010
0100
,
1000
0001
0100
0000
,
0010
1000
0001
1000
,
0100
0010
0001
0000
,
0001
0100
0010
1000
,
0001
0010
0100
0000
,
1000
0100
0010
0001
,
0100
0000
0000
0100
0000
0000
0001
0000
,
0000
0001
0000
0000
1000
0000
0002
0000
,
0000
0000
0003
0000
,
1000
0000
0010
0100
,
0001
1000
0100
0010
,
0001
0000
0000
0001
0000
0000
0001
0000
,
1000
0000
0000
1000
0000
0000
1000
0000
,
0010
0000
0110
0000
,
0100
0001
1000
0100
,
0010
0000
0000
0010
0000
0000
0010
0000
,
0001
0100
0010
1000
,
0010
0000
0100
0001
,
0100
0010
1000
0000
,
0001
0000
0000
0001
0000
0000
0001
0000
,
1000
0000
0000
1000
0000
0000
1000
0000
,
0001
0000
1001
0000
,
1000
0100
0010
0001
,
0100
0000
0000
0100
0000
0000
0100
0000
,
0010
1000
0001
0000
,
1000
0001
0100
0000
,
0010
0000
1000
0001
1000
0000
0000
0000
,
0001
0010
0100
0000
,
1000
0000
0001
1000
0002
0000
0003
0000
,
1000
0010
1000
0000
,
0010
0001
0010
0000
,
0001
0100
0001
0000
,
0100
1000
0100
0000
,
1000
0001
0100
0000
,
0001
1000
0100
0000
,
0010
0001
1000
0001
,
1000
0000
0000
0000
,
0001
0001
1000
0000
,
0001
0000
1000
0010
,
0100
0000
0001
0100
,
0010
0000
1000
0000
,
1001
0000
0110
0000
,
1001
0000
0001
0010
,
0001
0000
1000
0100
,
0010
0000
0001
0010
,
0100
0000
0110
0000
,
0010
0000
0001
1000
,
0010
0000
1000
0000
,
0100
0010
0001
0100
,
0010
0000
1000
0010
,
0100
0000
0110
0000
,
0001
0000
1001
0000
,
1000
0000
0100
0000
,
0220
0000
0330
0000
,
0010
0000
0001
1000
,
0010
0000
0100
0000
,
0001
0000
0001
0000
,
1000
0000
0100
0010
,
0001
0000
1000
0000
,
0001
0000
0001
0000
,
2002
0000
3003
0000
,
0001
0100
0001
0100
,
0010
0000
2000
0000
,
0000
0000
3000
0000
,
0001
0010
0001
0000
,
1000
0100
0010
0001
,
1000
0000
0001
0000
,
1001
0000
1001
0000
,
1000
0010
0100
0000
,
0001
1000
0100
0010
,
0001
0000
0001
0000
,
1000
0000
1000
0000
,
0010
0000
0010
0000
,
0100
0000
0100
0000
,
0001
1000
0100
0000
,
0010
0001
1000
0001
,
0000
1000
0010
0100
,
0001
1000
0001
1000
,
0002
0000
0000
0000
,
0000
0000
0000
0000
,
2003
0000
0000
0000
,
0000
0000
0000
0000
,
3200
0000
0000
0000
,
0000
0000
0000
0000
,
0320
0000
0000
0000
,
0000
0000
0000
0030
,
M000
2002
0000
0000
,
0000
0000
0000
0000
,
0000
0000
0000
0000
,
0000
0000
0000
3003
,
0000
0000
0000
1000
,
0000
0010
0000
0100
,
0000
0001
1000
0001
,
0000
1001
0000
1001
,
0000
1001
0000
1000
,
0000
0001
0100
0001
,
0000
0010
0000
0100
,
0000
0110
0000
1001
,
0000
0001
0000
0100
,
0000
0010
0000
0010
,
0000
1000
0001
1000
,
0001
1000
0000
1001
,
0000
0001
0000
0100
,
0000
1000
0000
0010
,
0000
0001
0000
0100
,
0000
0010
0000
0100
,
0010
0100
0000
0001
,
0100
0001
0000
1000
,
0100
1000
0000
0100
,
0000
0110
0000
1001
,
0000
0001
0000
1000
,
0100
1000
0000
0001
,
0100
0001
0000
0100
,
0000
0110
0000
1001
,
0000
0001
0000
1000
,
0000
0100
0010
0100
,
0000
1000
0000
0001
,
0000
0100
0000
0100
,
0000
0001
0000
0010
,
0000
1000
0000
0100
,
0000
0001
0000
0010
,
0000
0100
0000
0100
,
0000
0020
0000
0000
,
0000
0000
0000
0000
,
0000
0000
0000
0030
,
0000
0001
0000
1000
,
0000
0002
0000
0000
,
0000
0000
0000
0000
,
0000
0000
0000
0003
,
0000
1000
0001
1000
,
0001
1000
0000
0001
,
0100
0001
0000
1000
,
0100
1000
0000
0001
,
0000
1000
0000
1000
,
0000
0010
0000
0100
,
0001
0100
0000
0010
,
1000
0010
0000
1000
,
0000
0001
0000
0001
,
0000
0001
0000
1000
,
0000
0001
0000
0100
,
0000
0010
0000
1000
,
0000
0001
0000
1000
,
0000
0001
0000
0010
,
0000
0001
0000
1000
,
0000
0001
0000
1000
,
0000
0002
0000
0003
,
0000
0200
0000
0300
,
0000
0020
0000
0030
,
0000
0000
0000
2002
0000
0000
0000
0000
,
0000
0000
0000
0000
,
0000
0000
0000
0000
0000
0000
0000
3003
0000
0000
0000
0000
0000
0000
0000
0000
;

//---------------dance-double - ----------------
#NOTES:
     dance-double:
     :
     Hard:
     18:
     0.865166,1.133575,0.235517,0.450848,0.090842,900.000000,865.000000,35.000000,67.000000,1.000000,0.000000,0.865166,1.133575,0.235517,0.450848,0.090842,900.000000,865.000000,35.000000,67.000000,1.000000,0.000000:
00000000
00000000
00000000
00000000
,
00000000
00000000
00000000
00000000
,
00000000
00000000
00000000
00000000
,
00000000
00000000
00000000
00000000
,
00000000
00000000
00000000
00000000
,
00000000
00000000
00000000
00000000
,
00000000
00000000
00000000
00000000
,
00000000
00000000
00000000
00000000
,
00001000
01000000
00000000
00000000
00100000
10000000
00000000
10000000
,
00010000
00000000
00100000
00001000
00010000
00000010
00001000
00000010
,
00000100
00000001
00001000
00000000
00000001
00000010
00000100
00000000
,
00010000
00000100
00010000
00001000
01000000
00010000
01000000
00000000
,
00100000
10000000
01000000
00100000
00010000
00000000
01000000
00000000
,
01001000
00000000
00001000
00010000
00000010
00001000
00000100
00000010
,
00000001
00000100
00000010
00000000
00001000
00000001
00000100
00000000
,
00000010
00010000
00000100
00010000
00001000
00100000
01000000
00000000
,
10000000
00000000
10000000
00100000
00000000
00100000
00001000
00000000
,
00001000
00000001
00000000
00000001
00000100
00000000
00001001
00000000
,
00000000
00000000
00000000
00000000
00001000
00000100
00010000
00001000
,
00200000
00000000
01300000
10000000
00010000
00000000
01000000
00000000
,
00100000
10000000
00010000
00100000
00001000
00100000
00010000
00000000
,
00002000
00000000
00000000
00003100
00000000
00000010
00000001
00000000
,
00002000
00000000
00000000
00003010
00000000
00010000
00000100
00010000
,
00001000
00000000
00100000
01000000
20000000
00000000
30010000
01000000
,
00100000
00000000
00010000
00000000
00001000
00100000
00000000
01000000
,
00020000
00000000
00000000
00031000
00000000
00000010
00000001
00000000
,
00001000
00000010
00010000
00001000
00100000
01000000
00010000
01000000
,
10000000
00000000
00010000
01000000
00001000
00010000
00000000
00010000
,
00000010
00000000
00000100
00000001
00001000
00000100
00000000
00000100
,
00020000
00000000
00000000
00031000
00000000
01000000
00100000
00000000
,
00020000
00000000
00000000
00031000
00000000
00100000
01000000
10000000
,
00010000
00000000
01000000
00001000
00020000
00000000
00030010
00001000
,
00000001
00000000
00000001
00000000
00000010
00001000
00000000
00001000
,
00020000
00000000
00000000
01030000
00000000
10000000
00010000
01000000
,
00100000
00010000
00001000
00000100
00000001
00001000
00000100
00000000
,
00000020
00000000
00000032
00000000
00000203
00000000
00000310
00010000
,
00000100
00000000
00010000
00001000
00000000
01000000
00001000
00000000
00011000
00000000
00000000
00000000
00020000
00000000
00000000
00000000
,
02030000
00000000
23000000
00000000
30200000
00000000
01300000
00001000
,
00010000
00000000
00000100
00010000
00000000
00001000
00010000
00000000
00002000
00000000
00000000
00000000
00000000
00000000
00003000
00000000
,
00011000
01001000
01100000
00010000
,
10010000
11000000
01100000
00100000
,
00101000
00011000
00010100
00000100
,
00001100
00010100
00011000
00010000
,
00000010
00001000
00000001
00000100
00000020
00000000
00001030
00000100
,
00010000
00001000
02000000
00000000
03100000
00010000
00100000
10000000
,
00010000
10000000
01000000
00010000
00001000
00000010
00000001
00001000
,
00000020
00000000
00000230
00000000
,
00001300
00010000
00100000
01000000
00010000
00000000
10000000
01000000
,
00200000
00000000
00310000
01000000
00000000
00001000
00010000
00000010
,
00000200
00000000
00000301
00001000
00000000
00000100
00000010
00000100
,
00020000
00000000
00031000
01000000
00000000
00010000
10000000
00000000
,
11000000
00000000
10010000
00000000
00010000
00100000
01000000
00010000
,
00002000
00000000
00003010
00000001
00000000
00001000
00000010
00001000
,
00020000
00000000
00031000
00000010
00000000
00001000
00000100
00010000
,
00002000
00000000
00103000
01000000
00000000
10000000
00010000
01000000
,
00001000
00010000
00022000
00033000
,
00001000
00000000
00000100
00000010
00001000
00000001
00000010
00000100
,
00000000
00010000
00001000
00000000
01001000
00000000
01100000
00000000
,
00100000
00000000
10000000
00010000
00000000
00100000
00001000
00000000
,
00010000
00000010
00000100
00000000
00001000
00000100
00000001
00001000
,
00000001
00000010
00000100
00010000
00000000
00001000
00010000
00000000
,
00001000
01000000
00100000
00010000
00000000
00100000
01000000
00000000
,
00010000
10000000
01000000
00100000
00000000
00001000
00010000
00000000
,
00000010
00000000
00010000
00001000
00000000
00100000
01000000
00000000
,
20000000
00000000
00000000
00000000
30010000
01000000
00001000
00010000
,
00000100
00000000
00000010
00000100
00000000
00001000
00000001
00000000
,
00000200
00000010
00002300
00010000
,
00003100
00000000
00000010
00010000
00000000
00001000
00100000
00000000
,
01000000
00000000
00010000
00000000
01000000
10000000
00010000
01000000
,
00001000
00000000
00010000
00000000
00000010
00001000
00000100
00010000
,
00002000
00000000
00000000
00000000
,
01003000
00010000
10000000
01000000
00100000
00001000
00010000
00000010
,
00000100
00000000
00000001
00001000
00000002
00000000
00000000
00000000
,
00001003
00000100
00010000
00001000
01000000
00000000
00100000
10000000
,
00010000
00100000
00001000
00100000
00010000
00001000
00000100
00000010
,
00000001
00000000
00000000
00001000
00000000
00000000
00000010
00000000
00000000
00010000
00000000
00000000
00000100
00000000
00010000
00000000
00000100
00000000
00010000
00000000
00000100
00000000
00010000
00000000
,
00001000
01000000
01010000
01100000
,
00100000
10000000
00010000
00000000
00110000
00000000
00100000
00001000
,
00010000
00000010
00010000
00001000
00100000
00001000
00010000
00000010
,
00001000
00000100
00000010
00000001
00001000
00000010
00010000
00001000
,
02000000
00000000
00000000
00000000
03100000
10000000
00010000
00100000
,
00002000
00000000
00000000
00000000
00013000
00000100
00000010
00000100
,
00002000
00000000
00000000
00000000
00003001
00000100
00000010
00010000
,
00002000
00000000
00000000
00000000
01003000
00100000
10000000
00010000
,
00100000
00001000
00010000
00000010
00001000
00000100
00010000
00000010
,
00001000
00000100
00000010
00000001
00001000
00000100
00020000
00000000
,
00000000
00000000
00031000
01000000
00100000
10000000
00010000
00100000
,
00001000
00010000
00001000
00010000
00001000
00010000
00000100
00001000
00000100
00001000
00000100
00001000
,
00000001
00000000
00000100
00000000
00000010
00000000
00010000
00001000
00000000
00000000
00000000
00000000
00000000
00000000
00000000
02000000
,
00000000
00000000
03100000
00000000
10000000
00000000
00010000
00100000
00000000
00000000
00000000
00000000
00000000
00000000
00001000
00000000
,
00010000
00000000
00000010
00000000
00000100
00000000
00000001
00001000
00000000
00000000
00000000
00000000
00000000
00000000
00000000
00000000
,
00000100
00000000
00010000
00000000
00001000
00000000
00200000
00000000
00000000
01300000
00000000
00000000
00000000
00000000
10000000
00000000
,
00010000
00000000
00100000
00000000
00010000
00000000
00001000
00000100
00000000
00000000
00000000
00000000
00000000
00000000
00000000
00000000
,
00000010
00000000
00000001
00000000
00000100
00000000
00001000
00010000
00000000
00000000
00000000
00000000
00000000
00000000
00000000
00200000
,
00000000
00000000
00000000
00000000
10300000
00000000
00010000
00100000
00000000
00000000
00000000
00000000
00000000
00000000
00000000
00002000
,
00000000
00000000
00000000
00000000
00003010
00000000
00000001
00001000
00000000
00000000
00000000
00000000
00000000
00000000
00000000
00000000
,
0000M000
00002002
00000000
00000000
,
00000000
00000000
00000000
00000000
,
00000000
00000000
00000000
00000000
,
00000000
00000000
00000000
00003003
,
00000000
00000000
00002000
00000000
00003010
00010000
00000000
00001000
,
00100000
00010000
02000000
00000000
03100000
10000000
00000000
00010000
,
00100000
00001000
00020000
00000000
00030100
00000010
00000000
00000001
,
00001000
00000000
00001100
00000000
00010100
00000000
00010000
00001000
,
00010000
01000000
00200000
00000000
00310000
10000000
00000000
00100000
,
01000000
00001000
00020000
00000000
00030100
00000010
00000000
00000001
,
00001000
00000010
00020000
00000000
00030100
00001000
00000000
00010000
,
00100000
01000000
10000000
00000000
00010000
00000000
20020000
00000000
,
30030000
00000000
10000000
00000000
00100000
01000000
00001000
00100000
,
00010000
00100000
00000000
00001000
00010000
00000000
00010010
00000000
,
00000110
00000000
00000100
00000000
00000001
00001000
00000000
00000100
,
00010000
00000000
00001000
00000000
01000000
00100000
10000000
00000000
,
00010000
00000000
10000000
01000000
00100000
00001000
00000000
00010000
,
00000010
00000000
00000100
00000001
00001000
00000010
00000000
00010000
,
00001000
00000000
00100000
01000000
10000000
00010000
00000000
01000000
,
00001000
00000000
00010000
00000000
00000010
00000000
00002000
00003002
,
00000023
00000230
00010300
00001000
01000000
00010000
01000000
00100000
,
10000000
00010000
00100000
00001000
00010000
00000010
00000100
00000001
,
00000100
00000010
00010000
00000100
00010000
00001000
00100000
01000000
,
10000000
00010000
02000000
00000000
03002000
00000000
00013000
00000010
,
00001000
00000100
00000010
00000001
00000010
00000100
00010000
00001000
,
01000000
00010000
10000000
01000000
00100000
01000000
10000000
00010000
,
01000000
00001000
00010000
00000100
00010000
00001000
01000000
00001000
,
00010000
00000010
00000100
00000000
00000001
00000000
00002002
00000000
,
00003003
00000000
00001000
00000000
00000100
00010000
00001000
01000000
,
00100000
10000000
00000000
00010000
00100000
00000000
00101000
00000000
,
00011000
00000000
00001000
00000000
00000100
00000010
00000000
00001000
,
00000001
00000000
00000010
00000100
00010000
00000000
00000100
00001000
,
00000100
00010000
00001000
01000000
00100000
10000000
00000000
00010000
,
00100000
00000000
00001000
00010000
00001000
00000100
00000000
00000001
,
00001000
00000000
00000001
00000010
00000100
00001000
00000000
00000100
,
00010000
00002000
00000000
02003000
,
00000000
00000000
03100000
00000000
10000000
00010000
00100000
00001000
,
00010000
00001000
00100000
00000000
00001000
00010000
00000010
00001000
,
00000100
00000010
00000001
00000000
00000100
00000010
00010000
00000100
,
00001000
00010000
00200000
00000000
00000000
00000000
02300000
00000000
,
00000000
00000000
13000000
00000000
00010000
01000000
00001000
00100000
,
00001000
00010000
00000010
00000000
00000100
00000001
00001000
00000100
,
00010000
00000100
00001000
00000000
00010000
00100000
01000000
10000000
,
00010000
01000000
00100000
00000000
10000000
00010000
00100000
00001000
,
00000000
00001000
00010000
00000000
00000010
00001000
00000100
00000010
,
00000001
00001000
00000100
00010000
00001000
01000000
00100000
10000000
,
00010000
00000000
00100000
00001000
00010000
00000010
00001000
00000100
,
00000010
00000000
00000001
00000100
00001000
00010000
00001000
00000000
,
00010000
00000000
00011000
00000000
00001000
01000000
00010000
00100000
,
01000000
10000000
01000000
00010000
00001000
00010000
00000010
00001000
,
00000100
00000000
00000010
00000001
00001000
00000100
00010000
00001000
,
01000000
00000000
00100000
00000000
00100000
10000000
00000000
10000000
,
01000000
00000000
01100000
00000000
00100000
00001000
00010000
00000010
,
00001000
00000100
00000010
00000001
00000010
00000100
00001000
00000100
,
00010000
00001000
01000000
00010000
00100000
01000000
10000000
00010000
,
01000000
00100000
10000000
00010000
00100000
00001000
00100000
00010000
,
01000000
00001000
00010000
00000000
00000010
00001000
00000010
00001000
,
00000100
00000010
00000001
00000010
00000100
00001000
00000100
00010000
,
00001000
01000000
00010000
01000000
00010000
00100000
01000000
10000000
,
01000000
00100000
00010000
00000000
01000000
00001000
00000000
01000000
,
00001000
00000000
00010000
00000000
00000010
00010000
00000000
00000010
,
00010000
00000000
00001000
01000000
00010000
01000000
00000000
00100000
,
10000000
00000000
00000000
20020000
00000000
00000000
00000000
00000000
,
00000000
00000000
00000000
00000000
,
00000000
00000000
00000000
00000000
00000000
00000000
00000000
30030000
00000000
00000000
00000000
00000000
00000000
00000000
00000000
00000000
;

//---------------dance-double - ----------------
#NOTES:
     dance-double:
     :
     Medium:
     15:
     0.730585,0.917656,0.121123,0.269163,0.050468,760.000000,742.000000,18.000000,40.000000,1.000000,0.000000,0.730585,0.917656,0.121123,0.269163,0.050468,760.000000,742.000000,18.000000,40.000000,1.000000,0.000000:
00000000
00000000
00000000
00000000
,
00000000
00000000
00000000
00000000
,
00000000
00000000
00000000
00000000
,
00000000
00000000
00000000
00000000
,
00000000
00000000
00000000
00000000
,
00000000
00000000
00000000
00000000
,
00000000
00000000
00000000
00000000
,
00000000
00000000
00000000
00000000
,
10000000
00010000
00000000
00000000
01000000
00001000
00000000
00001000
,
00010000
00000010
00001000
00000100
,
00000010
00000001
00000010
00000100
00001000
00000001
00001000
00000000
,
00000010
00010000
00000100
00010000
,
00001000
00100000
00010000
00100000
01000000
00000000
10000000
00000000
,
10010000
00010000
01000000
00001000
,
00100000
00001000
00010000
00000010
00001000
00000010
00000100
00000000
,
00000001
00000000
00001000
00000000
00000100
00010000
00001000
00000000
,
01001000
00000000
00000000
01100000
00000000
00000000
10010000
00000000
,
00000000
00110000
00000000
00000000
00011000
00000000
00022000
00000000
,
00000000
00000000
00033000
00000000
,
00010000
00000000
00000010
00001000
00000010
00000000
00000100
00000000
,
00000001
00001000
00000100
00000010
00000100
00001000
00000100
00000000
,
00020000
00000000
00000000
00031000
00000000
01000000
00100000
00000000
,
20000000
00000000
00000000
30010000
00000000
00100000
00001000
00010000
,
00001000
00000000
00010000
00000010
00000200
00000000
00000000
00000000
,
00000301
00000000
00001000
00000000
00000100
00010000
00000000
00010000
,
00002000
00000000
00000000
01003000
00000000
00100000
10000000
00000000
,
00010000
00100000
00001000
00100000
00010000
01000000
00001000
00010000
,
00000010
00000000
00000100
00000001
00001000
00000000
00000001
00000010
,
00000100
00000000
00001000
00000000
00000100
00010000
00000000
00010000
,
00002000
00000000
00000000
01003000
00000000
00010000
00100000
00000000
,
02000000
00000000
00000000
13000000
00000000
00010000
01000000
00001000
,
00010000
00000000
00000010
00001000
00000002
00000000
00000000
00000000
,
00001003
00000000
00000100
00000000
00000010
00000001
00000000
00000001
,
00002000
00000000
00000000
00003010
00000000
00010000
00000010
00010000
,
00001000
01000000
00010000
01000000
00100000
10000000
00010000
00000000
,
20000000
00000000
32000000
00000000
03020000
00000000
00030000
00001000
,
00000010
00000000
00000001
00000010
00000000
00000100
00000010
00000000
00001001
00000000
00000000
00000000
00001000
00000000
00000000
00000000
,
00000002
00000000
00000203
00000000
00002300
00000000
00003000
00010000
,
00100000
00000000
10000000
00100000
00000000
01000000
00100000
00000000
20020000
00000000
00000000
00000000
30030000
00000000
00000000
00000000
,
10000000
10000000
01000000
00100000
,
00001000
00001000
00010000
00100000
,
00010000
00010000
00001000
00000100
,
00000001
00000001
00001000
00000100
,
00000010
00000001
00001000
00000100
00001000
00000000
00000100
00010000
,
00001000
01000000
00010000
00000000
01000000
00100000
10000000
00010000
,
10000000
01000000
00100000
00010000
00000000
00100000
00001000
00010000
,
00002000
00000000
01003000
00000000
,
00010000
10000000
01000000
00100000
00010000
00000000
10000000
00010000
,
10000000
00000000
00010000
01000000
00000000
00010000
01000000
00001000
,
00010000
00000000
00000010
00001000
00000000
00000010
00001000
00000001
,
00000010
00000000
00000100
00001000
00000000
00000100
00010000
00000000
,
00002000
00000000
01003000
00000000
00010000
00000000
00100000
01000000
,
10000000
00000000
00010000
01000000
00000000
00001000
00010000
00000100
,
00001000
00000000
00000100
00000010
00000000
00000100
00000010
00000001
,
00001000
00000000
00000010
00010000
00000000
00000010
00010000
00001000
,
00010000
00001000
00011000
00000000
,
00010000
00000000
00001000
00000000
01000000
00010000
01000000
00100000
,
00000000
10000000
00100000
00000000
01000000
00000000
01000000
00000000
,
00010000
00000000
10000000
01000000
00000000
00100000
00010000
00000000
,
01000000
00001000
01000000
00000000
00001000
00010000
00000010
00000000
,
00001000
00000010
00001000
00000010
00000000
00000100
00000010
00000000
,
00001000
00000001
00001000
00000001
00000000
00000010
00000001
00000000
,
00000010
00000100
00000010
00000100
00000000
00010000
00000100
00000000
,
00010100
00000000
00000000
00011000
00000000
00000000
01001000
00000000
,
02000000
00000000
03100000
10000000
,
00010000
00000000
00100000
00001000
00000000
00010000
00001000
00000000
,
00000200
00000000
00000320
00000000
,
00001030
00000000
00000001
00000010
00000000
00000100
00000010
00000000
,
00000001
00000000
00001000
00000000
00000100
00010000
00000100
00010000
,
00001000
00000000
01000000
00000000
00010000
01000000
00010000
01000000
,
00200000
00000000
00000000
00000000
,
10300000
00010000
10000000
01000000
00100000
00001000
00100000
00001000
,
00010000
00000000
00000020
00000000
,
00000000
00000000
00000000
00000000
00000030
00000000
00001000
00000001
,
00000010
00000100
00000010
00000000
00000001
00001000
00000010
00000000
,
00010000
00001000
01000000
00010000
01000000
00100000
10000000
00010000
,
10000000
01000000
00100000
00100000
,
00001000
00010000
00001000
00000000
00010000
00000000
00000010
00001000
,
00000100
00000010
00000001
00000000
00000010
00000100
00001000
00000000
,
00000100
00010000
00000100
00010000
00001000
00100000
00010000
00100000
,
01000000
10000000
00010000
00010000
,
01000000
00001000
00010000
00010000
,
00000010
00000100
00000001
00000001
,
00001000
00000100
00000010
00000010
,
00000100
00010000
00000100
00000000
00010000
00001000
00010000
00000000
,
00001000
01000000
00001000
00000000
00100000
00010000
00200000
00000000
,
00000000
00000000
01300000
00000000
10000000
00000000
00010000
01000000
,
00001000
00010000
00000010
00001000
00000010
00000100
00000001
00000000
,
00001000
00000000
00000100
00000000
00010000
00000000
00001000
00010000
00000000
00000000
00000000
00000000
00000000
00000000
00000000
00002000
,
00000000
00000000
01003000
00000000
00100000
00000000
10000000
00010000
00000000
00000000
00000000
00000000
00000000
00000000
10000000
00000000
,
01000000
00000000
00100000
00000000
00010000
00000000
00100000
00001000
00000000
00000000
00000000
00000000
00000000
00000000
00000000
00000000
,
00010000
00000000
00000010
00000000
00001000
00000000
00000020
00000000
00000000
00000130
00000000
00000000
00000000
00000000
00000001
00000000
,
00001000
00000000
00000001
00000000
00000010
00000000
00000100
00001000
00000000
00000000
00000000
00000000
00000000
00000000
00000000
00000000
,
00000100
00000000
00010000
00000000
00001000
00000000
01000000
00010000
00000000
00000000
00000000
00000000
00000000
00000000
00000000
20000000
,
00000000
00000000
00000000
00000000
30100000
00000000
01000000
00001000
00000000
00000000
00000000
00000000
00000000
00000000
00000000
00020000
,
00000000
00000000
00000000
00000000
00030010
00000000
00000100
00000001
00000000
00000000
00000000
00000000
00000000
00000000
00000000
00000000
,
0000000M
00002002
00000000
00000000
,
00000000
00000000
00000000
00000000
,
00000000
00000000
00000000
00000000
,
00000000
00000000
00000000
00003003
,
00000000
00000000
00000001
00000000
00001000
00000010
00000000
00001000
,
00000010
00000000
00010000
00000000
00001000
00010000
00000000
00001000
,
00010000
00000000
01000000
00000000
00100000
00010000
00000000
00100000
,
00010000
20000000
30100000
01000000
,
00010000
00000000
10000000
00000000
01000000
00100000
00000000
01000000
,
00100000
00000000
00001000
00000000
00010000
00001000
00000000
00010000
,
00001000
00000000
00000100
00000000
00000001
00000100
00000000
00000001
,
00000100
00000010
00001000
00000000
00000001
00000000
00001001
00000000
,
00000000
00000000
00001000
00000000
00000100
00000000
00010000
00001000
,
00010000
00001000
00000000
01000000
00010000
00000000
01000000
00000000
,
00100000
00000000
10000000
00000000
00010000
00100000
00000000
00001000
,
00010000
00000000
00000010
00000000
00001000
00000001
00000010
00000000
,
00000001
00000000
00001000
00000100
00001000
00000100
00000000
00010000
,
00001000
00000000
01000000
00010000
01000000
00010000
00000000
10000000
,
00100000
00000000
10000000
01000000
10000000
01000000
00000000
00100000
,
00010000
00000000
01000000
00000000
00001000
00000000
00010000
00000010
,
00010000
00000010
00001000
00000000
00000001
00000010
00000000
00000001
,
00000010
00000100
00001000
00000000
00000100
00010000
00000000
00000100
,
00010000
00001000
00010000
00000000
00001000
01000000
00000000
00010000
,
01000000
00100000
20000000
00000000
30010000
00000000
00100000
00000000
,
00001000
00000000
00100000
00000000
00010000
01000000
00000000
00010000
,
01000000
00001000
00010000
00000000
00000100
00010000
00000000
00000100
,
00001000
00000100
00000010
00000000
00000001
00000010
00000000
00000001
,
00000010
00000100
00001000
00000000
00000100
00000000
00010100
00000000
,
00000000
00000000
00010000
00000000
00001000
00000000
01000000
00010000
,
01000000
00010000
00000000
10000000
01000000
00000000
00100000
00000000
,
00001000
00000000
00010000
00000000
00000010
00001000
00000000
00000001
,
00000100
00000000
00000001
00001000
00000001
00000000
00001000
00000100
,
00010000
00000000
00001000
01000000
00010000
01000000
00000000
00010000
,
01000000
00000000
00100000
10000000
00010000
00100000
00000000
00001000
,
00100000
00000000
00001000
00010000
00000010
00001000
00000000
00000010
,
00000100
00000002
00000000
00002003
,
00000000
00003100
00010000
00001000
,
01000000
00000000
00010000
00100000
00010000
00100000
01000000
10000000
,
01000000
10000000
00010000
01000000
,
00001000
00020000
00000000
00030020
,
00000000
00000130
00000001
00001000
,
00000001
00000000
00000010
00000100
00000010
00000100
00001000
00000100
,
00001000
00000100
00010000
00001000
,
01000000
00000000
00100000
00000000
10000000
00010000
10000000
00010000
,
00000000
00010000
00100000
00000000
00001000
00000000
00010000
00000000
,
00000010
00000000
00001000
00000001
00001000
00000001
00000010
00000100
,
00000010
00000001
00001000
00000010
,
00010000
00000000
00000100
00010000
00000100
00010000
00001000
00000000
,
01000000
00010000
01000000
00100000
,
10000000
00000000
00010000
00100000
00010000
00100000
00001000
00010000
,
00001000
00010000
00000010
00000100
,
00000001
00000000
00001000
00000000
00001000
00000100
00000000
00000100
,
00010000
00000000
00011000
00000000
00001000
01000000
00001000
01000000
,
00010000
00100000
00010000
00100000
01000000
10000000
00010000
10000000
,
00010000
01000000
00001000
00010000
00001000
00010000
00000010
00001000
,
00000010
00000100
00000001
00000000
00001000
00000000
00000100
00000000
,
00010000
00001000
00010000
00000000
00001000
00000000
01000000
00000000
,
00100000
10000000
00010000
00100000
,
00001000
00010000
00000010
00000100
,
00000001
00000000
00001000
00000000
00000100
00010000
00000000
00000100
,
00010000
00000000
00001000
00000000
01000000
00001000
00000000
01000000
,
00001000
00000000
00010000
00000000
00001000
00010000
00000000
00001000
,
00010000
00000000
00000000
00022000
00000000
00000000
00000000
00000000
,
00000000
00000000
00000000
00000000
,
00000000
00000000
00000000
00000000
00000000
00000000
00000000
00033000
00000000
00000000
00000000
00000000
00000000
00000000
00000000
00000000
;

//---------------dance-double - ----------------
#NOTES:
     dance-double:
     :
     Easy:
     13:
     0.571971,0.701737,0.107665,0.282621,0.033645,595.000000,579.000000,16.000000,42.000000,1.000000,0.000000,0.571971,0.701737,0.107665,0.282621,0.033645,595.000000,579.000000,16.000000,42.000000,1.000000,0.000000:
00000000
00000000
00000000
00000000
,
00000000
00000000
00000000
00000000
,
00000000
00000000
00000000
00000000
,
00000000
00000000
00000000
00000000
,
00000000
00000000
00000000
00000000
,
00000000
00000000
00000000
00000000
,
00000000
00000000
00000000
00000000
,
00000000
00000000
00000000
00000000
,
00011000
00000000
00011000
00000000
,
00001000
01000000
00010000
00100000
,
01000000
00000000
10000000
00000000
00010000
10000000
00010000
00000000
,
01000000
00001000
00010000
00000010
,
00001000
00000001
00001000
00000001
00001000
00000000
00000000
00000000
,
00000001
00000010
00000100
00000010
,
00000001
00000000
00001000
00000000
00000001
00001000
00000001
00000000
,
00001000
00000100
00010000
00001000
,
02000000
00000000
00000000
03200000
00000000
00000000
20300000
00000000
,
00000000
30020000
00000000
00000000
00130000
00000000
00202000
00000000
,
00000000
00000000
00303000
00000000
,
00002000
00000000
00000000
00000000
00013000
00000000
00000000
00000010
,
00001000
00000000
00000001
00000000
00001000
00000100
00000000
00000100
,
00010000
00000000
00000000
00010000
00000000
00001000
01000000
00000000
,
00100000
00000000
00000000
00100000
00000000
10000000
00010000
00000000
,
00100000
00001000
00011000
00000000
,
00010000
00000000
00000010
00000000
00001000
00000100
00000000
00000100
,
00000010
00000000
00000000
00000010
00000000
00000001
00001000
00000000
,
00000010
00000000
00010000
00000000
00001000
00010000
00001000
00000000
,
01000000
00010000
00100000
01000000
,
10000000
00000000
01000000
00000000
00100000
00001000
00000000
00001000
,
00010000
00000000
00000000
00010000
00000000
00000100
00001000
00000000
,
00000100
00000000
00000000
00000100
00000000
00000010
00000001
00000000
,
00001000
00000010
00010010
00000000
,
00010000
00000000
00001000
00000000
00100000
01000000
00000000
01000000
,
10000000
00000000
00000000
10000000
00000000
00010000
01000000
00000000
,
00001000
00000000
00010000
00000000
00001000
00010000
00001000
00000000
,
02000000
00000000
03200000
00000000
20300000
00000000
30000000
00010000
,
01000000
00001000
00010000
00000010
00001000
00000000
00000001
00000000
,
00000020
00000000
00000032
00000000
00002003
00000000
00003000
00000010
,
00010000
00001000
01000000
00010000
02000000
00000000
03000000
00000000
,
00010000
01000000
00010000
01000000
,
00001000
00010000
00001000
00010000
,
00000100
00001000
00000100
00001000
,
00000001
00000010
00000001
00000010
,
00000100
00000100
00010000
00010000
,
00001000
00001000
01000000
01000000
,
00100000
10000000
00100000
00000000
10000000
00000000
00010000
00000000
,
20020000
00000000
30030000
00000000
,
10000000
10000000
10000000
00000000
,
00010000
00000000
00100000
00001000
00000000
00100000
00001000
00000000
,
00010000
00000010
00001000
00000010
,
00000100
00000000
00000001
00001000
00000000
00000001
00001000
00000000
,
00000002
00000000
00001003
00000100
,
00010000
00000000
00001000
01000000
00000000
00001000
01000000
00000000
,
00010000
00100000
01000000
10000000
,
01000000
00000000
00100000
00001000
00000000
00100000
00001000
00000000
,
00010000
00001000
00011000
00000000
,
00001000
00000000
00000100
00000000
00000010
00000000
00001000
00000001
,
00000000
00000001
00000010
00000000
00000001
00000000
00000010
00000000
,
00000100
00000000
00010000
00001000
00000000
00001000
01000000
00000000
,
00010000
10000000
01000000
00100000
,
00001000
00000000
00010000
00001000
00000000
00000000
00010000
00000000
,
00000010
00000000
00001000
00000001
00000000
00000000
00000010
00000000
,
00000100
00000000
00010000
00001000
00000000
00000000
00010000
00000000
,
00001000
00000000
00000000
00001000
00000000
00000000
00001000
00000000
,
02000000
00000000
03010000
10000000
,
01000000
00000000
00100000
00001000
00000000
00001000
00010000
00000000
,
00000020
00000000
00002030
00000000
,
00003001
00000000
00000010
00000100
00000000
00000100
00010000
00000000
,
00002000
00000000
01003000
00010000
,
00100000
00000000
01000000
10000000
00000000
00000000
00010000
00000000
,
20020000
00000000
00000000
30030000
,
10000000
00000000
00010000
00000000
01000000
00000000
00001000
00010000
,
00001000
00000000
00020000
00000000
,
00000000
00000000
00030000
00000000
,
00000010
00001000
00000001
00000010
,
00000100
00000000
00010000
00000000
00001000
00010000
00001000
00010000
,
00001000
00000000
01000000
01000000
,
00010000
00100000
01000000
10000000
,
00010000
01000000
00001000
00010000
,
00000010
00001000
00000100
00000010
,
00000002
00000000
00001003
00000010
,
00020000
00000000
00030100
00001000
,
00020000
00000000
00130000
00001000
,
02000000
00000000
03100000
10000000
,
00010000
00100000
00010000
00000000
01000000
00000000
00001000
00000000
,
00010000
00000010
00000100
00000001
,
00000000
00001000
00000100
00010000
,
00001000
00000000
01000000
00000000
00100000
01000000
00100000
01000000
,
00100000
00000000
10000000
00000000
00010000
00000000
00100000
00010000
00000000
00000000
00000000
00000000
00000000
00000000
00000000
00000000
,
00000000
00000000
01000000
00000000
00001000
00000000
00010000
00001000
00000000
00000000
00000000
00000000
00000000
00000000
00010000
00000000
,
00000010
00000000
00001000
00000000
00000010
00000000
00000100
00000010
00000000
00000000
00000000
00000000
00000000
00000000
00000000
00000000
,
00001000
00000000
00000001
00000000
00000010
00000000
00000002
00000000
00000000
00001003
00000000
00000000
00000000
00000000
00000100
00000000
,
00010000
00000000
00001000
00000000
00010000
00000000
00001000
01000000
00000000
00000000
00000000
00000000
00000000
00000000
00000000
00000000
,
00010000
00000000
00100000
00000000
01000000
00000000
10000000
01000000
00000000
00000000
00000000
00000000
00000000
00000000
00000000
00200000
,
00000000
00000000
00000000
00000000
00301000
00000000
00010000
00001000
00000000
00000000
00000000
00000000
00000000
00000000
00000000
00020000
,
00000000
00000000
00000000
00000000
00030010
00000000
00001000
00000010
00000000
00000000
00000000
00000000
00000000
00000000
00000000
00000000
,
000000M0
00000220
00000000
00000000
,
00000000
00000000
00000000
00000000
,
00000000
00000000
00000000
00000000
,
00000000
00000000
00000000
00000330
,
00000000
00000020
00000000
00010030
,
00001000
00000000
01000000
00000000
00010000
01000000
00000000
00010000
,
01000000
00100000
10000000
00010000
,
00100000
00002000
00000000
00013000
,
00000010
00000000
00001000
00000000
00000010
00000100
00000000
00000010
,
00000100
00000001
00001000
00000100
,
00010000
00000000
00001000
00000000
01000000
00010000
00000000
01000000
,
00010000
01000000
00100000
10100000
,
00000000
10000000
00010000
00100000
,
00001000
00010000
00000000
00010000
00001000
00000000
00010000
00000000
,
00000010
00001000
00000010
00000100
,
00000001
00001000
00001000
00000100
,
00010000
00000000
00001000
00000000
01000000
00010000
00000000
00000000
,
01000000
00000000
00100000
00000000
10000000
00010000
00000000
00000000
,
00100000
00000000
00001000
00000000
00010000
00000010
00000000
00000000
,
00001000
00000000
00000010
00000000
00000100
00000000
00000001
00001000
,
00000001
00000000
00001000
00000000
00000100
00010000
00000000
00000100
,
00010000
00000000
00001000
00000000
01000000
00001000
00000000
01000000
,
00001000
00000000
00100000
00000000
00010000
00100000
00000000
00010000
,
00100000
02000000
00000000
13000000
,
00010000
00000000
01000000
00000000
00001000
00010000
00000000
00001000
,
00010000
00000000
00000010
00000000
00001000
00000001
00000000
00001000
,
00000001
00000000
00000010
00000000
00000100
00001000
00000000
00000100
,
00001000
00000100
00010000
00011000
,
00000000
00001000
01000000
00010000
,
00100000
01000000
00000000
01000000
00100000
00000000
00010000
00000000
,
10000000
00100000
01000000
00001000
,
00010000
00000010
00000010
00001000
,
00000000
00000000
00000001
00000000
00000010
00000001
00000000
00000000
,
00001000
00000000
00000010
00000000
00010000
00001000
00000000
00000000
,
00100000
00000000
01000000
00000000
10000000
00010000
00000000
00000000
,
01000000
00002000
00000000
00023000
,
00000000
00030010
00000000
00001000
,
00000001
00000010
00000001
00001000
,
00000010
00001000
00000010
00000000
00000000
00000000
00010000
00000000
,
00000100
00020000
00000000
00032000
,
00000000
01003000
00000000
00010000
,
00100000
01000000
00100000
00010000
,
10000000
00010000
10000000
00000000
00000000
00000000
00100000
00000000
,
01000000
00000000
00001000
00000000
00010000
00000000
00000010
00000100
,
00000000
00000100
00000010
00000000
00000000
00000000
00001000
00000000
,
00000001
00000010
00000100
00000010
,
00000001
00000100
00000010
00010000
,
00000100
00000000
00010000
00001000
00010000
00001000
00010000
00000000
,
00000000
00011000
00000000
00001000
,
01000000
00010000
00100000
01000000
,
10000000
01000000
00100000
00010000
,
01000000
00000000
01001000
00000000
00000000
00011000
00000000
00000000
,
00010010
00000010
00001000
00000001
,
00000010
00000100
00010000
00000100
,
00010000
00001000
00010000
00001000
,
01000000
00010000
01000000
00010000
,
00100000
01000000
00100000
01000000
,
10000000
00010000
10000000
00010000
,
01000000
00001000
00010000
00000010
,
00001000
00000000
00000010
00000000
00000000
00000010
00000000
00000000
,
00000010
00000000
00001000
00000000
00000000
00001000
00000000
00000000
,
00001000
00000000
00000100
00000000
00000000
00010000
00000000
00000000
,
00001000
00000000
00000000
00022000
00000000
00000000
00000000
00000000
,
00000000
00000000
00000000
00000000
,
00000000
00000000
00000000
00000000
00000000
00000000
00000000
00033000
00000000
00000000
00000000
00000000
00000000
00000000
00000000
00000000
;
