#TITLE:もぐもぐYUMMY!;
#SUBTITLE:;
#ARTIST:猫又おかゆ;
#TITLETRANSLIT:Mogu Mogu YUMMY!;
#SUBTITLETRANSLIT:;
#ARTISTTRANSLIT:Nekomata Okayu;
#GENRE:;
#CREDIT:;
#BANNER:Mogu Mogu YUMMY!.png;
#BACKGROUND:Mogu Mogu YUMMY!-bg.png;
#LYRICSPATH:;
#CDTITLE:;
#MUSIC:Mogu Mogu YUMMY!.ogg;
#OFFSET:0.000000;
#SAMPLESTART:36.000000;
#SAMPLELENGTH:15.000000;
#SELECTABLE:YES;
#BPMS:0.000000=140.000000
;
#STOPS:
;
#BGCHANGES:;
#KEYSOUNDS:;
#ATTACKS:;

//---------------dance-single - ----------------
#NOTES:
     dance-single:
     :
     Hard:
     13:
     0.548830,0.609945,0.157375,0.444354,0.240692,415.000000,398.000000,17.000000,48.000000,0.000000,0.000000,0.548830,0.609945,0.157375,0.444354,0.240692,415.000000,398.000000,17.000000,48.000000,0.000000,0.000000:
// measure 0
0000
0000
0000
0000
,  // measure 1
0000
0000
0000
0000
,  // measure 2
0000
0000
0000
0000
,  // measure 3
0000
0000
0000
0000
,  // measure 4
0000
0000
0000
0000
,  // measure 5
0002
0000
0000
0103
0110
0000
1000
0001
,  // measure 6
0010
0000
0000
0010
0000
0000
0010
0000
1001
0000
0002
0000
0203
0000
2300
0000
,  // measure 7
3200
0000
0000
0000
0000
0000
0301
0000
1001
0000
0000
1000
0000
0000
0100
0000
,  // measure 8
0010
0000
0000
0010
0000
0000
0010
0000
1001
0000
0000
0000
2000
0000
0000
0000
,  // measure 9
3020
0000
0000
0130
0101
0000
0001
1000
,  // measure 10
0100
0000
0000
0100
0000
0010
0100
0010
0200
0000
0000
0000
1300
0000
0000
0000
,  // measure 11
0002
0000
0000
0000
0000
0000
1003
0000
1010
0000
0000
0010
0000
0000
0100
0000
,  // measure 12
0001
0000
0000
1000
0000
0000
0001
0000
1000
0001
1000
0000
1001
0000
0000
0000
,  // measure 13
0001
0000
0000
0010
0000
0000
1000
0000
0001
0000
0000
0100
0000
0000
1000
0000
,  // measure 14
0001
0000
0100
0010
0000
0000
1000
0000
0002
0000
0000
0000
1003
0000
0010
0000
,  // measure 15
0001
0000
0010
0000
0100
0000
0000
0001
0000
0000
1000
0000
0100
0000
0010
0000
,  // measure 16
0001
0000
0000
1000
0000
0000
0001
0000
0020
0000
0000
0000
0130
0000
1000
0001
,  // measure 17
1000
0000
0000
0010
0000
0000
0001
0000
1000
0000
0000
0100
0000
0000
0001
0000
,  // measure 18
1000
0000
0000
0100
0000
0000
0010
0000
0002
0000
0000
0000
1003
0000
0001
0000
,  // measure 19
0010
1100
0010
0101
,  // measure 20
0001
0000
1000
0001
0000
1000
0001
1000
0001
0000
0000
0000
0200
0000
0000
0000
,  // measure 21
0301
1000
0100
0010
0001
1000
0010
0002
,  // measure 22
0000
0013
0100
0002
0000
0013
0100
0100
,  // measure 23
1000
0010
0100
0001
1000
0001
0010
2000
,  // measure 24
0000
3010
0100
2000
0000
3010
0100
0100
,  // measure 25
0001
0100
1000
0100
0002
0010
2003
0010
,  // measure 26
3001
0010
1000
0010
0002
0100
2003
0100
,  // measure 27
3001
0010
0100
0001
1000
0010
0100
1000
,  // measure 28
0001
0000
0100
0000
1000
0000
0100
0000
0001
1000
0001
1000
0002
0000
0000
0000
,  // measure 29
1003
0100
0010
0001
1000
0001
0100
2000
,  // measure 30
0000
3100
0010
2000
0000
3100
0010
0010
,  // measure 31
0001
1000
0010
0100
0001
1000
0100
0002
,  // measure 32
0000
0103
0010
0002
0000
0103
0010
0010
,  // measure 33
1000
0010
0001
0010
2000
0100
3002
0100
,  // measure 34
1003
0100
0001
0100
2000
0010
3002
0010
,  // measure 35
1003
0010
0100
1000
0001
0010
0100
0001
,  // measure 36
2000
0000
0000
0000
3001
0000
0000
0000
0010
0000
0001
0000
1000
0001
1000
0001
,  // measure 37
1000
0000
0100
0000
0001
0000
0100
0000
1000
0000
0001
1000
0001
0000
1000
0000
,  // measure 38
0001
0000
0100
0000
1000
0000
0100
0000
0001
0000
1000
0001
1000
0000
0001
0000
,  // measure 39
0100
0000
0000
0100
0001
0000
0000
0001
1000
0000
0001
0000
0010
0000
0200
0000
,  // measure 40
0000
0000
0320
0000
0000
0000
0000
0000
0031
0000
1000
0001
1000
0001
1000
0001
,  // measure 41
1000
0000
0010
0000
0001
0000
0010
0000
1000
0000
0001
1000
0001
0000
1000
0000
,  // measure 42
0001
0000
0010
0000
1000
0000
0010
0000
0001
0000
1000
0001
1000
0000
0001
0000
,  // measure 43
0010
0000
0000
0010
0001
0000
0000
0001
1000
0000
0001
0000
0100
0000
0020
0000
,  // measure 44
0000
0000
2030
0000
0000
0000
0000
0000
3001
0000
1000
0001
1000
0001
1000
0001
,  // measure 45
2000
0000
0100
0100
0000
0000
0100
0000
,  // measure 46
3002
0000
0100
0100
0000
0000
0100
0000
,  // measure 47
2003
0000
3200
0000
0310
0001
1000
0020
,  // measure 48
0000
0230
0000
0000
0310
0001
0010
1000
,  // measure 49
0002
0000
0010
0010
0000
0000
0010
0000
,  // measure 50
2003
0000
0010
0010
0000
0000
0010
0000
,  // measure 51
3002
0000
0023
0000
0130
1000
0001
0200
,  // measure 52
0000
0320
0000
0130
1000
0100
0001
0000
,  // measure 53
0110
0000
0000
0000
1001
0000
0000
0000
0001
1000
0001
1000
0001
1000
0001
1000
,  // measure 54
0001
0010
0100
0010
1000
0010
0100
1000
,  // measure 55
0001
0100
0010
0100
1000
0100
0010
1000
,  // measure 56
0001
0010
0100
0010
1000
0010
0100
1000
,  // measure 57
0001
0000
0000
0001
0100
0000
0000
0100
0010
0000
1000
0001
1000
0001
1000
0001
,  // measure 58
1000
0001
0101
0000
0001
1000
1100
0000
,  // measure 59
1000
0001
0011
0000
0001
1000
1010
0000
,  // measure 60
1000
0001
0101
0000
0001
1000
1100
0000
,  // measure 61
1000
0000
0000
1000
0001
0000
0000
0001
0010
0000
0100
0000
1000
0001
1000
0001
,  // measure 62
0200
0000
0000
0300
;

//---------------dance-double - ----------------
#NOTES:
     dance-double:
     :
     Hard:
     13:
     0.547507,0.609945,0.157375,0.444354,0.240692,414.000000,397.000000,17.000000,48.000000,0.000000,0.000000,0.547507,0.609945,0.157375,0.444354,0.240692,414.000000,397.000000,17.000000,48.000000,0.000000,0.000000:
00000000
00000000
00000000
00000000
,
00000000
00000000
00000000
00000000
,
00000000
00000000
00000000
00000000
,
00000000
00000000
00000000
00000000
,
00000000
00000000
00000000
00000000
,
20000000
00000000
00000000
31000000
01100000
00000000
00100000
00001000
,
00010000
00000000
00000000
00010000
00000000
00000000
00010000
00000000
00011000
00000000
00002000
00000000
00003200
00000000
00000302
00000000
,
00002003
00000000
00000000
00000000
00000000
00000000
00003010
00000000
00000110
00000000
00000000
00000100
00000000
00000000
00000001
00000000
,
00001000
00000000
00000000
00001000
00000000
00000000
00001000
00000000
00001100
00000000
00000000
00000000
00000200
00000000
00000000
00000000
,
00020300
00000000
00000000
00031000
01001000
00000000
01000000
00100000
,
10000000
00000000
00000000
10000000
00000000
00010000
10000000
00010000
20000000
00000000
00000000
00000000
30010000
00000000
00000000
00000000
,
00200000
00000000
00000000
00000000
00000000
00000000
00301000
00000000
00011000
00000000
00000000
00010000
00000000
00000000
00000100
00000000
,
00001000
00000000
00000000
00000001
00000000
00000000
00001000
00000000
00000001
00001000
00000001
00000000
00001001
00000000
00000000
00000000
,
00000001
00000000
00000000
00000100
00000000
00000000
00001000
00000000
00010000
00000000
00000000
01000000
00000000
00000000
10000000
00000000
,
00010000
00000000
01000000
00100000
00000000
00000000
10000000
00000000
00020000
00000000
00000000
00000000
00130000
00000000
00001000
00000000
,
00010000
00000000
00100000
00000000
00010000
00000000
00000000
00000010
00000000
00000000
00001000
00000000
00000100
00000000
00000010
00000000
,
00000001
00000000
00000000
00000100
00000000
00000000
00001000
00000000
00020000
00000000
00000000
00000000
00130000
00000000
10000000
00010000
,
10000000
00000000
00000000
01000000
00000000
00000000
00010000
00000000
00001000
00000000
00000000
00000100
00000000
00000000
00000001
00000000
,
00001000
00000000
00000000
00000010
00000000
00000000
00000100
00000000
00000020
00000000
00000000
00000000
00010030
00000000
00000000
00000000
,
00001000
00101000
00001000
00001010
,
00001000
00000000
00010000
00001000
00000000
00010000
00001000
00010000
00001000
00000000
00000000
00000000
00020000
00000000
00000000
00000000
,
00130000
10000000
00010000
01000000
00010000
00100000
10000000
00020000
,
00000000
00031000
00000010
00000200
00000000
00001300
00000001
00000001
,
00000010
00000100
00001000
00000001
00001000
00000010
00000001
00002000
,
00000000
00013000
00100000
02000000
00000000
03010000
10000000
10000000
,
01000000
00010000
00001000
00000100
00002000
01000000
00023000
00000100
,
00031000
00010000
01000000
00010000
00002000
00100000
00023000
00000010
,
00031000
00000100
00000001
00001000
00000001
00000010
00001000
00100000
,
00001000
00000000
00010000
00000000
01000000
00000000
00100000
00000000
00010000
10000000
00010000
10000000
00020000
00000000
00000000
00000000
,
00130000
01000000
10000000
00010000
10000000
00100000
00010000
20000000
,
00000000
31000000
00010000
00002000
00000000
00003010
00001000
00001000
,
00000100
00000010
00000001
00001000
00000001
00000010
00001000
00000002
,
00000000
00000103
00001000
00020000
00000000
00130000
00010000
00010000
,
00100000
01000000
00010000
00001000
00020000
00000010
00032000
00100000
,
00013000
00001000
00000010
00001000
00020000
00000100
00032000
01000000
,
00013000
00100000
10000000
00010000
10000000
01000000
00010000
00000100
,
00020000
00000000
00000000
00000000
00031000
00000000
00000000
00000000
00000100
00000000
00000001
00000000
00001000
00000001
00001000
00000001
,
00001000
00000000
00000001
00000000
00000100
00000000
00001000
00000000
00010000
00000000
00100000
10000000
00100000
00000000
10000000
00000000
,
00010000
00000000
10000000
00000000
01000000
00000000
00010000
00000000
00001000
00000000
00000010
00000001
00000010
00000000
00000001
00000000
,
00001000
00000000
00000000
00001000
00000010
00000000
00000000
00000010
00010000
00000000
00001000
00000000
00010000
00000000
02000000
00000000
,
00000000
00000000
03200000
00000000
00000000
00000000
00000000
00000000
00310000
00000000
10000000
00010000
10000000
00010000
10000000
00010000
,
10000000
00000000
00010000
00000000
00100000
00000000
01000000
00000000
00010000
00000000
00001000
00000010
00001000
00000000
00000010
00000000
,
00000001
00000000
00001000
00000000
00000010
00000000
00000100
00000000
00001000
00000000
00010000
00100000
00010000
00000000
00100000
00000000
,
10000000
00000000
00000000
10000000
00010000
00000000
00000000
00010000
00100000
00000000
00001000
00000000
00010000
00000000
00000020
00000000
,
00000000
00000000
00000230
00000000
00000000
00000000
00000000
00000000
00000301
00000000
00001000
00000001
00001000
00000001
00001000
00000001
,
00002000
00000000
00000010
00000010
00000000
00000000
00010000
00000000
,
00023000
00000000
00100000
00100000
00000000
00000000
00001000
00000000
,
00032000
00000000
00003200
00000000
00000310
00000001
00000100
00002000
,
00000000
00023000
00000000
00000000
00130000
10000000
00010000
00100000
,
00002000
00000000
00000100
00000100
00000000
00000000
00000100
00000000
,
00023000
00000000
01000000
01000000
00000000
00000000
01000000
00000000
,
00032000
00000000
00003020
00000000
00000130
00001000
00000001
00000200
,
00000000
00002300
00000000
00013000
00100000
10000000
00010000
00000000
,
01100000
00000000
00000000
00000000
10010000
00000000
00000000
00000000
10000000
00010000
10000000
00010000
10000000
00010000
10000000
00010000
,
10000000
01000000
00100000
01000000
00010000
00001000
00000010
00000100
,
00001000
00000010
00000100
00000010
00000001
00000010
00001000
00010000
,
01000000
00100000
01000000
10000000
01000000
00100000
01000000
00001000
,
00010000
00000000
00000000
00010000
00000100
00000000
00000000
00000100
00000010
00000000
00000001
00001000
00000001
00001000
00000001
00001000
,
00000001
00000100
00000110
00000000
00000010
00010000
00011000
00000000
,
00001000
00100000
01100000
00000000
01000000
10000000
10010000
00000000
,
00010000
01000000
01001000
00000000
00001000
00010000
00010100
00000000
,
00000100
00000000
00000000
00000100
00000010
00000000
00000000
00000010
00000001
00000000
00001000
00000000
00000010
00010000
00000010
00010000
,
00002000
00000000
00000000
00003000
;

//---------------dance-single - ----------------
#NOTES:
     dance-single:
     :
     Medium:
     10:
     0.370295,0.464720,0.129603,0.361038,0.037029,280.000000,266.000000,14.000000,39.000000,0.000000,0.000000,0.370295,0.464720,0.129603,0.361038,0.037029,280.000000,266.000000,14.000000,39.000000,0.000000,0.000000:
0000
0000
0000
0000
,
0000
0000
0000
0000
,
0000
0000
0000
0000
,
0000
0000
0000
0000
,
0000
0000
0000
0000
,
1000
0000
0000
1000
0100
0000
0010
0000
,
0001
0000
0000
0001
0000
0000
0001
0000
0100
0000
0010
0000
0100
0000
0000
0000
,
0001
0000
0000
0001
0100
0000
0010
0000
,
1000
0000
0000
1000
0000
0000
1000
0000
0100
0000
0000
0000
0020
0000
0000
0000
,
0031
0000
0000
0001
0010
0000
0100
0000
,
1000
0000
0000
1000
0000
0000
1000
0000
0020
0000
0000
0000
0130
0000
0000
0000
,
0001
0000
0000
0001
0100
0000
0010
0000
,
1000
0000
0000
1000
0000
0000
1000
0000
0200
0000
0000
0000
0310
0000
0000
0000
,
0002
0010
2003
0010
,
3001
0000
0000
0001
0000
0000
0001
0000
0100
0000
0000
0000
0010
0000
0000
0000
,
1000
0000
0001
0000
0010
0100
0010
0000
,
0100
0000
0000
0100
0000
0000
0100
0000
2000
0000
0000
0000
3001
0000
0000
0000
,
2000
0010
3002
0010
,
1003
0000
0000
1000
0000
0000
1000
0000
0010
0000
0000
0000
0100
0000
0000
0000
,
0002
1003
2000
3001
,
0001
0000
0000
0010
0000
0000
0100
0000
1000
0000
0000
0000
0002
0000
0000
0000
,
1003
0010
1000
0000
0010
0000
0100
0002
,
0000
1003
0100
1000
0000
0100
0010
0000
,
0001
0010
0001
0000
0010
0000
0100
2000
,
0000
3001
0100
0001
0000
0100
0010
0000
,
2000
0010
3002
0100
,
2003
0100
3002
0010
,
1003
0010
0001
0010
,
0100
0010
0100
0010
1000
0000
1001
0000
,
0001
0010
0001
0000
0010
0000
0100
2000
,
0000
3001
0100
0010
0000
0100
0010
0000
,
1000
0010
1000
0000
0010
0000
0100
0002
,
0000
1003
0100
0010
0000
0100
0010
0000
,
0002
0100
2003
0010
,
3002
0010
2003
0100
,
3001
0000
0100
0000
1000
0000
0100
0010
,
0200
0000
0000
0000
0301
1000
0001
1000
,
0200
0000
0000
0301
0000
0100
1000
0001
,
0200
0000
0000
1300
0000
0100
0001
0000
,
1001
0000
1001
0000
1000
0000
0100
0010
,
0000
0002
0000
0000
1003
0000
0010
0000
,
0200
0000
0000
1300
0000
0100
0001
1000
,
0200
0000
0000
0301
0000
0100
1000
0000
,
1001
0000
1001
0000
0001
0000
0100
0010
,
0000
2000
0000
0000
3010
0000
0100
0000
,
0002
0000
1000
1003
0000
0000
1001
0000
,
2000
0000
0001
3001
0000
0000
1001
0000
,
1000
0000
0100
0000
0010
0000
0001
1000
,
0000
0002
0000
0000
0103
0000
0010
0000
,
2000
0000
0001
3001
0000
0000
1001
0000
,
0002
0000
1000
1003
0000
0000
1001
0000
,
0001
0000
0100
0000
0010
0000
1000
0001
,
0000
2000
0000
3100
0010
0000
0001
0000
,
1001
0000
1001
0000
1000
0010
0100
0000
,
0001
0100
0001
0100
0010
0000
1001
0000
,
1000
0100
1000
0100
0010
0000
1001
0000
,
0001
0010
0001
0010
0100
0000
1001
0000
,
1000
0000
1000
0000
0010
0200
0000
0000
,
0301
0001
1000
1000
,
0001
0001
1000
1000
,
0010
0010
0100
0100
,
0001
0000
0001
0000
1000
0200
0000
0010
,
0020
0000
0000
0330
;

//---------------dance-single - ----------------
#NOTES:
     dance-single:
     :
     Easy:
     6:
     0.248627,0.286979,0.064802,0.175890,0.000000,188.000000,181.000000,7.000000,19.000000,0.000000,0.000000,0.248627,0.286979,0.064802,0.175890,0.000000,188.000000,181.000000,7.000000,19.000000,0.000000,0.000000:
0000
0000
0000
0000
,
0000
0000
0000
0000
,
0000
0000
0000
0000
,
0000
0000
0000
0000
,
0000
0000
0000
0000
,
0001
0000
1001
0000
,
1000
0000
0010
0000
0100
0010
0100
0000
,
0001
0000
1001
0000
,
1000
0100
0010
0010
,
0001
0000
1001
0000
,
1000
0000
0010
0100
0010
0000
0010
0000
,
1000
0000
1001
0000
,
0001
0001
0001
0010
,
0200
0000
0320
0000
,
0031
1000
0010
0000
,
0100
0010
1000
0001
,
0010
0010
0010
0000
,
0002
0000
2003
0000
,
3010
0100
0001
0000
,
2000
3000
0002
0003
,
1000
0010
0100
0100
,
0001
0000
1000
0000
0100
0000
0000
0010
,
0000
0001
0000
0010
0000
0000
0001
0000
,
0100
0000
0010
0000
1000
0000
0000
0010
,
0000
1000
0000
0010
0000
0000
1000
0000
,
0100
0100
0010
0010
,
0001
0001
1000
1000
,
0002
0000
1003
0010
,
0100
0100
0000
1001
,
0001
0000
1000
0000
0100
0000
0000
0010
,
0000
0001
0000
0010
0000
0000
0001
0000
,
0100
0000
0010
0000
1000
0000
0000
0010
,
0000
1000
0000
0010
0000
0000
1000
0000
,
0100
0100
1000
1000
,
0001
0001
0100
0100
,
0020
0000
1030
1000
,
0002
0000
0013
0100
,
2000
0000
0001
3001
,
0002
0000
1000
1003
,
0001
0000
0100
0000
0010
0000
0000
1000
,
0000
0010
0000
0000
0100
0000
0001
0000
,
2000
0000
0001
3001
,
0002
0000
1000
1003
,
0001
0000
0010
0000
0100
0000
0000
1000
,
0000
0100
0000
0000
0010
0000
0001
0000
,
2000
0000
3001
0000
,
0002
0000
1003
0000
,
2000
0000
0000
0000
3010
0000
0000
0100
,
0000
0100
0000
0000
0001
0000
1000
0000
,
0200
0000
0310
0000
,
0020
0000
0130
0000
,
0020
0000
0000
0000
0031
0000
0000
1000
,
0000
1000
0000
0000
0001
0000
0001
0000
,
1000
0001
1001
0000
,
1000
0010
1000
0000
,
0001
0100
0001
0000
,
1000
0100
1000
0000
,
0100
0000
0100
0000
0010
0100
0000
0000
,
0010
0001
0010
0000
,
0100
1000
0100
0000
,
1000
0001
1000
0000
,
0001
0000
0001
0000
1000
0001
0000
0000
,
1001
0000
0000
0000
;

//---------------dance-single - ----------------
#NOTES:
     dance-single:
     :
     Beginner:
     4:
     0.181180,0.229583,0.101831,0.148118,0.000000,137.000000,126.000000,11.000000,16.000000,0.000000,0.000000,0.181180,0.229583,0.101831,0.148118,0.000000,137.000000,126.000000,11.000000,16.000000,0.000000,0.000000:
0000
0000
0000
0000
,
0000
0000
0000
0000
,
0000
0000
0000
0000
,
0000
0000
0000
0000
,
0000
0000
0000
0000
,
0001
0000
1000
0000
,
0010
0000
0110
0000
,
1000
0000
0001
0000
,
0010
0000
0110
0000
,
1000
0000
0001
0000
,
0010
0000
0110
0000
,
1000
0000
0001
0000
,
0100
0000
0100
0100
,
0100
0000
0001
0000
,
1000
0000
0100
0000
,
0010
0000
0001
0000
,
1000
1000
1000
0000
,
0001
0000
0100
0000
,
0010
0000
1000
0000
,
0001
0000
0001
0000
,
1000
0000
0110
0000
,
0001
0000
1000
0000
,
0010
0010
0010
0000
,
1000
0000
0001
0000
,
0010
0010
0010
0000
,
0220
0000
0330
0000
,
2002
0000
3003
0000
,
0001
0000
0100
0000
,
0010
0010
0000
1000
,
1000
0000
0100
0000
,
0010
0010
0010
0000
,
0001
0000
1000
0000
,
0010
0010
0010
0000
,
2002
0000
3003
0000
,
0220
0000
0330
0000
,
0001
0000
1000
1000
,
1000
0000
0100
0000
,
0020
0000
0031
0000
,
0020
0000
0130
0000
,
1000
1000
1000
0000
,
0001
0000
0100
0000
,
0020
0000
1030
0000
,
0020
0000
0130
0000
,
0001
0001
0001
0000
,
1000
0000
0100
0000
,
0020
0000
0030
0000
,
0200
0000
0300
0000
,
1000
1000
1000
0000
,
0001
0000
0100
0000
,
0020
0000
0030
0000
,
0200
0000
0300
0000
,
0001
0001
0001
0000
,
1000
0000
0100
0000
,
0010
0010
0010
0000
,
0001
0001
1000
0000
,
1000
1000
0010
0000
,
0010
0010
0100
0000
,
0010
0000
1001
0000
,
1000
1000
0100
0000
,
0100
0100
0010
0000
,
0010
0010
0001
0000
,
1000
0000
1001
0000
,
0110
0000
0000
0000
;

//---------------dance-double - ----------------
#NOTES:
     dance-double:
     :
     Medium:
     10:
     0.358393,0.401770,0.037029,0.277721,0.027772,271.000000,267.000000,4.000000,30.000000,0.000000,0.000000,0.358393,0.401770,0.037029,0.277721,0.027772,271.000000,267.000000,4.000000,30.000000,0.000000,0.000000:
00000000
00000000
00000000
00000000
,
00000000
00000000
00000000
00000000
,
00000000
00000000
00000000
00000000
,
00000000
00000000
00000000
00000000
,
00000000
00000000
00000000
00000000
,
00000001
00000000
00000000
00000001
00000100
00000000
00000010
00000000
,
00010000
00000000
00000000
00010000
00000000
00000000
00010000
00000000
00001000
00000000
00100000
00000000
00010000
00000000
00000000
00000000
,
10000000
00000000
00000000
10000000
01000000
00000000
00100000
00000000
,
00001000
00000000
00000000
00001000
00000000
00000000
00001000
00000000
00010000
00000000
00000000
00000000
00000200
00000000
00000000
00000000
,
00001300
00000000
00000000
00001000
00000001
00000000
00000100
00000000
,
00000010
00000000
00000000
00000010
00000000
00000000
00000010
00000000
00020000
00000000
00000000
00000000
00031000
00000000
00000000
00000000
,
00100000
00000000
00000000
00100000
00010000
00000000
10000000
00000000
,
00100000
00000000
00000000
00100000
00000000
00000000
00100000
00000000
02000000
00000000
00000000
00000000
03001000
00000000
00000000
00000000
,
00020000
00000010
00032000
00100000
,
00013000
00000000
00000100
00000000
00000010
00000000
00000000
00000001
,
00001000
00000000
00000010
00000000
00000100
00000010
00000100
00000000
,
00001000
00000000
00000000
00001000
00000000
00000000
00001000
00000000
00020000
00000000
00000000
00000000
00031000
00000000
00000000
00000000
,
00020000
00000100
00032000
01000000
,
00013000
00000000
00000100
00000000
00000010
00000000
00000000
00000001
,
00001000
00001001
00000001
00001001
,
00001000
00000000
00000000
00001000
00000000
00000000
00001000
00000000
00000100
00000000
00000000
00000000
00020000
00000000
00000000
00000000
,
00031000
01000000
00001000
00000000
01000000
00000000
00100000
20000000
,
00000000
30010000
01000000
00010000
00000000
10000000
01000000
00000000
,
00100000
00001000
00100000
00000000
00001000
00000000
00010000
00000200
,
00000000
00000310
00000001
00000010
00000000
00000001
00001000
00000000
,
00000020
00000100
00020030
00001000
,
00230000
01000000
20300000
00010000
,
31000000
00100000
10000000
00100000
,
00001000
00000000
00001000
00000000
00010000
00001000
00010000
00000000
,
00000010
00001000
00000010
00000000
00000100
00000000
00000001
00002000
,
00000000
00003001
00000010
00000100
00000000
00001000
00000100
00000000
,
00010000
00001000
00010000
00000000
00001000
00000000
01000000
00200000
,
00000000
10300000
00010000
00100000
00000000
01000000
10000000
00000000
,
00200000
01000000
00320000
00001000
,
00030200
00000010
00002300
00000001
,
00003010
00000000
00000100
00000000
00001000
00000000
00000100
00000010
,
00000200
00000000
00000000
00000000
00000301
00001000
00000001
00000000
,
00001000
00000000
00000100
00000000
00000010
00000100
00000010
00000000
,
00000100
00000000
00010000
00000000
00001000
00010000
00001000
00000000
,
00010000
00000000
00010000
00000000
00100000
00000000
00000000
10000000
,
00000000
20000000
00000000
00000000
30010000
00100000
00010000
00000000
,
10000000
00000000
00100000
00000000
01000000
00100000
01000000
00000000
,
00100000
00000000
00010000
00000000
00001000
00010000
00001000
00000000
,
00010000
00000000
00010000
00000000
00000100
00000000
00000010
00000001
,
00000000
00000002
00000000
00000000
00001003
00000010
00001000
00000000
,
00000020
00010000
00000000
00010030
,
00002000
00100000
00000000
00103000
,
00010000
00000000
00010000
00000000
10000000
00000000
00100000
01000000
,
00000000
02000000
00000000
00000000
03010000
00000000
10000000
00000000
,
02000000
00010000
00000000
03010000
,
00002000
00000010
00000000
00003010
,
00000001
00000000
00000001
00000000
00001000
00000000
00000010
00000100
,
00000000
00000100
00000000
00001000
00010000
00000000
00010000
00000000
,
00011000
00000000
00011000
00000000
00001000
00010000
00001000
00000000
,
00100000
00001000
00100000
00000000
00010000
00100000
00010000
00000000
,
00100000
01000000
00100000
00000000
01000000
10000000
01000000
00000000
,
10000000
00010000
10000000
00000000
00010000
01000000
00010000
00000000
,
01000000
00000000
01000000
00000000
00001000
00020000
00000000
00000000
,
00030100
00001000
00000100
00000000
00000010
00000100
00000010
00000000
,
00000001
00000010
00000001
00000000
00001000
00000001
00001000
00000000
,
00000010
00001000
00000010
00000000
00000100
00000010
00000100
00000000
,
00001000
00000000
00001000
00000000
00010000
00001000
00000000
00001000
,
00010000
00000000
00000000
00000000
;

//---------------dance-double - ----------------
#NOTES:
     dance-double:
     :
     Easy:
     7:
     0.268464,0.344374,0.055544,0.175890,0.000000,203.000000,197.000000,6.000000,19.000000,0.000000,0.000000,0.268464,0.344374,0.055544,0.175890,0.000000,203.000000,197.000000,6.000000,19.000000,0.000000,0.000000:
00000000
00000000
00000000
00000000
,
00000000
00000000
00000000
00000000
,
00000000
00000000
00000000
00000000
,
00000000
00000000
00000000
00000000
,
00000000
00000000
00000000
00000000
,
00000001
00000000
00001001
00000000
,
00001000
00000000
00001000
00000000
00000010
00010000
00000010
00000000
,
00010000
00000000
00011000
00000000
,
00001000
00001000
00100000
00100000
,
00010000
00000000
10010000
00000000
,
10000000
00000000
10000000
00010000
10000000
00000000
01000000
00000000
,
01000000
00000000
00011000
00000000
,
00010000
00010000
00000100
00000100
,
00000020
00000000
00000032
00000000
,
00001003
00000010
00000100
00000000
,
00000001
00000000
00000001
00000000
00001000
00000001
00001000
00000000
,
00000100
00010000
00001000
00000000
,
00020000
00000000
00032000
00000000
,
01003000
00100000
10000000
00000000
,
00020000
00000000
20030000
00000000
,
31000000
00000000
00100000
01000000
00100000
00000000
00000000
00000000
,
00001000
00000000
00010000
00000000
00000100
00000000
00000000
00000010
,
00000000
00000001
00000000
00000010
00000000
00000000
00000001
00000000
,
00000100
00000000
00000010
00000000
00010000
00000000
00000000
00001000
,
00000000
00010000
00000000
00001000
00000000
00000000
00100000
00000000
,
00020000
00000000
10030000
10000000
,
00200000
00000000
00310000
00010000
,
00001000
00000100
00000001
00000100
,
00001000
00000000
00001000
00000000
00010000
00001000
00010000
00000000
,
00001000
00000000
00100000
00000000
00010000
00000000
00000000
00100000
,
00000000
01000000
00000000
00100000
00000000
00000000
01000000
00000000
,
10000000
00000000
00010000
00000000
01000000
00000000
00000000
00001000
,
00000000
00010000
00000000
00001000
00000000
00000000
00010000
00000000
,
00000200
00000000
00000310
00000010
,
00000002
00000000
00001003
00001000
,
00000001
00000100
00001000
00000100
,
00000020
00000000
00010030
00010000
,
00002000
00000000
00100000
00103000
,
00002000
00000000
00010000
00013000
,
00001000
00000000
00001000
00000000
00010000
00000000
01000000
00100000
,
00000000
00100000
00000000
00000000
00010000
00000000
10000000
00000000
,
00200000
00000000
01000000
01300000
,
00200000
00000000
00010000
00310000
,
00001000
00000000
00001000
00000000
00000100
00000000
00000001
00001000
,
00000000
00001000
00000000
00000000
00000100
00000000
00000010
00000000
,
00002000
00000000
00100000
00000000
,
00023000
00000000
00000010
00000000
,
00031000
00000000
00001000
00000000
01000000
00000000
00100000
01000000
,
00000000
01000000
00000000
00000000
00100000
00000000
00010000
00000000
,
00002000
00000000
01000000
00000000
,
00023000
00000000
00000100
00000000
,
00031000
00000000
00001000
00000000
00000010
00000000
00000001
00001000
,
00000000
00001000
00000000
00000000
00000010
00000000
00000010
00000000
,
00000110
00000000
00000110
00000000
00001000
00000001
00001000
00000000
,
00000001
00000010
00001000
00001000
,
00010000
01000000
10000000
10000000
,
00010000
01000000
00100000
00100000
,
01000000
00000000
01000000
00000000
00100000
01000000
00000000
00000000
,
00010000
10000000
00100000
00100000
,
00010000
00001000
00000100
00000100
,
00000001
00001000
00000100
00000100
,
00000010
00000000
00000010
00000000
00000001
00001000
00000000
00000001
,
00001000
00000000
00000000
00000000
;
