#TITLE:Lost Lullaby;
#SUBTITLE:;
#ARTIST:Age of Vinyl & Hay Tea;
#TITLETRANSLIT:;
#SUBTITLETRANSLIT:;
#ARTISTTRANSLIT:;
#GENRE:Drum and Bass;
#CREDIT:;
#BANNER:Lost Lullaby.png;
#BACKGROUND:Lost Lullaby-bg.png;
#LYRICSPATH:;
#CDTITLE:;
#MUSIC:Lost Lullaby.ogg;
#OFFSET:2.767241;
#SAMPLESTART:93.784485;
#SAMPLELENGTH:15.000000;
#LASTBEATHINT:2.517476;
#SELECTABLE:YES;
#BPMS:0.000000=87.000000
,76.000000=174.000000
,140.000000=87.000000
,148.000000=174.000000
,260.000000=87.000000
;
#STOPS:
;
#BGCHANGES:;
#KEYSOUNDS:;
#ATTACKS:;

//---------------dance-single - ----------------
#NOTES:
     dance-single:
     :
     Hard:
     12:
     0.339127,0.403561,0.142433,0.403561,0.075173,300.000000,282.000000,18.000000,51.000000,0.000000,0.000000,0.339127,0.403561,0.142433,0.403561,0.075173,300.000000,282.000000,18.000000,51.000000,0.000000,0.000000:
0000
0000
0000
0000
,
0000
0000
0000
0000
,
0000
0000
0000
0000
,
0000
0000
0000
0000
,
0000
0000
0000
0000
,
0002
0000
2003
0000
,
3200
0000
0320
0000
,
0032
0000
2003
0000
,
3020
0000
0230
0000
,
0301
0000
0000
1000
0000
0000
0100
0000
1000
0000
0000
0001
0000
0000
0100
0000
,
0020
0000
0000
2030
0000
0000
0002
0000
0000
0000
0000
0000
3003
0000
0000
0000
,
0001
0000
0000
0010
0000
0000
1000
0000
0010
0000
0000
0001
0000
0000
0100
0000
,
0002
0000
0000
0023
0000
0000
0200
0000
0000
0000
0000
0000
0330
0000
0000
0000
,
0010
0000
0000
0001
0000
0000
0100
0000
0010
0000
0000
1000
0000
0000
0100
0000
,
0020
0000
0000
0032
0000
0000
0200
0000
0000
0000
0000
0000
0303
0000
0000
0000
,
0001
0000
0000
0100
0000
0000
1000
0000
0100
0000
0000
0001
0000
0000
0010
0000
,
2000
0000
0000
3020
0000
0000
0002
0000
0000
0000
0000
0000
0033
0000
0000
0000
,
2002
0000
0000
0000
,
0000
0000
0000
3003
,
0001
0000
0100
0001
0000
0010
0100
0000
,
1000
0000
0010
0100
0000
0001
1000
0000
,
0100
0000
0001
0100
0000
0010
0001
0000
,
2000
0000
0000
3020
0000
0000
0130
0001
,
1000
0000
0001
0010
0000
0100
1000
0000
,
0010
0000
0100
0001
0000
0100
0010
0000
,
1000
0000
0001
1000
0000
0100
0010
0000
,
0001
0000
1000
0010
0100
0001
1000
0000
,
0001
0000
1000
0010
0000
1000
0100
0000
,
0001
0000
0100
0010
0000
0001
0100
0000
,
0010
0000
0100
1000
0000
0100
0001
0000
,
0020
0000
0000
0230
0000
0000
1300
0001
,
0100
0000
0001
0100
0000
0010
0001
0000
,
1000
0000
0100
0001
0000
0010
0100
0000
,
0001
0000
0100
1000
0000
0010
0100
0000
,
0010
0000
0001
0010
1000
0100
0010
0001
,
0200
0000
0320
0000
,
2030
0000
0000
0000
0002
0000
0000
3003
,
1000
0010
0100
0000
0010
0100
0001
0000
,
0010
0000
1000
0010
0001
0100
0010
0000
,
1000
0001
0010
0000
0100
1000
0010
0000
,
0100
0000
1000
0100
0001
0010
0100
0000
,
2000
0010
0001
0100
,
3002
0010
1000
0100
,
1003
0010
0100
0000
1000
0100
0001
0000
,
0010
0000
1000
0010
0001
0010
0100
0000
,
0010
0001
0100
0000
0010
0001
1000
0000
,
0100
0000
0010
1000
0100
0001
0100
0000
,
0010
0001
0100
0000
0010
1000
0100
0000
,
2002
0000
0000
3003
,
0002
0000
1003
0000
0000
1000
1010
0000
,
0020
0000
0000
0000
0130
0000
0000
0001
1000
0000
0100
0000
0110
0000
0000
0000
,
0020
0000
0031
0000
0000
0001
1001
0000
,
2000
0000
0000
0000
3010
0000
0000
0100
0001
0000
1000
0000
1100
0000
0000
0000
,
0200
0000
0310
0000
0000
0010
0011
0000
,
0002
0000
0000
0000
0103
0000
0000
1000
0100
0000
0001
0000
0101
0000
0000
0000
,
0200
0000
0310
0000
0000
0010
1010
0000
,
2000
0000
0000
0000
3100
0000
0000
0001
0100
0000
1000
0000
1010
0000
0000
0000
,
0100
0001
1000
0000
0000
1000
0011
0000
,
0002
0000
0000
0000
0103
0000
0000
0010
0001
0000
0010
0000
1010
0000
0000
0000
,
1000
0001
0010
0000
0000
0010
1100
0000
,
2000
0000
0000
0000
3010
0000
0000
0100
1000
0000
0100
0000
0101
0000
0000
0000
,
0001
0010
0100
0000
0000
0100
1001
0000
,
0002
0000
0000
0000
0103
0000
0000
0010
0001
0000
0010
0000
1010
0000
0000
0000
,
1000
0001
0100
0000
0000
0100
1010
0000
,
0020
0000
0130
0001
1000
0010
0100
0000
,
0102
0000
0203
0000
,
0320
0000
2030
0000
,
0002
0000
0000
0000
,
3003
0000
0000
0000
;

//---------------dance-single - ----------------
#NOTES:
     dance-single:
     :
     Medium:
     8:
     0.258867,0.295945,0.015826,0.316518,0.047478,229.000000,227.000000,2.000000,40.000000,0.000000,0.000000,0.258867,0.295945,0.015826,0.316518,0.047478,229.000000,227.000000,2.000000,40.000000,0.000000,0.000000:
0000
0000
0000
0000
,
0000
0000
0000
0000
,
0000
0000
0000
0000
,
0000
0000
0000
0000
,
0000
0000
0000
0000
,
0002
0000
2003
0000
,
3020
0000
0230
0000
,
0302
0000
0023
0000
,
0230
0000
2300
0000
,
3010
0000
0000
0010
0000
0000
0010
0000
0100
0000
0000
0100
0000
0000
0100
0000
,
0001
0000
0000
2000
0000
0000
0002
0000
0000
0000
0000
0000
3003
0000
0000
0000
,
0001
0000
0000
0001
0000
0000
0001
0000
1000
0000
0000
1000
0000
0000
1000
0000
,
0100
0000
0000
0020
0000
0000
0200
0000
0000
0000
0000
0000
0330
0000
0000
0000
,
0010
0000
0000
0010
0000
0000
0010
0000
0001
0000
0000
0001
0000
0000
0001
0000
,
1000
0000
0000
0020
0000
0000
2000
0000
0000
0000
0000
0000
3030
0000
0000
0000
,
0010
0000
0000
0010
0000
0000
0010
0000
1000
0000
0000
1000
0000
0000
1000
0000
,
0001
0000
0000
0020
0000
0000
0002
0000
0000
0000
0000
0000
0033
0000
0000
0000
,
2002
0000
0000
0000
,
0000
0000
0000
3003
,
0001
1000
0001
0001
,
0100
0010
1000
1000
,
0001
0010
0100
0100
,
0020
0000
0000
0032
0000
0000
1003
0000
,
0010
0100
0001
0001
,
0010
1000
0010
0010
,
0100
1000
0001
0001
,
0100
0000
0010
0000
1000
0001
1000
0000
,
0001
0010
1000
1000
,
0010
0001
0100
0100
,
0010
1000
0010
0010
,
0200
0000
0000
0302
0000
0000
1003
0000
,
0100
0010
0100
0100
,
0001
0100
1000
1000
,
0010
0100
0001
0001
,
1000
0100
0010
0001
,
0200
0000
0302
0000
,
2003
0000
3200
0000
,
0310
0001
0010
0100
,
1000
0001
1000
0010
,
0100
0001
0010
0100
,
1000
0010
0100
0100
,
0001
1000
0100
0001
,
0100
1000
0010
0100
,
0001
0010
0100
1000
,
0010
0001
0010
0010
,
1000
0001
0100
1000
,
0100
0001
0010
0100
,
0010
0001
1000
0010
,
0200
0000
0000
0300
,
0002
1000
0100
1000
,
2003
0010
0001
0010
,
3020
0100
1000
0100
,
0230
0001
0010
0001
,
0302
0010
1000
0010
,
0023
0100
0001
0100
,
0230
1000
0010
1000
,
2300
0001
0100
0001
,
3001
0100
0010
1000
,
0100
0010
0001
0001
,
0100
0010
1000
0100
,
0010
0100
1000
1001
,
0001
0100
0010
1000
,
0010
0100
0001
0001
,
0010
0100
1000
0100
,
0010
0000
0001
0000
0100
0010
0100
0000
,
0020
0000
0230
0000
,
0302
0000
0023
0000
,
0200
0000
0000
0000
,
0330
0000
0000
0000
;

//---------------dance-single - ----------------
#NOTES:
     dance-single:
     :
     Easy:
     5:
     0.154868,0.215232,0.007913,0.356083,0.000000,137.000000,136.000000,1.000000,45.000000,0.000000,0.000000,0.154868,0.215232,0.007913,0.356083,0.000000,137.000000,136.000000,1.000000,45.000000,0.000000,0.000000:
0000
0000
0000
0000
,
0000
0000
0000
0000
,
0000
0000
0000
0000
,
0000
0000
0000
0000
,
0000
0000
0000
0000
,
0002
0000
0000
0000
,
2003
0000
0000
0000
,
3020
0000
0000
0000
,
0230
0000
0000
0000
,
0302
0000
2003
0000
,
3200
0000
0000
0020
0000
0000
0330
0000
,
0020
0000
0032
0000
,
2003
0000
0000
0020
0000
0000
3030
0000
,
0020
0000
0230
0000
,
0302
0000
0000
2000
0000
0000
3003
0000
,
0002
0000
0023
0000
,
0230
0000
0000
2000
0000
0000
3300
0000
,
2002
0000
0000
0000
,
0000
0000
0000
3003
,
0001
0000
0100
0010
,
1000
0000
0001
0010
,
0100
0000
0010
0001
,
0001
0000
1000
0010
,
0100
0000
0001
0100
,
0010
0000
1000
0100
,
0010
0001
0010
0100
,
1000
0000
0001
1000
,
0010
0000
0100
0001
,
0010
0000
0100
1000
,
0001
0000
0100
0010
,
0010
0000
1000
0010
,
0100
0000
0001
1000
,
0100
0000
0010
0001
,
0010
0100
1000
0100
,
0020
0000
0031
0000
,
2000
0000
0000
0000
,
3002
0000
0000
0000
,
0103
0000
0010
0010
,
1000
0000
0100
0100
,
0010
0000
0001
0001
,
0010
0000
1000
0000
,
0010
0000
0001
0001
,
0100
0000
0010
0010
,
1000
0000
0100
0100
,
0001
0000
0100
0000
,
1000
0000
0010
0010
,
0100
0000
0001
0001
,
0010
0000
0100
0000
,
2000
0000
0000
0000
,
3002
0000
0103
0000
,
2000
0000
3100
0000
,
0002
0000
0013
0000
,
2000
0000
3010
0000
,
0002
0000
1003
0000
,
0020
0000
1030
0000
,
0002
0000
0013
0000
,
0200
0000
0300
0000
,
2000
0000
3010
0000
,
0200
0000
0301
0000
,
0020
0000
1030
0000
,
0020
0000
0031
0000
,
0200
0000
0310
0000
,
0200
0000
0301
0000
,
0020
0000
1030
0000
,
0020
0000
0030
0000
,
0002
0000
0000
0000
,
0203
0000
0000
0000
,
0020
0000
0000
0000
,
0330
0000
0000
0000
;

//---------------dance-single - ----------------
#NOTES:
     dance-single:
     :
     Beginner:
     3:
     0.123216,0.161424,0.007913,0.126607,0.000000,109.000000,108.000000,1.000000,16.000000,0.000000,0.000000,0.123216,0.161424,0.007913,0.126607,0.000000,109.000000,108.000000,1.000000,16.000000,0.000000,0.000000:
0000
0000
0000
0000
,
0000
0000
0000
0000
,
0000
0000
0000
0000
,
0000
0000
0000
0000
,
0000
0000
0000
0000
,
0002
0000
0000
0000
,
0000
0000
0003
0000
,
0200
0000
0000
0000
,
0000
0000
0300
0000
,
0020
0000
0000
0000
,
2030
0000
0000
3000
,
0002
0000
0000
0000
,
0023
0000
0000
0030
,
0200
0000
0000
0000
,
2300
0000
0000
3000
,
0002
0000
0000
0000
,
0203
0000
0000
0300
,
0220
0000
0000
0000
,
0000
0000
0000
0330
,
0010
0000
1000
0000
,
0010
0000
0100
0000
,
0001
0000
0010
0000
,
1000
0000
0010
0000
,
0001
0000
0100
0000
,
0010
0000
1000
0000
,
0010
0000
0010
0000
,
0010
0000
0100
0000
,
0001
0000
0010
0000
,
0001
0000
0100
0000
,
1000
0000
0100
0000
,
0010
0000
0100
0000
,
1000
0000
0100
0000
,
0001
0000
0010
0000
,
0100
0000
0100
0000
,
0100
0000
1000
0000
,
2000
0000
0000
0000
,
0000
0000
0000
0000
,
3001
0000
0100
0000
,
1000
0000
0100
0000
,
0001
0000
0010
0000
,
1000
0000
0010
0000
,
0001
0000
0001
0000
,
1000
0000
1000
0000
,
0010
0000
0100
0000
,
1000
0000
0100
0000
,
0001
0000
0010
0000
,
0100
0000
1000
0000
,
0010
0000
0010
0000
,
0200
0000
0000
0300
,
0001
0000
1000
0000
,
0100
0100
0100
0000
,
0010
0000
0001
0000
,
0100
0100
0100
0000
,
0010
0000
1000
0000
,
0010
0010
0010
0000
,
0100
0000
0001
0000
,
1000
1000
1000
0000
,
0100
0000
0010
0000
,
0001
0010
0001
0000
,
0100
0000
0010
0000
,
1000
0010
1000
0000
,
0010
0000
0100
0000
,
0001
1000
0001
0000
,
0010
0000
0100
0000
,
1000
0000
1000
0000
,
0200
0000
0000
0000
,
0000
0000
0000
0000
,
0020
0000
0000
0000
,
0330
0000
0000
0000
;

//---------------dance-double - ----------------
#NOTES:
     dance-double:
     :
     Hard:
     12:
     0.336866,0.403561,0.150346,0.363996,0.047478,298.000000,279.000000,19.000000,46.000000,0.000000,0.000000,0.336866,0.403561,0.150346,0.363996,0.047478,298.000000,279.000000,19.000000,46.000000,0.000000,0.000000:
00000000
00000000
00000000
00000000
,
00000000
00000000
00000000
00000000
,
00000000
00000000
00000000
00000000
,
00000000
00000000
00000000
00000000
,
00000000
00000000
00000000
00000000
,
20000000
00000000
32000000
00000000
,
03020000
00000000
00032000
00000000
,
00003020
00000000
00000032
00000000
,
00000203
00000000
00002300
00000000
,
00013000
00000000
00000000
00100000
00000000
00000000
10000000
00000000
00100000
00000000
00000000
00010000
00000000
00000000
00001000
00000000
,
00010000
00000000
00000000
02000000
00000000
00000000
00200000
00000000
00000000
00000000
00000000
00000000
03300000
00000000
00000000
00000000
,
01000000
00000000
00000000
00010000
00000000
00000000
00001000
00000000
00000010
00000000
00000000
00000001
00000000
00000000
00001000
00000000
,
00000001
00000000
00000000
00000200
00000000
00000000
00000020
00000000
00000000
00000000
00000000
00000000
00000330
00000000
00000000
00000000
,
00000100
00000000
00000000
00001000
00000000
00000000
00010000
00000000
00100000
00000000
00000000
10000000
00000000
00000000
01000000
00000000
,
00010000
00000000
00000000
00002000
00000000
00000000
00000020
00000000
00000000
00000000
00000000
00000000
00003030
00000000
00000000
00000000
,
00000010
00000000
00000000
00000001
00000000
00000000
00000100
00000000
00001000
00000000
00000000
00010000
00000000
00000000
00100000
00000000
,
10000000
00000000
00000000
02000000
00000000
00000000
00020000
00000000
00000000
00000000
00000000
00000000
03030000
00000000
00000000
00000000
,
00022000
00000000
00000000
00000000
,
00000000
00000000
00000000
00033000
,
00001000
00000000
00000100
00000001
00000000
00000010
00000100
00000000
,
00010000
00000000
00001000
00000100
00000000
00001000
00010000
00000000
,
00100000
00000000
10000000
00010000
00000000
00100000
01000000
00000000
,
00020000
00000000
00000000
00032000
00000000
00000000
00003010
00000001
,
00001000
00000000
00000010
00001000
00000000
00000100
00010000
00000000
,
01000000
00000000
00100000
00010000
00000000
10000000
00100000
00000000
,
00010000
00000000
00001000
00000100
00000000
00000010
00001000
00000000
,
00000001
00000000
00000010
00001000
00000000
00010000
01000000
10000000
,
00010000
00000000
01000000
00100000
00000000
00010000
00001000
00000000
,
00100000
00000000
00010000
00001000
00000000
00000100
00000010
00000000
,
00000001
00000000
00000100
00000010
00000000
00000100
00001000
00000000
,
00020000
00000000
00000000
00230000
00000000
00000000
10300000
01000000
,
00010000
00000000
00001000
01000000
00000000
00100000
00010000
00000000
,
00001000
00000000
00100000
00010000
00000000
00001000
00000100
00000000
,
00000010
00000000
00000001
00000100
00000000
00001000
00010000
00000000
,
00000100
00000000
00001000
00010000
00100000
00010000
00001000
00000100
,
00020100
00000000
00032000
00000000
,
00203000
00000000
02300000
00000000
,
13000000
00010000
01000000
00000000
00100000
00010000
00001000
00000000
,
00100000
00000000
00001000
00010000
00000010
00001000
00000100
00000000
,
00000010
00000001
00000100
00000000
00001000
00010000
00000100
00000000
,
00001000
00000000
00010000
00100000
01000000
10000000
00010000
00000000
,
00002000
00000010
00000001
00000100
,
00023000
00100000
10000000
01000000
,
00031000
00000010
00000100
00000000
00000001
00001000
00000100
00000000
,
00000010
00000000
00000100
00001000
00010000
00100000
01000000
00000000
,
10000000
00100000
01000000
00000000
00010000
00100000
00001000
00000000
,
00000010
00000000
00001000
00000010
00001000
00010000
01000000
00000000
,
00100000
00010000
10000000
00000000
00100000
00010000
00001000
00000000
,
00022000
00000000
00000000
00033000
,
00020000
00000000
00030010
00000000
00000000
00000100
00000101
00000000
,
00000002
00000000
00001003
00000000
00000100
00010000
00011000
00000000
,
00002000
00000000
01003000
00000000
00000000
00100000
10100000
00000000
,
20000000
00000000
31000000
00000000
00010000
00001000
00011000
00000000
,
00020000
00000000
00030010
00000000
00000000
00001000
00001100
00000000
,
00000200
00000000
00000310
00000000
00000001
00001000
00001010
00000000
,
00000020
00000000
00000130
00000000
00000000
00001000
00011000
00000000
,
00020000
00000000
01030000
00000000
10000000
00100000
01100000
00000000
,
01000000
00001000
00010000
00000000
00000000
00000010
00001010
00000000
,
00002000
00000000
00003001
00000010
00001000
00010000
00011000
00000000
,
00001000
00100000
01000000
00000000
00000000
00100000
00110000
00000000
,
00020000
00000000
10030000
00100000
00010000
00001000
00011000
00000000
,
00010000
00000010
00000100
00000000
00000000
00000001
00001001
00000000
,
00002000
00000000
00003100
00010000
00001000
00100000
01100000
00000000
,
01000000
10000000
00010000
00000000
00000000
01000000
01001000
00000000
,
00001000
00000100
00001000
00010000
01000000
00010000
00001000
00000000
,
00021000
00000000
00030020
00000000
,
00000230
00000000
00000302
00000000
,
00002000
00000000
00000000
00000000
,
00003003
00000000
00000000
00000000
;

//---------------dance-double - ----------------
#NOTES:
     dance-double:
     :
     Medium:
     9:
     0.261128,0.322849,0.015826,0.324431,0.047478,231.000000,229.000000,2.000000,41.000000,0.000000,0.000000,0.261128,0.322849,0.015826,0.324431,0.047478,231.000000,229.000000,2.000000,41.000000,0.000000,0.000000:
00000000
00000000
00000000
00000000
,
00000000
00000000
00000000
00000000
,
00000000
00000000
00000000
00000000
,
00000000
00000000
00000000
00000000
,
00000000
00000000
00000000
00000000
,
20000000
00000000
30020000
00000000
,
00230000
00000000
00302000
00000000
,
00023000
00000000
00030020
00000000
,
00000230
00000000
00000302
00000000
,
00001003
00000000
00000000
00001000
00000000
00000000
00001000
00000000
00000100
00000000
00000000
00000100
00000000
00000000
00000100
00000000
,
00010000
00000000
00000000
00001000
00000000
00000000
00020000
00000000
00000000
00000000
00000000
00000000
00030000
00000000
00000000
00000000
,
00001000
00000000
00000000
00001000
00000000
00000000
00001000
00000000
00100000
00000000
00000000
00100000
00000000
00000000
00100000
00000000
,
01000000
00000000
00000000
10000000
00000000
00000000
02000000
00000000
00000000
00000000
00000000
00000000
03000000
00000000
00000000
00000000
,
00100000
00000000
00000000
00100000
00000000
00000000
00100000
00000000
00001000
00000000
00000000
00001000
00000000
00000000
00001000
00000000
,
00010000
00000000
00000000
00000010
00000000
00000000
00020000
00000000
00000000
00000000
00000000
00000000
00030000
00000000
00000000
00000000
,
00000100
00000000
00000000
00000100
00000000
00000000
00000100
00000000
00000010
00000000
00000000
00000010
00000000
00000000
00000010
00000000
,
00000100
00000000
00000000
00010000
00000000
00000000
00000200
00000000
00000000
00000000
00000000
00000000
00000300
00000000
00000000
00000000
,
00022000
00000000
00000000
00000000
,
00000000
00000000
00000000
00033000
,
00001000
01000000
00100000
00100000
,
10000000
00010000
00100000
00100000
,
00001000
00010000
00000010
00000100
,
00000002
00000000
00000000
00002003
00000000
00000000
00003001
00000000
,
00000010
00000100
00010000
00010000
,
00001000
00000100
00000010
00000010
,
00000100
00001000
00010000
01000000
,
20000000
00000000
30010000
01000000
,
00100000
00010000
00001000
00001000
,
00100000
00010000
00001000
00001000
,
00000100
00000010
00000001
00001000
,
00000020
00000000
00000000
00020030
00000000
00000000
00030010
00000000
,
00001000
00000100
00010000
00010000
,
00001000
00100000
01000000
01000000
,
00010000
00001000
00010000
01000000
,
20000000
00000000
30010000
01000000
,
00002000
00000000
00023000
00000000
,
00030020
00000000
00000230
00000000
,
00000301
00001000
00000100
00001000
,
00010000
00100000
01000000
10000000
,
00010000
01000000
00010000
00001000
,
00000010
00001000
00010000
01000000
,
00002000
00100000
00010000
00100000
,
00023000
00000010
00001000
00000010
,
00031000
00000100
00000010
00001000
,
00000001
00000010
00000100
00000100
,
00010000
00001000
00000100
00000010
,
00001000
00000100
00001000
00001000
,
00010000
00100000
01000000
00100000
,
02200000
00000000
00000000
03300000
,
02000000
10000000
00100000
10000000
,
03200000
00001000
00010000
00001000
,
00320000
01000000
00001000
01000000
,
00032000
00000010
00000001
00000010
,
00003002
00001000
00000010
00001000
,
00002003
00000100
00000001
00000100
,
00023000
00001000
00100000
00001000
,
00230000
01000000
00010000
01300000
,
10000000
00010000
10000000
00000000
00100000
00000000
01000000
00000000
,
00001000
00010000
00000100
00000100
,
00000010
00000001
00000010
00000000
00000100
00000000
00001000
00000000
,
00000001
00000010
00001000
00001000
,
00010000
00001000
00010000
00000000
00100000
00000000
10000000
00000000
,
00010000
00100000
00001000
00001000
,
00010000
00000010
00010000
00000000
00000100
00000000
00000100
00000000
,
00000010
00000000
00000001
00001000
00000001
00001000
00000001
00000000
,
00000200
00000000
00002300
00000000
,
00023000
00000000
00230000
00000000
,
02000000
00000000
00000000
00000000
,
03300000
00000000
00000000
00000000
;

//---------------dance-double - ----------------
#NOTES:
     dance-double:
     :
     Easy:
     5:
     0.163911,0.215232,0.039565,0.363996,0.000000,145.000000,140.000000,5.000000,46.000000,0.000000,0.000000,0.163911,0.215232,0.039565,0.363996,0.000000,145.000000,140.000000,5.000000,46.000000,0.000000,0.000000:
00000000
00000000
00000000
00000000
,
00000000
00000000
00000000
00000000
,
00000000
00000000
00000000
00000000
,
00000000
00000000
00000000
00000000
,
00000000
00000000
00000000
00000000
,
20000000
00000000
00000000
00000000
,
30020000
00000000
00000000
00000000
,
02030000
00000000
00000000
00000000
,
03002000
00000000
00000000
00000000
,
00023000
00000000
00030020
00000000
,
00000230
00000000
00000000
00000002
00000000
00000000
00000303
00000000
,
00000200
00000000
00000320
00000000
,
00020030
00000000
00000000
00000200
00000000
00000000
00030300
00000000
,
00020000
00000000
00032000
00000000
,
00203000
00000000
00000000
02000000
00000000
00000000
03300000
00000000
,
02000000
00000000
23000000
00000000
,
30020000
00000000
00000000
00200000
00000000
00000000
00330000
00000000
,
00022000
00000000
00000000
00000000
,
00000000
00000000
00000000
00033000
,
00001000
00000000
00010000
00000010
,
00000100
00000000
00000001
00001000
,
00000100
00000000
00001000
00000100
,
00000100
00000000
00001000
00010000
,
00100000
00000000
01000000
10000000
,
00010000
00000000
00100000
00010000
,
00001000
00000100
00001000
00010000
,
00100000
00000000
00001000
00010000
,
00000100
00000000
00000010
00000001
,
00000100
00000000
00000010
00010000
,
00001000
00000000
00100000
00010000
,
00010000
00000000
00100000
01000000
,
10000000
00000000
00100000
00010000
,
00001000
00000000
00000100
00001000
,
00010000
00100000
00010000
00001000
,
00000100
00000000
00000010
00000000
,
00002000
00000000
00003002
00000000
,
00000023
00000000
00000230
00000000
,
00010300
00000000
00001000
01000000
,
01000000
00000000
00100000
00010000
,
00010000
00000000
00001000
00000010
,
00000010
00000000
00001001
00000000
,
00001000
00000000
00000010
00010000
,
00010000
00000000
00000100
00001000
,
00001000
00000000
00010000
00100000
,
00100000
00000000
10010000
00000000
,
10000000
00000000
00100000
01000000
,
01000000
00000000
00001000
00010000
,
00010000
00000000
00000010
00000000
,
00000220
00000000
00000000
00000330
,
00000200
00000000
00000301
00000000
,
00000200
00000000
00001300
00000000
,
00000200
00000000
00010300
00000000
,
00002000
00000000
00013000
00000000
,
00200000
00000000
10300000
00000000
,
00200000
00000000
00310000
00000000
,
00200000
00000000
00301000
00000000
,
00020000
00000000
00030010
00000000
,
00000200
00000000
00001300
00000000
,
00000200
00000000
00000310
00000000
,
00000200
00000000
00000301
00000000
,
00000020
00000000
00001030
00000000
,
00020000
00000000
01030000
00000000
,
00200000
00000000
01300000
00000000
,
20000000
00000000
30010000
00000000
,
01000000
00000000
00001000
00000000
,
00021000
00000000
00000000
00000000
,
00030020
00000000
00000000
00000000
,
00000200
00000000
00000000
00000000
,
00000330
00000000
00000000
00000000
;

//---------------dance-single - ----------------
#NOTES:
     dance-single:
     :
     Challenge:
     14:
     0.534690,0.699505,0.680514,0.340257,0.193867,473.000000,387.000000,86.000000,43.000000,0.000000,0.000000,0.534690,0.699505,0.680514,0.340257,0.193867,473.000000,387.000000,86.000000,43.000000,0.000000,0.000000:
// measure 0
0000
0000
0000
0000
,  // measure 1
0000
0000
0000
0000
,  // measure 2
0000
0000
0000
0000
,  // measure 3
0000
0000
0000
0000
,  // measure 4
0000
0000
0000
0000
,  // measure 5
0002
0000
0023
0000
,  // measure 6
2030
0000
3020
0000
,  // measure 7
0032
0000
0203
0000
,  // measure 8
2300
0000
3200
0000
,  // measure 9
0302
0000
0000
0100
0000
0000
1000
0000
2003
0000
0000
0100
0000
0000
0001
0000
,  // measure 10
3002
0000
0000
0203
0000
0000
0020
0000
0000
0000
0000
0000
0330
0000
0000
0000
,  // measure 11
0020
0000
0000
1000
0000
0000
0100
0000
0230
0000
0000
0001
0000
0000
0010
0000
,  // measure 12
0320
0000
0000
2030
0000
0000
0002
0000
0000
0000
0000
0000
3003
0000
0000
0000
,  // measure 13
0002
0000
0000
0100
0000
0000
0010
0000
0023
0000
0000
1000
0000
0000
0100
0000
,  // measure 14
0230
0000
0000
2300
0000
0000
0002
0000
0000
0000
0000
0000
3003
0000
0000
0000
,  // measure 15
2000
0000
0000
0100
0000
0000
0010
0000
3020
0000
0000
0001
0000
0000
0100
0000
,  // measure 16
0230
0000
0000
0302
0000
0000
2000
0000
0000
0000
0000
0000
3003
0000
0000
0000
,  // measure 17
2002
0000
0000
0000
,  // measure 18
0000
0000
0000
0000
0000
0000
0000
3003
,  // measure 19
0001
1000
1100
0001
1000
1100
0000
1000
,  // measure 20
0001
0100
0101
1000
0001
0101
0000
0100
,  // measure 21
0010
1000
1100
0001
1000
1100
0000
0100
,  // measure 22
0010
0001
1001
1000
0010
0110
0100
0001
,  // measure 23
1000
0001
0011
1000
0001
0011
0000
0010
,  // measure 24
0001
1000
1010
0001
1000
1010
0000
1000
,  // measure 25
0001
0010
0110
0001
0010
0110
0000
0100
,  // measure 26
1000
0001
1001
1000
0100
0110
0010
0001
,  // measure 27
1000
0010
0101
1000
0010
0101
0000
0001
,  // measure 28
1000
0100
0011
1000
0100
0011
0000
0010
,  // measure 29
0001
0010
1100
0001
0010
1100
0000
0001
,  // measure 30
0100
0010
0110
0100
0001
1001
1000
0001
,  // measure 31
0100
0001
1010
0100
0001
1010
0000
0010
,  // measure 32
1000
0100
0011
1000
0100
0011
0000
0010
,  // measure 33
0001
1000
0110
0001
1000
0110
0000
0001
,  // measure 34
1000
0000
0001
0000
0110
0000
1000
0000
0001
0100
0001
0000
0010
0000
0100
0000
,  // measure 35
2100
0000
3002
0000
,  // measure 36
0203
0000
0000
0000
0020
0000
0000
0330
,  // measure 37
0010
0000
1000
0000
1001
0000
0001
0010
0100
0000
0010
0000
1001
0000
0000
0000
,  // measure 38
1000
0000
0001
0000
0101
0000
0100
0010
1000
0000
0001
0000
0101
0000
0000
0000
,  // measure 39
0001
0000
1000
0000
1100
0000
0100
0010
0001
0000
0010
0000
1100
0000
0000
0000
,  // measure 40
1000
0000
0001
0000
0011
0000
0010
0100
1000
0000
0100
0000
0011
0000
0001
0000
,  // measure 41
2000
0010
0010
0000
0001
0000
0100
0000
,  // measure 42
3002
0100
1000
0010
,  // measure 43
0013
0000
0100
0000
1100
0000
1000
0001
0100
0000
0001
0000
1100
0000
0000
0000
,  // measure 44
0100
0000
0010
0000
0011
0000
0001
1000
0010
0000
1000
0000
0011
0000
0000
0000
,  // measure 45
0001
0000
1000
0000
1010
0000
0010
0100
0001
0000
0100
0000
1010
0000
0000
0000
,  // measure 46
1000
0000
0001
0000
0011
0000
0010
0001
1000
0000
0100
0000
0011
0000
0000
0000
,  // measure 47
0001
0000
0100
0000
0110
0000
0010
1000
0001
0000
0100
0000
0110
0000
1000
0000
,  // measure 48
2002
0000
0000
0000
0000
0000
0000
3003
,  // measure 49
0001
0000
0100
0000
0110
0000
0010
1000
0001
0000
1000
0000
1100
0000
0000
0000
,  // measure 50
0010
0000
0000
0000
1001
0000
0000
0001
0100
0000
0010
0000
1010
0000
1000
0001
,  // measure 51
0010
0000
0001
0000
0011
0000
0010
0100
1000
0000
0001
0000
1001
0000
0000
0000
,  // measure 52
0100
0000
0000
0000
1010
0000
0000
0010
1000
0000
0001
0000
0011
0000
0010
0100
,  // measure 53
1000
0000
0001
0000
0101
0000
0100
0010
1000
0000
0001
0000
1001
0000
0000
0000
,  // measure 54
0100
0000
0000
0000
0011
0000
0000
0001
0100
0000
0010
0000
1010
0000
1000
0001
,  // measure 55
0010
0000
0100
0000
1100
0000
1000
0001
0010
0000
0001
0000
0101
0000
0000
0000
,  // measure 56
1000
0000
0000
0000
0011
0000
0000
0001
1000
0000
0010
0000
1010
0000
1000
0001
,  // measure 57
0100
0000
0010
0000
1010
0000
1000
0001
0100
0010
1000
0000
1001
0000
0000
0000
,  // measure 58
0100
0000
0000
0000
1010
0000
0000
1000
0100
0000
0010
0000
0011
0000
0001
0100
,  // measure 59
0010
0000
1000
0000
1010
0000
0010
0100
0001
1000
0010
0000
0110
0000
0000
0000
,  // measure 60
0001
0000
0000
0000
1100
0000
0000
0100
0010
0000
0001
0000
0101
0000
0100
0010
,  // measure 61
1000
0000
0001
0000
0011
0000
0010
0100
1000
0001
0010
0000
0110
0000
0000
0000
,  // measure 62
1000
0000
0000
0000
0101
0000
0000
0100
0010
0000
1000
0000
1001
0000
0001
0010
,  // measure 63
0100
0000
0010
0000
0011
0000
0001
1000
0010
0100
0001
0000
1001
0000
1000
0010
,  // measure 64
0100
0000
0110
0001
0110
1000
0110
0000
,  // measure 65
1002
0000
0203
0000
,  // measure 66
2300
0000
3200
0000
,  // measure 67
0302
0000
0000
0000
,  // measure 68
0003
0000
0000
0000
;

//---------------dance-double - ----------------
#NOTES:
     dance-double:
     :
     Challenge:
     15:
     0.455560,0.538081,0.340257,0.348170,0.146390,403.000000,360.000000,43.000000,44.000000,34.000000,0.000000,0.455560,0.538081,0.340257,0.348170,0.146390,403.000000,360.000000,43.000000,44.000000,34.000000,0.000000:
00000000
00000000
00000000
00000000
,
00000000
00000000
00000000
00000000
,
00000000
00000000
00000000
00000000
,
00000000
00000000
00000000
00000000
,
00000000
00000000
00000000
00000000
,
20010000
00000000
30200000
00000000
,
00320000
00000000
00032000
00000000
,
00203000
00000000
02300000
00000000
,
03020000
00000000
00032000
00000000
,
00003020
00000000
00000000
00000001
00000000
00000000
00000130
00000000
00020000
00000000
00000000
00000100
00000000
00000000
00031000
00000000
,
02000000
00000000
00000000
10000000
00000000
00000000
00200000
00000000
00000000
00000000
00000000
00000000
03300000
00000000
00000000
00000000
,
02000000
00000000
00000000
10000000
00000000
00000000
03010000
00000000
00200000
00000000
00000000
00001000
00000000
00000000
00310000
00000000
,
00002000
00000000
00000000
00000100
00000000
00000000
00000002
00000000
00000000
00000000
00000000
00000000
00003003
00000000
00000000
00000000
,
00000002
00000000
00000000
00000100
00000000
00000000
00001003
00000000
00000020
00000000
00000000
00010000
00000000
00000000
00000130
00000000
,
00002000
00000000
00000000
00100000
00000000
00000000
00020000
00000000
00000000
00000000
00000000
00000000
00033000
00000000
00000000
00000000
,
00020000
00000000
00000000
00001000
00000000
00000000
01030000
00000000
00200000
00000000
00000000
00010000
00000000
00000000
01300000
00000000
,
00020000
00000000
00000000
00000100
00000000
00000000
00002000
00000000
00000000
00000000
00000000
00000000
00033000
00000000
00000000
00000000
,
00022000
00000000
00000000
00000000
,
00000000
00000000
00000000
00000000
00000000
00000000
00000000
00033000
,
00001000
01000000
0100M000
10000000
01000000
M1000000
00000000
00010000
,
00100000
00001000
00M01000
00000010
00001000
000010M0
00000000
00010000
,
00000010
00000100
000001M0
00001000
00000100
0000M100
00000000
00000001
,
00000020
00000000
00001030
00020000
00000000
01030000
10000000
00010000
,
01000000
00010000
0M010000
00001000
00010000
0001M000
00000000
10000000
,
00100000
01000000
01M00000
10000000
01000000
M1000000
00000000
00001000
,
00010000
00001000
000M1000
00000010
00001000
000010M0
00000000
00010000
,
00000020
00000000
00001030
00000002
00000000
00000013
0000001M
00000000
,
00001000
00000100
0000M100
00000010
00001000
000010M0
00000000
00010000
,
00001000
01000000
0100M000
10000000
00010000
M0010000
00000000
00001000
,
00010000
00000100
000M0100
00000001
00001000
0000100M
00000000
00010000
,
00000020
00000000
00010030
00000200
00000000
00010300
00001000
01000000
,
00001000
00010000
0001M000
10000000
01000000
M1000000
00000000
00001000
,
00100000
00010000
00M10000
00000010
00000100
000001M0
00000000
00001000
,
00000001
00000100
0000010M
00010000
00001000
000M1000
00000000
00000010
,
00010000
00000000
00000100
00000000
00010000
00000000
00001000
00000000
00100000
00010000
00100000
00000000
01000000
00000000
10000000
00000000
,
10020000
00000000
02030000
00000000
,
03002000
00000000
00000000
00000000
00020000
00000000
00000000
00033000
,
00001000
00000000
01000000
00000000
0100M000
00000000
10000000
00010000
10000000
00000000
00010000
00000000
01010000
00000000
00000000
00000000
,
01000000
00000000
00010000
00000000
0M010000
00000000
00000100
00001000
00000100
00000000
00001000
00000000
00001001
00000000
00000000
00000000
,
00000001
00000000
00000100
00000000
0000010M
00000000
00010000
00000100
00010000
00000000
00001000
00000000
00011000
00000000
00000000
00000000
,
00001000
00000000
01000000
00000000
0100M000
00000000
10000000
00100000
10000000
00000000
00010000
00000000
01010000
00000000
01000000
00000000
,
00002000
00100000
00100000
00000000
00010000
00000000
01000000
00000000
,
00023000
00000100
00001000
00000010
,
00030010
00000000
00000100
00000000
000001M0
00000000
00001000
00000001
00001000
00000000
00000001
00000000
00001001
00000000
00000000
00000000
,
00001000
00000000
00000100
00000000
0000M100
00000000
00000010
00010000
00000010
00000000
00010000
00000000
00011000
00000000
00000000
00000000
,
00001000
00000000
00010000
00000000
0001M000
00000000
01000000
00010000
01000000
00000000
00100000
00000000
10100000
00000000
00000000
00000000
,
10000000
00000000
00010000
00000000
M0010000
00000000
00001000
00100000
00001000
00000000
00010000
00000000
00011000
00000000
00000000
00000000
,
00010000
00000000
00000100
00000000
000M0100
00000000
00000010
00001000
00000010
00000000
00000100
00000000
00000101
00000000
00000001
00000000
,
00002000
00000000
00000000
00000000
,
00003100
00000000
00010000
00000000
00011000
00000000
00001000
01000000
00001000
00000000
00100000
00000000
00110000
00000000
00000000
00000000
,
10000000
00000000
00000000
00000000
10010000
00000000
00000000
00010000
00010000
00000000
00001000
00000000
01001000
00000000
00000000
00000000
,
00010000
00000000
00000100
00000000
00001100
00000000
00001000
00000001
00000010
00000000
00000001
00000000
00000101
00000000
00000000
00000000
,
00001000
00000000
00000000
00000000
00001100
00000000
00000000
00000100
00000100
00000000
00000001
00000000
00001001
00000000
00000000
00000000
,
00001000
00000000
00000100
00000000
00010100
00000000
00010000
00001000
01000000
00000000
00010000
00000000
01010000
00000000
00000000
00000000
,
10000000
00000000
00000000
00000000
11000000
00000000
00000000
01000000
01000000
00000000
00010000
00000000
10010000
00000000
00000000
00000000
,
10000000
00000000
00010000
00000000
00110000
00000000
00100000
00001000
00010000
00000000
00001000
00000000
00011000
00000000
00000000
00000000
,
00000010
00000000
00000000
00000000
00001010
00000000
00000000
00001000
00001000
00000000
00010000
00000000
00010010
00000000
00000000
00000000
,
00000010
00000000
00000100
00000000
00000101
00000000
00000001
00001000
00000100
00000000
00010000
00000000
00010100
00000000
00000000
00000000
,
00010000
00000000
00000000
00000000
00011000
00000000
00000000
00010000
00010000
00000000
10000000
00000000
10010000
00000000
00000000
00000000
,
00010000
00000000
01000000
00000000
01001000
00000000
00001000
00010000
00000010
00000000
00001000
00000000
00001010
00000000
00000000
00000000
,
00000001
00000000
00000000
00000000
00000101
00000000
00000000
00000100
00000100
00000000
00010000
00000000
00011000
00000000
00000000
00000000
,
00001000
00000000
00100000
00000000
00110000
00000000
00010000
10000000
01000000
00000000
00100000
00000000
00110000
00000000
00000000
00000000
,
01000000
00000000
00000000
00000000
01001000
00000000
00000000
00001000
00001000
00000000
00000100
00000000
00010100
00000000
00000000
00000000
,
00010000
00000000
00000010
00000000
00001010
00000000
00001000
00000001
00000010
00000000
00000100
00000000
00001100
00000000
00000000
00000000
,
00010000
00000000
00001000
01000000
00100000
10000000
10010000
00000000
,
00020000
00000000
02030000
00000000
,
03002000
00000000
00023000
00000000
,
00030020
00000000
00000000
00000000
,
00000030
00000000
00000000
00000000
;
