#TITLE:Journey;
#SUBTITLE:;
#ARTIST:Assertive;
#TITLETRANSLIT:;
#SUBTITLETRANSLIT:;
#ARTISTTRANSLIT:;
#GENRE:;
#CREDIT:;
#BANNER:Journey.png;
#BACKGROUND:Journey-bg.png;
#LYRICSPATH:;
#CDTITLE:;
#MUSIC:Journey.ogg;
#OFFSET:0.000000;
#SAMPLESTART:80.471001;
#SAMPLELENGTH:15.000000;
#SELECTABLE:YES;
#BPMS:0.000000=170.000000
,100.000000=85.000000
,132.000000=170.000000
;
#STOPS:
;
#BGCHANGES:;
#KEYSOUNDS:;
#ATTACKS:;

//---------------dance-double - ----------------
#NOTES:
     dance-double:
     :
     Hard:
     14:
     0.544226,0.811527,0.050698,0.499736,0.235383,526.000000,519.000000,7.000000,69.000000,0.000000,0.000000,0.544226,0.811527,0.050698,0.499736,0.235383,526.000000,519.000000,7.000000,69.000000,0.000000,0.000000:
// measure 0
00000000
00000000
00000000
00000000
,  // measure 1
00000000
00000000
00000000
00000000
,  // measure 2
00000000
00000000
00000000
00000000
,  // measure 3
00000000
00000000
00000000
00000000
,  // measure 4
00000000
00000000
00000000
00000000
,  // measure 5
00000001
00001000
00000010
00000100
00001000
00010000
00100000
00000000
,  // measure 6
10000000
00010000
00100000
01000000
00010000
00001000
00000010
00000000
,  // measure 7
00000001
00000000
00000000
00000001
00000100
00000000
00000000
00000100
00001000
00000000
00000000
00001000
00010000
00000000
00000000
00010000
,  // measure 8
00200000
10000000
10300000
10010000
,  // measure 9
00020000
00000000
00230000
00000000
00301000
00010000
00000010
00000200
,  // measure 10
00000000
00002300
00000000
00013000
00000100
00000010
00000001
00001000
,  // measure 11
00000020
00000000
00020030
00000000
00030100
00010000
00001000
00200000
,  // measure 12
00000000
00320000
00000000
10030000
00010000
01000000
01100000
00000000
,  // measure 13
00200000
00000000
20300000
00000000
30010000
01000000
00100000
00020000
,  // measure 14
00000000
00032000
00000000
01003000
00010000
00100000
00001000
00100000
,  // measure 15
00020000
00000000
02030000
00000000
03001000
00010000
00000100
00000020
,  // measure 16
00000000
00000230
00000000
00001300
00000001
00000100
00000110
00000000
,  // measure 17
00000010
00000000
00000000
00010000
00000010
00000000
00010000
00000000
00001000
00000000
00100000
00000000
01000000
00000000
00100000
00000000
,  // measure 18
00010000
00000000
00000000
10000000
00100000
00000000
01000000
00000000
00001000
00000000
01000000
00000000
00010000
00000000
00100000
00000000
,  // measure 19
00001000
00000000
00000000
00010000
00000010
00000000
00001000
00000000
00000100
00000000
00000010
00000000
00000100
00000000
00001000
00000000
,  // measure 20
00000001
00000000
00000000
00000100
00000010
00000000
00010000
00000000
00000100
00000000
00010000
00000000
00022000
00000000
00033000
00000000
,  // measure 21
00001000
01000000
00100000
00000000
10000000
00000000
00010000
00000000
00100000
00001000
00010000
00000000
00000100
00000000
00001000
00000000
,  // measure 22
00000100
00000010
00000001
00000000
00001000
00000000
00000100
00000000
00010000
00001000
01000000
00000000
00010000
00000000
10000000
00000000
,  // measure 23
01000000
00000000
00000000
01000000
00010000
00000000
00000000
00010000
00001000
00000000
00000000
00001000
00000010
00000000
00000000
00000010
,  // measure 24
00000002
00000000
00000000
00000000
00001003
00000001
00000100
00000000
,  // measure 25
00000020
00000000
00000000
00000100
00000000
00000000
00000030
00000000
00020000
00000000
00000000
00001000
00000000
00000000
00030000
00000000
,  // measure 26
02000000
00000000
00000000
00100000
00000000
00000000
03000000
00000000
20000000
00000000
00000000
00010000
00000000
00000000
30000000
00000000
,  // measure 27
00200000
00000000
00000000
00010000
00000000
00000000
00300000
00000000
02000000
00000000
00000000
10000000
00000000
00000000
03000000
00000000
,  // measure 28
00002000
00000000
00000000
00100000
00000000
00000000
00003000
00000000
00010000
00001000
00000100
00000001
00001000
00000100
00000000
00000010
,  // measure 29
00000002
00000000
00001003
00000010
00000100
00000000
00000100
00000000
00000020
00000000
00001030
00000010
00010000
00000000
00010000
00000000
,  // measure 30
00002000
00000000
00103000
01000000
10000000
00000000
10000000
00000000
00020000
00000000
01030000
00100000
10000000
00000000
10000000
00000000
,  // measure 31
00010000
01000000
00001000
00010000
00000100
00001000
00000010
00000000
00001000
00000010
00010000
00001000
01000000
00010000
00100000
00000000
,  // measure 32
00010000
01000000
00001000
00010000
00000100
00010000
00001000
00000000
00020000
00000000
00000000
00000000
00000000
00000000
00031000
00000000
,  // measure 33
00000000
00010000
01000000
10000000
00010000
01000000
00000000
00200000
,  // measure 34
00000000
00000000
10000000
00000000
01300000
00001000
00010000
00000200
,  // measure 35
00000000
00001300
00000001
00000010
00000100
00000000
00010000
00000200
,  // measure 36
00010000
00000000
00000300
00020000
01000000
00000000
00031000
00000000
,  // measure 37
00010000
00001000
00000100
00000001
00001000
00000100
00000000
00000020
,  // measure 38
00000000
00000000
00000100
00000000
00000031
00001000
00000010
00020000
,  // measure 39
00000000
00031000
00100000
01000000
10000000
00000000
00010000
02000000
,  // measure 40
00010000
00000000
03000000
00002000
00100000
00000000
00013000
00000000
,  // measure 41
00001000
00000000
00000000
00100000
00001000
00000000
00100000
00000000
00000000
00000000
00010000
00000000
10000000
00000000
00100000
00000000
,  // measure 42
01000000
00000000
00000000
01000000
00000000
00000000
01000000
00000000
00000000
00000000
00010000
00000000
01000000
00000000
00001000
00000000
,  // measure 43
00010000
00000000
00000000
00000100
00001000
00000000
00000100
00000000
00000000
00000000
00000010
00000000
00000001
00000000
00001000
00000000
,  // measure 44
00000010
00000000
00000000
00000010
00000000
00000000
00000010
00000000
00010000
00000000
00000000
00010000
00000000
00000000
00010000
00000000
,  // measure 45
00001000
01000000
00010000
00000000
10000000
00000000
00010000
00000000
00100000
00001000
00010000
00000000
00000010
00000000
00001000
00000000
,  // measure 46
00000010
00000100
00000001
00000000
00000100
00000000
00000010
00000000
00001000
00000010
00010000
00000000
00001000
00000000
00100000
00000000
,  // measure 47
01000000
00000000
00000000
01000000
10000000
00000000
00000000
10000000
01000000
00000000
00000000
01000000
00010000
00000000
00000000
00010000
,  // measure 48
00002000
00000000
00000000
00000000
00013000
00000010
00000100
00000000
,  // measure 49
00000001
00001000
00000010
00010000
00000100
00010000
00001000
00100000
,  // measure 50
02000000
00000000
10000000
00000000
03010000
00001000
01000000
00020000
,  // measure 51
00000000
00130000
00001000
00010000
00000100
00000010
00000001
00000200
,  // measure 52
00001000
00000000
00001300
00020000
00000100
00000000
00031000
00000000
,  // measure 53
00010000
00001000
01000000
00010000
00100000
01000000
10000000
01000000
,  // measure 54
00200000
00000000
10000000
00000000
00310000
01000000
00001000
00020000
,  // measure 55
00000000
00030010
00000100
00001000
00010000
00001000
00000100
00000002
,  // measure 56
00000100
00000000
00000103
00002000
00010000
00003000
00011000
00000000
,  // measure 57
00001000
01000000
00001000
00010000
00000100
00001000
00000001
00000010
,  // measure 58
00000200
00000000
00000001
00000000
00001300
00000010
00010000
00002000
,  // measure 59
00000000
01003000
00010000
01000000
10000000
01000000
00100000
20000000
,  // measure 60
00000000
00000000
30010000
00100000
00001000
00000000
00010000
00000000
,  // measure 61
00001000
00010000
00000010
00001000
00000001
00000100
00000010
00010000
,  // measure 62
00002000
00000000
00000010
00000000
00013000
00001000
01000000
00200000
,  // measure 63
00000000
00000000
10300000
00000000
00010000
00000000
01000000
00000000
00001000
00010000
00001000
00010000
00000010
00001000
00000010
00001000
,  // measure 64
00000002
00000000
00000000
00000000
00001003
00000010
00010000
00000000
,  // measure 65
00001000
00010000
02000000
00100000
00000000
03100000
02000000
10000000
,  // measure 66
00000000
13000000
00100000
00010000
00100000
01000000
00001000
00010000
,  // measure 67
00000000
00001000
00000200
00000010
00000000
00000310
00000200
00000001
,  // measure 68
00000000
00000301
00000010
00001000
00000010
00000100
00010000
00001000
,  // measure 69
00000000
00010000
00200000
01000000
00000000
01300000
00200000
10000000
,  // measure 70
00000000
10300000
01000000
00010000
01000000
00100000
00001000
00010000
,  // measure 71
00000000
00001000
00000100
00000010
00001000
00000001
00000100
00000020
,  // measure 72
00000000
00001030
00000001
00001000
00000100
00010000
00011000
00000000
,  // measure 73
00001000
00010000
00200000
10000000
00000000
00310000
00200000
01000000
,  // measure 74
00000000
10300000
01000000
00100000
00010000
01000000
00001000
00010000
,  // measure 75
00000000
00001000
00000200
00000001
00000000
00001300
00000200
00000010
,  // measure 76
00000000
00000301
00000010
00000100
00001000
00000010
00010000
00001000
,  // measure 77
01000000
00010000
10000000
00000000
00010000
00000000
00100000
00000000
00001000
00010000
00000100
00000000
00000010
00000000
00000001
00000000
,  // measure 78
00000010
00000001
00000100
00000000
00000010
00000000
00010000
00000000
00000100
00010000
00000010
00000000
00010000
00000000
00001000
00000000
,  // measure 79
00100000
00000000
00000000
00100000
10000000
00000000
00000000
10000000
00100000
00000000
00000000
00100000
00001000
00000000
00000000
00001000
,  // measure 80
00020000
00000000
00000000
00000000
00030010
00001000
00000001
00000000
,  // measure 81
00002002
00000000
00000000
00000000
,  // measure 82
00000000
00000000
00000000
00000000
,  // measure 83
00003003
00000000
00000000
00000000
;

//---------------dance-single - ----------------
#NOTES:
     dance-single:
     :
     Hard:
     14:
     0.578369,0.841584,0.188306,0.449038,0.253489,559.000000,533.000000,26.000000,62.000000,0.000000,0.000000,0.578369,0.841584,0.188306,0.449038,0.253489,559.000000,533.000000,26.000000,62.000000,0.000000,0.000000:
0000
0000
0000
0000
,
0000
0000
0000
0000
,
0000
0000
0000
0000
,
0000
0000
0000
0000
,
0000
0000
0000
0000
,
0001
0100
0010
1000
0001
0010
0001
1000
,
0010
0100
0001
1000
0100
0010
0100
1000
,
0001
0000
1000
0010
1000
0000
0001
0010
0001
0000
1000
0100
1000
0000
0001
0100
,
0002
1000
1003
1001
,
0101
0000
0101
0000
0001
1000
0100
0010
,
0000
0011
0000
0011
0000
0001
1000
0010
,
1010
0000
1010
0000
1000
0001
0010
0100
,
0000
1100
0000
1100
0000
1000
2002
3003
,
0011
0000
0011
0000
0001
1000
0010
0100
,
0000
0101
0000
0101
0000
0001
1000
0010
,
1010
0000
1010
0000
1000
0001
1000
0100
,
0000
1100
0000
1100
0000
1000
2002
3003
,
0001
0000
0000
0100
0001
0000
0100
0000
0000
0000
0100
0000
0001
0000
1000
0000
,
0100
0000
0000
1000
0100
0000
1000
0000
0000
0000
1000
0000
0001
0000
0100
0000
,
0010
0000
0000
1000
0010
0000
1000
0000
0000
0000
1000
0000
0100
0000
0010
0000
,
0001
0000
0000
0010
0001
0000
0010
0000
0000
0000
0010
0000
0002
0000
1003
0000
,
0010
1000
0001
0000
1000
0000
0100
0000
0010
0001
1000
0000
0001
0000
0100
0000
,
0001
0010
0100
0000
0010
0000
0001
0000
1000
0010
0100
0000
0010
0000
1000
0000
,
0001
0000
1000
0100
0010
0000
0001
0010
0100
0000
1000
0010
0100
0000
0001
0100
,
0020
0000
0000
0000
0130
0001
1001
0000
,
2000
0000
0000
0100
0000
0000
3000
0000
0002
0000
0000
0100
0000
0000
0003
0000
,
2000
0000
0000
0010
0000
0000
3000
0000
0002
0000
0000
0010
0000
0000
0003
0000
,
0200
0000
0000
0010
0000
0000
0300
0000
0002
0000
0000
1000
0000
0000
0003
0000
,
0020
0000
0000
0001
0000
0000
0030
0000
0100
0001
0100
1000
0001
0100
0000
0010
,
2000
0000
3001
1000
0100
0000
0100
0000
0020
0000
0031
1000
0010
0000
0010
0000
,
0200
0000
0301
1000
0100
0000
0100
0000
2000
0000
3001
1000
0010
0000
0010
0000
,
1000
0001
0010
0001
1000
0001
0010
0000
0100
1000
0001
1000
0100
1000
0001
0000
,
1000
0010
0100
0001
0010
0100
1000
0001
0200
0000
0000
0000
0000
0000
0310
0000
,
0000
1000
0100
0001
1000
0010
0000
0002
,
0000
0000
1000
0000
0013
0100
1000
0020
,
0000
0130
0100
0001
0100
0000
0001
2000
,
0000
0000
3100
0020
0000
0000
0032
0000
,
1003
0001
0100
1000
0001
0010
0000
2000
,
0000
0000
0001
0000
3100
1000
0001
0020
,
0000
0130
0100
1000
0100
0000
1000
0002
,
0000
0000
0103
0020
0000
0000
2030
0000
,
3001
0000
0000
0100
0001
0000
0100
0000
0000
0000
0100
0000
0001
0000
1000
0000
,
0100
0000
0000
0100
0000
0000
0100
0000
0000
0000
1000
0000
0001
0000
0010
0000
,
0100
0000
0000
1000
0100
0000
1000
0000
0000
0000
1000
0000
0001
0000
1000
0000
,
0010
0000
0000
0010
0000
0000
0010
0000
0100
0000
0000
0100
0000
0000
0100
0000
,
0001
1000
0010
0000
0100
0000
0001
0000
1000
0001
0010
0000
0100
0000
1000
0000
,
0001
0100
0001
0000
1000
0100
1000
0000
0001
0010
0001
0000
1000
0010
1000
0000
,
0001
0000
1000
0010
0100
0000
0001
0100
0010
0000
1000
0100
0010
0000
0001
0010
,
0200
0000
0000
0000
0310
0001
1001
0000
,
1000
0001
0010
1000
0001
0100
1000
0010
,
0200
0000
1000
0000
0301
1000
0100
0020
,
0000
0130
0100
1000
0100
0001
0100
0020
,
0001
0000
0031
0200
0010
0000
0320
0000
,
1030
0001
0100
1000
0001
0010
1000
0100
,
0020
0000
1000
0000
0031
1000
0001
0020
,
0000
0130
0100
0010
0100
1000
0001
0200
,
0010
0000
0310
2000
0001
3000
1001
0000
,
0001
1000
0100
0001
1000
0010
0001
0100
,
0020
0000
0001
0000
1030
0001
1000
0200
,
0000
1300
0001
0100
0020
0000
1030
0002
,
0010
0000
1003
0020
0000
0130
0002
0000
,
1003
0001
0100
1000
0001
0010
1000
0100
,
0020
0000
1000
0000
0031
1000
0001
0020
,
0000
0000
0031
0000
1000
0000
0010
0000
0100
0001
0100
0010
1000
0001
0010
0100
,
2000
0000
0000
0000
3010
1000
1001
0000
,
0001
1000
0002
0010
0000
1003
0002
0100
,
0000
1003
0001
0100
1000
0100
0001
0010
,
0000
0100
2000
0010
0000
3001
2000
0100
,
0000
3001
1000
0100
0001
0100
1000
0010
,
0000
0100
0002
0010
0000
1003
0002
0100
,
0000
0013
0001
0100
1000
0100
0001
0010
,
0000
0100
0010
0001
0010
0100
1000
0020
,
0000
1030
0010
1000
0100
0010
1001
0000
,
0001
1000
0200
0001
0000
1300
0200
0010
,
0000
0301
0100
1000
0100
0010
0001
1000
,
0000
0001
0200
1000
0000
0301
0200
0010
,
0000
1300
0100
0001
0100
0010
1000
0001
,
0100
0001
1000
0000
0001
0000
0010
0000
0100
1000
0001
0000
1000
0000
0010
0000
,
0100
0001
1000
0000
0100
1000
0001
0000
1000
0100
0010
0000
0001
0010
0100
0000
,
1000
0000
0001
0100
0010
0000
1000
0010
0100
0000
0001
0010
0100
0000
1000
0100
,
0020
0000
0000
0000
0130
1000
1001
0000
,
0220
0000
0000
0000
,
0000
0000
0000
0000
,
0330
0000
0000
0000
;

//---------------dance-single - ----------------
#NOTES:
     dance-single:
     :
     Medium:
     11:
     0.445934,0.571075,0.021728,0.217276,0.054319,431.000000,428.000000,3.000000,30.000000,0.000000,0.000000,0.445934,0.571075,0.021728,0.217276,0.054319,431.000000,428.000000,3.000000,30.000000,0.000000,0.000000:
0000
0000
0000
0000
,
0000
0000
0000
0000
,
0000
0000
0000
0000
,
0000
0000
0000
0000
,
0000
0000
0000
0000
,
1000
0100
1000
0010
0100
0001
1000
0000
,
0001
0100
0001
0010
0100
1000
0001
0000
,
1000
0001
0100
0001
1000
0100
1000
0001
,
0020
0100
0130
1001
,
0001
0000
0100
0000
0010
1000
0010
2000
,
0000
0001
0000
3001
0000
0010
0001
1000
,
0100
0000
1000
0000
0001
0010
0001
0020
,
0000
0100
0000
0130
0000
1000
0002
0000
,
0103
0000
0010
0000
1000
0010
1000
0020
,
0000
0100
0000
0130
0000
0001
1000
0100
,
0010
0000
0001
0000
0100
0001
0100
0002
,
0000
1000
0000
1003
0000
0100
0020
0000
,
0031
0000
1000
0010
0000
1000
0100
0010
,
0001
0000
0100
0001
0000
0010
0001
0010
,
0100
0000
1000
0100
0000
1000
0010
0100
,
0001
0000
0010
0001
0100
0000
0020
0000
,
1030
0001
0010
0001
0100
0010
1000
0000
,
0001
0100
0001
0010
0100
1000
0001
0000
,
1000
0001
0010
0001
1000
0010
1000
0100
,
0020
0000
0000
0000
0031
1000
0001
0000
,
1000
0000
0000
0010
0000
0000
0000
0000
0001
0000
0000
0100
0000
0000
0000
0000
,
1000
0000
0000
0100
0000
0000
0000
0000
0001
0000
0000
0010
0000
0000
0000
0000
,
1000
0000
0000
0100
0000
0000
0000
0000
0001
0000
0000
0010
0000
0000
0000
0000
,
1000
0000
0000
0010
0000
0000
0000
0000
0001
0000
0000
0100
0000
0000
0000
0000
,
0010
0000
0001
0010
0000
0000
0000
0000
0001
0000
0100
0001
0000
0000
0000
0000
,
1000
0000
0010
1000
0000
0000
0000
0000
0100
0000
1000
0100
0000
0000
0000
0000
,
1000
0000
0001
0100
0001
0000
0100
0000
0001
0000
1000
0100
1000
0000
0100
0000
,
0010
0000
0001
1000
0001
0000
1000
0000
0020
0000
0000
0000
0000
0000
0030
0000
,
0000
1000
0010
0100
0010
1000
0000
0002
,
0000
0000
0000
0000
0003
1000
0100
0010
,
0000
0001
1000
0001
1000
0000
0001
0200
,
0000
0000
0000
0320
0000
0000
0130
0000
,
0000
0001
0010
0100
0010
0001
0000
2000
,
0000
0000
0000
0000
3000
0001
0100
0010
,
0000
1000
0100
1000
0100
0000
0010
0002
,
0000
0000
0000
2003
0000
0000
3001
0000
,
1000
0000
0001
0100
0000
0001
0010
0100
,
1000
0000
0001
1000
0000
0100
0010
0001
,
1000
0000
0001
0100
0000
0010
1000
0001
,
0100
0000
0001
0010
0100
0000
1000
0001
,
0100
0010
1000
0100
1000
0001
0010
0000
,
0100
1000
0010
0100
0010
1000
0001
0000
,
1000
0001
0100
0001
1000
0100
1000
0001
,
0200
0000
0000
0000
0301
1000
0001
0000
,
0000
1000
0100
0010
0100
1000
0000
0002
,
0000
0000
1000
0000
1003
0001
0100
0010
,
0000
1000
0001
1000
0001
0000
0010
0002
,
0000
0000
0000
2003
0000
0000
3010
0000
,
0000
1000
0001
0100
0001
1000
0000
0020
,
0000
0000
0100
0000
0130
0001
1000
0100
,
0000
0010
0001
0010
0001
0000
1000
0020
,
0000
0000
0000
0230
0000
0000
0301
0000
,
0000
1000
0001
0010
0001
1000
0000
0200
,
0000
0000
0010
0000
0310
0001
1000
0010
,
0000
1000
0100
0010
0100
0000
1000
0002
,
0000
0000
0003
0100
0000
0010
0100
0000
,
0001
0100
0001
0010
0100
1000
0001
0000
,
1000
0100
1000
0010
0100
0001
1000
0000
,
0001
1000
0010
1000
0001
0010
0001
1000
,
0200
0000
0000
0000
1300
0001
1000
0000
,
0000
0001
0100
0001
0000
1000
0100
1000
,
0000
0001
0100
0001
1000
0000
0100
1000
,
0000
0001
0100
0001
0000
1000
0100
1000
,
0000
0100
0010
0100
1000
0000
0001
1000
,
0000
0010
0100
0010
0000
1000
0001
1000
,
0000
0100
0010
0001
0010
0000
0001
1000
,
0000
0001
0100
0010
0100
0010
1000
0002
,
0000
1003
0001
0010
0100
0000
0110
0000
,
0000
0010
0001
0010
0000
0100
1000
0100
,
0000
0010
0001
1000
0010
0000
0100
0010
,
0000
1000
0100
1000
0000
0001
0010
0001
,
0000
1000
0001
0100
0010
0000
1000
0010
,
0100
0001
0010
0001
0100
0010
1000
0000
,
0001
0100
0001
0010
0100
1000
0001
0000
,
1000
0001
0100
0001
1000
0100
1000
0010
,
0200
0000
0000
0000
0301
1000
0001
0000
,
2002
0000
0000
0000
,
0000
0000
0000
0000
,
3003
0000
0000
0000
;

//---------------dance-single - ----------------
#NOTES:
     dance-single:
     :
     Easy:
     7:
     0.270043,0.300566,0.043455,0.152093,0.000000,261.000000,255.000000,6.000000,21.000000,0.000000,0.000000,0.270043,0.300566,0.043455,0.152093,0.000000,261.000000,255.000000,6.000000,21.000000,0.000000,0.000000:
0000
0000
0000
0000
,
0000
0000
0000
0000
,
0000
0000
0000
0000
,
0000
0000
0000
0000
,
0000
0000
0000
0000
,
0001
1000
0001
1000
,
0100
0010
0100
0010
,
0001
1000
0010
0100
,
0020
0000
0030
0100
,
0001
0001
0010
0000
,
0001
0001
0100
0010
,
1000
1000
0010
0000
,
1000
1000
0100
0110
,
0001
0001
0010
0000
,
0001
0001
0100
0010
,
1000
1000
0100
0000
,
1000
1000
0010
0110
,
0001
0001
0100
0000
,
1000
1000
0100
0000
,
0001
0001
0010
0000
,
1000
1000
0010
0000
,
0001
0100
0001
0100
,
0010
1000
0010
1000
,
0001
0010
0100
0010
,
0200
0000
0300
1001
,
0002
0000
0000
0003
0000
0000
0000
0000
2000
0000
0000
3000
0000
0000
0000
0000
,
0020
0000
0000
0030
0000
0000
0000
0000
0200
0000
0000
0300
0000
0000
0000
0000
,
0002
0000
0000
0003
0000
0000
0000
0000
2000
0000
0000
3000
0000
0000
0000
0000
,
0200
0000
0000
0300
0000
0000
0000
0000
0020
0000
0000
0030
0000
0000
0000
0000
,
0001
0001
1000
1000
,
0010
0010
0100
0100
,
0001
1000
0100
0010
,
0001
0000
1000
0000
0002
0000
0000
0003
,
0000
1000
1000
0010
,
0200
0000
0300
0001
,
0000
1000
1000
0001
,
0010
0000
0100
0100
,
0000
1000
1000
0001
,
0200
0000
0300
0010
,
0000
1000
1000
0100
,
0010
0000
0100
0100
,
1000
0010
1000
0000
,
0001
0100
0001
0000
,
1000
0100
1000
0000
,
0001
0010
0001
0000
,
1000
0001
1000
0001
,
0100
0010
0100
0010
,
1000
0001
0010
0100
,
0020
0000
0030
0100
,
1000
1000
0100
0010
,
0200
0000
0300
1000
,
0001
0100
0100
0010
,
1000
0000
0001
0001
,
1000
1000
0001
0010
,
0200
0000
0300
1000
,
1000
0001
0100
0010
,
0100
0000
0001
1001
,
1000
1000
0001
0100
,
0020
0000
0030
0100
,
0100
0001
1000
0001
,
0010
0000
0100
0100
,
1000
0001
1000
0001
,
0010
0100
0010
0100
,
1000
0001
0100
0010
,
0200
0000
0300
0010
,
1000
0100
0001
0010
,
1000
0001
1000
0001
,
1000
0010
0001
0100
,
1000
0001
1000
0001
,
1000
0100
0001
0010
,
1000
0001
1000
0001
,
0100
0010
0100
0010
,
1000
0001
1000
1001
,
0001
0100
1000
0010
,
0001
1000
0001
1000
,
0001
0010
1000
0100
,
0001
1000
0001
1000
,
0001
0100
0001
0100
,
0010
1000
0010
1000
,
0001
0010
0100
1000
,
0200
0000
0300
1000
,
2002
0000
0000
0000
,
0000
0000
0000
0000
,
3003
0000
0000
0000
;

//---------------dance-single - ----------------
#NOTES:
     dance-single:
     :
     Beginner:
     3:
     0.143816,0.150283,0.000000,0.043455,0.000000,139.000000,139.000000,0.000000,6.000000,0.000000,0.000000,0.143816,0.150283,0.000000,0.043455,0.000000,139.000000,139.000000,0.000000,6.000000,0.000000,0.000000:
0000
0000
0000
0000
,
0000
0000
0000
0000
,
0000
0000
0000
0000
,
0000
0000
0000
0000
,
0000
0000
0000
0000
,
0001
0000
0001
0000
,
1000
0000
1000
0000
,
0010
0000
0100
0000
,
0020
0000
0030
0000
,
1000
0000
1000
0000
,
1000
0000
0001
0000
,
0100
0000
0100
0000
,
0100
0000
0001
0000
,
1000
0000
1000
0000
,
1000
0000
0100
0000
,
0010
0000
0010
0000
,
0010
0000
0001
0000
,
1000
0000
1000
0000
,
0001
0000
0001
0000
,
0100
0000
0100
0000
,
0010
0000
0010
0000
,
1000
0000
0001
0000
,
1000
0000
0001
0000
,
0100
0000
0010
0000
,
0200
0000
0300
0000
,
0001
0000
1000
0000
,
0100
0000
0010
0000
,
0001
0000
1000
0000
,
0010
0000
0100
0000
,
0001
0000
0100
0000
,
1000
0000
0010
0000
,
0001
0000
0010
0000
,
0100
0000
1000
0000
,
0000
0000
0001
0000
,
0001
0000
0000
0000
,
0100
0000
0010
0000
,
0100
0000
0100
0000
,
0001
0000
0001
0000
,
0001
0000
0000
0000
,
1000
0000
0001
0000
,
1000
0000
1000
0000
,
0100
0000
0100
0000
,
0100
0000
0000
0000
,
0010
0000
0001
0000
,
0010
0000
0010
0000
,
0001
0000
0001
0000
,
0001
0000
0000
0000
,
1000
0000
1000
0000
,
2000
0000
3000
0000
,
0001
0000
0001
0000
,
0001
0000
0000
0000
,
1000
0000
0001
0000
,
1000
0000
1000
0000
,
0100
0000
0100
0000
,
0100
0000
0000
0000
,
0010
0000
0001
0000
,
0010
0000
0010
0000
,
0100
0000
0100
0000
,
0100
0000
0000
0000
,
1000
0000
1000
0000
,
1000
0000
0000
0000
,
0001
0000
1000
0000
,
0001
0000
1000
0000
,
0010
0000
0100
0000
,
0020
0000
0030
0000
,
0100
0000
0100
0000
,
0010
0000
0010
0000
,
1000
0000
1000
0000
,
0001
0000
0001
0000
,
0010
0000
0010
0000
,
0100
0000
0100
0000
,
1000
0000
1000
0000
,
0001
0000
0001
0000
,
1000
0000
1000
0000
,
0010
0000
0010
0000
,
0001
0000
0001
0000
,
0100
0000
0100
0000
,
1000
0000
0001
0000
,
1000
0000
0001
0000
,
0010
0000
0100
0000
,
0020
0000
0030
0000
,
0200
0000
0000
0000
,
0000
0000
0000
0000
,
0300
0000
0000
0000
;

//---------------dance-double - ----------------
#NOTES:
     dance-double:
     :
     Medium:
     11:
     0.425241,0.571075,0.021728,0.239004,0.054319,411.000000,408.000000,3.000000,33.000000,0.000000,0.000000,0.425241,0.571075,0.021728,0.239004,0.054319,411.000000,408.000000,3.000000,33.000000,0.000000,0.000000:
00000000
00000000
00000000
00000000
,
00000000
00000000
00000000
00000000
,
00000000
00000000
00000000
00000000
,
00000000
00000000
00000000
00000000
,
00000000
00000000
00000000
00000000
,
10000000
00100000
01000000
00010000
01000000
00001000
00010000
00000000
,
00000100
00001000
00000100
00000010
00000100
00000010
00000001
00000000
,
00001000
00000010
00010000
00001000
00010000
00000010
00001000
00000000
,
00000200
00000000
00000000
00000310
,
00000001
00000000
00000001
00000000
00001000
00000010
00001000
00000020
,
00000000
00010000
00000000
00010030
00000000
00001000
00100000
00000000
,
01000000
00000000
01000000
00000000
00100000
00010000
00100000
00020000
,
00000000
10000000
00000000
10030000
00000000
00010000
02000000
00000000
,
03001000
00000000
00001000
00000000
00010000
00000100
00010000
00000200
,
00000000
00000010
00000000
00000310
00000000
00000001
00001000
00000000
,
00000010
00000000
00000010
00000000
00010000
00000010
00010000
00000020
,
00000000
00010000
00000000
00010030
00000000
00001000
00020000
00000000
,
00031000
00000000
01000000
00100000
00000000
10000000
00100000
01000000
,
00010000
00000000
01000000
00001000
00000000
00010000
00000100
00001000
,
00000100
00000000
00000010
00000001
00000000
00001000
00000010
00000100
,
00000010
00000000
00010000
00001000
00010000
00000000
00011000
00000000
,
00001000
01000000
00010000
01000000
00100000
01000000
00100000
00000000
,
10000000
00010000
00100000
00001000
00010000
00001000
00010000
00000000
,
00000100
00000010
00000001
00001000
00000010
00001000
00000001
00000000
,
00002000
00000000
00000000
00003100
,
00010000
00000000
00000000
00001000
00000000
00000000
00000000
00000000
01000000
00000000
00000000
00100000
00000000
00000000
00000000
00000000
,
10000000
00000000
00000000
00010000
00000000
00000000
00000000
00000000
00100000
00000000
00000000
00001000
00000000
00000000
00000000
00000000
,
00010000
00000000
00000000
00000010
00000000
00000000
00000000
00000000
00000100
00000000
00000000
00000001
00000000
00000000
00000000
00000000
,
00000010
00000000
00000000
00000100
00000000
00000000
00000000
00000000
00010000
00000000
00000000
00001000
00000000
00000000
00000000
00000000
,
01000000
00000000
00100000
01000000
00000000
00000000
00000000
00000000
00010000
00000000
10000000
00010000
00000000
00000000
00000000
00000000
,
00100000
00000000
00001000
00100000
00000000
00000000
00000000
00000000
00001000
00000000
00010000
00001000
00000000
00000000
00000000
00000000
,
00010000
00000000
00000010
00001000
00000010
00000000
00000100
00000000
00000001
00000000
00001000
00000001
00001000
00000000
00000100
00000000
,
00010000
00000000
00001000
00010000
00001000
00000000
00010000
00000000
00002000
00000000
00000000
00000000
00000000
00000000
00003000
00000000
,
00000000
00010000
00001000
00100000
00001000
00010000
00000000
00002000
,
00000000
00000000
00000000
00000000
00003000
01000000
00100000
20000000
,
00000000
30010000
00100000
00010000
00100000
00000000
00001000
00020000
,
00000000
00000000
00000000
00032000
00000000
00000000
00013000
00000000
,
00000000
00001000
00010000
00000010
00010000
00001000
00000000
00020000
,
00000000
00000000
00000000
00000000
00030000
00000010
00000100
00000002
,
00000000
00001003
00000100
00001000
00000100
00000000
00010000
00002000
,
00000000
00000000
00000000
00023000
00000000
00000000
00031000
00000000
,
01000000
00000000
00010000
01000000
00000000
00100000
10000000
00000000
,
00010000
00000000
00000000
00010000
00000000
00000000
00100000
00000000
,
00001000
00000000
00010000
00000010
00000000
00000100
00000001
00000000
,
00001000
00000000
00000000
00001000
00000010
00000000
00000010
00000000
,
00010000
00000100
00010000
00001000
00010000
00001000
01000000
00000000
,
00100000
10000000
00010000
00100000
00010000
00100000
00001000
00000000
,
00010000
00000010
00001000
00000010
00010000
00001000
00010000
00000000
,
00000020
00000000
00000000
00000130
,
00000000
00000001
00000100
00000010
00000100
00000001
00000000
00002000
,
00000000
00000000
00000100
00000000
00003100
00010000
00001000
00200000
,
00000000
00310000
10000000
00010000
10000000
00000000
00100000
02000000
,
00000000
00000000
00000000
03002000
00000000
00000000
00013000
00000000
,
00000000
00000100
00000010
00000001
00000010
00000100
00000000
00002000
,
00000000
00000000
00000001
00000000
00003001
00000100
00000010
00020000
,
00000000
00030100
00001000
00000100
00001000
00000000
00000100
00020000
,
00000000
00000000
00000000
00032000
00000000
00000000
01003000
00000000
,
00000000
00010000
10000000
01000000
10000000
00010000
00000000
00200000
,
00000000
00000000
00001000
00000000
00301000
00010000
00000010
00000200
,
00000000
00000301
00001000
00000001
00001000
00000000
00000010
00020000
,
00000000
00000000
00000000
00031000
00000000
00010000
00001000
00000000
,
01000000
00100000
10000000
00010000
00100000
00010000
00100000
00000000
,
00001000
00010000
00000010
00000100
00000001
00000100
00000001
00000000
,
00001000
00000010
00010000
00001000
00010000
00000100
00001000
00000000
,
00000200
00000000
00000000
00000000
00001300
00000100
00010000
00000000
,
00000000
00001000
00100000
00010000
00000000
00100000
00010000
10000000
,
00000000
00010000
10000000
00100000
01000000
00000000
00010000
01000000
,
00000000
00001000
00010000
00000100
00000000
00000010
00000001
00001000
,
00000000
00000100
00000010
00000001
00001000
00000000
00000001
00001000
,
00000000
00000010
00010000
00001000
00000000
00010000
00001000
00100000
,
00000000
00010000
00100000
01000000
00100000
00000000
00010000
10000000
,
00000000
00010000
01000000
00010000
01000000
00001000
00010000
00000100
,
00000000
00000010
00000001
00000010
00000001
00000000
00001001
00000000
,
00000000
00001000
00000100
00010000
00000000
00001000
00100000
00010000
,
00000000
00100000
01000000
10000000
00010000
00000000
10000000
00010000
,
00000000
01000000
00001000
00010000
00000000
00001000
00010000
00000100
,
00000000
00000010
00000001
00001000
00000010
00000000
00000100
00000010
,
00010000
00001000
00010000
00001000
01000000
00100000
10000000
00000000
,
00010000
00100000
00001000
00010000
00001000
00010000
00000100
00000000
,
00000010
00000001
00001000
00000100
00010000
00000100
00001000
00000000
,
00000200
00000000
00000000
00000000
00001300
00000100
00010000
00000000
,
00022000
00000000
00000000
00000000
,
00000000
00000000
00000000
00000000
,
00033000
00000000
00000000
00000000
;

//---------------dance-double - ----------------
#NOTES:
     dance-double:
     :
     Easy:
     7:
     0.261766,0.300566,0.036213,0.152093,0.000000,253.000000,248.000000,5.000000,21.000000,0.000000,0.000000,0.261766,0.300566,0.036213,0.152093,0.000000,253.000000,248.000000,5.000000,21.000000,0.000000,0.000000:
00000000
00000000
00000000
00000000
,
00000000
00000000
00000000
00000000
,
00000000
00000000
00000000
00000000
,
00000000
00000000
00000000
00000000
,
00000000
00000000
00000000
00000000
,
00000001
00000100
00000001
00000100
,
00000010
00001000
00000010
00001000
,
00000100
00010000
00000100
00010000
,
00002000
00000000
00000000
00003000
,
01000000
01000000
00010000
00000000
,
01000000
01000000
00100000
10000000
,
00010000
00010000
00100000
00000000
,
00001000
00001000
00010000
00011000
,
00000010
00000010
00001000
00000000
,
00000010
00000010
00000100
00000001
,
00001000
00001000
00000100
00000000
,
00010000
00010000
00001000
00011000
,
00010000
00010000
00001000
00000000
,
00100000
00100000
00010000
00000000
,
10000000
10000000
00100000
00000000
,
01000000
01000000
00010000
00000000
,
00100000
00001000
00100000
00001000
,
00010000
00000010
00010000
00000010
,
00001000
00000001
00001000
00000001
,
00002000
00000000
00000000
00003000
,
00000200
00000000
00000000
00000300
00000000
00000000
00000000
00000000
00020000
00000000
00000000
00030000
00000000
00000000
00000000
00000000
,
00002000
00000000
00000000
00003000
00000000
00000000
00000000
00000000
00200000
00000000
00000000
00300000
00000000
00000000
00000000
00000000
,
02000000
00000000
00000000
03000000
00000000
00000000
00000000
00000000
20000000
00000000
00000000
30000000
00000000
00000000
00000000
00000000
,
00020000
00000000
00000000
00030000
00000000
00000000
00000000
00000000
02000000
00000000
00000000
03000000
00000000
00000000
00000000
00000000
,
00001000
00001000
00010000
00010000
,
00000100
00000100
00000010
00000010
,
00000001
00000001
00001000
00001000
,
00000010
00000000
00000010
00000000
00020000
00000000
00000000
00030000
,
00000000
00001000
00001000
00100000
,
00020000
00000000
00030000
10000000
,
00000000
00010000
00010000
00100000
,
00001000
00000000
00010000
00010000
,
00000000
00000010
00000010
00001000
,
00000002
00000000
00000003
00001000
,
00000000
00000100
00000100
00010000
,
00001000
00000000
00010000
00010000
,
00001000
00100000
00001000
00000000
,
01000000
00100000
01000000
00000000
,
00010000
10000000
00010000
00000000
,
00100000
00001000
00100000
00000000
,
00001000
00010000
00001000
00010000
,
00000010
00000100
00000010
00000100
,
00000001
00001000
00000001
00001000
,
00000200
00000000
00000000
00000300
,
00010000
00001000
00100000
00100000
,
00020000
00000000
00030000
10000000
,
00000000
00100000
00100000
01000000
,
00001000
00000000
00010000
00010000
,
00000010
00001000
00001000
00000001
,
00000020
00000000
00000030
00000100
,
00000000
00010000
00010000
00001000
,
00100000
00000000
01000000
01100000
,
00010000
10000000
00100000
00100000
,
02000000
00000000
03000000
00001000
,
00000000
00010000
00010000
00000100
,
00001000
00000000
00000001
00000001
,
00000100
00000010
00000100
00000010
,
00010000
00001000
00010000
00001000
,
00100000
00010000
00100000
00010000
,
20000000
00000000
00000000
30000000
,
00010000
01000000
00010000
01000000
,
00001000
00010000
00001000
00010000
,
00000100
00000010
00000100
00000010
,
00000001
00001000
00000010
00010000
,
00001000
00100000
00001000
00100000
,
00010000
10000000
00010000
10000000
,
01000000
00100000
01000000
00100000
,
00001000
00010000
00001000
00011000
,
00000010
00001000
00000010
00001000
,
00000001
00000010
00000001
00000010
,
00000100
00001000
00000100
00001000
,
00000010
00010000
00001000
00100000
,
00010000
10000000
00010000
10000000
,
00100000
01000000
00100000
01000000
,
00001000
00010000
00001000
00010000
,
00000200
00000000
00000300
00001000
,
00002002
00000000
00000000
00000000
,
00000000
00000000
00000000
00000000
,
00003003
00000000
00000000
00000000
;
