#VERSION:0.83;
#TITLE:HINOTORI;
#SUBTITLE:;
#ARTIST:Takanashi Kiara;
#TITLETRANSLIT:;
#SUBTITLETRANSLIT:;
#ARTISTTRANSLIT:;
#GENRE:;
#ORIGIN:;
#CREDIT:;
#BANNER:HINOTORI.png;
#BACKGROUND:HINOTORI-bg.png;
#PREVIEWVID:;
#JACKET:HINOTORI-jacket.png;
#CDIMAGE:;
#DISCIMAGE:;
#LYRICSPATH:;
#CDTITLE:;
#MUSIC:HINOTORI.ogg;
#OFFSET:0.010000;
#SAMPLESTART:50.047001;
#SAMPLELENGTH:15.000000;
#SELECTABLE:YES;
#BPMS:0.000=175.000;
#STOPS:;
#DELAYS:;
#WARPS:;
#TIMESIGNATURES:0.000=4=4;
#TICKCOUNTS:0.000=4;
#COMBOS:0.000=1;
#SPEEDS:0.000=1.000=0.000=0;
#SCROLLS:0.000=1.000;
#FAKES:;
#LABELS:0.000=Song Start;
#BGCHANGES:;
#KEYSOUNDS:;
#ATTACKS:
;

//---------------dance-single - ----------------
#NOTEDATA:;
#CHARTNAME:;
#STEPSTYPE:dance-single;
#DESCRIPTION:;
#CHARTSTYLE:;
#DIFFICULTY:Hard;
#METER:15;
#RADARVALUES:0.686194,0.964054,0.383366,0.458536,0.315714,639.000000,588.000000,51.000000,61.000000,0.000000,0.000000,0.000000,0.000000,0.000000,0.686194,0.964054,0.383366,0.458536,0.315714,639.000000,588.000000,51.000000,61.000000,0.000000,0.000000,0.000000,0.000000,0.000000;
#CREDIT:Kekkle;
#NOTES:
// measure 0
0000
0000
0000
0000
,  // measure 1
0000
0000
0000
0000
,  // measure 2
0000
0000
0000
0000
,  // measure 3
0000
0000
0000
0000
,  // measure 4
0000
0000
0000
0000
,  // measure 5
0000
0000
0000
0000
,  // measure 6
0000
0000
0000
0000
,  // measure 7
0001
0100
0010
0000
1000
0001
0010
0000
,  // measure 8
0100
1000
0001
0000
0100
0010
1000
0000
,  // measure 9
2001
0000
0000
0000
3100
0000
0000
0000
1000
0000
0010
1000
0010
0000
0200
0000
,  // measure 10
0000
0000
0301
0000
1001
0000
1000
0000
0100
0010
0001
0010
0100
1000
0001
1000
,  // measure 11
0002
0000
0100
0000
1000
0000
0103
0010
,  // measure 12
2000
0000
0100
0000
0001
0000
3100
0010
,  // measure 13
0002
0000
0010
0000
1000
0000
0013
0100
,  // measure 14
2000
0000
0010
0000
0001
0000
3010
1000
,  // measure 15
0200
0000
0010
0000
1000
0000
0310
0001
,  // measure 16
0200
0000
0001
0000
0010
0000
0301
1000
,  // measure 17
0010
0000
1000
0000
0100
0000
0010
0000
0001
0000
1000
0001
0100
0000
0120
0000
,  // measure 18
0000
0000
1030
0000
1001
0000
0001
0010
0100
0000
1000
0100
0020
0000
0000
0000
,  // measure 19
0031
1000
1020
0000
0100
0130
0000
1001
,  // measure 20
0000
0001
0011
0000
0010
0001
1001
0000
,  // measure 21
1000
0001
0201
0000
0010
0310
0000
1001
,  // measure 22
0000
0000
1000
0000
1100
0000
0000
0000
0010
0001
1000
0000
1000
0000
0001
0100
,  // measure 23
0010
0000
1001
0000
1000
0100
0001
0100
,  // measure 24
0010
0000
1001
0000
0001
0100
1000
0100
,  // measure 25
0010
0000
1001
0000
1000
0100
0010
0002
,  // measure 26
0000
0000
1003
0000
1000
0000
0001
0000
0001
0000
0010
0000
0110
0000
0100
1000
,  // measure 27
0002
0000
0000
0103
0110
0000
0010
0001
,  // measure 28
0010
1000
0010
0000
1010
1000
0001
0000
,  // measure 29
2000
0000
0000
3100
0110
0000
0010
1000
,  // measure 30
0010
0000
0001
0000
0010
0000
0000
0000
0011
0000
0001
0000
0100
0000
0001
1000
,  // measure 31
0020
0000
0130
0000
1000
0100
0001
0010
,  // measure 32
0200
0000
0310
0000
1000
0010
0001
0100
,  // measure 33
0020
0000
1030
0000
1010
1000
1100
0000
,  // measure 34
0011
0000
0001
0000
0101
0000
0000
0000
1010
0000
1000
0001
0100
0000
0001
0010
,  // measure 35
0100
0000
1000
0000
0001
0000
0100
0000
0010
1000
0001
0100
0010
1000
0001
0100
,  // measure 36
0020
0000
0000
0100
0000
0000
0100
0000
0200
0000
0000
0000
0330
0000
0000
0000
,  // measure 37
0010
1000
0100
0001
1000
0010
0100
0020
,  // measure 38
0000
0001
0000
1000
0000
0032
0000
0000
,  // measure 39
1003
0010
0100
1000
0001
0010
1000
0200
,  // measure 40
0000
0000
0010
0000
0000
0000
0000
0000
0301
0000
0100
0000
1000
0000
0001
0100
,  // measure 41
0010
1000
0010
0001
1000
0100
0010
0200
,  // measure 42
0000
0001
0000
1000
0000
0302
0000
0000
,  // measure 43
1003
0100
0001
0100
1000
0010
0100
0002
,  // measure 44
0000
0000
0000
0000
1003
0000
0100
0000
1000
0000
0001
0100
0010
1000
0010
0100
,  // measure 45
0010
1000
0001
0010
1000
0010
0001
0200
,  // measure 46
0000
0001
0000
1000
0000
0302
0000
0000
,  // measure 47
1003
0000
0000
0000
0100
0000
1000
0000
0002
0000
0000
0100
0000
0000
1000
0000
,  // measure 48
0023
0000
0000
0000
0000
0000
0100
0000
0130
0000
1000
0001
0100
0000
0010
1000
,  // measure 49
0001
0000
0101
0001
1001
0001
0011
0000
,  // measure 50
0110
0000
0000
0000
1100
0000
1000
0000
1001
0000
1000
0000
1010
0000
0010
0100
,  // measure 51
0001
0000
1000
0100
0010
0001
0010
0100
0010
0001
1000
0001
0100
0010
2000
0000
,  // measure 52
0000
0000
3001
0000
1001
0000
0000
0000
1000
0010
0100
0010
1000
0001
1000
0100
,  // measure 53
0020
0000
0000
0000
0031
0000
1000
0010
0100
0000
0020
0000
0000
0000
1030
0001
,  // measure 54
1000
0100
0010
0000
0001
0000
0200
0000
0000
0000
0310
1000
0001
0000
0001
0000
,  // measure 55
1000
0000
0100
0010
0000
0100
0001
0000
0100
0000
0010
0000
0001
0000
1000
0000
,  // measure 56
0010
0100
0001
0002
0000
1003
0100
0010
,  // measure 57
0001
0000
1000
0010
0100
0000
0100
0000
0001
0000
0100
0000
1000
0000
0100
0000
,  // measure 58
0010
0000
1000
0010
1000
0010
0100
0001
1000
0100
0020
0000
0000
0000
0031
0000
,  // measure 59
1000
0100
0010
0100
1000
0100
0010
0100
1000
0100
0010
0001
1000
0010
0200
0000
,  // measure 60
0000
0301
1000
0100
0002
2003
3020
0230
,  // measure 61
2300
0000
0100
0000
,  // measure 62
0001
0000
3010
0110
,  // measure 63
0102
0000
1000
0000
,  // measure 64
0013
0000
0100
1000
0000
1000
0001
0000
,  // measure 65
1000
0001
1000
0100
0001
0100
1000
0000
,  // measure 66
0001
0000
1000
0000
0001
0000
0100
0000
1000
0000
0100
0000
0001
0000
1000
0010
,  // measure 67
0100
0000
0101
0000
1010
1000
1100
0000
,  // measure 68
0011
0000
0001
0000
0101
0000
0000
0000
1010
0000
1000
0001
0100
0000
0001
0100
,  // measure 69
0010
0000
1000
0000
0001
0000
0010
0000
0100
1000
0001
0010
0100
1000
0001
0010
,  // measure 70
0200
0000
0000
0010
0000
0000
0010
0000
0020
0000
0000
0000
0330
0000
0000
0000
,  // measure 71
0100
1000
0001
0100
1000
0100
0010
0200
,  // measure 72
0000
1000
0000
0001
0000
2300
0000
0000
,  // measure 73
3001
0010
1000
0100
0010
0001
0100
0020
,  // measure 74
0000
0000
1000
0000
0000
0000
0000
0000
0031
0000
1000
0000
0100
0000
0001
1000
,  // measure 75
0100
0010
0001
0100
0010
1000
0001
0020
,  // measure 76
0000
1000
0000
0001
0000
2030
0000
0000
,  // measure 77
3001
0100
1000
0010
0100
0001
0100
0020
,  // measure 78
0000
0000
0000
0000
1030
0000
0001
0000
0010
0000
0100
1000
0001
1000
0010
0100
,  // measure 79
0010
1000
0001
0100
1000
0001
0010
0200
,  // measure 80
0000
1000
0000
0001
0000
2300
0000
0000
,  // measure 81
3001
0000
0010
0000
0100
0000
0001
0000
2000
0000
0000
0010
0000
0000
0001
0000
,  // measure 82
3200
0000
0000
0000
0000
0000
0010
0000
0310
0000
0001
1000
0010
0000
1000
0100
,  // measure 83
0010
0000
0011
0001
1001
0001
0101
0000
,  // measure 84
0110
0000
0000
0000
1010
0000
1000
0000
1001
0000
1000
0000
1100
0000
0100
0010
,  // measure 85
0001
0000
1000
0010
0100
0010
1000
0010
0100
0001
1000
0001
0010
0100
2000
0000
,  // measure 86
0000
0000
3001
0000
1001
0000
1000
0000
0010
0000
0100
0001
1000
0100
1000
0001
,  // measure 87
0020
0000
0000
0000
0130
1000
1001
0000
,  // measure 88
0201
0000
0000
0310
1000
0000
1000
0000
,  // measure 89
0002
0000
1003
0100
0001
0100
1000
0020
,  // measure 90
0000
0000
0000
0000
0000
0000
0000
0000
0130
0000
0001
1000
0001
0010
0100
1000
,  // measure 91
0001
0000
0000
0000
0101
0000
0010
0000
0000
1000
0100
0000
0020
0000
0000
0000
,  // measure 92
0000
0000
0000
0000
,  // measure 93
0000
0000
0000
0000
,  // measure 94
0000
0000
0000
0000
,  // measure 95
0030
0000
0000
0000
;

//---------------dance-double - ----------------
#NOTEDATA:;
#CHARTNAME:;
#STEPSTYPE:dance-double;
#DESCRIPTION:;
#CHARTSTYLE:;
#DIFFICULTY:Medium;
#METER:12;
#RADARVALUES:0.613172,0.642702,0.135306,0.255578,0.015034,571.000000,553.000000,18.000000,34.000000,0.000000,0.000000,0.000000,0.000000,0.000000,0.613172,0.642702,0.135306,0.255578,0.015034,571.000000,553.000000,18.000000,34.000000,0.000000,0.000000,0.000000,0.000000,0.000000;
#CREDIT:Kekkle;
#NOTES:
00000000
00000000
00000000
00000000
,
00000000
00000000
00000000
00000000
,
00000000
00000000
00000000
00000000
,
00000000
00000000
00000000
00000000
,
00000000
00000000
00000000
00000000
,
00000000
00000000
00000000
00000000
,
00000000
00000000
00000000
00000000
,
10000000
00010000
01000000
00001000
00010000
00000010
00001000
00000100
,
00000010
00000001
00000010
00000100
00010000
00000010
00001000
00000100
,
00010000
00001000
01000000
00100000
10000000
00010000
00100000
00002000
,
00000000
00013000
00000010
00000100
00000001
00001000
00000010
00010000
,
00000100
00000000
00001000
00000001
00000100
00000001
00001000
00000000
,
00000010
00000000
00010000
00000100
00001000
00000100
00010000
00000000
,
00001000
00000000
01000000
00100000
10000000
00100000
01000000
00000000
,
00010000
00000000
10000000
01000000
00100000
01000000
10000000
00000000
,
00010000
00000000
01000000
00001000
00010000
00000010
00001000
00000000
,
00000001
00000000
00001000
00000100
00010000
00001000
01000000
00000000
,
00100000
00000000
10000000
00010000
00100000
00001000
00100000
00020000
,
00000000
01030000
00001000
00001000
00010000
00010000
00000010
00000000
,
00000100
00000000
00001001
00000000
00000001
00001000
00000100
00020000
,
00000000
00031000
01000000
00010000
00100000
01000000
10000000
00000000
,
00100000
00000000
10010000
00000000
10000000
00100000
01000000
00002000
,
00000000
00103000
00001000
00010000
00000010
00001000
00000100
00000010
,
00000002
00000000
00001003
00000100
00010000
00001000
01000000
00100000
,
20000000
00000000
30010000
01000000
00001000
00010000
00000010
00001000
,
00000020
00000000
00000130
00000001
00001000
00000001
00000010
00000200
,
00000000
00001300
00000010
00010000
00001000
00010000
00000100
00010000
,
00002000
00000000
00000000
00000000
01003000
00000000
00100000
10000000
,
00010000
01000000
00010000
10000000
00010000
00100000
00001000
00000000
,
00020000
00000000
00000000
00000000
00030100
00000000
00000010
00000001
,
00001000
00000010
00010000
00000000
00000100
00010000
00001000
00100000
,
00020000
00000000
10030000
00000000
00100000
01000000
00001000
00000000
,
00020000
00000000
00030010
00000000
00000100
00000001
00001000
00000000
,
00000100
00000000
00010000
00001000
00100000
01000000
10000000
00010000
,
01000000
00000000
00001000
00010000
00000010
00000100
00000010
00001000
,
00000001
00000010
00000100
00010000
00000010
00001000
00000100
00010000
,
00001000
00000000
00000000
00011000
00000000
00000000
00011000
00000000
00000000
00000000
00000000
00000000
00000000
00000000
00000000
00000000
,
00001000
01000000
00010000
00100000
01000000
00100000
00010000
01000000
,
00001000
01000000
00100000
10000000
00010000
00100000
00001000
00000000
,
00010000
00000010
00001000
00000100
00000010
00000100
00001000
00000001
,
00000100
00000010
00001000
00000010
00010000
00001000
00010000
00000000
,
00001000
01000000
00100000
01000000
00001000
00100000
00010000
00100000
,
01000000
10000000
00010000
01000000
00001000
00100000
00010000
00000000
,
00001000
00000100
00000010
00000001
00000100
00000010
00001000
00000020
,
00000000
00010030
00000100
00010000
00001000
01000000
00010000
00000000
,
10000000
01000000
00100000
00001000
01000000
00010000
00100000
00001000
,
00010000
00000010
00001000
00000010
00000100
00000001
00001000
00000000
,
00000001
00000000
00000100
00000000
00000010
00000000
00010000
00000000
00000100
00000000
00000000
00000100
00000000
00000000
00000100
00000000
,
00020000
00000000
00031000
01000000
00200000
00000000
01300000
00010000
,
10000000
10010000
01001000
00011000
,
00010000
00010100
00000110
00000011
,
00000001
00001000
00000100
00010000
00001000
01000000
00010000
00200000
,
00000000
01300000
10000000
00010000
01000000
00001000
00010000
00000000
,
00000020
00000000
00001030
00000001
00000010
00000100
00000010
00000001
,
00000100
00000010
00010000
00002000
00000000
01003000
00010000
00100000
,
01000000
10000000
00010000
01000000
00001000
00100000
00010000
00001000
,
00000100
00000010
00000100
00002000
00000000
00003001
00000100
00000010
,
00010000
00000010
00000100
00001000
00010000
00100000
10000000
00010000
,
00100000
01000000
00100000
00001000
01000000
00020000
00000000
10030000
,
01000000
00010000
00001000
00000010
00000001
00001000
00000010
00020000
,
00000000
00031000
01000000
00010000
00100000
00001000
00100000
00010000
,
20000000
00000000
00000000
00000000
30010000
00000000
01000000
00001000
,
00010000
00000000
00000010
00000000
00001000
00000001
00001000
00000000
,
00000002
00000000
00000000
00000000
00000103
00000000
00000010
00010000
,
00001000
01000000
00010000
00100000
00000000
01000000
10000000
00000000
,
00020000
00000000
01030000
00000000
00001000
00010000
00000010
00000100
,
00000002
00000000
00000103
00000000
00000010
00010000
00001000
01000000
,
00010000
00100000
01000000
00100000
00010000
10000000
00100000
01000000
,
00001000
00010000
00000100
00000010
00000100
00001000
00000001
00000100
,
00000010
00000100
00001000
00010000
00100000
10000000
00010000
00100000
,
01000000
00000000
00000000
01100000
00000000
00000000
01100000
00000000
00000000
00000000
00000000
00000000
00000000
00000000
00000000
00000000
,
10000000
00010000
01000000
00100000
00010000
00001000
00010000
00000010
,
00001000
00000100
00000010
00000001
00000100
00000010
00001000
00000000
,
00000010
00010000
00000100
00010000
00001000
00100000
00010000
00100000
,
01000000
10000000
00100000
10000000
00010000
01000000
00100000
00000000
,
00010000
00001000
00010000
00100000
01000000
00010000
10000000
01000000
,
00100000
00001000
00100000
00010000
01000000
00001000
00010000
00000000
,
00000010
00000100
00000001
00001000
00000100
00000010
00000100
00020000
,
00000000
00031000
01000000
00010000
00100000
01000000
10000000
00000000
,
00010000
01000000
00001000
00100000
00010000
01000000
00001000
00010000
,
00000010
00010000
00000100
00001000
00000100
00000010
00000001
00000000
,
00000100
00000000
00000010
00000000
00010000
00000000
00000100
00000000
00001000
00000000
00000000
00001000
00000000
00000000
00001000
00000000
,
00000020
00000000
00010030
00001000
02000000
00000000
03010000
10000000
,
00100000
10100000
01010000
01001000
,
00001000
00011000
00010100
00000110
,
00000010
00000001
00001000
00000010
00000100
00001000
00010000
00200000
,
00000000
10300000
00010000
00100000
00001000
00100000
00010000
00001000
,
00000100
00000000
00000010
00000001
00002000
00000000
00003010
00000000
,
00010000
00000000
00001000
01000000
00200000
00000000
10300000
00000000
,
00020000
00000000
01030000
00001000
00010000
00000100
00001000
00000200
,
00000000
00000000
00000000
00000000
00000310
00000001
00001000
00000100
,
00010000
00000000
00010000
00001000
01000000
00100000
02000000
00000000
,
00000000
00000000
00000000
00000000
,
00000000
00000000
00000000
00000000
,
00000000
00000000
00000000
00000000
,
03000000
00000000
00000000
00000000
;

//---------------dance-double - ----------------
#NOTEDATA:;
#CHARTNAME:;
#STEPSTYPE:dance-double;
#DESCRIPTION:;
#CHARTSTYLE:;
#DIFFICULTY:Hard;
#METER:15;
#RADARVALUES:0.636796,0.892642,0.308197,0.473570,0.244302,593.000000,552.000000,41.000000,63.000000,0.000000,0.000000,0.000000,0.000000,0.000000,0.636796,0.892642,0.308197,0.473570,0.244302,593.000000,552.000000,41.000000,63.000000,0.000000,0.000000,0.000000,0.000000,0.000000;
#CREDIT:Kekkle;
#NOTES:
00000000
00000000
00000000
00000000
,
00000000
00000000
00000000
00000000
,
00000000
00000000
00000000
00000000
,
00000000
00000000
00000000
00000000
,
00000000
00000000
00000000
00000000
,
00000000
00000000
00000000
00000000
,
00000000
00000000
00000000
00000000
,
10000000
00010000
01000000
00000000
00001000
00000000
00010000
00000000
,
00000010
00001000
00000001
00000000
00001000
00000000
00000100
00000000
,
00010000
00000000
00001000
00000000
01000000
00000000
00000000
00000000
00100000
00000000
10000000
00010000
10000000
00000000
02000000
00000000
,
00000000
00000000
03100000
00000000
00101000
00000000
00001000
00000000
00010000
00000000
00000010
00001000
00000010
00000100
00000001
00000100
,
00000002
00001000
00000100
00001000
,
00000203
00000010
00001000
00000010
,
00002300
00010000
00100000
00010000
,
00203000
00010000
01000000
00010000
,
02300000
10000000
00100000
10000000
,
03200000
00010000
00001000
00010000
,
00301000
00000000
00010000
00000000
00000100
00000000
00000000
00000000
00000010
00000000
00000001
00001000
00000010
00000000
00020010
00000000
,
00000000
00000000
00031000
00000000
01001000
00000000
01000000
00100000
10000000
00000000
00010000
00000000
10010000
00000000
00000000
00000000
,
10000000
01000000
00020000
00000000
00031000
01000000
00100000
00020000
,
00000000
00031000
00011000
00000000
00010000
00000010
00000110
00000000
,
00000001
00000100
00002000
00000000
00013000
00000100
00000010
00002000
,
00000000
00000000
00013000
00000000
00011000
00000000
00000000
00000000
00001000
00100000
00010000
00000000
10000000
00000000
00010000
01000000
,
00200000
00000000
10300000
00000000
00010000
01000000
01001000
00000000
,
00002000
00000000
00013000
00000000
00000010
00001000
00001001
00000000
,
00000001
00000100
00000010
00000000
00001000
00001000
00000100
00020000
,
00000000
00000000
00031000
00000000
01001000
00000000
01000000
00100000
10000000
00000000
00010000
00000000
00010000
00000000
00100000
00001000
,
00020000
00000000
00030010
00000100
00000101
00000000
00000001
00000100
,
00001000
00010000
00001000
00000000
00000100
00000010
00010000
00000000
,
00002000
00000000
00103000
01000000
11000000
00000000
10000000
01000000
,
00010000
00000000
00001000
00000000
00010000
00000000
00000000
00000000
01000000
00000000
10000000
00000000
00010000
00000000
01000000
00001000
,
00020000
00000000
00030010
00000100
00000001
00001000
00000100
00000000
,
00020000
00000000
00000000
00000000
00031000
00000000
00100000
00000000
10000000
00000000
00100000
00000000
00010000
00000000
01000000
00001000
,
00010000
00001000
00011000
00000000
00010010
00010000
00011000
00000000
,
00101000
00000000
00001000
00000000
00011000
00000000
00000000
00000000
00010100
00000000
00010000
00001000
01000000
00000000
00100000
10000000
,
00010000
00000000
10000000
00000000
01000000
00000000
10000000
00000000
00100000
01000000
00001000
01000000
00001000
00010000
00000010
00001000
,
00000020
00000000
00000000
00000100
00000000
00000000
00000100
00000000
00000200
00000000
00000000
00000000
00000330
00000000
00000000
00000000
,
00000010
00000001
00000010
00001000
00000100
00010000
00001000
00200000
,
00000000
00010000
00000000
10000000
00000000
00320000
00000000
00000000
,
01030000
00100000
00010000
00001000
00100000
00001000
00000010
00000200
,
00000000
00000000
00002300
00000000
00000000
00000000
00000000
00000000
00003001
00000000
00000100
00000000
00000010
00000000
00000100
00001000
,
00010000
00001000
01000000
00010000
00100000
10000000
00100000
00002000
,
00000000
01000000
00000000
00010000
00000000
00003200
00000000
00000000
,
00000301
00001000
00000010
00000100
00001000
00010000
00000100
00000020
,
00000000
00000000
00000000
00000000
00001030
00000000
00010000
00000000
01000000
00000000
00100000
00000000
00010000
10000000
00010000
01000000
,
00001000
01000000
00001000
00010000
01000000
00100000
00001000
00020000
,
00000000
01000000
00000000
00001000
00000000
00030200
00000000
00000000
,
00000310
00000000
00000001
00000000
00000100
00000000
00000000
00000000
00002000
00000000
00000000
00000100
00000000
00000000
00010000
00000000
,
02003000
00000000
00000000
00000000
00000000
00000000
00100000
00000000
03100000
00000000
10000000
00010000
01000000
00000000
00010000
01000000
,
00001000
00000000
01001000
00001000
00011000
00001000
00101000
00000000
,
00011000
00000000
00010010
00010000
00011000
00010000
00010100
00000000
,
00000100
00000000
00001000
00000001
00000100
00000010
00001000
00000010
00010000
00001000
00010000
00001000
01000000
00000000
00200000
00000000
,
00000000
00000000
10300000
00000000
10010000
00000000
00000000
00000000
00010000
00100000
00001000
00010000
00001000
00010000
00000100
00000000
,
00000020
00000000
00000000
00000000
00000000
00000000
00000031
00001000
00000010
00000000
00020000
00000000
00000000
00000000
00031000
01000000
,
00010000
01000000
00010000
00000000
01000000
00000000
00200000
00000000
00000000
00000000
10300000
00000000
00010000
00000000
00100000
00000000
,
00001000
00000000
00010000
00000100
00000000
00001000
00000100
00000000
00000010
00000000
00000001
00000000
00001000
00000000
00000010
00000000
,
00000100
00001000
00010000
00000200
00000000
00010300
00001000
00100000
,
01000000
10000000
00010000
01000000
00001000
00010000
00000100
00000010
,
00000001
00000000
00001000
00000010
00010000
00000010
00001000
00000000
00000100
00010000
00002000
00000000
00000000
00000000
00000000
00000000
,
01003000
00000000
00100000
10000000
00010000
01000000
00010000
01000000
00001000
00010000
00000100
00000000
00001000
00000100
00000020
00000000
,
00000000
00000031
00001000
00000100
00010000
00001000
00000100
00001000
,
00020000
00000000
00100000
00000000
,
00001000
00000000
00030010
00010000
,
00002000
00000000
00100000
00000000
,
00013000
00000000
00000010
00001000
00000000
00001000
00000000
00000000
,
00000002
00000000
00000103
00000000
00001000
00010000
00000100
00000000
,
00020000
00000000
00031000
00000000
00100000
01000000
10000000
00000000
,
00010000
01000000
00001000
00000000
00011000
00001000
01001000
00000000
,
00011000
00000000
00010000
00000000
00010100
00000000
00000000
00000000
00011000
00000000
00001000
01000000
00010000
00000000
01000000
00100000
,
10000000
00000000
00010000
00000000
01000000
00000000
00001000
00000000
00010000
00000100
00010000
00000100
00001000
00000100
00000010
00000001
,
00002000
00000000
00000000
00000001
00000000
00000000
00000001
00000000
00000002
00000000
00000000
00000000
00003003
00000000
00000000
00000000
,
00001000
00000010
00010000
00001000
01000000
10000000
01000000
00200000
,
00000000
00010000
00000000
10000000
00000000
00320000
00000000
00000000
,
00031000
01000000
00100000
00010000
00001000
00100000
00001000
00020000
,
00000000
00000000
00030200
00000000
00000000
00000000
00000000
00000000
00000310
00000000
00000001
00000000
00001000
00000000
00000010
00010000
,
00001000
00000100
00001000
00010000
00100000
01000000
00001000
00020000
,
00000000
01000000
00000000
00001000
00000000
00030200
00000000
00000000
,
00000310
00000001
00000100
00001000
00010000
00000010
00001000
00000200
,
00000000
00000000
00000000
00000000
00010300
00000000
00001000
00000000
01000000
00000000
00100000
00000000
10000000
00010000
00100000
01000000
,
00100000
00001000
01000000
00001000
00010000
00100000
00010000
00002000
,
00000000
00000100
00000000
00010000
00000000
02003000
00000000
00000000
,
03010000
00000000
10000000
00000000
01000000
00000000
00000000
00000000
00020000
00000000
00000000
01000000
00000000
00000000
00001000
00000000
,
00030200
00000000
00000000
00000000
00000000
00000000
00000010
00000000
00000310
00000000
00000001
00001000
00000010
00000000
00001000
00000100
,
00010000
00000000
00010100
00010000
00011000
00010000
00010010
00000000
,
00011000
00000000
01001000
00001000
00011000
00001000
00101000
00000000
,
00100000
00000000
00010000
10000000
00010000
01000000
00001000
01000000
00001000
00010000
00000100
00010000
00000100
00000000
00002000
00000000
,
00000000
00003001
00001000
00000010
00000100
00001000
00010000
00000000
,
00002000
00000000
00000000
00000000
00013000
00100000
01000000
00000000
,
00020000
00000000
00000000
10030000
01000000
00000000
01000000
00000000
,
00020000
00000000
00000000
00000000
00031000
00000010
00000001
00002000
,
00000000
00000000
00000000
00000000
00000000
00000000
00000000
00000000
00003010
00000000
00001000
00000100
00010000
00000000
00001000
00000000
,
01001000
00000000
01000000
10100000
00000000
00000000
20020000
00000000
,
00000000
00000000
00000000
00000000
,
00000000
00000000
00000000
00000000
,
00000000
00000000
00000000
00000000
,
30030000
00000000
00000000
00000000
;

//---------------dance-single - ----------------
#NOTEDATA:;
#CHARTNAME:;
#STEPSTYPE:dance-single;
#DESCRIPTION:;
#CHARTSTYLE:;
#DIFFICULTY:Medium;
#METER:12;
#RADARVALUES:0.613172,0.642702,0.120272,0.210476,0.015034,571.000000,555.000000,16.000000,28.000000,0.000000,0.000000,0.000000,0.000000,0.000000,0.613172,0.642702,0.120272,0.210476,0.015034,571.000000,555.000000,16.000000,28.000000,0.000000,0.000000,0.000000,0.000000,0.000000;
#CREDIT:Kekkle;
#NOTES:
0000
0000
0000
0000
,
0000
0000
0000
0000
,
0000
0000
0000
0000
,
0000
0000
0000
0000
,
0000
0000
0000
0000
,
0000
0000
0000
0000
,
0000
0000
0000
0000
,
0001
0100
0010
1000
0001
0010
0100
0010
,
0001
0100
0010
1000
0100
1000
0001
0100
,
0010
1000
0001
0100
0001
0010
0100
2000
,
0000
3001
0100
0100
0010
0010
1000
0000
,
0001
0000
0001
0100
0010
0100
0001
0000
,
1000
0000
1000
0100
0010
0100
1000
0000
,
0001
0000
0001
0010
0100
0010
0001
0000
,
1000
0000
1000
0010
0100
0010
1000
0000
,
0001
0000
0001
1000
0010
0100
0001
0000
,
1000
0000
1000
0001
0010
0100
1000
0000
,
0001
0000
0001
1000
0100
0010
0001
2000
,
0000
3001
0100
0100
0010
0010
1000
0000
,
0001
1000
0010
0000
0100
0001
1000
0200
,
0000
0310
0001
0010
0100
1000
0010
0000
,
0100
0001
1000
0000
0001
0100
0010
2000
,
0000
3001
0010
0100
0010
0001
1000
0010
,
0100
0000
0010
0100
0010
0001
0010
1000
,
0001
0000
1000
0100
0010
0001
0010
1000
,
0010
0000
0001
0100
0010
1000
0001
0020
,
0000
0130
1000
0001
0100
1000
0100
0000
,
0010
0000
1000
0001
0010
0000
0010
0100
,
1000
0001
0100
0000
0010
0100
0010
0000
,
1000
0000
0001
0010
0100
0000
0100
0010
,
0001
1000
0010
0000
0100
0010
0100
0001
,
2000
0000
3100
0000
0100
0010
0001
0000
,
0002
0000
0103
0000
0100
0010
1000
0010
,
0100
0001
1000
0100
0010
0001
0010
1000
,
0010
0100
1000
0001
1000
0010
0100
0000
,
0001
0100
0010
0100
1000
0100
0010
0100
,
0001
0000
0000
1001
0000
0000
1001
0000
0000
0000
0000
0000
0000
0000
0000
0000
,
1000
0100
0010
0001
0010
0100
0010
0001
,
0100
0010
1000
0010
0001
0010
0100
0000
,
0001
1000
0100
0010
0100
1000
0001
0100
,
0010
0100
1000
0100
0001
1000
0100
0000
,
0010
0001
0010
0100
1000
0010
0100
1000
,
0100
0010
0100
0001
1000
0100
0010
0000
,
0001
0010
0100
1000
0001
0100
0010
1000
,
0000
1000
0010
0100
0001
1000
0100
0010
,
0001
0100
0010
1000
0010
0001
0010
1000
,
0001
1000
0100
0010
0001
0100
0001
0000
,
1000
0000
0010
0000
0100
0000
0001
0000
1000
0000
0000
1000
0000
0000
1000
0000
,
0200
0000
0310
0001
2000
0000
3010
0100
,
0001
1001
0101
1001
,
1000
1100
1001
1100
,
0100
0010
0001
0010
1000
0010
0001
2000
,
0000
3010
0100
0001
0100
0010
1000
0100
,
0020
0000
0031
1000
0010
0200
0000
0310
,
1000
0001
0010
0200
0000
1300
0001
0100
,
0010
0001
0010
0100
0001
0010
0100
1000
,
0001
1000
0100
0020
0000
0031
0100
0010
,
1000
0001
0010
0001
1000
0010
0100
1000
,
0100
0001
1000
0100
0010
0002
0000
0000
,
1003
0010
0100
1000
0001
0010
0100
0002
,
0000
1003
0100
0010
0001
0100
0010
1000
,
0020
0000
0000
0000
0130
0000
0001
1000
,
0100
0000
0100
0000
0010
0001
0000
0000
,
0200
0000
0000
0000
0310
0000
1000
0001
,
0100
0000
0001
0010
0000
0010
0000
0000
,
0002
0000
0103
0010
1000
0001
0010
0000
,
0200
0000
1300
0001
0100
0010
1000
0001
,
1000
0100
0010
0001
0100
0001
0010
1000
,
0010
0100
1000
0001
1000
0010
0100
1000
,
0100
0001
1000
0100
0010
0001
0100
0001
,
0010
0000
0000
0110
0000
0000
0110
0000
0000
0000
0000
0000
0000
0000
0000
0000
,
0100
1000
0001
0100
0010
0001
0010
0100
,
0001
1000
0100
0010
0100
1000
0001
0000
,
0100
0010
1000
0010
0100
0001
0010
0100
,
0001
0100
0010
0001
1000
0010
0100
0000
,
0001
0100
0010
1000
0001
0010
0100
1000
,
0010
0100
0010
1000
0100
0010
0001
0000
,
0100
0010
0100
1000
0100
0001
1000
0001
,
0000
0001
0100
0010
1000
0001
0010
0000
,
0100
1000
0100
0001
0100
0010
0001
1000
,
0001
0100
0010
1000
0010
0100
0001
0000
,
1000
0000
0100
0000
0010
0000
0001
0000
0100
0000
0000
0100
0000
0000
0100
0000
,
0020
0000
1030
0001
0020
0000
0130
1000
,
0001
0101
1001
0101
,
1000
1001
1100
1001
,
0001
0100
1000
0100
0010
1000
0001
0020
,
0000
0130
1000
0001
0100
0010
0001
0010
,
0200
0000
0301
1000
0100
0000
0010
0000
,
0002
0000
1003
0010
0100
0000
0100
0000
,
0002
0000
1003
0000
1000
0010
0100
0002
,
0000
0000
0000
0000
1003
0100
0010
0001
,
0100
0000
0100
0001
0010
0100
0020
0000
,
0000
0000
0000
0000
,
0000
0000
0000
0000
,
0000
0000
0000
0000
,
0030
0000
0000
0000
;

//---------------dance-single - ----------------
#NOTEDATA:;
#CHARTNAME:;
#STEPSTYPE:dance-single;
#DESCRIPTION:;
#CHARTSTYLE:;
#DIFFICULTY:Easy;
#METER:9;
#RADARVALUES:0.347929,0.428468,0.022551,0.150340,0.007517,324.000000,321.000000,3.000000,20.000000,0.000000,0.000000,0.000000,0.000000,0.000000,0.347929,0.428468,0.022551,0.150340,0.007517,324.000000,321.000000,3.000000,20.000000,0.000000,0.000000,0.000000,0.000000,0.000000;
#CREDIT:Kekkle;
#NOTES:
0000
0000
0000
0000
,
0000
0000
0000
0000
,
0000
0000
0000
0000
,
0000
0000
0000
0000
,
0000
0000
0000
0000
,
0000
0000
0000
0000
,
0000
0000
0000
0000
,
0001
0001
1000
0001
,
0010
0010
0100
1000
,
0001
0000
0100
0000
0010
1000
0010
2000
,
0000
3001
0001
0001
,
2000
0001
0001
3001
,
0000
0100
0010
1000
,
0002
1000
1000
1003
,
0000
0100
0010
0001
,
2000
0001
0001
3001
,
0000
0100
0010
1000
,
0001
0000
0001
0000
1000
0000
0100
2000
,
0000
3001
0100
0010
,
1000
0000
0001
0000
0100
0010
0000
0010
,
0000
1000
0001
0010
,
0100
0000
0010
0000
0001
0100
0000
0100
,
0000
0001
1000
0100
,
0110
0000
0010
0001
,
1001
0000
1000
0010
,
0100
0000
0100
0000
0001
0000
1000
0100
,
0000
0010
0010
0001
,
2000
0000
3001
0000
,
0100
0010
0100
0000
,
0002
0000
1003
0000
,
0100
0010
0100
1000
,
0001
0100
0010
0010
,
1000
0001
0010
0010
,
0001
1000
1000
1000
,
0001
0010
0010
0010
,
0100
0000
1000
0000
0001
0000
1000
0001
,
1000
0000
0000
1000
0000
0000
1000
0000
0000
0000
0000
0000
0000
0000
0000
0000
,
0001
0000
0100
0000
0010
0000
1000
0001
,
0000
0001
0000
1000
0000
1000
0000
0000
,
0100
0000
0010
0000
0001
0000
1000
0010
,
0000
0010
0000
0000
0100
0000
0001
0000
,
1000
0000
0100
0000
0010
0000
0001
1000
,
0000
1000
0000
0001
0000
0001
0000
0000
,
0100
0000
0010
0000
1000
0000
0001
1000
,
0000
0000
0100
0100
,
0010
0000
0001
0000
1000
0000
0001
0100
,
0000
0100
0000
0010
0000
0010
0000
0000
,
1000
0001
0010
0010
,
0200
0000
0010
0300
,
1000
0001
0001
0001
,
0100
0010
0010
0010
,
1000
0000
0001
0000
1000
0001
1000
0002
,
0000
0000
0103
0000
0010
1000
0010
1000
,
0010
0000
0100
0001
,
1000
0100
0000
0100
0000
0000
0010
0000
,
0001
0001
1000
1000
,
0010
0100
0010
0100
0000
0000
0001
0000
,
1000
0100
0010
0100
,
1000
0000
0001
0100
0001
0100
0000
0000
,
0010
0000
1000
0001
1000
0001
1000
0002
,
0000
1003
0100
0010
,
0002
0000
1003
0000
,
0001
0000
0001
0000
,
2000
0000
3001
0000
,
1000
0000
0001
1000
0000
0000
1000
0000
,
0010
0100
0001
0001
,
0010
0100
1000
1000
,
0001
0100
0100
0100
,
0010
1000
1000
1000
,
0001
0000
0010
0000
0100
0000
0010
0001
,
0010
0000
0000
0010
0000
0000
0010
0000
0000
0000
0000
0000
0000
0000
0000
0000
,
0001
0000
0100
0000
0010
0000
1000
0001
,
0000
0001
0000
0010
0000
0010
0000
0000
,
0100
0000
1000
0000
0001
0000
0100
0010
,
0000
0010
0000
0000
1000
0000
0001
0000
,
1000
0000
0100
0000
0010
0000
0001
1000
,
0000
1000
0000
0010
0000
0010
0000
0000
,
0100
0000
0001
0000
1000
0000
0100
0010
,
0000
0000
0001
0001
,
1000
0000
0010
0000
0100
0000
0001
1000
,
0000
1000
0000
0100
0000
0100
0000
0000
,
0010
0001
1000
1000
,
0020
0000
0100
0030
,
1000
0001
0001
0001
,
1000
0100
0100
0100
,
0010
0000
0001
1000
0001
1000
0001
2000
,
0000
3000
0010
0010
,
0200
0000
0310
0000
,
0020
0000
0130
0000
,
0002
0000
0000
0000
1003
0000
1000
0200
,
0000
0000
0300
0000
0010
0001
0010
0001
,
0010
0000
0000
0001
0000
0000
2002
0000
,
0000
0000
0000
0000
,
0000
0000
0000
0000
,
0000
0000
0000
0000
,
3003
0000
0000
0000
;

//---------------dance-double - ----------------
#NOTEDATA:;
#CHARTNAME:;
#STEPSTYPE:dance-double;
#DESCRIPTION:;
#CHARTSTYLE:;
#DIFFICULTY:Easy;
#METER:9;
#RADARVALUES:0.339338,0.428468,0.007517,0.120272,0.007517,316.000000,315.000000,1.000000,16.000000,0.000000,0.000000,0.000000,0.000000,0.000000,0.339338,0.428468,0.007517,0.120272,0.007517,316.000000,315.000000,1.000000,16.000000,0.000000,0.000000,0.000000,0.000000,0.000000;
#CREDIT:Kekkle;
#NOTES:
00000000
00000000
00000000
00000000
,
00000000
00000000
00000000
00000000
,
00000000
00000000
00000000
00000000
,
00000000
00000000
00000000
00000000
,
00000000
00000000
00000000
00000000
,
00000000
00000000
00000000
00000000
,
00000000
00000000
00000000
00000000
,
10000000
10000000
00010000
01000000
,
00001000
00001000
00010000
00000010
,
00000100
00000000
00000001
00000000
00001000
00000000
00000100
00010000
,
00000000
00001000
01000000
01000000
,
00200000
10000000
10000000
10300000
,
00000000
00010000
01000000
00001000
,
00020000
00000100
00000100
00030100
,
00000000
00000010
00000001
00001000
,
00000020
00010000
00010000
00010030
,
00000000
00001000
01000000
00100000
,
10000000
00000000
10000000
00000000
00010000
00000000
00100000
00001000
,
00000000
00010000
00010000
00010000
,
00000010
00000000
00001000
00000000
00000001
00000000
00000010
00000100
,
00000000
00010000
00000100
00010000
,
00001000
00000000
01000000
00000000
00100000
00000000
10000000
00010000
,
00000000
10000000
01000000
00100000
,
00010000
01000000
01000000
01000000
,
00001000
00010000
00010000
00010000
,
00000100
00000000
00000010
00000000
00000001
00000000
00001000
00000010
,
00000000
00010000
00010000
00010000
,
00002000
00000000
01003000
00000000
,
00010000
10000000
00010000
00000000
,
00200000
00000000
00301000
00000000
,
00010000
00000010
00010000
00000000
,
00000010
00001000
00000001
00000001
,
00001000
00000100
00010000
00010000
,
00001000
01000000
01000000
01000000
,
00010000
10000000
10000000
10000000
,
01000000
00000000
00100000
00000000
00010000
00000000
00100000
00001000
,
00100000
00000000
00000000
00100000
00000000
00000000
00100000
00000000
00000000
00000000
00000000
00000000
00000000
00000000
00000000
00000000
,
00001000
00000000
00010000
00000000
00000010
00000000
00000100
00000010
,
00000000
00000010
00000000
00001000
00000000
00001000
00000000
00000000
,
00000010
00000000
00010000
00000000
00001000
00000000
00100000
00010000
,
00000000
00010000
00000000
00000000
10000000
00000000
00010000
00000000
,
01000000
00000000
00001000
00000000
00010000
00000000
00001000
00100000
,
00000000
00100000
00000000
00001000
00000000
00001000
00000000
00000000
,
00010000
00000000
00000010
00000000
00000100
00000000
00000010
00001000
,
00000000
00000000
00000001
00000001
,
00001000
00000000
00000010
00000000
00010000
00000000
00001000
01000000
,
00000000
01000000
00000000
00100000
00000000
00100000
00000000
00000000
,
10000000
00010000
00100000
00100000
,
00002000
00000000
00010000
00003000
,
01000000
00001000
00001000
00001000
,
00010000
00000100
00000100
00000100
,
00000010
00000000
00000001
00000000
00001000
00000000
00000010
00010000
,
00000000
00001000
01000000
01000000
,
00200000
00300000
10000000
00010000
,
00100000
00100000
00001000
00000000
,
00010000
00010000
00000010
00000010
,
00000100
00000001
00001000
00000000
,
00000100
00000000
00010000
00001000
,
01000000
00000000
00010000
10000000
00010000
10000000
00000000
00000000
,
00010000
00000000
00100000
00001000
00100000
00001000
00100000
00002000
,
00000000
00013000
00000010
00000010
,
00000200
00000000
00000301
00000000
,
00001000
00000010
00010000
00000000
,
00002000
00000000
00103000
00000000
,
00010000
00100000
01000000
01000000
,
00100000
00001000
01000000
01000000
,
00010000
10000000
00100000
00100000
,
01000000
00001000
00001000
00001000
,
00010000
00000010
00000010
00000010
,
00000100
00000000
00000001
00000000
00001000
00000000
00000010
00010000
,
00000010
00000000
00000000
00000010
00000000
00000000
00000010
00000000
00000000
00000000
00000000
00000000
00000000
00000000
00000000
00000000
,
00010000
00000000
00001000
00000000
01000000
00000000
00100000
10000000
,
00000000
10000000
00000000
00010000
00000000
00010000
00000000
00000000
,
00100000
00000000
00001000
00000000
00010000
00000000
00000010
00001000
,
00000000
00001000
00000000
00000000
00000001
00000000
00001000
00000000
,
00000010
00000000
00010000
00000000
00000010
00000000
00001000
00000100
,
00000000
00000100
00000000
00010000
00000000
00010000
00000000
00000000
,
00001000
00000000
01000000
00000000
00010000
00000000
00100000
01000000
,
00000000
00000000
10000000
10000000
,
00010000
00000000
01000000
00000000
00001000
00000000
00100000
00010000
,
00000000
00010000
00000000
01000000
00000000
01000000
00000000
00000000
,
00001000
00010000
00000010
00000010
,
00000200
00000000
00000001
00000300
,
00000010
00010000
00010000
00010000
,
00001000
00100000
00100000
00100000
,
01000000
00000000
10000000
00000000
00010000
00000000
01000000
00001000
,
00000000
00010000
00000010
00000010
,
00000200
00000000
00000301
00000000
,
00000002
00000000
00001003
00000000
,
00001000
00000000
00000100
00000000
00010000
00000000
00001000
02000000
,
00000000
00000000
00000000
00000000
03100000
10000000
00100000
10000000
,
00100000
00000000
00000000
10000000
00000000
00000000
20020000
00000000
,
00000000
00000000
00000000
00000000
,
00000000
00000000
00000000
00000000
,
00000000
00000000
00000000
00000000
,
30030000
00000000
00000000
00000000
;

//---------------dance-single - ----------------
#NOTEDATA:;
#CHARTNAME:;
#STEPSTYPE:dance-single;
#DESCRIPTION:;
#CHARTSTYLE:;
#DIFFICULTY:Beginner;
#METER:5;
#RADARVALUES:0.237322,0.275873,0.000000,0.060136,0.000000,221.000000,221.000000,0.000000,8.000000,0.000000,0.000000,0.000000,0.000000,0.000000,0.237322,0.275873,0.000000,0.060136,0.000000,221.000000,221.000000,0.000000,8.000000,0.000000,0.000000,0.000000,0.000000,0.000000;
#CREDIT:Kekkle;
#NOTES:
0000
0000
0000
0000
,
0000
0000
0000
0000
,
0000
0000
0000
0000
,
0000
0000
0000
0000
,
0000
0000
0000
0000
,
0000
0000
0000
0000
,
0000
0000
0000
0000
,
1000
0000
0001
1000
,
0001
0000
0100
0010
,
0100
0000
0010
1000
,
0010
0000
1000
0000
,
0001
0000
1000
1000
,
1000
0000
0001
0001
,
0001
0000
0100
0100
,
0100
0000
0010
0010
,
0010
0000
1000
1000
,
1000
0000
0001
0001
,
0001
0000
0010
0010
,
0010
0000
0100
1000
,
0001
0000
0100
0010
,
0100
0000
0001
0001
,
0100
0000
0010
1000
,
0010
0000
1000
1000
,
0100
0000
0010
0010
,
0001
0000
0100
0100
,
0010
0000
1000
0001
,
1000
0000
0001
0001
,
0100
0000
0100
0000
,
0010
1000
0001
0000
,
0010
0000
0010
0000
,
0100
1000
0001
0000
,
1000
0000
0010
0010
,
0100
0000
0001
0001
,
1000
0000
0100
0100
,
0010
0000
0001
0000
,
2000
0000
0000
0000
,
3000
0000
0000
0000
,
0001
0000
0100
0000
,
0010
0010
1000
1000
,
0001
0000
1000
0000
,
0100
0100
0010
0010
,
0001
0000
1000
0000
,
0001
0001
0100
0100
,
0010
0000
1000
0000
,
0001
0000
1000
1000
,
0100
0000
0010
0000
,
0001
0001
0100
0100
,
0010
0000
1000
0000
,
0002
0000
0003
0000
,
1000
0001
0001
0000
,
0001
1000
1000
0000
,
0010
0100
0100
0010
,
0200
0000
0300
0000
,
0001
0000
1000
0000
,
0001
0001
0001
0000
,
1000
0000
0100
0000
,
0010
0010
0001
0000
,
1000
0000
0010
0000
,
0100
0000
0001
0000
,
1000
1000
0100
0100
,
1000
0000
0001
0000
,
0100
0000
0100
0000
,
0010
1000
0001
0000
,
0010
0000
0010
0000
,
0100
1000
0001
0000
,
0100
0000
0010
0010
,
1000
0000
0001
0001
,
0010
0000
0100
0100
,
1000
0000
0001
0000
,
0200
0000
0000
0000
,
0300
0000
0000
0000
,
0001
0000
1000
0000
,
0001
0001
0010
0010
,
0100
0000
1000
0000
,
0001
0001
0100
0100
,
0010
0000
1000
0000
,
0010
0010
0100
0100
,
0001
0000
1000
0000
,
0100
0000
0010
0010
,
0001
0000
1000
0000
,
0001
0001
0100
0100
,
0010
0000
1000
0000
,
0002
0000
0003
0000
,
1000
1000
0001
0000
,
0001
0001
1000
0000
,
1000
1000
0010
0010
,
0100
0000
0001
0001
,
2000
0000
3000
0000
,
0002
0000
0003
0000
,
1000
1000
0010
0010
,
0200
0000
0300
0000
,
0001
0000
0000
1000
0000
0000
0001
0000
;
