#TITLE:Filter;
#SUBTITLE:;
#ARTIST:Jimin;
#TITLETRANSLIT:;
#SUBTITLETRANSLIT:;
#ARTISTTRANSLIT:;
#GENRE:;
#CREDIT:;
#BANNER:;
#BACKGROUND:;
#LYRICSPATH:;
#CDTITLE:;
#MUSIC:Filter.ogg;
#OFFSET:0.010000;
#SAMPLESTART:45.774090;
#SAMPLELENGTH:15.000000;
#SELECTABLE:YES;
#BPMS:0.000000=110.000000
;
#STOPS:
;
#BGCHANGES:;
#KEYSOUNDS:;
#ATTACKS:;

//---------------dance-single - ----------------
#NOTES:
     dance-single:
     :
     Hard:
     11:
     0.447723,0.446603,0.031341,0.446603,0.419180,400.000000,396.000000,4.000000,57.000000,0.000000,0.000000,0.447723,0.446603,0.031341,0.446603,0.419180,400.000000,396.000000,4.000000,57.000000,0.000000,0.000000:
// measure 0
0000
0000
0000
0000
,  // measure 1
0000
0000
0000
0000
,  // measure 2
0000
0000
0000
0000
,  // measure 3
0000
0000
0000
0000
,  // measure 4
0000
0000
0000
0000
0000
0000
0000
0000
0000
0000
0001
0000
0100
0010
0100
0000
,  // measure 5
0001
0000
0000
0002
0000
0000
0003
0000
1000
0000
0001
0000
1000
0010
1000
0000
,  // measure 6
0100
0000
0000
0200
0000
0000
0300
0000
1000
0000
0001
0000
0100
0000
0010
1000
,  // measure 7
0000
0001
0000
0002
0000
0000
0003
0000
1000
0000
0000
0100
0000
0000
0010
0000
,  // measure 8
0020
0000
0000
0001
0000
0000
0031
0000
1000
0000
0010
0000
0100
0001
0100
0000
,  // measure 9
0010
0000
0000
0020
0000
0000
0030
0000
1000
0000
0001
0000
0010
0100
0010
0001
,  // measure 10
1000
0000
0000
2000
0000
0000
3000
0000
0010
0000
0100
0000
0001
0000
0001
1000
,  // measure 11
0000
0100
0000
0020
0000
0000
0030
0000
0001
0000
0000
1000
0000
0000
1000
0000
,  // measure 12
0010
0100
0000
0100
0000
0000
0001
0000
2000
0000
0000
0000
3002
0000
0000
0000
,  // measure 13
1003
0000
0000
1000
0020
0000
0000
0000
1000
0000
0000
0100
0000
0000
0130
0000
,  // measure 14
0001
0000
1000
0000
0100
0000
0020
0000
0000
0000
0000
0000
0031
0000
1000
0000
0010
0000
0100
0000
0000
0001
0000
0000
,  // measure 15
1000
0000
0000
2000
0000
0000
3000
0000
0100
0000
0000
0010
0000
0000
0010
0000
,  // measure 16
0002
0000
0000
1003
0002
0000
0000
0103
0001
0000
0000
0001
0000
0000
0001
0000
,  // measure 17
1000
0000
0000
0001
0020
0000
0000
0000
0100
0000
0000
0001
0000
0000
0031
0000
,  // measure 18
1000
0000
0010
0000
0100
0000
0002
0000
0000
0000
1003
0000
0001
0000
0010
0000
0100
0000
1000
0000
0000
0001
0000
0000
,  // measure 19
0100
0000
0000
0200
0000
0000
0300
0000
0010
0000
0000
1000
0000
0000
1000
0000
,  // measure 20
0001
0010
0100
1000
0010
0100
0001
0001
,  // measure 21
2000
0000
0000
0100
0000
0000
3100
0000
0010
0000
0001
1000
0001
0000
0100
0000
,  // measure 22
0010
0000
0000
0010
1000
0000
0001
0000
0010
0000
0000
0010
0100
0000
1000
0000
,  // measure 23
0002
0103
2000
3100
0002
0013
2000
3010
,  // measure 24
0001
0000
0000
0000
1000
0000
0000
0000
0010
0000
0000
0000
0100
0000
0000
0000
0000
0000
0000
0000
0000
0001
0000
0000
1000
0000
0000
0001
0000
0000
0000
0000
0000
0001
0000
0000
1000
0000
0000
0000
0000
0000
0100
0000
0000
0000
0000
0000
,  // measure 25
0020
0000
0000
0001
0000
0000
0031
0000
1000
0000
0010
0100
0010
0000
1000
0000
,  // measure 26
0001
0000
0000
0001
0010
0000
0100
0000
1000
0000
0000
1000
0001
0000
0100
0000
,  // measure 27
0002
0013
2000
3010
0002
0103
2000
3100
,  // measure 28
0001
0000
0000
0000
0010
0000
0000
0000
0100
0000
0000
0000
1000
0000
0000
0000
0000
0000
0000
0000
0000
0001
0000
0000
1000
0000
0000
0001
0000
0000
0000
0000
0000
0001
0000
0000
1000
0000
0000
0000
0000
0000
0100
0000
0000
0000
0000
0000
,  // measure 29
0020
0000
0031
1000
1001
0000
0001
0100
,  // measure 30
0020
0000
1030
0001
1001
0000
1000
0010
,  // measure 31
0200
0000
0301
1000
1001
0000
0001
0010
,  // measure 32
0200
0000
0000
0000
1300
0000
0001
0000
1001
0000
1000
0001
1000
0000
0010
0000
,  // measure 33
0100
0000
0000
0100
0001
0000
1000
0001
1000
0000
0000
0001
0010
0000
0200
0000
,  // measure 34
1300
0000
0000
1000
0001
0000
0100
0000
0010
0000
0000
0010
1000
0000
0002
0000
,  // measure 35
0013
0000
0000
0010
0100
0000
1000
0001
1000
0000
0000
0001
0100
0010
1000
0010
,  // measure 36
1000
0001
0010
0100
1000
0010
0100
0100
,  // measure 37
0002
0000
0000
1000
0000
0000
1003
0000
0100
0000
0010
0001
0010
0000
0001
0000
,  // measure 38
1000
0000
0000
1000
0010
0000
0100
0000
0001
0000
0000
0001
0010
0000
0100
0000
,  // measure 39
2000
3010
0002
0013
2000
3100
0002
0103
,  // measure 40
1000
0000
0000
0000
0010
0000
0000
0000
0100
0000
0000
0000
0001
0000
0000
0000
0000
0000
0000
0000
0000
1000
0000
0000
0001
0000
0000
1000
0000
0000
0000
0000
0000
1000
0000
0000
0001
0000
0000
0000
0000
0000
1000
0000
0000
0000
0000
0000
,  // measure 41
0200
0000
0000
0010
0000
0000
0310
0000
0001
0000
1000
0010
1000
0000
0001
0000
,  // measure 42
0010
0000
0000
0010
0100
0000
1000
0000
0001
0000
0000
0001
0100
0000
0010
0000
,  // measure 43
2000
3100
0002
0103
2000
3010
0002
0013
,  // measure 44
1000
0000
0000
0000
0001
0000
0000
0000
0010
0000
0000
0000
0100
0000
0000
0000
0000
0000
0000
0000
0000
1000
0000
0000
0001
0000
0000
1000
0000
0000
0000
0000
0000
1000
0000
0000
0001
0000
0000
0000
0000
0000
0100
0000
0000
0000
0000
0000
,  // measure 45
0010
0000
0000
0010
1000
0000
0010
0000
1000
0000
0000
1000
0010
0000
1000
0000
,  // measure 46
0001
0000
0000
0001
0010
0000
0001
0000
0010
0000
0000
0010
0001
0000
0010
0000
,  // measure 47
0002
0103
2000
3100
0002
0013
2000
3010
,  // measure 48
0001
0000
0000
0000
0100
0000
0000
0000
0010
0000
0000
0000
1000
0000
0000
0000
0000
0000
0000
0000
0000
0001
0000
0000
1000
0000
0000
0001
0000
0000
0000
0000
0000
0001
0000
0000
1000
0000
0000
0000
0000
0000
0001
0000
0000
0000
0000
0000
,  // measure 49
0010
0000
0000
0010
0001
0000
0010
0000
0001
0000
0000
0001
0010
0000
0001
0000
,  // measure 50
1000
0000
0000
1000
0010
0000
1000
0000
0010
0000
0000
0010
1000
0000
0010
0000
,  // measure 51
2000
3100
0002
0103
2000
3010
0002
0013
,  // measure 52
1000
0000
0000
0000
0001
0000
0000
0000
0010
0000
0000
0000
0100
0000
0000
0000
0000
0000
0000
0000
0000
1000
0000
0000
0001
0000
0000
1000
0000
0000
0000
0000
0000
1000
0000
0000
0001
0000
0000
0000
0000
0000
0100
0000
0000
0000
0000
0000
,  // measure 53
0020
0000
0030
1000
0001
0010
0100
0010
,  // measure 54
0002
0203
0320
2030
,  // measure 55
3001
0000
0000
0100
0000
0000
0100
0000
0010
0000
0000
1000
0000
0000
1000
0000
,  // measure 56
0002
0000
0000
0000
,  // measure 57
0003
0000
0000
0000
;

//---------------dance-double - ----------------
#NOTES:
     dance-double:
     :
     Hard:
     11:
     0.445484,0.446603,0.031341,0.446603,0.415263,398.000000,394.000000,4.000000,57.000000,0.000000,0.000000,0.445484,0.446603,0.031341,0.446603,0.415263,398.000000,394.000000,4.000000,57.000000,0.000000,0.000000:
00000000
00000000
00000000
00000000
,
00000000
00000000
00000000
00000000
,
00000000
00000000
00000000
00000000
,
00000000
00000000
00000000
00000000
,
00000000
00000000
00000000
00000000
00000000
00000000
00000000
00000000
00000000
00000000
10000000
00000000
00100000
10000000
00100000
00000000
,
01000000
00000000
00000000
02000000
00000000
00000000
03000000
00000000
00100000
00000000
10000000
00000000
00010000
01000000
00010000
00000000
,
00100000
00000000
00000000
00200000
00000000
00000000
00300000
00000000
00001000
00000000
00010000
00000000
00000010
00000000
00001000
00000001
,
00000000
00000010
00000000
00000200
00000000
00000000
00000300
00000000
00010000
00000000
00000000
00001000
00000000
00000000
00001000
00000000
,
00002000
00000000
00000000
01000000
00000000
00000000
01003000
00000000
00100000
00000000
10000000
00000000
00010000
00100000
00010000
00000000
,
01000000
00000000
00000000
02000000
00000000
00000000
03000000
00000000
00001000
00000000
00010000
00000000
00000100
00001000
00000100
00000000
,
00000010
00000000
00000000
00000020
00000000
00000000
00000030
00000000
00000001
00000000
00001000
00000000
00000010
00000000
00010000
00001000
,
00000000
01000000
00000000
00200000
00000000
00000000
00300000
00000000
10000000
00000000
00000000
00010000
00000000
00000000
00010000
00000000
,
00100000
00001000
00000000
00010000
00000000
00000000
00000010
00000000
00000200
00000000
00000000
00000000
00000302
00000000
00000000
00000000
,
00001003
00000000
00000000
00000100
00020000
00000000
00000000
00000000
00001000
00000000
00000000
00001000
00000000
00000000
00031000
00000000
,
01000000
00000000
00100000
00000000
10000000
00000000
00020000
00000000
00000000
00000000
00000000
00000000
00130000
00000000
00001000
00000000
00010000
00000000
00000100
00000000
00000000
00000010
00000000
00000000
,
00000001
00000000
00000000
00000002
00000000
00000000
00000003
00000000
00001000
00000000
00000000
00000010
00000000
00000000
00000010
00000000
,
00020000
00000000
00000000
00030010
00020000
00000000
00000000
00031000
00010000
00000000
00000000
00010000
00000000
00000000
00010000
00000000
,
00001000
00000000
00000000
01000000
00020000
00000000
00000000
00000000
10000000
00000000
00000000
10000000
00000000
00000000
10030000
00000000
,
00010000
00000000
00100000
00000000
00001000
00000000
00020000
00000000
00000000
00000000
00030100
00000000
00000010
00000000
00000001
00000000
00001000
00000000
00000010
00000000
00000000
00010000
00000000
00000000
,
00001000
00000000
00000000
00002000
00000000
00000000
00003000
00000000
01000000
00000000
00000000
00100000
00000000
00000000
00100000
00000000
,
10000000
00010000
00100000
00001000
00010000
00000100
00000010
00000001
,
00002000
00000000
00000000
00000010
00000000
00000000
00003010
00000000
00010000
00000000
00000100
00001000
00000100
00000000
00010000
00000000
,
00001000
00000000
00000000
00001000
01000000
00000000
00100000
00000000
10000000
00000000
00000000
10000000
00100000
00000000
01000000
00000000
,
00020000
10030000
02000000
03010000
00002000
00003010
00000002
00001003
,
00000010
00000000
00000000
00000000
00010000
00000000
00000000
00000000
00000100
00000000
00000000
00000000
00001000
00000000
00000000
00000000
00000000
00000000
00000000
00000000
00000000
00000010
00000000
00000000
00000100
00000000
00000000
00000010
00000000
00000000
00000000
00000000
00000000
00000010
00000000
00000000
00000100
00000000
00000000
00000000
00000000
00000000
00000001
00000000
00000000
00000000
00000000
00000000
,
00002000
00000000
00000000
00000100
00000000
00000000
00003100
00000000
00010000
00000000
00001000
01000000
00001000
00000000
00100000
00000000
,
00010000
00000000
00000000
00010000
01000000
00000000
00100000
00000000
10000000
00000000
00000000
10000000
01000000
00000000
00100000
00000000
,
00020000
10030000
00200000
00310000
00002000
00003100
00000002
00001003
,
00000100
00000000
00000000
00000000
00000010
00000000
00000000
00000000
00000001
00000000
00000000
00000000
00001000
00000000
00000000
00000000
00000000
00000000
00000000
00000000
00000000
00000010
00000000
00000000
00010000
00000000
00000000
00000010
00000000
00000000
00000000
00000000
00000000
00000010
00000000
00000000
00010000
00000000
00000000
00000000
00000000
00000000
00001000
00000000
00000000
00000000
00000000
00000000
,
00020000
00000000
01030000
00100000
00101000
00000000
00001000
00010000
,
00002000
00000000
00003100
00000010
00010010
00000000
00010000
00001000
,
00020000
00000000
00130000
01000000
01001000
00000000
00001000
00010000
,
00002000
00000000
00000000
00000000
00003010
00000000
00000100
00000000
00010100
00000000
00000000
00000000
00010000
00000000
00001000
00010000
,
00001000
00000000
00000000
01000000
00010000
00000000
01000000
00100000
01000000
00000000
00000000
00100000
10000000
00000000
00020000
00000000
,
00130000
00000000
00000000
00001000
00010000
00000000
00000010
00000000
00000100
00000000
00000000
00000001
00001000
00000000
00000200
00000000
,
00010300
00000000
00000000
00001000
00100000
00000000
00010000
00100000
00010000
00000000
00000000
10000000
01000000
00100000
00010000
00100000
,
00001000
00010000
00000010
00000100
00000001
00001000
00000100
00010000
,
00002000
00000000
00000000
01000000
00000000
00000000
01003000
00000000
00100000
00000000
10000000
00010000
10000000
00000000
00010000
00000000
,
00100000
00000000
00000000
00100000
00001000
00000000
00010000
00000000
00000010
00000000
00000000
00000010
00001000
00000000
00000010
00000000
,
00002000
00003001
00000020
00001030
00020000
01030000
20000000
30010000
,
01000000
00000000
00000000
00000000
00001000
00000000
00000000
00000000
00100000
00000000
00000000
00000000
00010000
00000000
00000000
00000000
00000000
00000000
00000000
00000000
00000000
00100000
00000000
00000000
01000000
00000000
00000000
00100000
00000000
00000000
00000000
00000000
00000000
00100000
00000000
00000000
01000000
00000000
00000000
00000000
00000000
00000000
10000000
00000000
00000000
00000000
00000000
00000000
,
00020000
00000000
00000000
01000000
00000000
00000000
01030000
00000000
00001000
00000000
00100000
00010000
00100000
00000000
00001000
00000000
,
00010000
00000000
00000000
00010000
00000010
00000000
00000100
00000000
00000001
00000000
00000000
00000001
00000010
00000000
00000100
00000000
,
00002000
00003001
00000200
00001300
00020000
00130000
20000000
30010000
,
00100000
00000000
00000000
00000000
01000000
00000000
00000000
00000000
10000000
00000000
00000000
00000000
00010000
00000000
00000000
00000000
00000000
00000000
00000000
00000000
00000000
01000000
00000000
00000000
00001000
00000000
00000000
01000000
00000000
00000000
00000000
00000000
00000000
01000000
00000000
00000000
00010000
00000000
00000000
00000000
00000000
00000000
00100000
00000000
00000000
00000000
00000000
00000000
,
00001000
00000000
00000000
00001000
01000000
00000000
00001000
00000000
01000000
00000000
00000000
01000000
00001000
00000000
00010000
00000000
,
00000100
00000000
00000000
00000100
00010000
00000000
00000100
00000000
00010000
00000000
00000000
00010000
00000100
00000000
00001000
00000000
,
00000200
00000310
00000002
00000103
00002000
00013000
00200000
01300000
,
00010000
00000000
00000000
00000000
10000000
00000000
00000000
00000000
01000000
00000000
00000000
00000000
00100000
00000000
00000000
00000000
00000000
00000000
00000000
00000000
00000000
00001000
00000000
00000000
00010000
00000000
00000000
00001000
00000000
00000000
00000000
00000000
00000000
00001000
00000000
00000000
00010000
00000000
00000000
00000000
00000000
00000000
00001000
00000000
00000000
00000000
00000000
00000000
,
00100000
00000000
00000000
00100000
00001000
00000000
00100000
00000000
00001000
00000000
00000000
00001000
00100000
00000000
00001000
00000000
,
00010000
00000000
00000000
00010000
00000010
00000000
00010000
00000000
00000010
00000000
00000000
00000010
00010000
00000000
00000010
00000000
,
00002000
00003100
00000002
00000103
00020000
00031000
02000000
03100000
,
10000000
00000000
00000000
00000000
00010000
00000000
00000000
00000000
00100000
00000000
00000000
00000000
00001000
00000000
00000000
00000000
00000000
00000000
00000000
00000000
00000000
00010000
00000000
00000000
00001000
00000000
00000000
00010000
00000000
00000000
00000000
00000000
00000000
00010000
00000000
00000000
00001000
00000000
00000000
00000000
00000000
00000000
00010000
00000000
00000000
00000000
00000000
00000000
,
00000020
00000000
00000030
00001000
00000001
00000010
00000100
00000010
,
00000002
00000203
00000320
00020030
,
00031000
00000000
00000000
01000000
00000000
00000000
01000000
00000000
00100000
00000000
00000000
10000000
00000000
00000000
10000000
00000000
,
00020000
00000000
00000000
00000000
,
00030000
00000000
00000000
00000000
;

//---------------dance-single - ----------------
#NOTES:
     dance-single:
     :
     Medium:
     7:
     0.264156,0.290292,0.031341,0.415263,0.101857,236.000000,232.000000,4.000000,53.000000,0.000000,0.000000,0.264156,0.290292,0.031341,0.415263,0.101857,236.000000,232.000000,4.000000,53.000000,0.000000,0.000000:
0000
0000
0000
0000
,
0000
0000
0000
0000
,
0000
0000
0000
0000
,
0000
0000
0000
0000
,
0000
0000
0000
0000
0000
0001
1000
0010
,
0100
0000
0000
0200
0000
0000
0300
0000
0000
0000
0000
0000
0001
0000
1000
0000
,
0100
0000
0000
0200
0000
0000
0300
0000
0000
0000
0010
0000
0001
0000
1000
0000
,
0010
0000
0000
0020
0000
0000
0030
0000
0100
0000
0000
0001
0000
0000
0001
0000
,
2000
0000
0000
0000
3000
0001
0100
0010
,
1000
0000
0000
2000
0000
0000
3000
0000
0000
0000
0001
0000
1000
0000
0100
0000
,
0010
0000
0000
0020
0000
0000
0030
0000
0000
0000
0000
0000
0001
0000
0100
0000
,
0010
0000
0000
0020
0000
0000
0030
0000
1000
0000
0000
0001
0000
0000
0001
0000
,
0100
0000
0000
0010
0000
0000
1000
0000
0001
0000
0000
0000
0001
0000
0000
0000
,
1000
0200
0000
0300
,
0010
0001
1000
0000
0010
1000
0001
0000
,
1000
0000
0000
2000
0000
0000
3000
0000
0001
0000
0000
0100
0000
0000
0100
0000
,
0010
0000
0000
0000
0010
0000
0000
0000
0010
0000
0000
1000
0000
0000
1000
0000
,
0001
0020
0000
0030
,
0100
1000
0001
0000
0100
0001
1000
0000
,
0001
0000
0000
0002
0000
0000
0003
0000
1000
0000
0000
0010
0000
0000
0010
0000
,
0100
0000
0100
0000
0001
1000
0100
0000
,
0020
0000
0030
0000
0001
1000
0010
0100
,
0001
0001
1000
1000
,
0200
0320
0032
2003
,
3010
0000
0000
0000
0000
0000
0000
0000
0100
0000
0000
0000
0010
0000
0000
0000
0000
0000
0000
0000
0000
0010
0000
0000
0200
0000
0000
0000
0000
0000
0000
0000
0000
0000
0000
0000
0300
0000
0000
0000
0000
0000
0000
0000
0000
0000
0000
0000
,
0002
0000
0003
0000
1000
0100
0010
0001
,
1000
1000
0001
0001
,
0200
0320
2030
3002
,
0013
0000
0000
0000
0000
0000
0000
0000
0100
0000
0000
0000
0010
0000
0000
0000
0000
0000
0000
0000
0000
0010
0000
0000
0200
0000
0000
0000
0000
0000
0000
0000
0000
0000
0000
0000
0300
0000
0000
0000
0000
0000
0000
0000
0000
0000
0000
0000
,
2000
3001
1001
1000
,
0002
1003
1001
0001
,
2000
3001
1001
1000
,
0002
1003
1001
1000
,
0001
0000
0100
0010
0100
0000
0001
0000
,
1000
0000
0100
0010
0100
0000
1000
0000
,
0001
0000
0100
0010
0100
0001
1000
0100
,
0020
0000
0000
0030
,
0002
0000
0003
0000
0010
0100
1000
0001
,
0100
0100
0010
0010
,
2000
3002
0023
0230
,
1300
0000
0000
0000
0000
0000
0000
0000
0001
0000
0000
0000
1000
0000
0000
0000
0000
0000
0000
0000
0000
1000
0000
0000
0002
0000
0000
0000
0000
0000
0000
0000
0000
0000
0000
0000
0003
0000
0000
0000
0000
0000
0000
0000
0000
0000
0000
0000
,
0200
0000
0300
0000
0001
0100
0010
1000
,
0001
0001
1000
1000
,
0200
0320
0032
2003
,
3001
0000
0000
0000
0000
0000
0000
0000
0100
0000
0000
0000
0001
0000
0000
0000
0000
0000
0000
0000
0000
0001
0000
0000
0200
0000
0000
0000
0000
0000
0000
0000
0000
0000
0000
0000
0300
0000
0000
0000
0000
0000
0000
0000
0000
0000
0000
0000
,
0010
0000
0010
0000
0010
0000
1000
0001
,
0010
0010
0010
0010
,
0200
2300
3002
0203
,
0310
0000
0000
0000
0000
0000
0000
0000
1000
0000
0000
0000
0010
0000
0000
0000
0000
0000
0000
0000
0000
0010
0000
0000
2000
0000
0000
0000
0000
0000
0000
0000
0000
0000
0000
0000
3000
0000
0000
0000
0000
0000
0000
0000
0000
0000
0000
0000
,
0100
0000
0100
0000
0100
0000
1000
0001
,
0100
0100
0100
0100
,
0020
2030
3002
0023
,
0130
0000
0000
0000
0000
0000
0000
0000
1000
0000
0000
0000
0100
0000
0000
0000
0000
0000
0000
0000
0000
0100
0000
0000
2000
0000
0000
0000
0000
0000
0000
0000
0000
0000
0000
0000
3000
0000
0000
0000
0000
0000
0000
0000
0000
0000
0000
0000
,
0001
0000
0000
0100
0010
1000
0001
0000
,
1000
1000
0001
0001
,
0020
0130
0200
0310
,
0020
0000
0000
0000
,
0030
0000
0000
0000
;

//---------------dance-double - ----------------
#NOTES:
     dance-double:
     :
     Medium:
     7:
     0.265276,0.290292,0.031341,0.423098,0.101857,237.000000,233.000000,4.000000,54.000000,0.000000,0.000000,0.265276,0.290292,0.031341,0.423098,0.101857,237.000000,233.000000,4.000000,54.000000,0.000000,0.000000:
00000000
00000000
00000000
00000000
,
00000000
00000000
00000000
00000000
,
00000000
00000000
00000000
00000000
,
00000000
00000000
00000000
00000000
,
00000000
00000000
00000000
00000000
00000000
00000001
00001000
00000010
,
00000100
00000000
00000000
00000200
00000000
00000000
00000300
00000000
00000000
00000000
00000000
00000000
00000010
00000000
00010000
00000000
,
00001000
00000000
00000000
00002000
00000000
00000000
00003000
00000000
00000000
00000000
01000000
00000000
00100000
00000000
10000000
00000000
,
00010000
00000000
00000000
00020000
00000000
00000000
00030000
00000000
00100000
00000000
00000000
00001000
00000000
00000000
00001000
00000000
,
00020000
00000000
00000000
00000000
00030000
00000010
00001000
00000001
,
00000100
00000000
00000000
00000200
00000000
00000000
00000300
00000000
00000000
00000000
00000010
00000000
00010000
00000000
00000100
00000000
,
00001000
00000000
00000000
00002000
00000000
00000000
00003000
00000000
00000000
00000000
00000100
00000000
00010000
00000000
00001000
00000000
,
01000000
00000000
00000000
02000000
00000000
00000000
03000000
00000000
00100000
00000000
00000000
10000000
00000000
00000000
10000000
00000000
,
00010000
00000000
00000000
00100000
00000000
00000000
00001000
00000000
00010000
00000000
00000000
00000000
00010000
00000000
00000000
00000000
,
00000010
00000200
00000000
00000300
,
00000001
00001000
00000100
00000000
00001000
00000100
00010000
00000000
,
00001000
00000000
00000000
00002000
00000000
00000000
00003000
00000000
01000000
00000000
00000000
00100000
00000000
00000000
00100000
00000000
,
10000000
00000000
00000000
00000000
10000000
00000000
00000000
00000000
00010000
00000000
00000000
00010000
00000000
00000000
00010000
00000000
,
00100000
00002000
00000000
00003000
,
00010000
00000010
00000100
00000000
00000010
00001000
00000001
00000000
,
00001000
00000000
00000000
00002000
00000000
00000000
00003000
00000000
00000100
00000000
00000000
00010000
00000000
00000000
00010000
00000000
,
00001000
00000000
00001000
00000000
01000000
00100000
10000000
00000000
,
00020000
00000000
00030000
00000000
10000000
01000000
00100000
00010000
,
01000000
01000000
00001000
00001000
,
00020000
00030020
00000230
00000302
,
00001003
00000000
00000000
00000000
00000000
00000000
00000000
00000000
00000010
00000000
00000000
00000000
00010000
00000000
00000000
00000000
00000000
00000000
00000000
00000000
00000000
00010000
00000000
00000000
00000020
00000000
00000000
00000000
00000000
00000000
00000000
00000000
00000000
00000000
00000000
00000000
00000030
00000000
00000000
00000000
00000000
00000000
00000000
00000000
00000000
00000000
00000000
00000000
,
00002000
00000000
00003000
00000000
00000001
00000010
00000100
00001000
,
00000010
00000010
00010000
00010000
,
00002000
00203000
02300000
23000000
,
30010000
00000000
00000000
00000000
00000000
00000000
00000000
00000000
01000000
00000000
00000000
00000000
00001000
00000000
00000000
00000000
00000000
00000000
00000000
00000000
00000000
00001000
00000000
00000000
02000000
00000000
00000000
00000000
00000000
00000000
00000000
00000000
00000000
00000000
00000000
00000000
03000000
00000000
00000000
00000000
00000000
00000000
00000000
00000000
00000000
00000000
00000000
00000000
,
00020000
00130000
00011000
00000100
,
00002000
00003010
00011000
00100000
,
00020000
01030000
00011000
00000010
,
00002000
00003100
00011000
01000000
,
00100000
00000000
10000000
00010000
10000000
00000000
01000000
00000000
,
00100000
00000000
00001000
00010000
00001000
00000000
00000100
00000000
,
00000010
00000000
00001000
00000001
00001000
00000010
00010000
00000100
,
00020000
00000000
00000000
00030000
,
00002000
00000000
00003000
00000000
01000000
00010000
10000000
00100000
,
01000000
01000000
00001000
00001000
,
00200000
00302000
00023000
00030020
,
00000130
00000000
00000000
00000000
00000000
00000000
00000000
00000000
00000001
00000000
00000000
00000000
00001000
00000000
00000000
00000000
00000000
00000000
00000000
00000000
00000000
00001000
00000000
00000000
00000002
00000000
00000000
00000000
00000000
00000000
00000000
00000000
00000000
00000000
00000000
00000000
00000003
00000000
00000000
00000000
00000000
00000000
00000000
00000000
00000000
00000000
00000000
00000000
,
00002000
00000000
00003000
00000000
00000010
00010000
00000100
00001000
,
00000010
00000010
00010000
00010000
,
00000200
00020300
00032000
02003000
,
03100000
00000000
00000000
00000000
00000000
00000000
00000000
00000000
10000000
00000000
00000000
00000000
00010000
00000000
00000000
00000000
00000000
00000000
00000000
00000000
00000000
00010000
00000000
00000000
20000000
00000000
00000000
00000000
00000000
00000000
00000000
00000000
00000000
00000000
00000000
00000000
30000000
00000000
00000000
00000000
00000000
00000000
00000000
00000000
00000000
00000000
00000000
00000000
,
00010000
00000000
00010000
00000000
00010000
00000000
00010000
01000000
,
00001000
00001000
00001000
00001000
,
00020000
00030020
00002030
00003200
,
00000310
00000000
00000000
00000000
00000000
00000000
00000000
00000000
00000001
00000000
00000000
00000000
00001000
00000000
00000000
00000000
00000000
00000000
00000000
00000000
00000000
00001000
00000000
00000000
00000002
00000000
00000000
00000000
00000000
00000000
00000000
00000000
00000000
00000000
00000000
00000000
00000003
00000000
00000000
00000000
00000000
00000000
00000000
00000000
00000000
00000000
00000000
00000000
,
00001000
00000000
00001000
00000000
00001000
00000000
00001000
00000100
,
00010000
00010000
00010000
00010000
,
00002000
02003000
03020000
00230000
,
01300000
00000000
00000000
00000000
00000000
00000000
00000000
00000000
10000000
00000000
00000000
00000000
00010000
00000000
00000000
00000000
00000000
00000000
00000000
00000000
00000000
00010000
00000000
00000000
20000000
00000000
00000000
00000000
00000000
00000000
00000000
00000000
00000000
00000000
00000000
00000000
30000000
00000000
00000000
00000000
00000000
00000000
00000000
00000000
00000000
00000000
00000000
00000000
,
00020000
00000000
00030000
00000000
01000000
00001000
00010000
00000010
,
00001000
00001000
00000001
00000001
,
00002000
00003100
00000200
00010300
,
00020000
00000000
00000000
00000000
,
00030000
00000000
00000000
00000000
;

//---------------dance-single - ----------------
#NOTES:
     dance-single:
     :
     Easy:
     4:
     0.198117,0.245632,0.031341,0.164538,0.031341,177.000000,173.000000,4.000000,21.000000,0.000000,0.000000,0.198117,0.245632,0.031341,0.164538,0.031341,177.000000,173.000000,4.000000,21.000000,0.000000,0.000000:
0000
0000
0000
0000
,
0000
0000
0000
0000
,
0000
0000
0000
0000
,
0000
0000
0000
0000
,
0000
0000
0000
0001
,
1000
0000
0000
1000
0000
0000
0000
0000
0000
0000
0000
0000
0010
0000
0000
0000
,
0100
0000
0000
0100
0000
0000
0000
0000
0000
0000
0000
0000
0001
0000
0000
0000
,
1000
0000
0000
1000
0000
0000
0000
0000
0000
0000
0000
0000
0000
0000
0100
0000
,
0200
0300
0000
0010
,
0001
0000
0000
0001
0000
0000
0000
0000
0000
0000
0000
0000
0100
0000
0000
0000
,
0010
0000
0000
0010
0000
0000
0000
0000
0000
0000
0000
0000
1000
0000
0000
0000
,
0001
0000
0000
0001
0000
0000
0000
0000
0000
0000
0000
0000
0000
0000
0100
0000
,
0010
0010
1000
0001
,
1000
0200
0000
0300
,
0010
0010
0100
0100
,
1000
0000
0000
1000
0000
0000
0000
0000
0000
0000
0000
0000
0000
0000
0001
0000
,
0100
0100
0010
0010
,
1000
0002
0000
0003
,
0010
0010
0001
0001
,
0100
0000
0000
0100
0000
0000
0000
0000
0000
0000
0000
0000
0000
0000
0010
0000
,
1000
0000
0001
0000
1000
0001
1000
0000
,
0200
0000
0300
0000
0010
0000
0010
0001
,
0010
0001
1000
0010
,
0100
0100
0010
0010
,
1000
0001
2000
3000
,
0002
0000
0003
0000
1000
0000
1000
0100
,
1000
0001
0100
0010
,
1000
1000
0001
0001
,
0010
0100
0020
0030
,
0002
0003
1001
0000
,
2000
3000
1001
0000
,
0002
0003
1001
0000
,
2000
3000
1001
0000
,
0001
0000
0001
0100
0001
0000
0001
0000
,
1000
0000
1000
0100
1000
0000
1000
0000
,
0001
0000
0001
0010
0001
0000
0001
0000
,
0200
0000
0000
0300
,
0020
0000
0030
0000
1000
0000
1000
0010
,
1000
0010
0100
0001
,
1000
1000
0001
0001
,
0100
0010
0200
0300
,
0020
0000
0030
0000
0100
0000
0100
0001
,
0100
0010
1000
0001
,
0010
0010
0100
0100
,
1000
0001
2000
3000
,
0010
0010
0010
0000
,
0100
0100
0100
0000
,
0001
0001
1000
1000
,
0010
0100
0020
0030
,
1000
1000
1000
0000
,
0001
0001
0001
0000
,
0010
0010
0100
0100
,
1000
0001
2000
3000
,
0001
0000
0000
0000
0100
0000
0100
0010
,
0100
0001
1000
0010
,
2000
3000
0002
0003
,
2000
0000
0000
0000
,
3000
0000
0000
0000
;

//---------------dance-double - ----------------
#NOTES:
     dance-double:
     :
     Easy:
     4:
     0.195879,0.245632,0.031341,0.133198,0.031341,175.000000,171.000000,4.000000,17.000000,0.000000,0.000000,0.195879,0.245632,0.031341,0.133198,0.031341,175.000000,171.000000,4.000000,17.000000,0.000000,0.000000:
00000000
00000000
00000000
00000000
,
00000000
00000000
00000000
00000000
,
00000000
00000000
00000000
00000000
,
00000000
00000000
00000000
00000000
,
00000000
00000000
00000000
10000000
,
00100000
00000000
00000000
00100000
00000000
00000000
00000000
00000000
00000000
00000000
00000000
00000000
01000000
00000000
00000000
00000000
,
00001000
00000000
00000000
00001000
00000000
00000000
00000000
00000000
00000000
00000000
00000000
00000000
00010000
00000000
00000000
00000000
,
00000100
00000000
00000000
00000100
00000000
00000000
00000000
00000000
00000000
00000000
00000000
00000000
00000000
00000000
00001000
00000000
,
00002000
00000000
00003000
00000001
,
00000100
00000000
00000000
00000100
00000000
00000000
00000000
00000000
00000000
00000000
00000000
00000000
00000010
00000000
00000000
00000000
,
00010000
00000000
00000000
00010000
00000000
00000000
00000000
00000000
00000000
00000000
00000000
00000000
00001000
00000000
00000000
00000000
,
00100000
00000000
00000000
00100000
00000000
00000000
00000000
00000000
00000000
00000000
00000000
00000000
00000000
00000000
00000000
00000000
,
00010000
00010000
10000000
10000000
,
00100000
02000000
00000000
03000000
,
00001000
00001000
00010000
00010000
,
00000100
00000000
00000000
00000100
00000000
00000000
00000000
00000000
00000000
00000000
00000000
00000000
00000000
00000000
00000010
00000000
,
00000001
00000001
00001000
00001000
,
00000010
00020000
00000000
00030000
,
00001000
00001000
01000000
01000000
,
00100000
00000000
00000000
00100000
00000000
00000000
00000000
00000000
00000000
00000000
00000000
00000000
00000000
00000000
00000000
00000000
,
10000000
00000000
00010000
00000000
00100000
00001000
00100000
00000000
,
00002000
00000000
00003000
00000000
00010000
00000000
00010000
00000010
,
00010000
00000010
00000100
00000001
,
00001000
00001000
00000010
00000010
,
00010000
00001000
00020000
00030000
,
00002000
00000000
00003000
00000000
00100000
00000000
00100000
00010000
,
00100000
01000000
10000000
00010000
,
01000000
01000000
00001000
00001000
,
00010000
00001000
00020000
00030000
,
00000010
00000000
00011000
00000000
,
00100000
00000000
00011000
00000000
,
00000100
00000000
00011000
00000000
,
01000000
00000000
00011000
00000000
,
00001000
00000000
00001000
01000000
00001000
00000000
00001000
00000000
,
00010000
00000000
00010000
00000100
00010000
00000000
00010000
00000000
,
00001000
00000000
00001000
00100000
00001000
00000000
00001000
00000000
,
00020000
00000000
00000000
00030000
,
00002000
00000000
00003000
00000000
01000000
00000000
01000000
00100000
,
01000000
00010000
10000000
01000000
,
00100000
00100000
00001000
00001000
,
00010000
00001000
00020000
00030000
,
00000020
00000000
00000030
00000000
00001000
00000000
00001000
00000001
,
00001000
00000001
00000010
00000100
,
00001000
00001000
00000010
00000010
,
00010000
00001000
00020000
00030000
,
00001000
00001000
00001000
00000000
,
00010000
00010000
00010000
00000000
,
00001000
01000000
00100000
01000000
,
00010000
10000000
00020000
00030000
,
00100000
00100000
00100000
00000000
,
00001000
00001000
00001000
00000000
,
00010000
00000010
00000100
00000001
,
00001000
00000001
00002000
00003000
,
00000010
00000000
00000000
00000000
00000010
00000000
00000010
00010000
,
00000010
00010000
00001000
00100000
,
02000000
03000000
20000000
30000000
,
00020000
00000000
00000000
00000000
,
00030000
00000000
00000000
00000000
;

//---------------dance-single - ----------------
#NOTES:
     dance-single:
     :
     Beginner:
     1:
     0.074994,0.111651,0.000000,0.078351,0.000000,67.000000,67.000000,0.000000,10.000000,0.000000,0.000000,0.074994,0.111651,0.000000,0.078351,0.000000,67.000000,67.000000,0.000000,10.000000,0.000000,0.000000:
0000
0000
0000
0000
,
0000
0000
0000
0000
,
0000
0000
0000
0000
,
0000
0000
0000
0000
,
0000
0000
0000
0000
,
0001
0000
0000
0000
,
1000
0000
0000
0000
,
0010
0000
0000
0000
,
0100
0000
0000
0000
,
0001
0000
0000
0000
,
0010
0000
0000
0000
,
0100
0000
0000
0000
,
1000
0000
0000
0000
,
0001
0002
0000
0000
,
0003
0000
0000
0000
,
1000
0000
0000
0000
,
0010
0000
0000
0000
,
0100
0200
0000
0000
,
0300
0000
0000
0000
,
0001
0000
0000
0000
,
1000
0000
0000
0000
,
0100
0000
0100
0000
,
0010
0000
0000
0000
,
0001
0000
0001
0000
,
2000
0000
3000
0000
,
0010
0000
0010
0000
,
0100
0000
0000
0000
,
0001
0000
0001
0000
,
2000
0000
3000
0000
,
0010
0000
0000
0000
,
0100
0000
0000
0000
,
0010
0000
0000
0000
,
0100
0000
0000
0000
,
0001
0000
0000
0000
,
1000
0000
0000
0000
,
0001
0000
0001
0000
,
0200
0000
0300
0000
,
0010
0000
0010
0000
,
1000
0000
0000
0000
,
0100
0000
0100
0000
,
0020
0000
0030
0000
,
0001
0000
0001
0000
,
1000
0000
0000
0000
,
0010
0000
0010
0000
,
0200
0000
0300
0000
,
0001
0000
0001
0000
,
1000
0000
1000
0000
,
0001
0000
0001
0000
,
2000
0000
3000
0000
,
0001
0000
0001
0000
,
1000
0000
1000
0000
,
0001
0000
0001
0000
,
2000
0000
3000
0000
,
0010
0000
0000
0000
,
0100
0000
0000
0000
,
0001
0000
0000
0000
,
2000
0000
0000
0000
,
3000
0000
0000
0000
;
