#VERSION:0.83;
#TITLE:EternuS (King For Another Day Remix);
#SUBTITLE:;
#ARTIST:Sanxion7 (Remixed by DM DOKURO);
#TITLETRANSLIT:;
#SUBTITLETRANSLIT:;
#ARTISTTRANSLIT:;
#GENRE:;
#ORIGIN:;
#CREDIT:;
#BANNER:EternuS (King for Another Day Remix).png;
#BACKGROUND:EternuS (King for Another Day Remix)-bg.png;
#PREVIEWVID:;
#JACKET:EternuS (King for Another Day Remix)-jacket.png;
#CDIMAGE:;
#DISCIMAGE:;
#LYRICSPATH:;
#CDTITLE:;
#MUSIC:EternuS (King for Another Day Remix).ogg;
#OFFSET:1.250000;
#SAMPLESTART:87.892998;
#SAMPLELENGTH:15.000000;
#SELECTABLE:YES;
#BPMS:0.000=175.000;
#STOPS:;
#DELAYS:;
#WARPS:;
#TIMESIGNATURES:0.000=4=4;
#TICKCOUNTS:0.000=4;
#COMBOS:0.000=1;
#SPEEDS:0.000=1.000=0.000=0;
#SCROLLS:0.000=1.000;
#FAKES:;
#LABELS:0.000=Song Start;
#BGCHANGES:;
#KEYSOUNDS:;
#ATTACKS:
;

//---------------dance-single - ----------------
#NOTEDATA:;
#CHARTNAME:;
#STEPSTYPE:dance-single;
#DESCRIPTION:;
#CHARTSTYLE:;
#DIFFICULTY:Hard;
#METER:16;
#RADARVALUES:0.702671,0.944830,0.110120,0.888302,0.723122,670.000000,655.000000,15.000000,121.000000,0.000000,0.000000,0.000000,0.000000,0.000000,0.702671,0.944830,0.110120,0.888302,0.723122,670.000000,655.000000,15.000000,121.000000,0.000000,0.000000,0.000000,0.000000,0.000000;
#CREDIT:Kekkle;
#NOTES:
// measure 0
0000
0000
0000
0000
,  // measure 1
0000
0000
0000
0000
,  // measure 2
0000
0000
0000
0000
,  // measure 3
0000
0000
0000
0000
,  // measure 4
0000
0000
0000
0000
,  // measure 5
0001
0100
0010
1000
0100
0010
0100
1000
,  // measure 6
0010
0100
0001
0100
0010
1000
0100
0010
,  // measure 7
0001
0100
1000
0100
0001
0100
1000
0200
,  // measure 8
0020
0000
0000
0000
0330
0000
0000
0010
1000
0000
0001
0000
0010
0100
0010
0100
,  // measure 9
1000
0000
0001
0100
0010
0000
1000
0000
0100
0000
0010
0001
1000
0000
0010
0000
,  // measure 10
0200
1000
0000
0001
0000
1300
0100
0010
,  // measure 11
1000
0000
0001
0010
0100
0000
1000
0000
0010
0000
0100
0001
1000
0000
0100
0000
,  // measure 12
0020
0001
0000
1000
0000
0031
0100
0010
,  // measure 13
1000
0000
0010
0100
0001
0000
1000
0000
0100
0000
0010
0001
1000
0000
0010
0000
,  // measure 14
0200
1000
0000
0010
0000
0301
0010
0100
,  // measure 15
0010
0000
0001
1000
0010
0000
0100
0000
0010
0000
1000
0001
0010
0000
0100
0000
,  // measure 16
0020
1000
0000
0100
0000
0031
0100
0010
,  // measure 17
1010
1000
0001
0000
0011
0010
0100
0000
,  // measure 18
1100
0100
0001
0100
1000
0100
0001
0100
,  // measure 19
0110
0010
0001
0000
1001
1000
0010
0000
,  // measure 20
0110
0100
1000
0100
0001
0100
1000
0100
,  // measure 21
0110
0010
1000
0000
1001
0000
0011
0010
,  // measure 22
0110
0100
1000
0000
1010
0000
0110
0100
,  // measure 23
0101
0001
1000
0100
0001
0100
1000
0010
,  // measure 24
0100
0001
0100
0001
1000
0100
1000
0100
0010
0001
0010
0100
1000
0001
1000
0010
,  // measure 25
0200
0000
0000
0000
,  // measure 26
0000
0000
0000
0000
,  // measure 27
0000
0000
0000
0000
,  // measure 28
0000
0000
0000
0000
0000
0000
0300
0000
0000
0001
1000
0100
,  // measure 29
0020
0032
0203
1300
,  // measure 30
0200
0000
0000
0302
0000
0000
2003
0000
0000
3100
0000
0010
,  // measure 31
0002
0203
0320
1030
,  // measure 32
0200
0000
0000
0302
0000
0000
0203
0000
0000
1300
0010
0100
,  // measure 33
0002
0000
0000
0023
0000
0000
2030
0000
0000
3010
0001
0100
,  // measure 34
0020
0000
0000
2030
0000
0000
3200
0000
0000
0310
0000
0001
,  // measure 35
2000
3020
0230
2300
,  // measure 36
3100
0001
0010
0100
1000
0001
0100
0010
1000
0010
0100
0001
,  // measure 37
2000
3200
0302
0103
,  // measure 38
2000
0000
0000
3020
0000
0000
0230
0000
0000
0301
0000
1000
,  // measure 39
0200
0320
0032
0103
,  // measure 40
2000
0000
0000
3200
0000
0000
0320
0000
0000
1030
0001
0010
,  // measure 41
0200
0000
0000
2300
0000
0000
3020
0000
0000
0130
0001
0010
,  // measure 42
0200
0000
0000
2300
0000
0000
3020
0000
0000
0031
0000
0010
,  // measure 43
2000
3002
0023
0230
,  // measure 44
1300
0001
0010
0100
0010
0001
1000
0010
0100
0001
1000
0100
,  // measure 45
0020
0001
0100
0031
,  // measure 46
2000
0000
0000
0010
0000
0000
0100
0000
0000
3010
0000
0100
,  // measure 47
0002
0010
1000
0013
,  // measure 48
0200
0000
0000
0001
0000
0000
0010
0000
0000
1300
0010
0100
,  // measure 49
0002
0000
0000
0010
0000
0000
0103
0000
0000
0010
1000
0001
,  // measure 50
0020
0000
0000
1000
0000
0000
0100
0000
0000
0031
0000
1000
,  // measure 51
0020
0001
0100
1030
,  // measure 52
0001
0010
0100
1000
0010
0100
0001
1000
0100
0010
0100
1000
,  // measure 53
0001
0000
0000
0001
0000
0000
1000
0000
0000
1000
0000
0010
,  // measure 54
0100
0000
0100
0001
0000
0001
1000
0000
0000
0100
0000
0100
,  // measure 55
0010
0000
0000
0001
0000
0000
1000
0000
1000
0100
0000
0100
,  // measure 56
0001
0000
0001
0100
0000
0100
1000
0000
1000
0010
0000
0000
,  // measure 57
0110
0000
0010
1000
0000
1000
0001
0000
0001
0010
0000
0000
,  // measure 58
0110
0000
0100
1000
0000
1000
0001
0000
0001
0100
0000
0100
,  // measure 59
0010
1000
0001
0010
0100
1000
0010
0100
0001
0010
0100
1000
,  // measure 60
0001
0100
0010
1000
0100
0010
0001
1000
0010
0001
0010
1000
,  // measure 61
0002
0000
0000
0000
,  // measure 62
0000
0000
0000
0000
,  // measure 63
0000
0000
0000
0000
,  // measure 64
0000
0000
0000
0003
,  // measure 65
1000
0000
1000
0100
0000
0100
0010
0000
0010
0001
0000
0001
1000
0010
1000
0010
,  // measure 66
0100
0000
0100
0001
0000
0001
0010
0000
0010
0100
0000
0100
0010
0001
0010
0001
,  // measure 67
2000
0000
0000
3020
0000
0000
0230
0000
0000
0302
0000
0000
1003
0010
0100
0010
,  // measure 68
2000
0000
0000
3002
0000
0000
0023
0000
0000
0230
0000
0000
1300
0001
0010
0001
,  // measure 69
1000
0000
1000
0010
0000
0010
0100
0000
0100
0001
0000
0001
1000
0100
1000
0100
,  // measure 70
0010
0000
0010
0001
0000
0001
1000
0000
1000
0010
0000
0010
0100
0001
0100
0001
,  // measure 71
2000
0000
0000
3020
0000
0000
0230
0000
0000
0302
0000
0000
1003
0100
0010
0100
,  // measure 72
2000
0000
0000
3020
0000
0000
0032
0000
0000
0023
0000
0000
1030
0001
0100
0010
,  // measure 73
1000
0000
1000
0100
0000
0100
0001
0000
0001
0100
0000
0100
1000
0001
0100
0001
,  // measure 74
0100
0000
0100
1000
0000
1000
0100
0000
0100
0001
0000
0001
1000
0100
0010
0100
,  // measure 75
0020
0000
0000
0032
0000
0000
0203
0000
0000
0320
0000
0000
1030
0001
0010
0100
,  // measure 76
0020
0000
0000
0032
0000
0000
2003
0000
0000
3020
0000
0000
0130
0001
1000
0100
,  // measure 77
1000
0000
1000
0010
0000
0010
0001
0000
0001
1000
0000
1000
0100
0001
0100
0001
,  // measure 78
1000
0000
1000
0100
0000
0100
0001
0000
0001
1000
0000
1000
0010
0001
0010
0001
,  // measure 79
2000
0000
0000
3002
0000
0000
0203
0000
0000
0320
0000
0000
1030
0001
0010
0100
,  // measure 80
1000
0000
0010
0000
0100
0000
0001
1000
0100
1000
0001
0000
0100
0010
1000
0010
,  // measure 81
0200
0000
0302
0000
2003
0000
3100
0010
,  // measure 82
0002
0000
0000
0000
2003
0000
0000
0000
3020
0000
0000
0000
0130
0001
1000
0100
,  // measure 83
0020
0032
2003
3020
,  // measure 84
0130
0000
1000
0000
0100
0000
0001
0000
0010
0000
0100
0000
1000
0001
0100
0010
,  // measure 85
0200
0000
0000
0000
0302
0000
0000
0000
2003
0000
0000
0000
3100
0010
0001
1000
,  // measure 86
0020
0000
0230
0000
2300
0000
3100
0001
,  // measure 87
0020
0230
2300
3020
,  // measure 88
0130
0001
1000
0001
0100
0010
1000
0010
1000
0100
0010
0001
0010
0100
1000
0001
,  // measure 89
1000
0002
0010
0013
0100
2000
0010
3010
,  // measure 90
0200
0302
2003
3020
0000
0000
0130
0001
,  // measure 91
1000
0200
0010
0310
0001
1000
0010
0200
,  // measure 92
0000
0302
0000
2003
0000
3200
0000
0310
,  // measure 93
0001
1000
0010
0001
0010
1000
0001
0010
,  // measure 94
0100
0010
0001
1000
0020
0000
0130
0001
,  // measure 95
1000
1000
0001
0001
0100
0100
0010
0010
,  // measure 96
1000
0001
1000
0100
0010
0001
0010
0001
1000
0010
0100
0001
0100
0010
0100
0002
,  // measure 97
2000
0000
0000
0000
,  // measure 98
0000
0000
0000
0000
,  // measure 99
3003
0000
0000
0000
;

//---------------dance-double - ----------------
#NOTEDATA:;
#CHARTNAME:;
#STEPSTYPE:dance-double;
#DESCRIPTION:;
#CHARTSTYLE:;
#DIFFICULTY:Hard;
#METER:16;
#RADARVALUES:0.703719,0.944830,0.146827,0.829571,0.715780,671.000000,651.000000,20.000000,113.000000,0.000000,0.000000,0.000000,0.000000,0.000000,0.703719,0.944830,0.146827,0.829571,0.715780,671.000000,651.000000,20.000000,113.000000,0.000000,0.000000,0.000000,0.000000,0.000000;
#CREDIT:Kekkle;
#NOTES:
00000000
00000000
00000000
00000000
,
00000000
00000000
00000000
00000000
,
00000000
00000000
00000000
00000000
,
00000000
00000000
00000000
00000000
,
00000000
00000000
00000000
00000000
,
10000000
00100000
01000000
00010000
01000000
00100000
00010000
00001000
,
00000100
00000010
00000100
00001000
00000100
00000001
00000010
00000100
,
00001000
00010000
00100000
01000000
00100000
00001000
00010000
00000000
,
00022000
00000000
00000000
00000000
00033000
00000000
00000000
00001000
01000000
00000000
00010000
10000000
00010000
10000000
01000000
00000000
,
00100000
00000000
00001000
00010000
00001000
00000000
00000100
00000000
00000010
00000000
00001000
00000001
00000010
00000000
00000100
00000000
,
00020000
00000010
00000000
00000100
00000000
00031000
01000000
00100000
,
10000000
00000000
00010000
00100000
00010000
00000000
10000000
00000000
00100000
00000000
01000000
00001000
00010000
00000000
00001000
00000000
,
00000200
00000001
00000000
00001000
00000000
00000310
00001000
00000001
,
00000010
00000000
00000100
00001000
00000100
00000000
00010000
00000000
00001000
00000000
01000000
00010000
10000000
00000000
01000000
00000000
,
00200000
10000000
00000000
01000000
00000000
00301000
00010000
00000010
,
00000100
00000000
00001000
00010000
00001000
00000000
00000100
00000000
00000001
00000000
00001000
00000100
00000010
00000000
00000100
00000000
,
00020000
00001000
00000000
00000100
00000000
00030010
00001000
00000001
,
00000011
00000010
00000100
00000000
00010100
00010000
00001000
00000000
,
01001000
01000000
00100000
00000000
10100000
10000000
01000000
00010000
,
00011000
00001000
00000100
00000000
00000101
00000001
00000010
00000000
,
00000110
00000100
00010000
00000000
00011000
00001000
01000000
00100000
,
10100000
10000000
01000000
00000000
01100000
00000000
00101000
00001000
,
00011000
00010000
00000010
00000000
00000110
00000000
00001001
00000001
,
00000011
00000010
00000100
00010000
00001000
00000100
00001000
00010000
,
00100000
10000000
00100000
01000000
00010000
10000000
00010000
01000000
00001000
00010000
00001000
00010000
00000010
00001000
00000001
00000100
,
00000020
00000000
00000000
00000000
,
00000000
00000000
00000000
00000000
,
00000000
00000000
00000000
00000000
,
00000000
00000000
00000000
00000000
00000000
00000000
00000030
00000000
00000000
00000100
00000001
00001000
,
00000200
00020300
00032000
01003000
,
00020000
00000000
00000000
00230000
00000000
00000000
20300000
00000000
00000000
30100000
00000000
00001000
,
00020000
00230000
02300000
03001000
,
00020000
00000000
00000000
00030020
00000000
00000000
00000230
00000000
00000000
00000301
00000100
00000010
,
00002000
00000000
00000000
00003002
00000000
00000000
00000023
00000000
00000000
00001030
00010000
00001000
,
02000000
00000000
00000000
03020000
00000000
00000000
20030000
00000000
00000000
31000000
00000000
00010000
,
00002000
02003000
03020000
00230000
,
01300000
10000000
01000000
00100000
01000000
10000000
01000000
00100000
00001000
00010000
00001000
00000100
,
00000020
00002030
00003002
00000013
,
00000200
00000000
00000000
00020300
00000000
00000000
00032000
00000000
00000000
00103000
00000000
01000000
,
20000000
30200000
00320000
00031000
,
00020000
00000000
00000000
02030000
00000000
00000000
03020000
00000000
00000000
00030010
00001000
00000001
,
00000020
00000000
00000000
00000230
00000000
00000000
00020300
00000000
00000000
00031000
00000100
00001000
,
00020000
00000000
00000000
00230000
00000000
00000000
20300000
00000000
00000000
31000000
00000000
00100000
,
00002000
00023000
00030020
00000230
,
00000301
00000010
00000100
00000010
00000001
00000010
00000100
00010000
00001000
01000000
00010000
00100000
,
02000000
00010000
00100000
13000000
,
00200000
00000000
00000000
01000000
00000000
00000000
00310000
00000000
00000000
00001000
00000000
00000100
,
00000020
00001000
00000100
00000031
,
00002000
00000000
00000000
00010000
00000000
00000000
00000100
00000000
00000000
00013000
00100000
01000000
,
00020000
00000000
00000000
10000000
00000000
00000000
00130000
00000000
00000000
01000000
00010000
00001000
,
00020000
00000000
00000000
00000010
00000000
00000000
00030100
00000000
00000000
00001000
00000000
00000010
,
00000200
00001000
00000010
00000301
,
00000010
00000100
00010000
00001000
00010000
00000100
00010000
00001000
01000000
00010000
10000000
01000000
,
00100000
00000000
00000000
00100000
00000000
00000000
00010000
00000000
00000000
00010000
00000000
10000000
,
00100000
00000000
00100000
01000000
00000000
01000000
00001000
00000000
00000000
00010000
00000000
00010000
,
00000010
00000000
00000000
00000100
00000000
00000000
00000001
00000000
00000001
00001000
00000000
00001000
,
00000100
00000000
00000100
00000001
00000000
00000001
00000100
00000000
00000100
00010000
00000000
00010000
,
00001000
00000000
00000000
01000000
00000000
00000000
00010000
00000000
00010000
10000000
00000000
10000000
,
01000000
00000000
00000000
00100000
00000000
00000000
00001000
00000000
00001000
00010000
00000000
00010000
,
00000010
00000100
00000010
00001000
00000001
00001000
00000100
00010000
00001000
01000000
00010000
00100000
,
01000000
10000000
01000000
00010000
01000000
10000000
00100000
01000000
00001000
00010000
00000010
00001000
,
00000002
00000000
00000000
00000000
,
00000000
00000000
00000000
00000000
,
00000000
00000000
00000000
00000000
,
00000000
00000000
00000000
00000003
,
00001000
00000000
00001000
00000001
00000000
00000001
00000100
00000000
00000100
00000010
00000000
00000010
00010000
00001000
00010000
00001000
,
01000000
00000000
01000000
00010000
00000000
00010000
10000000
00000000
10000000
01000000
00000000
01000000
00100000
00001000
00100000
00001000
,
00020000
00000000
00000000
00030020
00000000
00000000
00000230
00000000
00000000
00000302
00000000
00000000
00001003
00000100
00001000
00000100
,
00020000
00000000
00000000
00032000
00000000
00000000
02003000
00000000
00000000
03200000
00000000
00000000
10300000
00010000
10000000
00010000
,
00100000
00000000
00100000
01000000
00000000
01000000
10000000
00000000
10000000
00100000
00000000
00100000
01000000
00001000
01000000
00001000
,
00010000
00000000
00010000
00000100
00000000
00000100
00000010
00000000
00000010
00000001
00000000
00000001
00001000
00000010
00001000
00000010
,
00020000
00000000
00000000
00032000
00000000
00000000
02003000
00000000
00000000
03020000
00000000
00000000
10030000
01000000
10000000
01000000
,
00200000
00000000
00000000
00302000
00000000
00000000
00023000
00000000
00000000
00030020
00000000
00000000
00001030
00000001
00000010
00000100
,
00001000
00000000
00001000
00000100
00000000
00000100
00000001
00000000
00000001
00000100
00000000
00000100
00010000
00001000
00010000
00001000
,
01000000
00000000
01000000
10000000
00000000
10000000
01000000
00000000
01000000
00010000
00000000
00010000
00100000
01000000
00100000
01000000
,
20000000
00000000
00000000
30200000
00000000
00000000
00320000
00000000
00000000
00032000
00000000
00000000
00003100
00000001
00000100
00000001
,
00000020
00000000
00000000
00002030
00000000
00000000
00023000
00000000
00000000
02030000
00000000
00000000
03100000
00010000
00100000
00010000
,
10000000
00000000
10000000
00100000
00000000
00100000
00010000
00000000
00010000
00001000
00000000
00001000
00000100
00000001
00000100
00000001
,
00000010
00000000
00000010
00001000
00000000
00001000
00010000
00000000
00010000
01000000
00000000
01000000
10000000
00010000
10000000
00010000
,
00200000
00000000
00000000
02300000
00000000
00000000
23000000
00000000
00000000
30200000
00000000
00000000
01300000
00001000
01000000
00001000
,
00010000
00000000
00000010
00000000
00000100
00000000
00000001
00001000
00000001
00001000
00000100
00000000
00000010
00000001
00001000
00000010
,
00020000
00032000
02003000
03200000
,
20300000
00000000
00000000
00000000
30020000
00000000
00000000
00000000
00230000
00000000
00000000
00000000
01300000
10000000
00010000
01000000
,
00002000
00023000
00030020
00000230
,
00000301
00000000
00001000
00000000
00000100
00000000
00000001
00000000
00000100
00000000
00010000
00000000
00001000
01000000
00010000
01000000
,
00200000
00000000
00000000
00000000
20300000
00000000
00000000
00000000
30020000
00000000
00000000
00000000
00130000
01000000
10000000
00010000
,
02000000
00000000
03002000
00000000
00023000
00000000
00030010
00001000
,
00000002
00000023
00000230
00020300
,
00031000
01000000
00010000
01000000
00100000
10000000
00100000
10000000
01000000
00100000
00010000
00100000
00001000
00010000
00000010
00001000
,
00000010
00001000
00000001
00000010
00000100
00010000
00001000
00000100
,
00000002
00002003
00003200
00020300
00000000
00000000
00031000
01000000
,
00100000
00010000
00001000
00010000
00100000
10000000
01000000
01100000
,
00000000
00101000
00000000
00011000
00000000
00010010
00000010
00000100
,
00000001
00001000
00000100
00000010
00000100
00010000
00001000
00010000
,
00100000
10000000
00010000
10000000
01000000
00010000
00001000
00000010
,
00001000
00010000
00000010
00000100
00000001
00001000
00000100
00010000
,
00001000
00100000
00010000
00100000
01000000
00100000
00010000
10000000
00100000
01000000
00010000
01000000
00001000
00100000
00001000
00010000
,
00002000
00000000
00000000
00000000
,
00000000
00000000
00000000
00000000
,
00003000
00000000
00000000
00000000
;

//---------------dance-single - ----------------
#NOTEDATA:;
#CHARTNAME:;
#STEPSTYPE:dance-single;
#DESCRIPTION:;
#CHARTSTYLE:;
#DIFFICULTY:Medium;
#METER:13;
#RADARVALUES:0.554795,0.763132,0.389091,0.910326,0.227581,529.000000,476.000000,53.000000,124.000000,0.000000,0.000000,0.000000,0.000000,0.000000,0.554795,0.763132,0.389091,0.910326,0.227581,529.000000,476.000000,53.000000,124.000000,0.000000,0.000000,0.000000,0.000000,0.000000;
#CREDIT:Kekkle;
#NOTES:
0000
0000
0000
0000
,
0000
0000
0000
0000
,
0000
0000
0000
0000
,
0000
0000
0000
0000
,
0000
0000
0000
0000
,
1000
0010
0100
0000
0001
0100
0010
0000
,
1000
0100
0010
0000
0001
0010
0100
0000
,
1000
0001
1000
0001
0010
0100
0010
0100
,
2000
0000
0000
0000
3001
0100
0010
1000
,
0100
0010
0001
0010
0100
0010
0001
2000
,
0000
0001
0000
0010
0000
3001
0100
0001
,
0010
0100
1000
0100
0010
0100
1000
0002
,
0000
0100
0000
1000
0000
0103
0010
1000
,
0001
0100
0010
0100
0001
0100
0010
2000
,
0000
0001
0000
0010
0000
3001
0100
0010
,
1000
0010
0100
0010
1000
0010
0100
0002
,
0000
0010
0000
1000
0000
0013
0100
1000
,
1001
1001
0110
0110
,
0010
1000
0010
0100
0010
1000
0001
0010
,
0110
0110
1001
1001
,
0001
0100
0010
1000
0010
0100
0001
1000
,
1100
0000
1001
0000
0101
0000
0001
1000
,
1100
0000
1001
0000
0011
0000
0010
0100
,
1000
0001
1000
0001
0100
0010
0100
0010
,
1000
0100
0010
0001
0100
0010
1000
0010
,
0200
0000
0000
0000
,
0000
0000
0000
0000
,
0000
0000
0000
0000
,
0000
0000
0000
0000
0000
0000
0300
0000
0000
0010
0000
0010
,
2000
3002
0023
0230
,
0320
0000
0000
0032
0000
0000
2003
0000
0000
3010
0000
0010
,
0200
0302
2003
3200
,
0320
0000
0000
0032
0000
0000
2003
0000
0000
3010
0000
0010
,
0200
0000
0000
0302
0000
0000
0203
0000
0000
0310
0000
0010
,
2000
0000
0000
3002
0000
0000
0023
0000
0000
0130
0000
0100
,
2000
3020
0230
0302
,
1003
0000
1000
0100
0000
0100
0010
0000
0010
0001
0000
0001
,
0200
0320
2030
3002
,
0023
0000
0000
0230
0000
0000
2300
0000
0000
3001
0000
0001
,
0200
0320
2030
3020
,
0230
0000
0000
0302
0000
0000
2003
0000
0000
3100
0000
0100
,
0020
0000
0000
0032
0000
0000
2003
0000
0000
3010
0000
0010
,
0200
0000
0000
0302
0000
0000
0203
0000
0000
0310
0000
0010
,
2000
3200
0320
0032
,
0103
0000
0100
0010
0000
0010
1000
0000
1000
0001
0000
0001
,
0020
0001
0100
0001
,
0032
0100
1000
0100
,
0203
0001
0010
0001
,
0302
1000
0010
1000
,
2003
0010
0001
0010
,
3020
1000
0100
1000
,
2030
0100
0001
0100
,
3200
1000
0010
1000
,
1300
1000
0001
0001
,
0010
0010
0100
0100
,
1000
1000
0010
0010
,
0100
0100
0001
0001
,
1001
0000
0000
1000
0000
0000
0001
0000
0001
0100
0000
0000
,
0110
0000
0000
0010
0000
0000
1000
0000
1000
0100
0000
0000
,
0010
0000
0010
0001
0000
0001
1000
0000
1000
0010
0000
0010
,
0100
0000
0100
0001
0000
0001
0100
0000
0100
0010
0000
0010
,
2000
0000
0000
0000
,
0000
0000
0000
0000
,
0000
0000
0000
0000
,
0000
0000
0000
3000
,
1010
0000
0000
1001
0000
0000
0011
0000
0000
1001
0000
0000
1000
0000
0010
0000
,
0110
0000
0000
0101
0000
0000
0110
0000
0000
1010
0000
0000
1000
0000
0001
0000
,
0020
0000
0000
0230
0000
0000
0320
0000
0000
0032
0000
0000
1003
0000
0010
0000
,
0200
0000
0000
0302
0000
0000
0203
0000
0000
0320
0000
0000
1030
0000
0001
0000
,
0011
0000
0000
0110
0000
0000
1100
0000
0000
1001
0000
0000
0001
0000
1000
0000
,
1010
0000
0000
0110
0000
0000
0101
0000
0000
1001
0000
0000
1000
0000
0100
0000
,
0020
0000
0000
0032
0000
0000
2003
0000
0000
3020
0000
0000
0130
0000
0001
0000
,
2000
0000
0000
3200
0000
0000
0320
0000
0000
0032
0000
0000
1003
0000
1000
0000
,
1100
0000
0000
0110
0000
0000
0011
0000
0000
0101
0000
0000
0100
0000
0010
0000
,
1010
0000
0000
0110
0000
0000
0101
0000
0000
0011
0000
0000
0010
0000
0100
0000
,
2000
0000
0000
3020
0000
0000
0230
0000
0000
0302
0000
0000
1003
0000
0010
0000
,
0200
0000
0000
0302
0000
0000
0023
0000
0000
0230
0000
0000
1300
0000
0001
0000
,
0011
0000
0000
0101
0000
0000
1010
0000
0000
1100
0000
0000
0100
0000
1000
0000
,
1100
0000
0000
1010
0000
0000
0101
0000
0000
0011
0000
0000
0001
0000
1000
0000
,
0020
0000
0000
0230
0000
0000
0302
0000
0000
2003
0000
0000
3100
0000
0010
0000
,
0100
0000
1000
0000
0001
0000
0100
0000
0010
0000
1000
0000
0010
0100
0010
0000
,
2000
3002
0023
0230
,
0320
0000
0000
0000
0032
0000
0000
0000
2003
0000
0000
0000
3010
0000
0100
0010
,
0200
0302
2003
3200
,
0320
0000
0000
0000
0032
0000
0000
0000
0203
0000
0000
0000
0310
0000
1000
0010
,
2000
0000
0000
0000
3002
0000
0000
0000
0023
0000
0000
0000
0130
0000
1000
0100
,
2000
0000
3002
0000
0203
0000
0310
1000
,
0002
0023
0230
0320
,
0031
0000
1000
0000
0010
0000
0100
0000
0001
0000
1000
0000
0100
0010
0100
0000
,
2000
3020
0230
0302
,
1003
0100
0010
0002
0000
0000
0103
0000
,
0020
0000
2030
0000
3001
0010
0100
0110
,
0000
1100
0000
1001
0000
0101
0000
0100
,
0010
1000
0001
0000
0010
0001
0100
0000
,
0010
0100
0001
0000
0010
0100
1000
0000
,
0010
0100
0001
0100
0010
1000
0001
1000
,
0100
0010
0001
1000
0100
0010
0001
1000
,
2002
0000
0000
0000
,
0000
0000
0000
0000
,
3003
0000
0000
0000
;

//---------------dance-single - ----------------
#NOTEDATA:;
#CHARTNAME:;
#STEPSTYPE:dance-single;
#DESCRIPTION:;
#CHARTSTYLE:;
#DIFFICULTY:Easy;
#METER:9;
#RADARVALUES:0.327214,0.436075,0.058731,0.198216,0.051389,312.000000,304.000000,8.000000,27.000000,0.000000,0.000000,0.000000,0.000000,0.000000,0.327214,0.436075,0.058731,0.198216,0.051389,312.000000,304.000000,8.000000,27.000000,0.000000,0.000000,0.000000,0.000000,0.000000;
#CREDIT:Kekkle;
#NOTES:
0000
0000
0000
0000
,
0000
0000
0000
0000
,
0000
0000
0000
0000
,
0000
0000
0000
0000
,
0000
0000
0000
0000
,
1000
1000
0010
0010
,
0001
0001
0100
0100
,
1000
0001
1000
0001
,
2002
0000
0000
3003
,
0001
0000
0100
0000
0001
0000
1000
0100
,
0000
0100
0000
0100
0000
0000
1001
0000
,
1000
0000
0010
0000
0100
0000
0001
0100
,
0000
0100
0000
0100
0000
0000
1001
0000
,
0001
0000
0010
0000
0100
0000
1000
0001
,
0000
0001
0000
0001
0000
0000
1001
0000
,
1000
0000
0001
0000
0010
0000
0100
1000
,
0000
1000
0000
1000
0000
0000
1001
0000
,
0001
0001
1000
1000
,
0010
0100
0001
1000
,
0100
0100
0010
0010
,
0100
1000
0001
0010
,
0100
0100
0100
1000
,
0001
0001
0001
0100
,
0010
1000
0001
1000
,
0100
0010
0001
1000
,
2002
0000
0000
0000
,
0000
0000
0000
0000
,
0000
0000
0000
0000
,
0000
0000
0000
3003
,
0002
0000
0000
0000
,
0203
0000
0000
0000
,
0320
0000
0000
0000
,
0001
0000
0100
0000
,
2030
0000
0000
0000
,
3200
0000
0000
0000
,
0320
0000
0000
0000
,
0031
0001
1000
1000
,
0020
0000
0000
0000
,
0230
0000
0000
0000
,
0302
0000
0000
0000
,
0100
0000
1000
0000
,
0023
0000
0000
0000
,
0230
0000
0000
0000
,
2300
0000
0000
0000
,
3001
0001
1000
1000
,
0020
0000
0100
0000
,
2030
0000
0001
0000
,
3200
0000
0010
0000
,
2300
0000
0001
0000
,
3020
0000
1000
0000
,
0230
0000
0001
0000
,
0302
0000
1000
0000
,
0023
0000
0100
0000
,
0031
0001
1000
1000
,
0010
0010
0100
0100
,
0001
0001
1000
1000
,
0100
0100
0010
0010
,
0001
1000
0001
0001
,
1000
0100
1000
1000
,
0001
0100
1000
0001
,
0010
1000
0001
1000
,
2002
0000
0000
0000
,
0000
0000
0000
0000
,
0000
0000
0000
0000
,
0000
0000
0000
3003
,
0001
0000
1000
0000
0001
0010
0001
0000
,
1000
0000
0001
0000
1000
0010
1000
0000
,
0001
0000
0000
0100
0000
0000
0001
0000
0000
0100
0000
0000
0001
0000
0000
0000
,
1000
0000
0000
0100
0000
0000
1000
0000
0000
0100
0000
0000
1000
0000
0000
0000
,
0001
0000
1000
0000
0100
1000
0100
0000
,
0010
0000
0001
0000
0100
0001
0100
0000
,
0010
0000
0000
1000
0000
0000
0010
0000
0000
1000
0000
0000
0010
0000
0000
0000
,
0100
0000
0000
0001
0000
0000
0100
0000
0000
0001
0000
0000
0100
0000
0010
0000
,
0100
0000
0001
0000
1000
0010
1000
0000
,
0001
0000
0010
0000
0001
0010
0001
0000
,
0100
0000
0000
0010
0000
0000
0100
0000
0000
0010
0000
0000
0100
0000
0000
0000
,
0001
0000
0000
1000
0000
0000
0001
0000
0000
1000
0000
0000
0001
0000
0000
0000
,
1000
0000
0001
0000
0010
0001
0010
0000
,
0001
0000
0100
0000
0010
1000
0010
0000
,
1000
0000
0000
0001
0000
0000
1000
0000
0000
0001
0000
0000
1000
0000
0000
0000
,
0001
0000
0001
0000
1000
0010
1000
0010
,
1000
0001
0010
0010
,
0001
0000
1000
0000
0010
0000
0100
0001
,
0100
0001
1000
1000
,
0100
0000
0010
0000
0001
0000
1000
0001
,
1000
0000
0001
0000
0001
0000
1000
0001
,
1000
0000
0001
0000
0001
0000
0100
0010
,
0100
0010
1000
0001
,
0010
0010
0100
0100
,
1000
0001
1000
0010
,
0100
0000
0001
0100
0000
0000
0110
0000
,
0010
0000
1000
0000
0001
0000
1000
0100
,
0000
0100
0000
0010
0000
0010
0000
0000
,
0001
1000
0010
0100
,
0010
0010
0010
1000
,
0001
0010
0100
1000
,
0001
0000
1000
0000
0001
1000
0001
1000
,
0002
0000
0000
0000
,
0000
0000
0000
0000
,
0003
0000
0000
0000
;

//---------------dance-single - ----------------
#NOTEDATA:;
#CHARTNAME:;
#STEPSTYPE:dance-single;
#DESCRIPTION:;
#CHARTSTYLE:;
#DIFFICULTY:Beginner;
#METER:5;
#RADARVALUES:0.240167,0.327056,0.117461,0.154168,0.000000,229.000000,213.000000,16.000000,21.000000,0.000000,0.000000,0.000000,0.000000,0.000000,0.240167,0.327056,0.117461,0.154168,0.000000,229.000000,213.000000,16.000000,21.000000,0.000000,0.000000,0.000000,0.000000,0.000000;
#CREDIT:Kekkle;
#NOTES:
0000
0000
0000
0000
,
0000
0000
0000
0000
,
0000
0000
0000
0000
,
0000
0000
0000
0000
,
0000
0000
0000
0000
,
0001
0001
0001
0000
,
1000
1000
1000
0000
,
0010
0100
0010
0100
,
0020
0000
0000
0030
,
1000
0100
1000
0000
,
0001
0001
0001
0000
,
0100
0010
0100
0000
,
0010
0010
0010
0000
,
1000
0001
1000
0000
,
0100
0100
0100
0000
,
0010
0001
0010
0000
,
0001
0001
0001
0000
,
1001
0000
1001
0000
,
0010
0100
0010
0000
,
0110
0000
0110
0000
,
0001
1000
0001
0000
,
1001
0000
0001
0000
,
1001
0000
1000
0000
,
0110
0000
0100
0000
,
0010
0100
0010
0100
,
0020
0000
0000
0000
,
0000
0000
0000
0000
,
0000
0000
0000
0000
,
0000
0000
0000
0030
,
2000
0000
3000
0000
,
0002
0000
0003
0000
,
0200
0000
0300
0000
,
0010
0000
0010
0000
,
0020
0000
0030
0000
,
2000
0000
3000
0000
,
0002
0000
0003
0000
,
1000
0100
1000
0100
,
2000
0000
3000
0000
,
0020
0000
0030
0000
,
0200
0000
0300
0000
,
0001
0000
0001
0000
,
0002
0000
0003
0000
,
0020
0000
0030
0000
,
0200
0000
0300
0000
,
1000
0010
1000
0010
,
2000
0000
3001
0000
,
0001
0000
0001
0000
,
0200
0000
0310
0000
,
0010
0000
0010
0000
,
2000
0000
3100
0000
,
0100
0000
0100
0000
,
0020
0000
0031
0000
,
0001
0000
0001
0000
,
0010
0010
0010
0000
,
0100
0100
0100
0000
,
1000
1000
1000
0000
,
0001
0001
0001
0000
,
1000
0000
0001
0001
,
1000
0000
0001
0001
,
1000
0000
0001
0000
,
1000
1000
1000
0000
,
2002
0000
0000
0000
,
0000
0000
0000
0000
,
0000
0000
0000
0000
,
0000
0000
0000
3003
,
0001
0001
0001
0000
,
1000
1000
1000
0000
,
0010
0100
0010
0000
,
0100
0010
0100
0000
,
0001
0001
1000
0000
,
0001
0001
0100
0000
,
0001
0001
0010
0000
,
0100
1000
0100
1000
,
0001
0001
0001
0000
,
1000
1000
1000
0000
,
0001
0100
0001
0000
,
0100
0001
0100
0000
,
0010
0010
1000
0000
,
0010
0010
0100
0000
,
0010
0010
1000
0000
,
0001
1000
0001
1000
,
0001
0000
1001
0000
,
1000
0010
1000
0010
,
1000
0000
1001
0000
,
0001
0001
0001
0000
,
1001
0000
1000
0000
,
1001
0000
0001
0000
,
1001
0000
1000
0000
,
0010
0100
0010
0100
,
0010
0000
0110
0000
,
0100
0100
0100
0000
,
0001
0000
1001
0000
,
1000
1000
1000
0000
,
0001
0000
0010
0100
,
0010
0000
0110
0000
,
0100
0000
1000
0000
,
0001
1000
0001
1000
,
0002
0000
0000
0000
,
0000
0000
0000
0000
,
0003
0000
0000
0000
;

//---------------dance-double - ----------------
#NOTEDATA:;
#CHARTNAME:;
#STEPSTYPE:dance-double;
#DESCRIPTION:;
#CHARTSTYLE:;
#DIFFICULTY:Medium;
#METER:14;
#RADARVALUES:0.506552,0.617773,0.234923,0.902984,0.201887,483.000000,451.000000,32.000000,123.000000,0.000000,0.000000,0.000000,0.000000,0.000000,0.506552,0.617773,0.234923,0.902984,0.201887,483.000000,451.000000,32.000000,123.000000,0.000000,0.000000,0.000000,0.000000,0.000000;
#CREDIT:Kekkle;
#NOTES:
00000000
00000000
00000000
00000000
,
00000000
00000000
00000000
00000000
,
00000000
00000000
00000000
00000000
,
00000000
00000000
00000000
00000000
,
00000000
00000000
00000000
00000000
,
00010000
00001000
01000000
00000000
00001000
00010000
00000100
00000000
,
00010000
00001000
00100000
00000000
00001000
00010000
00000010
00000000
,
00010000
00001000
01000000
00001000
00010000
00000100
00010000
00000000
,
00022000
00000000
00000000
00033000
,
00001000
01000000
00010000
00100000
01000000
00100000
00010000
10000000
,
00000000
10100000
00000000
01010000
00000000
10100000
10000000
00000000
,
00010000
01000000
00001000
00010000
00000100
00001000
00000100
00000010
,
00000000
00000011
00000000
00001100
00000000
00000011
00000010
00000000
,
00000100
00001000
00010000
00001000
00000100
00010000
00001000
00100000
,
00000000
00110000
00000000
11000000
00000000
00110000
00100000
00000000
,
00001000
00010000
00100000
00010000
00001000
00010000
00000010
00001000
,
00000000
00001010
00000000
00000101
00000000
00001010
00001000
00000000
,
00001001
00001001
00010100
00010100
,
00010000
00001000
00100000
00010000
10000000
00100000
10000000
00000000
,
10010000
10010000
01001000
01001000
,
00001000
00010000
00100000
00010000
00001000
00100000
00001000
00000000
,
00011000
00000000
00101000
00000000
00011000
00000000
00010000
00000010
,
00001010
00000000
00010010
00000000
00001010
00000000
00001000
00000001
,
00000010
00001000
00000010
00001000
00010000
00001000
00010000
00001000
,
00010000
01000000
00100000
01000000
10000000
00010000
01000000
00002000
,
00020000
00000000
00000000
00000000
,
00000000
00000000
00000000
00000000
,
00000000
00000000
00000000
00000000
,
00000000
00000000
00000000
00033000
,
00002000
02003000
03020000
00130000
,
02000000
00000000
00000000
23000000
00000000
00000000
30020000
00000000
00000000
01030000
00000000
01000000
,
00002000
00023000
00030200
00000310
,
00000002
00000000
00000000
00000203
00000000
00000000
00000320
00000000
00000000
00010030
00000000
00010000
,
00000200
00000000
00000000
00002300
00000000
00000000
00023000
00000000
00000000
00130000
00000000
00100000
,
00002000
00000000
00000000
02003000
00000000
00000000
03200000
00000000
00000000
10300000
00000000
10000000
,
02000000
03200000
00302000
00023000
,
00030010
00000000
00000010
00001000
00000000
00001000
00010000
00000000
00010000
00001000
00000000
00001000
,
00000020
00000230
00000302
00001003
,
00000200
00000000
00000000
00020300
00000000
00000000
00032000
00000000
00000000
01003000
00000000
01000000
,
00200000
00320000
00230000
10300000
,
00020000
00000000
00000000
00230000
00000000
00000000
00302000
00000000
00000000
00013000
00000000
00010000
,
00000200
00000000
00000000
00002300
00000000
00000000
00003020
00000000
00000000
00000130
00000000
00000100
,
00000002
00000000
00000000
00000203
00000000
00000000
00002300
00000000
00000000
00013000
00000000
00010000
,
00000200
00020300
00032000
02003000
,
03100000
00000000
00100000
00010000
00000000
00010000
00001000
00000000
00001000
00010000
00000000
00010000
,
00200000
10000000
01000000
10000000
,
20300000
00010000
01000000
00010000
,
30020000
00100000
00001000
00100000
,
00032000
00000100
00000001
00000100
,
00003002
00000100
00001000
00000100
,
00000203
00001000
00000010
00001000
,
00002300
00010000
00100000
00010000
,
00203000
00001000
01000000
00001000
,
01300000
01000000
10000000
10000000
,
00010000
00010000
01000000
01000000
,
00001000
00001000
00010000
00010000
,
00000010
00000010
00001000
00001000
,
00001001
00000000
00000000
00000001
00000000
00000000
00001000
00000000
00001000
00000100
00000000
00000000
,
00010100
00000000
00000000
00010000
00000000
00000000
00001000
00000000
00001000
01000000
00000000
00000000
,
01100000
00010000
10010000
10000000
,
01000000
00000000
01000000
00100000
00000000
00100000
00001000
00000000
00001000
00010000
00000000
00010000
,
00002000
00000000
00000000
00000000
,
00000000
00000000
00000000
00000000
,
00000000
00000000
00000000
00000000
,
00000000
00000000
00000000
00003000
,
00010000
00000000
00000000
00000010
00000000
00000000
00000001
00000000
00000000
00000010
00000000
00000000
00010000
00000000
00001000
00000000
,
00100000
00000000
00000000
10000000
00000000
00000000
00100000
00000000
00000000
00001000
00000000
00000000
00010000
00000000
00000010
00000000
,
00000200
00000000
00000000
00002300
00000000
00000000
00023000
00000000
00000000
00230000
00000000
00000000
10300000
00000000
01000000
00000000
,
00020000
00000000
00000000
00032000
00000000
00000000
00003020
00000000
00000000
00000032
00000000
00000000
00001003
00000000
00000010
00000000
,
00000100
00000000
00000000
00010000
00000000
00000000
01000000
00000000
00000000
00010000
00000000
00000000
00001000
00000000
00000010
00000000
,
00000100
00000000
00000000
00000001
00000000
00000000
00000010
00000000
00000000
00010000
00000000
00000000
00100000
00000000
01000000
00000000
,
20000000
00000000
00000000
30200000
00000000
00000000
00320000
00000000
00000000
00032000
00000000
00000000
00003100
00000000
00000001
00000000
,
00000020
00000000
00000000
00002030
00000000
00000000
00023000
00000000
00000000
02030000
00000000
00000000
03100000
00000000
00010000
00000000
,
10000000
00000000
00000000
00010000
00000000
00000000
00001000
00000000
00000000
00010000
00000000
00000000
01000000
00000000
00001000
00000000
,
00010000
00000000
00000000
00000100
00000000
00000000
00000001
00000000
00000000
00000100
00000000
00000000
00010000
00000000
00001000
00000000
,
02000000
00000000
00000000
03200000
00000000
00000000
00320000
00000000
00000000
00032000
00000000
00000000
00003100
00000000
00000001
00000000
,
00000020
00000000
00000000
00002030
00000000
00000000
00023000
00000000
00000000
02030000
00000000
00000000
03100000
00000000
00010000
00000000
,
10000000
00000000
00000000
01000000
00000000
00000000
00001000
00000000
00000000
01000000
00000000
00000000
10000000
00000000
00100000
00000000
,
00010000
00000000
00000000
00001000
00000000
00000000
00000001
00000000
00000000
00001000
00000000
00000000
00010000
00000000
00000100
00000000
,
00002000
00000000
00000000
00023000
00000000
00000000
00230000
00000000
00000000
02300000
00000000
00000000
13000000
00000000
00010000
00000000
,
01000000
00010000
00001000
00000010
00000100
00000001
00001000
00000000
,
00000002
00000023
00000230
00020300
,
00032000
00000000
00000000
00000000
00003200
00000000
00000000
00000000
00002300
00000000
00000000
00000000
00013000
00000000
00100000
00010000
,
00200000
20300000
30020000
00230000
,
02300000
00000000
00000000
00000000
03020000
00000000
00000000
00000000
00032000
00000000
00000000
00000000
00103000
00000000
00001000
00010000
,
00002000
00000000
00000000
00000000
00003200
00000000
00000000
00000000
00000302
00000000
00000000
00000000
00001003
00000000
00000100
00001000
,
00000200
00000000
00020300
00000000
00032000
00000000
01003000
00100000
,
20000000
30200000
00320000
00032000
,
00003100
00000001
00000010
00001000
00010000
01000000
10000000
00000000
,
00010000
01000000
00001000
00000000
00010000
00000010
00001000
00000000
,
00000010
00000100
00000001
00002000
00000000
00000000
00003100
00000000
,
00010000
00001000
00100000
00000000
01000000
10000000
00010000
02000000
,
00000000
03002000
00000000
00023000
00000000
00032000
00000000
00003100
,
00000010
00000000
00000010
00000000
00001000
00000001
00000010
00000000
,
00002000
00000000
00023000
00000000
02030000
00000000
03100000
00010000
,
20000000
30200000
00320000
00032000
,
00003100
00000001
00000100
00001000
00010000
00100000
01000000
00000000
,
02200000
00000000
00000000
00000000
,
00000000
00000000
00000000
00000000
,
03300000
00000000
00000000
00000000
;

//---------------dance-double - ----------------
#NOTEDATA:;
#CHARTNAME:;
#STEPSTYPE:dance-double;
#DESCRIPTION:;
#CHARTSTYLE:;
#DIFFICULTY:Easy;
#METER:10;
#RADARVALUES:0.328263,0.472415,0.058731,0.198216,0.051389,313.000000,305.000000,8.000000,27.000000,0.000000,0.000000,0.000000,0.000000,0.000000,0.328263,0.472415,0.058731,0.198216,0.051389,313.000000,305.000000,8.000000,27.000000,0.000000,0.000000,0.000000,0.000000,0.000000;
#CREDIT:Kekkle;
#NOTES:
00000000
00000000
00000000
00000000
,
00000000
00000000
00000000
00000000
,
00000000
00000000
00000000
00000000
,
00000000
00000000
00000000
00000000
,
00000000
00000000
00000000
00000000
,
10000000
10000000
00010000
00010000
,
01000000
01000000
00001000
00001000
,
00010000
00000010
00001000
00000001
,
00002002
00000000
00000000
00003003
,
00000001
00000000
00001000
00000000
00000100
00000000
00010000
00001000
,
00000000
00001000
00000000
00001000
00000000
00000000
00011000
00000000
,
00010000
00000000
01000000
00000000
00100000
00000000
00001000
00010000
,
00000000
00010000
00000000
00010000
00000000
00000000
00011000
00000000
,
00001000
00000000
00000100
00000000
00000001
00000000
00000010
00001000
,
00000000
00001000
00000000
00001000
00000000
00000000
00011000
00000000
,
00010000
00000000
01000000
00000000
10000000
00000000
00100000
00010000
,
00000000
00010000
00000000
00010000
00000000
00000000
00011000
00000000
,
00001000
00001000
00000100
00000100
,
00000001
00000010
00000100
00001000
,
00010000
00010000
00100000
00100000
,
10000000
00100000
00010000
01000000
,
00001000
00001000
00001000
00010000
,
00000010
00000010
00000010
00000100
,
00000001
00001000
00000100
00001000
,
00010000
00100000
01000000
10000000
,
00020000
00000000
00000000
00000000
,
00000000
00000000
00000000
00000000
,
00000000
00000000
00000000
00000000
,
00000000
00000000
00000000
00030000
,
02000000
00000000
00000000
00000000
,
03002000
00000000
00000000
00000000
,
00023000
00000000
00000000
00000000
,
00000100
00000000
00001000
00000000
,
00030020
00000000
00000000
00000000
,
00000230
00000000
00000000
00000000
,
00000302
00000000
00000000
00000000
,
00001003
00001000
00000100
00000100
,
00020000
00000000
00000000
00000000
,
00032000
00000000
00000000
00000000
,
00203000
00000000
00000000
00000000
,
01000000
00000000
00010000
00000000
,
00302000
00000000
00000000
00000000
,
00023000
00000000
00000000
00000000
,
02030000
00000000
00000000
00000000
,
13000000
10000000
00010000
00010000
,
02000000
00000000
00010000
00000000
,
03002000
00000000
00010000
00000000
,
00003020
00000000
00000100
00000000
,
00000032
00000000
00000100
00000000
,
00002003
00000000
00000100
00000000
,
00023000
00000000
00100000
00000000
,
20030000
00000000
00100000
00000000
,
30020000
00000000
01000000
00000000
,
00031000
00001000
00000010
00000010
,
00000100
00000100
00000001
00000001
,
00001000
00001000
00000100
00000100
,
00010000
00010000
00001000
00001000
,
00100000
00010000
10000000
10000000
,
00100000
01000000
00001000
00001000
,
00010000
00000010
00000100
00000001
,
00001000
00000100
00010000
00001000
,
00022000
00000000
00000000
00000000
,
00000000
00000000
00000000
00000000
,
00000000
00000000
00000000
00000000
,
00000000
00000000
00000000
00033000
,
00001000
00000000
01000000
00000000
00010000
01000000
00010000
00000000
,
01000000
00000000
00001000
00000000
00010000
00001000
00010000
00000000
,
00000010
00000000
00000000
00001000
00000000
00000000
00000010
00000000
00000000
00001000
00000000
00000000
00010000
00000000
00000000
00000000
,
00100000
00000000
00000000
00010000
00000000
00000000
00100000
00000000
00000000
00010000
00000000
00000000
00001000
00000000
00000000
00000000
,
00000100
00000000
00000010
00000000
00000100
00010000
00000100
00000000
,
00010000
00000000
00001000
00000000
01000000
00010000
01000000
00000000
,
00100000
00000000
00000000
00010000
00000000
00000000
00100000
00000000
00000000
00010000
00000000
00000000
00001000
00000000
00000000
00000000
,
00000010
00000000
00000000
00001000
00000000
00000000
00000010
00000000
00000000
00001000
00000000
00000000
00010000
00000000
00000000
00000000
,
00000100
00000000
00010000
00000000
00000010
00010000
00000010
00000000
,
00010000
00000000
00001000
00000000
00100000
00010000
00100000
00000000
,
01000000
00000000
00000000
00010000
00000000
00000000
01000000
00000000
00000000
00010000
00000000
00000000
00001000
00000000
00000000
00000000
,
00000100
00000000
00000000
00001000
00000000
00000000
00000100
00000000
00000000
00001000
00000000
00000000
00010000
00000000
00000000
00000000
,
00000010
00000000
00001000
00000000
00000001
00000010
00000001
00000000
,
00001000
00000000
00000100
00000000
00010000
00001000
00010000
00000000
,
01000000
00000000
00000000
00100000
00000000
00000000
01000000
00000000
00000000
00100000
00000000
00000000
00001000
00000000
00000000
00000000
,
00010000
00000010
00010000
00000010
00001000
00000100
00001000
00000000
,
00000100
00000010
00000001
00000100
,
00000010
00000000
00010000
00000000
00000010
00000000
00001000
00000100
,
00001000
00000100
00010000
00001000
,
01000000
00000000
00010000
00000000
00100000
00000000
01000000
10000000
,
01000000
00000000
00100000
00000000
00001000
00000000
01000000
00010000
,
01000000
00000000
00001000
00000000
00010000
00000000
00000100
00001000
,
00000100
00000010
00000001
00000100
,
00000010
00010000
00000010
00000000
00001000
00000100
00001000
00000000
,
00000100
00010000
00001000
01000000
,
00100000
00000000
10000000
00010000
00000000
00000000
10010000
00000000
,
10000000
00000000
01000000
00000000
00100000
00000000
00001000
00010000
,
00000000
00010000
00000000
00001000
00000000
00001000
00000000
00000000
,
00010000
00000010
00001000
00000010
,
00000100
00000100
00000100
00000001
,
00001000
00001000
00000100
00000100
,
00010000
00000000
00001000
00000000
00100000
00010000
00100000
00000000
,
02200000
00000000
00000000
00000000
,
00000000
00000000
00000000
00000000
,
03300000
00000000
00000000
00000000
;
