#TITLE:Devillic Sphere;
#SUBTITLE:;
#ARTIST:3R2;
#TITLETRANSLIT:;
#SUBTITLETRANSLIT:;
#ARTISTTRANSLIT:;
#GENRE:;
#CREDIT:;
#BANNER:Devillic Sphere-bn.png;
#BACKGROUND:Devillic Sphere-bg.png;
#LYRICSPATH:;
#CDTITLE:;
#MUSIC:Devillic Sphere.ogg;
#OFFSET:0.000000;
#SAMPLESTART:96.000000;
#SAMPLELENGTH:12.000000;
#SELECTABLE:YES;
#DISPLAYBPM:160.000000;
#BPMS:0.000000=160.000000
,51.000000=320.000000
,52.000000=160.000000
;
#STOPS:51.000000=0.047000,
51.250000=0.047000,
51.500000=0.047000,
51.750000=0.047000
;
#BGCHANGES:;
#KEYSOUNDS:;
#ATTACKS:;

//---------------dance-single - ----------------
#NOTES:
     dance-single:
     :
     Challenge:
     16:
     0.754687,0.964384,0.488001,0.836574,0.654541,682.000000,619.000000,63.000000,108.000000,0.000000,0.000000,0.754687,0.964384,0.488001,0.836574,0.654541,682.000000,619.000000,63.000000,108.000000,0.000000,0.000000:
0000
0000
0000
0000
,
0000
0000
0000
0000
,
0000
0000
0000
0000
,
0000
0000
0000
0000
,
0000
0000
0000
0000
,
0002
0000
0000
0000
1003
0010
0000
0100
0020
0000
0000
0000
1030
0000
0001
0000
,
0020
0000
0000
0000
0130
1000
0000
0001
0100
0010
0100
0000
0110
0000
0000
0000
,
0020
0000
0000
0000
1030
0001
0000
0010
0001
1000
0001
1000
0010
0100
0010
0100
,
0002
0000
0000
0000
1003
1010
0110
0000
,
1002
0103
0110
0010
1010
1000
1001
0001
,
0010
0000
1000
0000
0010
0000
0001
0000
0100
0000
0020
0000
0000
1030
0001
1000
,
0200
0310
0011
0001
1001
1000
1010
0010
,
0100
0000
1000
0000
0001
0000
0010
0000
0100
0000
0001
0000
1000
0100
0010
0001
,
0200
0310
1010
1000
1100
0100
0110
0010
,
0001
0000
0100
0000
1000
0000
0001
0000
1000
0000
0100
0000
0001
0010
0100
1000
,
0020
0130
0101
0001
0011
0010
0110
0100
,
2000
3002
0203
0310
,
1001
0000
1000
0000
0100
0010
0000
0001
0100
0000
0010
0000
1000
0001
0000
0010
,
0100
0000
0010
0000
0001
1000
0000
0010
1000
0000
0100
0000
0010
0001
0010
0100
,
1000
0000
0001
0000
0100
0010
0000
1000
0001
0000
0010
0000
0100
1000
0000
0001
,
0100
0000
0010
0000
1000
0100
0000
0010
0002
0000
0000
0000
2003
0000
0000
0000
,
3010
0100
0001
0100
0010
1000
0000
0001
0010
0000
0100
0000
1000
0001
0000
0100
,
0001
0000
0010
0000
0100
1000
0000
0010
0100
0000
0001
0000
1000
0100
0010
0002
,
0000
0000
1000
0000
1003
0000
0010
0000
0100
0000
0001
0000
1000
0100
0010
0000
,
0002
1000
1003
1001
,
0201
0000
0310
0000
1020
0000
0130
0000
2001
0000
3100
0000
0010
0001
0000
1000
,
0010
0000
0100
0000
0021
0000
0130
0000
2010
0000
3010
0000
0100
0001
1000
0000
,
1200
0000
0310
0000
0201
0000
0310
0000
2001
0000
3100
0000
0010
0001
0000
0010
,
0100
0000
1000
0000
1020
0000
0130
0000
0012
0000
1003
0000
0010
0100
0001
0000
,
2001
0000
3010
0000
0102
0000
1003
0000
1200
0000
0310
0000
0001
0100
0000
0010
,
1000
0000
0100
0000
0120
0000
0031
0000
1020
0000
0130
0000
0001
0010
0100
0000
,
2100
0000
3001
0000
0120
0000
1030
0000
0021
0000
0130
0000
1000
0010
0000
0100
,
0002
0000
2003
0000
3200
0000
0310
0010
,
2001
0000
3100
0000
0012
0000
1003
0000
0201
0000
0310
0000
1000
0001
0000
0010
,
0100
0000
1000
0000
0102
0000
0013
0000
2100
0000
3001
0000
0100
0010
1000
0000
,
1002
0000
0013
0000
2100
0000
3010
0000
0102
0000
1003
0000
0010
0100
0000
0001
,
0010
0000
0100
0000
2010
0000
3001
0000
0012
0000
0103
0000
0010
1000
0100
0000
,
0120
0000
0000
0000
0032
0000
0000
0000
1003
0010
0000
0010
0100
0000
0000
0000
,
0120
0000
2030
0000
3001
0010
0100
0000
,
1000
0001
0000
0001
0100
0000
0010
1000
0100
0010
0100
0010
0001
1000
0001
1000
,
0020
0000
0000
0000
0000
0000
0000
0000
0000
0000
0000
0000
0130
0001
1000
0000
,
1002
0000
0000
0000
,
0203
0000
0000
0000
,
2300
0000
0000
0000
,
3002
0000
0000
0000
0000
0000
0000
0013
,
2010
0000
0000
0000
,
3200
0000
0000
0000
,
0302
0000
0000
0000
,
1003
0000
1000
0000
0010
0000
0010
0000
0001
0000
1000
0010
0100
0001
0100
0010
,
2000
0000
3001
0010
0200
1000
0000
0310
,
0002
1000
0000
0103
0020
1000
0000
0130
,
0002
0010
0000
1003
0020
0100
0000
1030
,
0002
0010
0000
0103
0010
1000
1001
0001
,
0020
0100
0000
0031
2000
0010
0000
3100
,
0020
0001
0000
0130
2000
0001
0000
3010
,
0200
0001
0000
0310
2000
0100
0000
3010
,
0100
0001
0000
1000
0100
0010
0001
1000
0010
0100
0001
0100
0010
1000
0001
1000
,
0200
0000
0000
0000
0310
0000
0001
0000
1000
0010
1000
0000
0001
0010
0001
0000
,
0200
0000
0000
0000
0310
0000
1000
0000
0001
0010
0001
0000
1000
0010
1000
0000
,
0200
0000
0000
0000
0310
0000
0001
0000
1000
0010
0100
0000
0001
0100
0010
0000
,
2000
0000
0000
0000
3001
0000
0010
0000
0100
1000
0001
0000
0100
0010
1000
0000
,
2002
0000
3003
0000
1000
0010
0100
0000
0202
0000
0303
0000
0001
1000
0100
0000
,
2200
0000
3300
0000
0100
0010
0001
0000
0022
0000
0033
0000
0001
0100
0010
0000
,
2020
3030
0202
0303
2200
3300
2002
3003
,
0001
0000
1000
0010
0100
0010
1000
0001
0010
0100
0010
0001
0010
0100
1000
0000
,
0002
0000
0000
1003
0010
0100
0001
0100
0010
1000
0010
0000
0100
0001
1000
0000
,
0200
0000
0000
0310
0001
0010
0100
1000
0001
0100
0001
0000
0100
0010
1000
0000
,
0002
0000
0000
0013
0100
0010
0001
1000
0010
1000
0100
0000
0010
0001
1000
0000
,
0020
0000
0000
0130
0001
1000
0100
0010
0100
1000
0100
0000
0010
0100
1000
0000
,
0020
0000
0000
0130
0001
0100
0010
1000
0010
0100
0001
0000
1000
0100
0010
0000
,
0002
0000
0000
1003
0100
0010
0001
0010
0100
1000
0100
0000
0010
0001
0100
0000
,
0020
0000
0000
1030
0001
0010
0100
1000
0010
0100
0001
0000
1000
0010
0100
0000
,
0102
0000
2003
0000
3200
0000
0310
0001
,
1000
0010
0000
0010
0100
0001
1000
0100
0010
0100
1000
0001
0100
0010
0100
0000
,
0001
1000
0000
1000
0100
0010
0100
1000
0001
0100
0010
0100
0001
1000
0100
0000
,
0010
0100
0000
0100
1000
0010
0100
0001
0100
0010
0001
0010
0100
0001
1000
0000
,
0100
0010
0000
0010
0001
0100
0010
0100
1000
0100
0010
0100
0001
1000
0100
0000
,
0120
1000
0100
0031
,
0201
0010
1000
0310
,
1000
0001
0000
0010
0100
0010
0001
1000
0001
0100
1000
0100
0001
0010
0100
1000
,
0020
0000
0000
0030
,
2002
0000
0000
0000
,
0000
0000
0000
0000
,
3003
0000
0000
0000
;

//---------------dance-double - ----------------
#NOTES:
     dance-double:
     :
     Challenge:
     16:
     0.672800,0.932237,0.170413,0.627430,0.627430,608.000000,586.000000,22.000000,81.000000,0.000000,0.000000,0.672800,0.932237,0.170413,0.627430,0.627430,608.000000,586.000000,22.000000,81.000000,0.000000,0.000000:
00000000
00000000
00000000
00000000
,
00000000
00000000
00000000
00000000
,
00000000
00000000
00000000
00000000
,
00000000
00000000
00000000
00000000
,
00000000
00000000
00000000
00000000
,
20000000
00000000
00000000
00000000
30010000
01000000
00000000
00010000
00200000
00000000
00000000
00000000
00301000
00000000
00000000
00000000
,
00020000
00000000
00000000
00000000
00030100
00000010
00000000
00000100
00010000
00001000
00010000
00000000
00011000
00000000
00000000
00000000
,
00002000
00000000
00000000
00000000
01003000
00100000
00000000
00100000
10000000
00010000
10000000
00010000
00100000
00001000
00100000
00001000
,
00020000
00000000
00000000
00000000
00030010
00001000
00001001
00000000
,
00001020
00010030
00100000
10000000
00100000
00010000
00000100
00000010
,
00000001
00000000
00001000
00000000
00000010
00000000
00010000
00000000
00001000
00000000
02000000
00000000
00000000
03100000
10000000
00010000
,
00100000
00001000
00010000
00000100
00000010
00000001
00000100
00001000
,
00000100
00000000
00010000
00000000
01000000
00000000
00010000
00000000
00100000
00000000
10000000
00000000
00100000
01000000
10000000
00010000
,
01000000
00100000
00001000
00000010
00001000
00010000
01000000
00010000
,
00001000
00000000
00000100
00000000
00000001
00000000
00000100
00000000
00010000
00000000
00001000
00000000
01000000
00010000
01000000
00100000
,
10000000
01000000
00010000
00001000
00000010
00000001
00000100
00001000
,
00020000
00032000
02003000
03100000
,
20000000
00000000
31000000
00000000
00100000
00001000
00000000
00010000
00001000
00000000
00000100
00000000
00000001
00001000
00000000
00000100
,
00000010
00000000
00000100
00000000
00010000
00001000
00000000
01000000
00010000
00000000
00100000
00000000
01000000
10000000
01000000
00100000
,
00010000
00000000
01000000
00000000
00001000
00010000
00000000
00001000
00000100
00000000
00000010
00000000
00001000
00000001
00000000
00000010
,
00000100
00000000
00010000
00000000
00001000
00000100
00000000
00001000
00020000
00000000
00000000
00000000
00230000
00000000
00000000
00000000
,
10300000
00010000
00100000
00001000
00010000
00001000
00000000
00000100
00000010
00000000
00001000
00000000
00000001
00000010
00000000
00000100
,
00001000
00000000
00000100
00000000
00010000
00001000
00000000
00010000
00100000
00000000
01000000
00000000
00010000
10000000
01000000
00200000
,
00000000
00001000
00301000
00010000
00000010
00000100
00000001
00001000
,
00000200
00010000
00010300
00011000
,
02001000
00000000
00000000
00000000
10000000
00000000
00000000
00000000
03010000
00000000
00100000
00000000
00001000
00010000
00000000
00001000
,
00000200
00000000
00000000
00000000
00010000
00000000
00000000
00000000
00000001
00000000
00000000
00000000
00001300
00010000
01000000
00000000
,
12000000
00000000
00000000
00000000
00001000
00000000
00000000
00000000
10000000
00000000
00000000
00000000
03100000
00010000
00000000
00001000
,
00000200
00000000
00000000
00000000
00000001
00000000
00000000
00000000
00010000
00000000
00000000
00000000
00001300
00000010
00010000
00000000
,
00012000
00000000
00000000
00000000
00100000
00000000
00000000
00000000
00010000
00000000
00000000
00000000
01003000
00100000
00000000
00100000
,
00020000
00000000
00000000
00000000
00000100
00000000
00000000
00000000
00000010
00000000
00000000
00000000
00031000
00000100
00000001
00000000
,
00002001
00000000
00000000
00000000
00010000
00000000
00000000
00000000
00000010
00000000
00000000
00000000
00003100
00010000
00001000
00000000
,
02000000
00000000
03020000
00000000
20030000
00000000
31000000
01000000
,
00100000
00001000
00000010
00001000
00100000
00001000
00000010
00000001
,
00001001
00000000
00000000
00000000
00001100
00000000
00000000
00000000
00010100
00000000
00000000
00000000
00010000
00001000
00100000
00000000
,
01000000
00010000
00000100
00010000
01000000
00010000
00000100
00001000
,
00001100
00000000
00000000
00000000
00000011
00000000
00000000
00000000
00001001
00000000
00000000
00000000
00001000
00000010
00010000
00000000
,
00002000
00000000
00000000
00000000
02003000
00000000
00000000
00000000
03100000
10000000
00000000
10000000
00010000
00000000
00000000
00000000
,
00200000
00000000
00302000
00000000
00003100
00000001
00001000
00000000
,
00000100
00000010
00000000
00000001
00001000
00000000
00000010
00010000
00001000
00010000
00001000
01000000
00010000
10000000
00010000
10000000
,
02000000
00000000
00000000
00000000
00000000
00000000
00000000
03100000
,
00102000
00000000
00000000
00000000
,
00003200
00000000
00000000
00000000
,
00000302
00000000
00000000
00000000
,
00002003
00000000
00000000
00000000
00000000
00000000
00000000
00013000
,
00020000
00000000
00000000
00000000
,
20030000
00000000
00000000
00000000
,
32000000
00000000
00000000
00000000
,
03010000
00000000
00010000
00000000
00001000
00000000
00001000
00000000
00000100
00000010
00000100
00000001
00001000
00000100
00001000
00000100
,
00020000
00000000
00031000
01000000
00200000
10000000
00000000
01300000
,
00002000
00010000
00000000
00003100
00000020
00001000
00000000
00000130
,
00000002
00000010
00000000
00001003
00000200
00000010
00000000
00001300
,
00020000
00100000
00000000
10030000
00100000
01000000
01010000
00010000
,
20000000
01000000
00000000
30010000
02000000
00100000
00000000
03010000
,
00002000
00000010
00000000
00003001
00000020
00000100
00000000
00001030
,
00020000
00000100
00000000
00031000
02000000
00100000
00000000
03010000
,
10000000
01000000
00000000
00100000
00010000
10000000
00100000
01000000
00001000
01000000
00001000
00010000
00000100
00001000
00000100
00001000
,
00000020
00000000
00000000
00000000
00000130
00000000
00000001
00000000
00001000
00000100
00001000
00000000
00000100
00010000
00000100
00000000
,
00020000
00000000
00000000
00000000
00031000
00000000
01000000
00000000
00010000
00100000
00010000
00000000
10000000
00100000
10000000
00000000
,
02000000
00000000
00000000
00000000
03100000
00000000
00001000
00000000
00010000
00000010
00010000
00000000
00000100
00001000
00000100
00000000
,
00000020
00000000
00000000
00000000
00000031
00000000
00001000
00000000
00000010
00010000
00001000
00000000
00010000
00001000
01000000
00000000
,
00020000
00000000
00000000
00000000
10030000
01000000
00100000
00000000
00002000
00000000
00000000
00000000
00013000
00000010
00000100
00000000
,
00000002
00000000
00000000
00000000
00000013
00001000
00010000
00000000
00002000
00000000
00000000
00000000
01003000
00010000
00100000
00000000
,
02200000
03300000
22000000
33000000
20020000
30030000
02002000
03003000
,
00011000
00000000
00010000
00000010
00010000
00000010
00001000
00000100
00001000
00000100
00000010
00000001
00001000
00000010
00000100
00000000
,
00000002
00000000
00000000
00001003
00000100
00000010
00000100
00010000
00001000
00010000
00001000
00000000
01000000
00010000
00100000
00000000
,
02000000
00000000
00000000
13000000
00010000
01000000
00100000
01000000
00010000
01000000
00010000
00000000
00100000
00001000
00010000
00000000
,
00002000
00000000
00000000
00003100
00000010
00001000
00000010
00000100
00000001
00001000
00000001
00000000
00000010
00000100
00001000
00000000
,
00000200
00000000
00000000
00010300
00001000
01000000
00010000
00100000
01000000
00100000
01000000
00000000
10000000
00010000
01000000
00000000
,
00200000
00000000
00000000
00310000
00001000
00010000
00000100
00001000
00000100
00000010
00000001
00000000
00001000
00000010
00000100
00000000
,
00000020
00000000
00000000
00010030
00001000
00010000
01000000
00100000
00010000
00100000
01000000
00000000
10000000
00010000
01000000
00000000
,
00020000
00000000
00000000
00130000
00001000
00010000
00001000
00000100
00000010
00000100
00000001
00000000
00001000
00000100
00000010
00000000
,
00000002
00002003
00003200
00010300
,
00001000
01000000
00000000
00010000
00100000
01000000
10000000
01000000
00100000
00010000
00100000
00000000
01000000
10000000
00010000
00000000
,
01000000
00001000
00000000
00010000
00001000
00010000
00000100
00001000
00000010
00000100
00000001
00000100
00000010
00001000
00000010
00000000
,
00010000
00001000
00000000
01000000
00010000
01000000
00100000
10000000
00010000
00100000
01000000
00010000
01000000
00100000
00010000
00000000
,
00100000
00001000
00000000
00010000
00000010
00001000
00000010
00000100
00001000
00000100
00000010
00001000
00000001
00000010
00000100
00000000
,
00020000
00001000
01000000
00001000
,
00030200
00001000
00000001
00001000
,
00010300
00001000
00000000
00001000
01000000
00010000
01000000
00100000
10000000
00010000
00100000
01000000
00100000
00001000
00010000
00000010
,
00002000
00000000
00000000
00003000
,
00002002
00000000
00000000
00000000
,
00000000
00000000
00000000
00000000
,
00003003
00000000
00000000
00000000
;

//---------------dance-single - ----------------
#NOTES:
     dance-single:
     :
     Hard:
     13:
     0.547757,0.675068,0.302096,0.395049,0.220763,495.000000,456.000000,39.000000,51.000000,0.000000,0.000000,0.547757,0.675068,0.302096,0.395049,0.220763,495.000000,456.000000,39.000000,51.000000,0.000000,0.000000:
// measure 0
0000
0000
0000
0000
,  // measure 1
0000
0000
0000
0000
,  // measure 2
0000
0000
0000
0000
,  // measure 3
0000
0000
0000
0000
,  // measure 4
0000
0000
0000
0000
,  // measure 5
2000
0000
3001
0100
0020
0000
1030
0000
,  // measure 6
0002
0000
0013
0100
1000
0001
1001
0000
,  // measure 7
2000
0000
3010
0100
0001
1000
0100
0010
,  // measure 8
0012
0000
0000
0000
0000
1000
1003
0000
,  // measure 9
0010
0100
0001
0100
0010
1000
0001
0010
,  // measure 10
0100
0000
1000
0000
0010
0000
0100
0000
0001
0000
1000
0000
0001
0000
0010
0100
,  // measure 11
0010
0001
0100
1000
0100
0001
0010
0100
,  // measure 12
0010
0000
0001
0000
0100
0000
0010
0000
0100
0000
0001
0000
1000
0001
1000
0001
,  // measure 13
1000
0010
0100
0001
1000
0100
0001
0100
,  // measure 14
1000
0000
0001
0000
0100
0000
0010
0000
1000
0000
0010
0000
0100
0001
0100
0001
,  // measure 15
0100
0010
1000
0001
0010
0100
1000
0001
,  // measure 16
0200
0010
0310
0110
,  // measure 17
0200
0000
0000
0000
0301
1000
0000
1000
0200
0000
0000
0000
0310
0001
0000
0001
,  // measure 18
2000
0000
0000
0000
3010
0100
0000
0100
0002
0000
0000
0000
1003
0000
0100
0010
,  // measure 19
0200
0000
0000
0000
1300
0001
0000
0001
0200
0000
0000
0000
0310
1000
0000
1000
,  // measure 20
0200
0000
0000
0000
0310
0001
0000
0001
2000
0000
0000
0000
3020
0000
0000
0000
,  // measure 21
0130
0001
0100
0000
0010
1000
0000
1000
0200
0000
0000
0000
0310
0001
0000
0001
,  // measure 22
0200
0000
0000
0000
0301
1000
0000
1000
0020
0000
0000
0000
0130
0001
0200
0000
,  // measure 23
0000
0010
0310
0000
1000
0001
0010
0100
,  // measure 24
2000
0001
3001
1001
,  // measure 25
1010
0000
0000
0000
0011
0000
0000
0000
1010
0000
0000
0000
1000
0100
0000
0100
,  // measure 26
0010
0000
0011
0000
1010
0000
1000
0010
,  // measure 27
0110
0000
0000
0000
0101
0000
0000
0000
0110
0000
0000
0000
0010
1000
0000
1000
,  // measure 28
0001
0000
0000
0000
0011
0000
0000
0000
0110
0000
0000
0000
0100
1000
0001
0000
,  // measure 29
0101
0000
0000
0000
0110
0000
0000
0000
1010
0000
0000
0000
1000
0001
0000
0001
,  // measure 30
0010
0000
0110
0000
1100
0000
1000
0001
,  // measure 31
0101
0000
0000
0000
1100
0000
0000
0000
1010
0000
0000
0000
0010
0100
0000
0100
,  // measure 32
0002
1000
0100
1003
,  // measure 33
1000
0000
0100
0000
0001
0000
0100
0000
1000
0000
0001
0000
1000
0010
0000
0100
,  // measure 34
0001
0000
0010
0000
1000
0000
0010
0000
0001
0000
0000
0000
1000
0001
1000
0000
,  // measure 35
0001
0000
0100
0000
1000
0000
0100
0000
0001
0000
1000
0000
0001
0010
0000
0100
,  // measure 36
1000
0000
0010
0000
0001
0000
0010
0000
1000
0000
0000
0000
0001
1000
0001
0000
,  // measure 37
1001
0110
2002
3003
,  // measure 38
0110
1001
0220
0330
,  // measure 39
0010
1000
0100
0001
1000
0010
0001
1000
,  // measure 40
0020
0000
0000
0000
0000
0000
0000
0130
,  // measure 41
1002
0000
0000
0000
,  // measure 42
0203
0000
0000
0000
,  // measure 43
0320
0000
0000
0000
,  // measure 44
2030
0000
0000
0000
0000
0000
0000
0001
,  // measure 45
3002
0000
0000
0000
,  // measure 46
0023
0000
0000
0000
,  // measure 47
0230
0000
0000
0000
,  // measure 48
1300
0001
0100
0010
1000
1000
0001
0001
,  // measure 49
0200
1000
0010
1000
,  // measure 50
0302
0100
1000
0100
,  // measure 51
0023
1000
0001
1000
,  // measure 52
0230
0001
0010
1300
,  // measure 53
0020
0001
0100
0001
,  // measure 54
2030
0100
0010
0100
,  // measure 55
3002
0100
1000
0010
,  // measure 56
1003
0010
0000
0010
0100
0000
0001
0000
1000
0000
0100
0000
0001
0000
0100
0000
,  // measure 57
2000
0000
3001
0100
0010
1000
0100
0010
,  // measure 58
0002
0000
1003
0100
0010
0001
0100
0010
,  // measure 59
2000
0000
3001
0100
1000
0100
0001
0010
,  // measure 60
0200
0000
1300
0010
0001
0010
1000
0100
,  // measure 61
0110
0001
1001
1000
,  // measure 62
0110
0010
1010
1000
,  // measure 63
0011
1001
1100
1001
,  // measure 64
0220
0000
0000
0330
,  // measure 65
0010
0000
1000
0000
0001
0000
0010
0000
0100
0000
0010
0000
0001
1000
0001
0000
,  // measure 66
0100
0000
0010
0000
1000
0000
0001
0000
0010
0000
0100
0000
0010
0001
0010
0000
,  // measure 67
0100
0000
1000
0000
0010
0000
0001
0000
0010
0000
1000
0000
0001
0010
0001
0000
,  // measure 68
1000
0000
0001
0000
0010
0000
1000
0000
0010
0000
0001
0000
0100
0010
0100
0000
,  // measure 69
0001
0000
1000
0000
0100
0000
1000
0000
0001
0000
0100
0000
0010
1000
0001
0000
,  // measure 70
0100
0000
0010
0000
1000
0000
0001
0000
0010
0000
0001
0000
1000
0010
0100
0000
,  // measure 71
0001
0010
1000
0001
0100
1000
0010
0100
,  // measure 72
0002
1000
1003
1001
,  // measure 73
0001
0000
0100
0000
0010
0000
1000
0000
0001
0010
0001
0000
1000
0010
1000
0000
,  // measure 74
0100
0000
0010
0000
0100
0000
1000
0000
0001
0100
0001
0000
1000
0100
1000
0000
,  // measure 75
0010
0000
0001
0000
0010
0000
1000
0000
0001
0010
0100
0000
1000
0100
0010
0000
,  // measure 76
0001
0000
0100
0000
1000
0000
0100
0000
0010
0100
0001
0000
0100
0010
1000
0000
,  // measure 77
0002
0010
1000
0010
,  // measure 78
2003
0010
0001
0010
,  // measure 79
3001
0100
1000
0100
0001
0010
1000
0010
,  // measure 80
0002
0000
0000
0000
,  // measure 81
2000
0000
0000
0000
,  // measure 82
0000
0000
0000
0000
,  // measure 83
3003
0000
0000
0000
;

//---------------dance-double - ----------------
#NOTES:
     dance-double:
     :
     Hard:
     14:
     0.526732,0.675068,0.232382,0.410541,0.139429,476.000000,446.000000,30.000000,53.000000,0.000000,0.000000,0.526732,0.675068,0.232382,0.410541,0.139429,476.000000,446.000000,30.000000,53.000000,0.000000,0.000000:
00000000
00000000
00000000
00000000
,
00000000
00000000
00000000
00000000
,
00000000
00000000
00000000
00000000
,
00000000
00000000
00000000
00000000
,
00000000
00000000
00000000
00000000
,
20000000
00000000
30100000
01000000
00002000
00000000
00013000
00000000
,
00000200
00000000
00000310
00000001
00001000
00000010
00010010
00000000
,
00010000
00001000
00010000
01000000
10000000
00010000
01000000
00100000
,
02000000
00000000
00000000
00000000
00000000
00001000
03001000
00000000
,
00010000
00000100
00000010
00000100
00001000
00000001
00000100
00001000
,
00010000
00000000
00100000
00000000
00010000
00000000
00001000
00000000
00010000
00000000
01000000
00000000
10000000
00000000
00010000
10000000
,
00010000
01000000
00100000
00010000
00001000
00010000
00100000
01000000
,
00001000
00000000
00010000
00000000
00001000
00000000
00000010
00000000
00000001
00000000
00001000
00000000
00000010
00000100
00000010
00000100
,
00000010
00010000
00001000
00010000
01000000
00010000
00001000
01000000
,
00100000
00000000
01000000
00000000
10000000
00000000
01000000
00000000
00010000
00000000
10000000
00000000
01000000
00100000
01000000
00100000
,
01000000
10000000
00010000
01000000
00010000
00001000
00000010
00000100
,
00000002
00001000
00001003
00001001
,
00000002
00000000
00000000
00000000
00000103
00000010
00000000
00000010
00020000
00000000
00000000
00000000
00031000
01000000
00000000
01000000
,
00200000
00000000
00000000
00000000
10300000
00010000
00000000
00010000
00200000
00000000
00000000
00000000
00301000
00000000
00010000
00000000
,
00000020
00000000
00000000
00000000
00001030
00000100
00000000
00000100
00000020
00000000
00000000
00000000
00000031
00001000
00000000
00001000
,
00000020
00000000
00000000
00000000
00010030
00001000
00000000
00001000
00200000
00000000
00000000
00000000
02300000
00000000
00000000
00000000
,
13000000
00000000
00010000
00000000
01000000
00000000
00100000
00000000
00020000
00000000
00000000
00000000
00031000
00000100
00000000
00000100
,
00000020
00000000
00000000
00000000
00001030
00000001
00000000
00000001
00000020
00000000
00000000
00000000
00001030
00000000
00020000
00000000
,
00000000
01000000
01030000
00000000
10000000
00100000
01000000
00001000
,
00020000
00001000
00031000
00011000
,
00010010
00000000
00000000
00000000
00000110
00000000
00000000
00000000
00001001
00000000
00000000
00000000
00000001
00000010
00000000
00000010
,
00000100
00000000
00010100
00000000
00011000
00000000
00001000
00100000
,
01100000
00000000
00000000
00000000
11000000
00000000
00000000
00000000
10010000
00000000
00000000
00000000
00010000
01000000
00000000
01000000
,
00001000
00000000
00000000
00000000
00011000
00000000
00000000
00000000
00010100
00000000
00000000
00000000
00000100
00000010
00000100
00000000
,
00001100
00000000
00000000
00000000
00001001
00000000
00000000
00000000
00000101
00000000
00000000
00000000
00000100
00000010
00000000
00000010
,
00010000
00000000
00011000
00000000
00101000
00000000
00100000
01000000
,
11000000
00000000
10010000
00000000
01010000
00000000
01000000
00001000
,
00020000
00000000
00000010
00000000
00001000
00000000
00030010
00000100
,
00000001
00000010
00001000
00000010
00000001
00000010
00001000
00010000
,
01000000
10000000
00100000
00010000
00100000
10000000
00010000
00000000
,
10000000
01000000
00010000
01000000
10000000
01000000
00010000
00001000
,
00000010
00000001
00000100
00001000
00000100
00000001
00001000
00000000
,
00001100
00010100
00022000
00033000
,
01010000
01001000
00022000
00033000
,
00001000
00000010
00000001
00000100
00001000
00000100
00000010
00010000
,
00002000
00000000
00000000
00000000
00000000
00000000
00000000
01003000
,
01020000
00000000
00000000
00000000
,
20030000
00000000
00000000
00000000
,
32000000
00000000
00000000
00000000
,
03020000
00000000
00000000
00000000
00000000
00000000
00000000
00001000
,
00032000
00000000
00000000
00000000
,
00003020
00000000
00000000
00000000
,
00000032
00000000
00000000
00000000
,
00001003
00000010
00010000
00001000
01000000
01000000
00010000
00010000
,
00200000
10000000
00010000
01000000
,
00302000
00010000
00000100
00010000
,
00003200
00001000
00000010
00000001
,
00000320
00001000
00010030
00011000
,
00002000
00010000
01000000
00100000
,
00023000
00001000
01000000
00001000
,
02030000
00010000
00100000
10000000
,
03100000
00001000
00010000
00000100
00000010
00000001
00001000
00000010
,
00020000
00000000
00031000
01000000
00100000
10000000
00010000
00100000
,
00002000
00000000
00013000
00000100
00000010
00000001
00001000
00000010
,
00020000
00000000
00031000
01000000
10000000
01000000
00100000
01000000
,
00002000
00000000
00013000
00000100
00000001
00000100
00000010
00000100
,
00020000
01000000
00032000
00000100
,
00023000
00100000
00032000
00000010
,
00013000
01000000
10000000
00100000
00010000
00001000
00010000
00100000
,
02000000
00000000
00000000
03000000
,
00010000
10000000
01000000
00100000
01000000
00010000
00001000
00000010
,
00000001
00000100
00000010
00000100
00001000
00010000
00100000
00010000
,
00001000
00010000
01000000
10000000
00100000
00010000
00100000
01000000
,
00001000
00010000
01000000
00010000
00001000
00000100
00000010
00000010
,
00001000
00000001
00000010
00001000
00010000
01000000
00010000
00001000
,
00000100
00000010
00000100
00001000
00010000
01000000
10000000
00100000
,
00010000
00001000
00000100
00000001
00000100
00001000
00010000
02000000
,
00100000
00100000
03100000
01100000
,
01000000
00000000
10000000
00000000
00010000
00000000
01000000
00000000
00001000
00010000
00001000
00000000
00010000
00000010
00010000
00000000
,
00000100
00000000
00001000
00000000
00000100
00000000
00000010
00000000
00000001
00001000
00000001
00000000
00001000
00000010
00001000
00000000
,
00000100
00000000
00010000
00000000
00001000
00000000
00010000
00000000
01000000
00010000
01000000
00000000
00100000
00010000
00100000
00000000
,
01000000
00000000
10000000
00000000
00010000
00000000
01000000
00000000
00010000
00100000
00010000
00000000
00100000
00001000
00100000
00000000
,
00002000
00010000
00000100
00010000
,
00023000
01000000
00001000
01000000
,
00031000
00000010
00000001
00001000
00000010
00001000
00010000
01000000
,
00200000
00000000
00000000
00000000
,
02000000
00000000
00000000
00000000
,
00000000
00000000
00000000
00000000
,
03300000
00000000
00000000
00000000
;

//---------------dance-single - ----------------
#NOTES:
     dance-single:
     :
     Medium:
     11:
     0.419393,0.546484,0.193651,0.464763,0.000000,379.000000,354.000000,25.000000,60.000000,0.000000,0.000000,0.419393,0.546484,0.193651,0.464763,0.000000,379.000000,354.000000,25.000000,60.000000,0.000000,0.000000:
0000
0000
0000
0000
,
0000
0000
0000
0000
,
0000
0000
0000
0000
,
0000
0000
0000
0000
,
0000
0000
0000
0000
,
2000
3001
0200
0310
,
2000
3001
0020
0130
,
1000
0010
1000
0100
0010
0001
1000
0010
,
0200
0000
0000
0310
,
1000
0100
1000
0000
0001
0100
0010
0000
,
1000
0001
0010
0100
0010
0001
1000
0000
,
0010
0100
0001
0000
0100
0010
1000
0000
,
0001
0010
0100
0010
0001
1000
0020
0000
,
0130
0001
1000
0000
0100
0010
0100
0000
,
1000
0001
0100
0010
0100
0001
1000
0000
,
0100
0010
0001
0000
1000
0010
0100
0000
,
0001
1000
0001
1001
,
1000
0010
1000
0100
0010
0100
1000
0000
,
0001
0100
0010
0000
1000
0010
0100
0000
,
0001
1000
0010
0100
0001
1000
0100
0000
,
0010
0001
0010
0000
0200
0000
2300
0000
,
3002
0000
0103
0000
0010
1000
0100
0000
,
0010
0001
0010
0100
0010
0001
1000
0020
,
0000
0100
0130
0000
0001
1000
0100
0000
,
0220
0000
0000
0330
,
0010
0000
0011
0000
1001
0000
0001
0100
,
0010
0000
1010
0000
1001
0000
0001
0010
,
0001
0000
1001
0000
1010
0000
0010
0100
,
0010
0000
0110
0000
0101
0000
0001
0010
,
0100
0000
1100
0000
1001
0000
0001
0100
,
0010
0000
0110
0000
1010
0000
1000
0001
,
0010
0110
1100
1000
,
0002
0000
0100
0000
0100
0000
0103
0010
,
1000
0000
1001
0000
0110
0000
0010
1000
,
0001
0000
0011
0000
1100
0000
1000
0010
,
0100
0000
0101
0000
1010
0000
0010
1000
,
0100
0000
1100
0000
0011
0000
0001
1000
,
0020
0100
0100
0030
,
2000
0001
0001
3000
,
0001
0010
0100
1000
0100
0010
0001
1000
,
0002
0000
0000
0000
0000
0000
0000
1000
,
2003
0000
0000
0000
,
3020
0000
0000
0000
,
0230
0000
0000
0000
,
0302
0000
0000
0000
,
2003
0000
0000
0000
,
3200
0000
0000
0000
,
0320
0000
0000
0000
,
0031
0000
1000
0000
0010
0100
0010
0000
,
2000
0001
0000
0001
,
3020
0100
0000
0100
,
2030
0100
0000
0100
,
3002
0100
0000
0103
,
0020
1000
0000
1000
,
0230
0001
0000
0001
,
0320
0100
0000
0130
,
0002
0000
1003
0100
0010
0001
1000
0000
,
0020
0000
0130
0000
0001
1000
0100
0000
,
0020
0000
0130
0000
1000
0001
0100
0000
,
0020
0000
1030
0000
0001
0010
1000
0000
,
0020
0000
0031
0000
1000
0010
0001
0000
,
0020
1000
2030
0001
,
3002
0010
0023
0100
,
0130
1000
0001
0000
0100
0001
1000
0000
,
2002
0000
0000
3003
,
0002
0000
2003
0000
3010
0100
0001
0100
,
0020
0000
2030
0000
3001
0010
0100
0010
,
0002
0000
0203
0000
0310
1000
0010
1000
,
0200
0000
0320
0000
0031
1000
0010
1000
,
0002
0000
0023
0000
0130
1000
0001
0100
,
0020
0000
2030
0000
3100
0010
0001
1000
,
0020
0000
0230
0000
0310
1000
0100
0010
,
0002
1000
1000
1003
,
0001
0100
0010
1000
0010
0100
0001
1000
,
0100
0010
0100
1000
0010
0100
0001
0100
,
0010
1000
0001
1000
0010
1000
0100
0010
,
0001
0010
0100
0010
0001
0010
0100
1000
,
0002
0100
0100
0100
,
2003
0100
0100
0100
,
3001
0100
0010
0000
1000
0100
0010
0000
,
0002
0000
0000
0000
,
2000
0000
0000
0000
,
0000
0000
0000
0000
,
3003
0000
0000
0000
;

//---------------dance-double - ----------------
#NOTES:
     dance-double:
     :
     Medium:
     11:
     0.418287,0.546484,0.170413,0.449271,0.000000,378.000000,356.000000,22.000000,58.000000,0.000000,0.000000,0.418287,0.546484,0.170413,0.449271,0.000000,378.000000,356.000000,22.000000,58.000000,0.000000,0.000000:
00000000
00000000
00000000
00000000
,
00000000
00000000
00000000
00000000
,
00000000
00000000
00000000
00000000
,
00000000
00000000
00000000
00000000
,
00000000
00000000
00000000
00000000
,
10000000
00100000
01000000
00010000
,
00001000
00000010
00000100
00000001
,
00001000
00000010
00001000
00000010
00010000
00001000
00010000
00001000
,
02000000
00000000
00000000
03010000
,
10000000
01000000
00100000
00000000
01000000
00100000
00010000
00000000
,
01000000
00001000
00010000
00000010
00001000
00000010
00000100
00000000
,
00000001
00000010
00000100
00000000
00000010
00000100
00001000
00000000
,
00000100
00010000
00001000
01000000
00010000
00100000
02000000
00000000
,
13000000
00010000
01000000
00000000
00100000
00010000
00001000
00000000
,
00010000
00001000
00000100
00000001
00001000
00000100
00000010
00000000
,
00000100
00010000
00001000
00000000
01000000
00010000
10000000
00000000
,
02000000
00100000
00100000
03100000
,
00010000
10000000
00100000
01000000
00001000
00010000
00001000
00000000
,
00000100
00000010
00001000
00000000
00000001
00000010
00000100
00000000
,
00000010
00000001
00001000
00000100
00010000
00001000
01000000
00000000
,
00010000
01000000
00100000
00000000
20000000
00000000
30020000
00000000
,
00230000
00000000
01300000
00000000
10000000
00010000
01000000
00000000
,
00100000
00010000
00001000
00010000
00100000
00010000
00001000
00000200
,
00000000
00000001
00000301
00000000
00001000
00000100
00000010
00000000
,
00000200
00010000
00010000
00010300
,
00001000
00000000
01001000
00000000
01010000
00000000
00010000
10000000
,
01000000
01100000
00101000
00001000
,
00010000
00000000
00010010
00000000
00000110
00000000
00000010
00001000
,
00000001
00001001
00001100
00000100
,
00010000
00000000
00011000
00000000
01001000
00000000
01000000
00010000
,
10000000
11000000
01100000
00100000
,
00010000
10010000
11000000
01000000
,
00020000
00000000
00001000
00000000
00001000
00000000
00031000
00000100
,
00000010
00000000
00001010
00000000
00000101
00000000
00000001
00000010
,
00000100
00010100
00011000
00001000
,
01000000
00000000
01010000
00000000
10100000
00000000
10000000
00010000
,
01000000
00000000
01001000
00000000
00011000
00000000
00001000
00000100
,
00000002
00001000
00002003
00003000
,
00020000
10000000
20030000
30000000
,
00010000
00100000
00001000
00010000
00001000
00000010
00000001
00001000
,
00000020
00000000
00000000
00000000
00000000
00000000
00000000
00001000
,
00002030
00000000
00000000
00000000
,
00003002
00000000
00000000
00000000
,
00000023
00000000
00000000
00000000
,
00000230
00000000
00000000
00000000
00000000
00000000
00000000
00010000
,
00020300
00000000
00000000
00000000
,
00032000
00000000
00000000
00000000
,
02003000
00000000
00000000
00000000
,
03100000
00000000
10000000
00000000
00010000
00100000
00001000
00000000
,
00020000
00000100
00000000
00000100
,
00032000
00000010
00000000
00000010
,
00023000
01000000
00000000
01000000
,
00032000
00100000
00000000
00103000
,
00020000
10000000
00000000
10000000
,
00230000
00001000
00000000
00001000
,
02300000
00010000
00000000
03010000
,
00001000
00000010
00000001
00001000
00000001
00000100
00000010
00010000
,
00002000
00000000
01003000
00000000
00100000
10000000
00100000
00000000
,
02000000
00000000
03001000
00000000
00010000
01000000
00010000
00000000
,
00002000
00000000
00003010
00000000
00000001
00000100
00000001
00000000
,
00000200
00000000
00001300
00000000
00010000
00100000
00010000
00000000
,
00200000
10000000
20300000
00010000
,
30020000
00100000
00230000
00001000
,
00301000
00010000
00000010
00001000
00000100
00010000
00001000
01000000
,
00020000
00000000
00000000
00030000
,
20000000
00000000
32000000
00000000
03100000
00001000
00010000
00000100
,
00002000
00000000
00003020
00000000
00000130
00000001
00001000
00000100
,
00020000
00000000
00032000
00000000
00103000
01000000
10000000
00010000
,
02000000
00000000
03200000
00000000
10300000
00010000
00100000
01000000
,
00200000
00000000
00302000
00000000
00013000
00000010
00001000
00000100
,
00000020
00000000
00000032
00000000
00001003
00000010
00001000
00000100
,
00020000
00000000
00032000
00000000
00013000
00100000
01000000
00010000
,
20000000
00010000
00010000
30010000
,
01000000
00010000
01000000
00100000
01000000
00001000
00010000
00000100
,
00001000
00000100
00000010
00000100
00001000
00000100
00000010
00000001
,
00001000
00000010
00010000
00000010
00001000
00000100
00010000
00001000
,
01000000
00010000
00100000
00010000
10000000
01000000
00100000
00010000
,
00200000
00001000
00302000
00003000
,
00020000
00000010
00030020
00000030
,
00001000
00000001
00000010
00000000
00000100
00010000
00001000
00000000
,
02000000
00000000
00000000
00000000
,
00020000
00000000
00000000
00000000
,
00000000
00000000
00000000
00000000
,
03030000
00000000
00000000
00000000
;

//---------------dance-single - ----------------
#NOTES:
     dance-single:
     :
     Easy:
     7:
     0.299883,0.385753,0.108445,0.449271,0.000000,271.000000,257.000000,14.000000,58.000000,0.000000,0.000000,0.299883,0.385753,0.108445,0.449271,0.000000,271.000000,257.000000,14.000000,58.000000,0.000000,0.000000:
0000
0000
0000
0000
,
0000
0000
0000
0000
,
0000
0000
0000
0000
,
0000
0000
0000
0000
,
0000
0000
0000
0000
,
2000
0000
3001
0000
,
0200
0000
0310
0000
,
1000
0001
0010
0100
,
2000
0000
0000
3001
,
0100
0010
1000
0010
,
0100
0001
0010
0100
,
0110
0010
0001
1000
,
0010
0100
0001
2000
,
3001
0010
0001
1000
,
0010
0001
0010
0100
,
0101
0001
1000
0100
,
0020
0001
0001
0031
,
1000
0010
0100
0001
,
1000
0100
0001
0100
,
1000
0010
0100
0010
,
1000
0001
0010
0200
,
0000
0310
0001
1000
,
0010
0100
0001
2001
,
0000
3001
0100
0010
,
2000
0001
0001
3001
,
0020
0230
0320
0031
,
2000
3002
2003
3010
,
0200
0302
0203
0310
,
2000
3002
2003
3100
,
0020
0032
0023
0130
,
2000
3020
2030
3001
,
0020
0230
0320
0031
,
1000
0001
1001
1000
,
0020
0230
0320
1030
,
0002
0023
0032
1003
,
0020
0230
0320
1030
,
0200
0320
0230
1300
,
0002
1000
1003
0000
,
2000
0001
3001
0000
,
0100
0010
1000
0001
,
2000
0000
0000
0000
,
3002
0000
0000
0000
,
0203
0000
0000
0000
,
0320
0000
0000
0000
,
2030
0000
0000
0000
,
3200
0000
0000
0000
,
0320
0000
0000
0000
,
0032
0000
0000
0000
,
1003
1000
0001
0001
,
1000
0010
0001
0100
,
1000
0010
0001
0100
,
1000
0010
0001
0100
,
1000
0010
0001
1001
,
1000
0100
0001
0010
,
1000
0100
0001
0010
,
1000
0100
0001
0010
,
0200
0000
0000
1300
,
0001
0100
0010
0010
,
1000
0001
0010
0010
,
0001
1000
0100
0100
,
1000
0001
0100
0100
,
0110
0000
1001
0000
,
0110
0000
1001
0000
,
0001
1000
0010
0100
,
0020
0000
0000
0030
,
1000
0100
0001
0100
,
1000
0010
0100
0001
,
0010
1000
0010
0001
,
0100
0010
1000
1001
,
0001
0010
1000
0010
,
0001
0100
0010
1000
,
0100
0001
0100
1000
,
0020
0100
0100
0130
,
0001
1000
0001
1001
,
1000
0010
1000
1010
,
0010
0100
0001
0101
,
0100
0010
0100
0110
,
0020
1000
1030
0000
,
2000
0001
3001
0000
,
0001
0001
1000
1000
,
0002
0000
0000
0000
,
2000
0000
0000
0000
,
0000
0000
0000
0000
,
3003
0000
0000
0000
;

//---------------dance-double - ----------------
#NOTES:
     dance-double:
     :
     Easy:
     7:
     0.294350,0.321461,0.054222,0.371811,0.000000,266.000000,259.000000,7.000000,48.000000,0.000000,0.000000,0.294350,0.321461,0.054222,0.371811,0.000000,266.000000,259.000000,7.000000,48.000000,0.000000,0.000000:
00000000
00000000
00000000
00000000
,
00000000
00000000
00000000
00000000
,
00000000
00000000
00000000
00000000
,
00000000
00000000
00000000
00000000
,
00000000
00000000
00000000
00000000
,
20000000
00000000
30010000
00000000
,
02000000
00000000
03001000
00000000
,
00010000
00000010
00001000
00000010
,
00000200
00000000
00000000
00000301
,
00001000
00000100
00010000
00000100
,
00001000
00000100
00010000
00001000
,
00011000
00010000
01000000
00100000
,
01000000
00010000
01000000
00200000
,
00310000
10000000
00100000
10000000
,
00010000
00100000
00001000
00100000
,
00001000
00010000
00000010
00001000
,
00000200
00000010
00000010
00000310
,
00000001
00001000
00000010
00001000
,
00000100
00010000
00001000
00001000
,
01000000
00010000
00100000
00010000
,
10000000
01000000
00100000
02000000
,
00000000
13000000
00010000
01000000
,
00100000
01000000
00001000
00020000
,
00000000
00030100
00000010
00000100
,
00002000
00000001
00003001
00001001
,
00002000
00000100
00003100
00010000
,
00002000
01000000
01003000
00010000
,
00200000
01000000
01300000
10000000
,
00020000
01000000
01030000
00100000
,
00020000
00001000
00031000
00000100
,
00000020
00001000
00001030
00000001
,
00000020
00000100
00000130
00010000
,
00001000
00010000
00001000
00011000
,
00020000
01000000
01030000
00100000
,
00020000
10000000
10030000
00100000
,
00020000
00001000
00031000
00000010
,
00000200
00001000
00001300
00000001
,
00000010
00000100
00020000
00030000
,
00001000
00100000
02000000
03000000
,
00100000
00001000
00010000
00001000
,
00020000
00000000
00000000
00000000
,
00030020
00000000
00000000
00000000
,
00000230
00000000
00000000
00000000
,
00000302
00000000
00000000
00000000
,
00002003
00000000
00000000
00000000
,
00003200
00000000
00000000
00000000
,
00020300
00000000
00000000
00000000
,
00032000
00000000
00000000
00000000
,
00103000
01000000
00100000
00100000
,
00020000
01000000
20030000
00100000
,
30020000
01000000
20030000
00100000
,
30020000
01000000
20030000
00100000
,
30020000
01030000
00001000
00010000
,
00000200
00001000
00000320
00000001
,
00000230
00001000
00000320
00000001
,
00000230
00001000
00000320
00000031
,
00001000
00001000
00000010
00010000
,
00001000
01000000
00010000
00010000
,
10000000
01000000
00100000
00100000
,
00001000
00010000
00000010
00000010
,
00000100
00000001
00001000
00001000
,
00001001
00000000
00000110
00000000
,
00001001
00000000
00000110
00000000
,
00000010
00010000
00001000
00010000
,
00002000
00000000
00000000
00003000
,
01000000
00010000
01000000
10000000
,
01000000
00010000
00100000
00100000
,
00001000
00010000
00001000
00000010
,
00000001
00000010
00000100
00000100
,
00010000
00001000
00100000
01000000
,
00100000
00001000
01000000
01000000
,
00100000
10000000
00010000
00100000
,
00002000
00010000
00010000
00013000
,
00000100
00000010
00000100
00010000
,
00001000
00100000
01000000
00100000
,
00001000
00010000
00000100
00010000
,
00001000
00100000
00001000
00010000
,
00000020
00001000
00001030
00000000
,
00000200
00010000
00010300
00000000
,
00001000
01000000
00010000
01000000
,
00200000
00000000
00000000
00000000
,
20000000
00000000
00000000
00000000
,
00000000
00000000
00000000
00000000
,
30300000
00000000
00000000
00000000
;

//---------------dance-single - ----------------
#NOTES:
     dance-single:
     :
     Beginner:
     4:
     0.179266,0.289315,0.154921,0.317588,0.000000,162.000000,142.000000,20.000000,41.000000,0.000000,0.000000,0.179266,0.289315,0.154921,0.317588,0.000000,162.000000,142.000000,20.000000,41.000000,0.000000,0.000000:
0000
0000
0000
0000
,
0000
0000
0000
0000
,
0000
0000
0000
0000
,
0000
0000
0000
0000
,
0000
0000
0000
0000
,
1001
0000
0000
0000
,
1001
0000
0000
0000
,
0001
0000
0100
0000
,
0020
0000
0000
0030
,
1000
0000
0001
0000
,
0010
0000
0001
0000
,
1000
0000
0010
0000
,
0100
0000
0002
0000
,
1003
0000
0100
0000
,
1000
0000
0010
0000
,
0100
0000
0001
0000
,
1000
0000
1001
0000
,
0001
0000
0100
0000
,
1000
0000
0100
0000
,
0001
0000
0010
0000
,
1000
0000
0020
0000
,
0030
0000
0001
0000
,
1000
0000
0020
0000
,
0030
0000
0100
0000
,
0220
0000
0330
0000
,
0010
0000
0100
0000
,
0010
0000
0110
0000
,
1000
0000
0001
0000
,
1000
0000
1001
0000
,
0100
0000
0010
0000
,
0100
0000
0110
0000
,
0001
0000
1000
0000
,
0020
0000
0030
0000
,
1000
0000
0001
0000
,
1000
0000
1001
0000
,
0010
0000
0100
0000
,
0010
0000
0110
0000
,
1000
0000
2000
3000
,
0001
0000
0002
0003
,
0100
0000
0010
0000
,
0220
0000
0330
0000
,
2000
0000
0000
3000
,
0002
0000
0000
0003
,
0200
0000
0000
0300
,
0020
0000
0000
0030
,
2000
0000
0000
3000
,
0002
0000
0000
0003
,
0020
0000
0000
0030
,
0100
0000
0100
0000
,
2000
3000
0002
0003
,
2000
3000
0002
0003
,
0200
0300
0020
0030
,
0200
0300
0020
0030
,
2000
3000
0200
0300
,
0020
0030
0002
0003
,
2000
3000
0020
0030
,
0100
0000
0002
0000
,
0003
0000
1000
0000
,
1001
0000
0001
0000
,
1001
0000
0100
0000
,
0110
0000
0010
0000
,
0110
0000
1001
0000
,
0110
0000
1001
0000
,
0001
0000
1000
0000
,
0002
0000
0003
0000
,
1000
0000
0010
0010
,
0010
0000
1000
1000
,
1000
0000
0001
0001
,
0001
0000
1001
0000
,
1000
0000
0100
0100
,
0100
0000
0010
0010
,
0010
0000
0001
0001
,
0002
0000
0003
0000
,
1000
0000
0010
0010
,
0010
0000
0100
0100
,
0100
0000
0001
0001
,
0001
0000
1000
1000
,
2000
0000
3000
0000
,
0002
0000
0003
0000
,
0100
0000
0010
0000
,
0220
0000
0330
0000
,
2002
0000
0000
0000
,
0000
0000
0000
0000
,
3003
0000
0000
0000
;
