#VERSION:0.83;
#TITLE:DROPOUT!?;
#SUBTITLE:;
#ARTIST:Saint Snow;
#TITLETRANSLIT:;
#SUBTITLETRANSLIT:;
#ARTISTTRANSLIT:;
#GENRE:;
#ORIGIN:;
#CREDIT:Kekkle;
#BANNER:DROPOUT.png;
#BACKGROUND:DROPOUT-bg.png;
#PREVIEWVID:;
#JACKET:DROPOUT-jacket.png;
#CDIMAGE:;
#DISCIMAGE:;
#LYRICSPATH:;
#CDTITLE:;
#MUSIC:DROPOUT.ogg;
#OFFSET:1.014725;
#SAMPLESTART:16.090000;
#SAMPLELENGTH:12.000000;
#SELECTABLE:YES;
#BPMS:0.000=182.000;
#STOPS:571.500=0.330;
#DELAYS:;
#WARPS:;
#TIMESIGNATURES:0.000=4=4;
#TICKCOUNTS:0.000=4;
#COMBOS:0.000=1;
#SPEEDS:0.000=1.000=0.000=0;
#SCROLLS:0.000=1.000;
#FAKES:;
#LABELS:0.000=Song Start;
#BGCHANGES:;
#KEYSOUNDS:;
#ATTACKS:
;

//---------------dance-single - ----------------
#NOTEDATA:;
#CHARTNAME:;
#STEPSTYPE:dance-single;
#DESCRIPTION:;
#CHARTSTYLE:;
#DIFFICULTY:Hard;
#METER:17;
#RADARVALUES:0.889171,1.181111,0.100686,0.292904,0.823791,680.000000,669.000000,11.000000,32.000000,0.000000,0.000000,0.000000,0.000000,0.000000,0.889171,1.181111,0.100686,0.292904,0.823791,680.000000,669.000000,11.000000,32.000000,0.000000,0.000000,0.000000,0.000000,0.000000;
#CREDIT:Kekkle;
#NOTES:
0000
0000
0000
0000
,
0000
0000
0000
0000
,
0000
0000
0000
0000
,
0000
0000
0000
0000
,
0000
0000
0000
0000
,
0000
0000
0000
0000
,
0000
0000
0000
0000
,
0001
0000
0001
0000
0000
0000
1000
0000
0000
0000
0010
0100
0020
0000
0000
0000
,
2030
0000
0000
0000
3001
0000
0010
0001
0010
0000
0001
0000
0000
0000
1000
0000
,
0000
0010
0100
0100
0000
0001
0000
1000
,
0100
0000
0100
0000
0000
0000
0010
0000
0000
0000
0001
1000
0002
0000
0000
0000
,
0203
0000
0000
0000
0310
0000
1000
0010
1000
0000
0010
0000
0000
0000
0100
0000
,
0000
0001
2002
0000
0000
0000
3003
0000
,
0001
0000
1000
0100
1000
0100
1000
0100
0010
0000
0001
1000
0000
0001
1000
0000
,
0001
0000
0100
0001
0100
0001
0100
0000
0001
0000
1000
0100
1000
0100
1000
0000
,
0001
0000
0100
0010
0100
0010
0100
0010
1000
0000
0001
0100
0000
0001
0100
0000
,
0010
0000
1000
0001
1000
0000
0100
1000
0100
0000
0020
0000
0000
0000
0000
0000
,
0031
0000
1000
0100
1000
0100
0010
0100
1000
0000
0001
1000
0000
0001
1000
0000
,
0010
0000
0100
0001
0100
0001
0100
0000
0010
0000
1000
0100
1000
0100
1000
0000
,
0001
0000
0100
0010
0100
0010
1000
0010
0100
0000
0001
1000
0000
0001
1000
0000
,
0100
1000
0100
1000
0100
0010
0100
0000
0010
0001
0010
0001
1000
0001
1000
0000
,
0002
0000
0000
0000
1003
0010
1000
0010
0100
0010
0100
0010
0200
0000
0000
0000
,
0301
1000
0001
1000
0100
1000
0100
1000
0100
0000
0010
0000
0001
0000
1000
0000
,
0001
0100
0001
0000
1000
0000
0001
0000
1000
0000
0100
0000
0010
0001
0010
0000
,
0001
1000
0010
0100
0001
1000
0200
0000
,
0310
0000
0001
0000
1000
0001
1000
0000
0020
0000
0000
0000
0130
0000
0001
0000
,
1000
0001
0020
0000
0130
1000
0001
1000
,
0010
0000
0100
0000
0001
0000
0100
0000
0010
0000
1000
0010
1000
0000
0010
0000
,
0100
0000
0001
0000
1000
0001
1000
0001
1000
0000
0001
0000
0100
0000
0010
0000
,
1000
0001
1000
0000
0100
0000
0010
0000
0001
0000
1000
0000
0001
0100
0001
0000
,
0100
0010
1000
0001
0010
0100
2000
0000
,
3001
0000
0100
0000
0010
0100
0010
0000
2000
0000
0000
0000
3001
0000
0100
0000
,
0001
0010
0200
0000
1300
0001
0100
0010
,
1000
0100
0001
0100
1000
0010
0100
0001
,
1000
0100
0010
0001
0200
0000
0001
0000
,
0001
0320
1000
1000
,
1030
0001
1000
0001
1000
0001
1000
0001
1000
0100
0010
0100
2000
0000
0000
0000
,
0000
0000
0001
0000
3001
0100
0000
0010
,
1000
0100
0001
1000
0010
0100
1000
0001
,
0100
0100
0000
0010
1000
0001
0010
1000
,
0010
0001
0100
0010
1000
1000
0000
0010
,
0000
0010
0100
0001
1000
0100
0001
0100
,
0010
0010
0000
0001
0000
0001
0100
0010
,
1000
0001
1000
0001
0010
0000
0000
0000
0200
0000
0000
0000
1300
0000
0001
0000
,
0100
0010
2000
0000
3010
0100
0001
1000
,
0200
0000
0310
0001
0010
0100
2000
0000
,
3001
0100
0010
1000
0010
0000
0100
0001
,
0000
0001
1000
0000
1000
0000
0100
0010
,
0200
1000
1000
0320
,
0001
0000
0000
0000
0001
0000
0000
0000
0130
1000
0100
0010
0100
1000
0100
0010
,
0001
1000
0001
1000
0002
0000
0000
0000
0000
0000
0000
0000
0103
0000
0000
0000
,
0010
0000
1000
0010
1000
0010
1000
0010
0100
0010
1000
0010
0100
0000
0001
1000
,
0001
1000
0001
1000
0100
1000
0001
1000
0100
0000
0010
0001
0010
0001
0010
0001
,
1000
0001
0010
0001
1000
0000
0100
1000
0100
1000
0100
1000
0001
1000
0100
1000
,
0001
0000
0100
0001
0100
0000
0001
1000
0001
0000
1000
0000
0100
0000
1000
0001
,
1000
0000
0001
0100
0001
0000
1000
0000
0010
0000
0100
0000
0001
0000
1000
0000
,
0100
0000
0010
0000
0001
1000
0001
1000
0001
1000
0001
1000
0010
1000
0001
1000
,
0010
0000
0100
0001
0100
0001
0100
0001
1000
0001
0100
0001
1000
0000
0010
1000
,
0010
1000
0010
1000
0001
1000
0010
1000
0001
0000
1000
0100
1000
0100
1000
0100
,
0010
0100
1000
0100
0010
0000
0001
0100
0001
0100
0001
0100
0010
0100
0001
0100
,
0010
0000
1000
0001
1000
0000
0100
1000
0100
0000
0010
0000
0001
0000
1000
0001
,
1000
0000
0010
1000
0010
0000
0100
0000
0001
1000
0001
1000
0001
1000
0100
1000
,
0001
1000
0100
0000
1000
0001
1000
0001
1000
0001
0100
0001
1000
0001
0100
0000
,
0101
0000
0100
0010
1000
0001
0011
0000
,
0010
0001
1000
0010
1010
0000
1000
0001
,
0010
0100
0110
0000
0011
0000
1001
0000
,
1010
0000
0010
0100
1000
0100
0110
0000
,
0010
1000
0001
0010
0110
0000
0100
1000
,
0001
0100
0010
1000
0001
1000
0001
2000
,
0002
0000
0000
0000
,
0000
0000
0000
0000
3003
0000
0000
0000
0001
0000
0100
0010
0100
0010
0100
0010
,
1000
0000
0001
0100
0000
0001
0100
0000
0010
0000
1000
0001
1000
0001
1000
0000
,
0100
0000
0010
0001
0010
0001
0010
0000
0001
0000
1000
0010
1000
0010
1000
0010
,
0100
0000
0001
1000
0000
0001
1000
0000
0100
0000
0010
0001
0010
0000
0001
1000
,
0001
0000
2000
0000
0000
0000
0000
0000
3010
0000
0100
0001
0100
0001
0100
0010
,
0100
0000
0001
1000
0000
0100
1000
0000
0100
0000
0010
0001
0010
0100
0010
0000
,
0001
0000
1000
0010
0100
0010
1000
0000
0001
0000
1000
0100
1000
0100
0010
0100
,
1000
0000
0100
1000
0000
0100
0010
0000
0001
1000
0001
1000
0100
0010
0100
0000
,
1000
0001
1000
0001
0100
0010
1000
0010
0200
0000
0000
0000
0301
1000
0010
1000
,
0001
1000
0010
1000
0002
0000
0000
0000
1003
0100
0010
0100
1000
0100
0010
0001
,
0000
2002
0000
0000
,
0000
0000
0000
0000
,
0000
0000
0000
0000
,
0000
3003
0000
0000
;

//---------------dance-single - ----------------
#NOTEDATA:;
#CHARTNAME:;
#STEPSTYPE:dance-single;
#DESCRIPTION:;
#CHARTSTYLE:;
#DIFFICULTY:Medium;
#METER:14;
#RADARVALUES:0.689108,0.952508,0.421049,0.256291,0.279174,527.000000,481.000000,46.000000,28.000000,0.000000,0.000000,0.000000,0.000000,0.000000,0.689108,0.952508,0.421049,0.256291,0.279174,527.000000,481.000000,46.000000,28.000000,0.000000,0.000000,0.000000,0.000000,0.000000;
#CREDIT:Kekkle;
#NOTES:
0000
0000
0000
0000
,
0000
0000
0000
0000
,
0000
0000
0000
0000
,
0000
0000
0000
0000
,
0000
0000
0000
0000
,
0000
0000
0000
0000
,
0000
0000
0000
0000
,
0001
0001
0000
0100
0000
0100
0020
0000
,
1000
0000
0130
0001
1000
1000
0000
0100
,
0000
0010
0001
0001
0100
0010
1000
0000
,
0001
0001
0000
0010
0000
0010
0200
0000
,
1000
0000
0310
0000
0001
0001
0000
0100
,
0000
0010
0220
0000
0000
0000
0330
0000
,
0010
0000
1000
0000
0100
0000
1000
0000
0001
0000
0000
0100
0000
0000
0010
0000
,
1000
0000
0001
0010
0001
0000
1000
0000
0010
0000
0100
0010
0100
0000
0001
0000
,
1000
0000
0100
0000
0010
0000
0001
0000
0100
0000
0000
0010
0000
0000
1000
0000
,
0001
0101
0000
0110
0000
2002
0000
3003
,
0001
0000
0100
0000
1000
0000
0100
0000
0010
0000
0000
1000
0000
0000
0001
0000
,
0010
0000
0100
1000
0100
0000
0010
0000
0001
0000
0100
0001
0100
0000
0010
0000
,
1000
0000
0001
0000
0100
0000
1000
0000
0100
0000
0000
0010
0000
0000
1000
0000
,
0001
0010
0001
0000
1000
0010
1000
0000
0001
0100
0010
0100
0001
1000
0001
1000
,
0002
0000
0000
0000
1003
0010
0100
0010
1000
0010
0100
0000
0002
0000
0000
0000
,
1003
0100
0010
0100
1000
0100
0010
0000
0001
0000
1000
0000
0010
0000
0100
0000
,
1000
0100
0010
0001
0010
1000
0001
0010
,
0100
0010
0001
0100
1000
0100
0010
0000
,
1000
0100
0001
0100
0010
0000
0011
0000
,
1100
1000
1010
0101
,
0002
0000
0000
0000
0010
0000
0000
0000
1003
0000
0001
1000
0001
0000
0100
0000
,
0010
0000
1000
0000
0001
0000
1000
0001
1000
0000
0001
0000
0010
0000
1000
0000
,
0010
0001
0100
0010
1000
0010
0100
1000
,
0100
0010
1000
0001
0010
0001
1000
0000
,
0100
0001
0100
0010
0001
0000
0101
0000
,
1010
1000
1100
0011
,
0002
0100
1000
2003
,
0100
3001
0101
0010
,
1000
1100
0010
0001
,
1000
0010
1000
0010
0100
0000
0001
0000
1000
0000
0001
0000
2002
0000
0000
0000
,
0000
0000
3003
0000
0001
0001
0000
1000
,
0100
0000
1000
0010
0100
0001
0100
0000
,
0001
0001
0000
1000
0100
0010
0100
0000
,
1000
0010
0100
0000
0001
0001
0000
1000
,
0000
1000
0100
0010
0001
0000
0100
0000
,
0001
0001
0000
1000
0000
1000
0010
0000
,
0100
0010
0100
0010
0100
0000
0000
0000
0002
0000
0000
0000
0100
0000
0000
0000
,
1000
2003
0000
0001
,
3020
0100
1000
2030
,
0000
0000
3100
0010
0100
0000
1000
0010
,
0000
0010
0100
0000
0001
0000
1000
0000
,
2002
0000
0000
0000
,
0000
0000
0000
0000
3003
0000
0000
0000
0001
0100
0010
0000
1000
0010
0100
0000
,
0001
1000
0001
1000
0200
0000
0000
0000
0000
0000
0000
0000
0310
0000
0000
0000
,
0001
0000
0010
0000
0100
0000
0001
0000
0100
0000
1000
0001
1000
0000
0010
0000
,
0100
0000
1000
0000
0100
0000
0001
1000
0001
0000
0010
0000
1000
0000
0010
0000
,
0001
0000
1000
0001
1000
0000
0010
0000
0100
0000
0010
0000
1000
0000
0000
0000
,
1001
0000
0001
0010
1000
0001
0100
0000
,
1000
0010
0100
1000
0100
0001
1000
0100
,
0010
0000
0001
0000
1000
0010
0100
0000
0001
0100
0010
0000
1000
0001
1000
0001
,
1000
0000
0001
0000
0100
0000
1000
0000
0100
0000
0010
0100
0010
0000
1000
0000
,
0100
0000
0010
0000
0001
0000
0010
0100
0010
0000
1000
0000
0010
0000
0001
0000
,
0100
0000
0010
0100
0010
0000
1000
0000
0001
0000
1000
0000
0100
0000
0001
0000
,
0100
1000
0010
0100
1000
0001
0010
0100
,
0001
0010
1000
0001
0100
1000
0010
0001
,
1000
0100
0001
1000
0100
0010
0001
0010
,
0110
1001
0110
1001
,
1001
1100
1001
0011
,
0110
1001
0110
1001
,
1001
0101
1010
1001
,
0110
1100
0110
0101
,
0101
0110
0101
0101
,
0220
0000
0000
0000
,
0000
0000
0330
0000
0001
1000
0001
0100
,
1000
0000
0000
0100
0000
0000
0010
0000
1000
0000
0001
0010
0001
0000
1000
0000
,
0010
0000
1000
0010
1000
0000
0010
0000
0100
0000
0001
0000
1000
0000
0100
0000
,
0001
0000
0000
0100
0000
0000
1000
0000
0001
0000
0101
0000
0000
0000
0110
0000
,
0000
2002
0000
3003
0001
1000
0100
0001
,
1000
0000
0000
0010
0000
0000
0100
0000
1000
0000
0010
1000
0010
0000
0100
0000
,
0001
0000
1000
0100
1000
0000
0001
0000
0100
0000
0010
0000
1000
0000
0010
0000
,
0001
0000
0000
1000
0000
0000
0100
0000
0001
0100
0010
0000
1000
0010
0100
0000
,
0001
1000
0100
1000
0001
1000
0100
0010
0200
0000
0000
0000
1300
0001
0100
0001
,
1000
0001
0100
0000
0020
0000
0000
0000
1030
0001
0010
0001
1000
0001
0010
0100
,
0000
0220
0000
0000
,
0000
0000
0000
0000
,
0000
0000
0000
0000
,
0000
0330
0000
0000
;

//---------------dance-single - ----------------
#NOTEDATA:;
#CHARTNAME:;
#STEPSTYPE:dance-single;
#DESCRIPTION:;
#CHARTSTYLE:;
#DIFFICULTY:Easy;
#METER:11;
#RADARVALUES:0.445893,0.571505,0.045766,0.393589,0.036613,341.000000,336.000000,5.000000,43.000000,0.000000,0.000000,0.000000,0.000000,0.000000,0.445893,0.571505,0.045766,0.393589,0.036613,341.000000,336.000000,5.000000,43.000000,0.000000,0.000000,0.000000,0.000000,0.000000;
#CREDIT:Kekkle;
#NOTES:
0000
0000
0000
0000
,
0000
0000
0000
0000
,
0000
0000
0000
0000
,
0000
0000
0000
0000
,
0000
0000
0000
0000
,
0000
0000
0000
0000
,
0000
0000
0000
0000
,
0001
1000
0000
0001
0000
0001
0200
0000
,
0000
0000
0300
0000
0010
1000
0000
0001
,
0000
0001
1000
0100
0000
0000
0110
0000
,
0010
0001
0000
1000
0000
1000
0020
0000
,
0000
0000
0030
0000
0100
0001
0000
1000
,
0000
0001
2000
0000
0000
0000
0000
0000
,
3001
0000
0000
0000
0100
0000
0010
0000
1000
0000
0000
1000
0000
0000
1000
0000
,
0001
0000
1000
0100
0010
0000
0001
1000
,
0010
0000
0000
0000
1000
0000
0100
0000
0010
0000
0000
0010
0000
0000
0010
0000
,
0001
0100
0000
0100
0000
0200
0000
0000
,
0310
0000
0000
0000
1000
0000
0001
0000
0010
0000
0000
0010
0000
0000
0010
0000
,
0001
0000
1000
0001
0010
0000
0100
1000
,
0001
0000
0000
0000
0010
0000
0001
0000
0100
0000
0000
0100
0000
0000
0100
0000
,
0010
1000
0001
1000
0100
0010
0100
0000
,
0020
0000
0031
1000
0001
0000
0200
0000
,
0301
1000
0001
0000
2000
0000
3100
0010
,
0001
1000
0001
0000
1000
0000
1000
0000
,
0100
0000
0010
0000
0001
1000
0002
0000
,
0000
0000
0103
0010
1000
0000
0010
0000
,
0010
0100
0001
0001
,
2000
0000
3100
0020
,
0000
0000
0100
0000
0130
0000
1000
0001
,
1000
0010
0100
0000
0001
0000
0001
0000
,
0010
0000
0100
0000
1000
0001
2000
0000
,
0000
0000
3010
0100
0001
0000
0100
0000
,
0100
0001
1000
1000
,
0002
0000
1003
2000
,
0010
3010
0220
0000
,
0330
2002
0000
3003
,
1000
0001
0010
0001
1000
0010
2000
0000
,
0000
0000
3000
0000
0001
0001
0000
1000
,
0100
1000
0001
0001
,
1000
1000
0000
0001
0100
0000
0010
0000
,
1000
0000
1000
0000
0001
0001
0000
1000
,
0010
0100
0001
0001
,
1000
1000
0000
0001
0010
0000
0100
0000
,
1000
0001
1000
0000
0020
0000
0100
0000
,
0100
0230
0000
0300
,
0002
1000
1000
2003
,
0000
0000
3000
0000
0001
0000
1000
0001
,
0000
1000
0001
0000
0100
0000
0010
0000
,
0220
0000
0000
0000
,
0000
0000
0330
0000
0010
1000
0001
0100
,
0010
1000
0020
0000
0000
0000
0030
0000
,
0200
0000
0301
1000
0100
0010
0200
0000
,
1300
0001
1000
0010
0200
0000
0310
1000
,
0001
0010
0200
0000
1300
0000
1000
0000
,
0001
0000
0100
0010
1000
0001
0200
0000
,
0010
0310
2000
0000
,
3001
0010
0100
0000
1000
0001
1000
0100
,
0020
0000
0031
1000
0100
1000
0020
0000
,
0130
0001
1000
0100
0020
0000
0031
1000
,
0001
0100
0020
0000
1030
0000
1000
0000
,
0001
0000
1000
0100
0010
0001
1000
0000
,
0010
0100
0002
0000
,
1000
0000
2000
0000
3003
0000
0001
0100
,
0010
0010
0001
0100
,
0100
1000
0010
0010
,
0001
0100
0100
1000
,
0100
0100
0001
0010
,
0010
1000
0100
0100
,
0001
0010
0100
1000
,
0002
0000
0000
0000
,
0000
0000
0000
0000
1003
0000
0001
0010
,
0100
0000
0000
0100
0000
0000
0100
0000
1000
0000
0000
0000
0001
0000
0100
0000
,
0010
0000
1000
0001
0010
0000
0100
1000
,
0001
0000
0000
0001
0000
0000
0001
0000
0100
0000
0010
0000
0000
0000
0010
0000
,
0000
0020
0000
0000
0130
0000
0001
0010
,
0100
0000
0000
0100
0000
0000
0100
0000
1000
0000
0000
0000
0010
0000
0100
0000
,
0001
0000
0010
0100
1000
0000
0100
0010
,
0001
0000
0000
0001
0000
0000
0001
0000
0100
0000
0010
0000
1000
0000
0001
0000
,
0100
0010
0100
0000
0020
0000
1030
0001
,
1000
0000
0200
0000
1300
0001
1000
0001
,
0000
2002
0000
0000
,
0000
0000
0000
0000
,
0000
0000
0000
0000
,
0000
3003
0000
0000
;

//---------------dance-single - ----------------
#NOTEDATA:;
#CHARTNAME:;
#STEPSTYPE:dance-single;
#DESCRIPTION:;
#CHARTSTYLE:;
#DIFFICULTY:Beginner;
#METER:9;
#RADARVALUES:0.336054,0.381003,0.073226,0.256291,0.000000,257.000000,249.000000,8.000000,28.000000,0.000000,0.000000,0.000000,0.000000,0.000000,0.336054,0.381003,0.073226,0.256291,0.000000,257.000000,249.000000,8.000000,28.000000,0.000000,0.000000,0.000000,0.000000,0.000000;
#CREDIT:Kekkle;
#NOTES:
0000
0000
0000
0000
,
0000
0000
0000
0000
,
0000
0000
0000
0000
,
0000
0000
0000
0000
,
0000
0000
0000
0000
,
0000
0000
0000
0000
,
0000
0000
0000
0000
,
0001
1000
0001
1001
,
0000
0000
1000
0010
,
0010
1000
0001
0001
,
1000
0100
1000
1001
,
0000
0000
0001
0001
,
0100
0020
0000
0000
,
1030
0000
0001
1000
0001
0000
0100
0000
,
0010
1000
0100
0001
,
0010
0000
0100
0010
0100
0000
0001
0000
,
1000
0001
0000
1000
0000
0001
0000
0000
,
1000
0000
0010
1000
0010
0000
0100
0000
,
0001
0010
1000
0100
,
0001
0000
0100
0001
0100
0000
0010
0000
,
1000
1000
0001
0001
,
2000
0000
3010
0200
,
0000
0310
1000
0001
,
1000
0100
0010
0001
,
1000
0010
1000
0010
,
0000
0100
0010
1000
,
1000
0010
0100
0100
,
0002
0000
1003
2000
,
0000
0000
3000
0001
,
0100
0010
1000
0001
,
1000
0100
0010
0001
,
0000
1000
0010
0100
,
0100
0001
0100
0100
,
0020
0000
0000
0030
,
0000
0100
0220
0000
,
0330
2002
0000
3003
,
0001
1000
0001
2002
,
0000
3003
1001
0000
,
0001
1000
0100
1000
,
1000
0000
0001
0100
,
0001
1000
1000
0000
,
1000
0100
1000
0001
,
0001
0000
1000
0010
,
0100
0100
0002
0000
,
1000
1003
0000
0000
,
2000
0000
0001
3001
,
0000
0000
0001
0100
,
0010
1000
0001
0001
,
2000
0000
0000
0000
,
0000
0000
3000
0000
0001
1000
0001
0000
,
1000
1001
0000
0000
,
0001
0000
0100
0000
0010
0100
0020
0000
,
0030
1000
0001
1000
,
0100
0010
0200
0000
0300
0000
0010
0100
,
0010
0100
1000
0001
,
1000
0010
0200
0000
,
0010
0310
1000
0001
,
1000
0000
0100
0000
1000
0001
2000
0000
,
3000
1000
0010
0100
,
0001
1000
0002
0000
0003
0000
0001
0000
,
0100
0001
1000
0100
,
1000
0100
0020
0000
,
0000
0200
0330
0100
,
1000
1000
1000
0001
,
0001
0001
0100
0100
,
0100
0020
0000
0030
,
1000
1000
1000
0001
,
0001
0001
0010
0010
,
0010
0100
1000
0001
,
2000
0000
0000
0000
,
0000
0000
0000
0000
3001
0000
1000
0001
,
1000
0001
1000
0100
,
0001
0000
0010
0000
1000
0000
0010
0100
,
0010
0000
0100
0000
0001
1000
0000
0001
,
0000
1000
0000
0000
0001
0000
0010
0001
,
0010
0001
1000
0010
,
0001
0000
0100
0000
1000
0000
0010
1000
,
0010
0100
0001
1000
,
0010
0100
0020
0000
,
1030
0002
0000
1003
,
0000
2002
0000
0000
,
0000
0000
0000
0000
,
0000
0000
0000
0000
,
0000
3003
0000
0000
;

//---------------dance-single - ----------------
#NOTEDATA:;
#CHARTNAME:;
#STEPSTYPE:dance-single;
#DESCRIPTION:;
#CHARTSTYLE:;
#DIFFICULTY:Challenge;
#METER:18;
#RADARVALUES:0.917939,1.181111,0.430202,0.338670,0.814638,702.000000,655.000000,47.000000,37.000000,0.000000,0.000000,0.000000,0.000000,0.000000,0.917939,1.181111,0.430202,0.338670,0.814638,702.000000,655.000000,47.000000,37.000000,0.000000,0.000000,0.000000,0.000000,0.000000;
#CREDIT:Kekkle;
#NOTES:
// measure 0
0000
0000
0000
0000
,  // measure 1
0000
0000
0000
0000
,  // measure 2
0000
0000
0000
0000
,  // measure 3
0000
0000
0000
0000
,  // measure 4
0000
0000
0000
0000
,  // measure 5
0000
0000
0000
0000
,  // measure 6
0000
0000
0000
0000
,  // measure 7
0001
0000
0002
0000
0000
0000
2003
0000
0000
0000
3100
0010
0002
0000
0000
0000
,  // measure 8
0100
0000
0000
0000
1003
0000
0100
1000
0001
0000
0100
0000
0000
0000
0010
0000
,  // measure 9
0000
0000
1000
0010
0200
0000
0000
0000
0301
0000
1000
0000
1001
0000
0000
0000
,  // measure 10
0001
0000
0002
0000
0000
0000
2003
0000
0000
0000
3001
0100
0020
0000
0000
0000
,  // measure 11
1000
0000
0000
0000
0130
0000
0001
1000
0100
0000
0010
0000
0000
0000
0001
0000
,  // measure 12
0000
0100
0220
0000
0000
0000
0330
0000
,  // measure 13
0010
0000
1000
0001
1000
0100
0010
0001
1000
0000
0000
1010
0000
0000
0101
0000
,  // measure 14
0001
0000
1000
0100
0010
0100
1000
0001
0100
0000
0010
1000
0001
0010
0100
1000
,  // measure 15
0001
0000
0100
0010
1000
0010
0100
0001
1000
0000
0000
1001
0000
0000
0011
0000
,  // measure 16
0010
0000
0001
0010
0100
0000
1000
0001
0100
0000
0020
0000
0000
0000
0000
0000
,  // measure 17
1030
0000
0001
0100
0010
1000
0001
0010
0100
0000
0000
1001
0000
0000
1100
0000
,  // measure 18
1000
0000
0001
0100
0010
0100
0001
1000
0001
0000
1000
0100
0010
0001
1000
0001
,  // measure 19
0100
0000
0010
0100
0001
1000
0010
0100
0010
0000
0000
1010
0000
0000
0101
0000
,  // measure 20
0001
1000
0100
1000
0001
0100
0001
0010
0100
1000
0001
1000
0010
0100
1000
0100
,  // measure 21
0020
0000
0000
0000
1030
0001
0010
0100
1000
0001
0010
0100
2000
0000
0000
0000
,  // measure 22
3010
0100
0001
1000
0010
0100
0001
1000
0010
0000
0100
0000
0001
0000
1000
0000
,  // measure 23
0100
0010
0100
0000
1000
0000
0001
0000
1000
0000
0010
0000
0100
0010
0100
0000
,  // measure 24
0010
1000
0002
0000
0103
0010
2000
0000
,  // measure 25
3001
0010
0100
0010
1000
0010
0001
1000
,  // measure 26
0010
0100
0001
0000
1000
0000
0001
0000
0010
0000
0001
0000
1000
0100
0010
0000
,  // measure 27
0001
0000
1000
0000
0010
0000
0100
0000
0001
1000
0100
0010
0001
0000
1000
0000
,  // measure 28
0010
0000
0100
0000
0001
1000
0001
0000
1000
0000
0001
0000
1000
0000
0100
0000
,  // measure 29
0010
0001
0100
0000
0010
0000
1000
0000
0001
0000
0100
0000
0010
1000
0100
0000
,  // measure 30
0010
0001
0200
0000
0310
1000
0002
0000
,  // measure 31
0013
1000
0010
0001
0100
0010
1000
0001
,  // measure 32
0100
0001
0010
0000
0100
0000
1000
0000
0001
0000
0010
0000
0100
1000
0010
0000
,  // measure 33
1000
0000
0010
0000
0001
0000
0010
0000
1000
0001
0100
0000
0001
0000
0100
0000
,  // measure 34
0010
0010
1000
0000
1020
0000
0031
0000
,  // measure 35
1000
1200
0301
1000
,  // measure 36
0100
0010
0001
0010
0100
1000
0001
1000
0010
0100
0001
1000
0020
0000
0000
0000
,  // measure 37
0000
0000
0100
0000
0130
0200
0000
0301
,  // measure 38
1001
1000
0100
0001
1000
0010
0100
0000
,  // measure 39
0010
0020
0000
0031
1001
1000
0010
0001
,  // measure 40
1000
0100
0110
0010
1000
2000
0000
3001
,  // measure 41
0000
0001
0101
0100
0010
1000
0001
0000
,  // measure 42
1000
2000
0000
3001
0000
0001
1001
0000
,  // measure 43
1000
0100
0010
0001
1000
0000
0000
0000
0002
0000
0000
0000
0103
0000
0010
0000
,  // measure 44
0100
1000
0200
0000
0301
0010
0100
1000
,  // measure 45
0020
0000
0130
1000
0100
0001
0020
0000
,  // measure 46
0130
1000
0001
0100
0020
0000
1000
1030
,  // measure 47
0000
0001
1001
0000
1000
0000
0100
0010
,  // measure 48
0002
1000
1000
0203
,  // measure 49
0010
0000
0000
0000
0010
0000
0000
0000
0301
1000
0100
0010
0001
0100
0010
1000
,  // measure 50
0100
0010
0001
1000
0002
0000
0000
0000
0000
0000
0000
0000
1003
0000
0000
0000
,  // measure 51
0001
0000
1000
0100
0010
0100
1000
0001
1000
0010
0100
0001
0100
0000
0010
1000
,  // measure 52
0001
1000
0100
0010
0100
1000
0001
0100
0010
0000
1000
0010
0100
0001
1000
0100
,  // measure 53
1000
0001
1000
0100
0010
0000
0001
0000
1000
0000
0010
0000
0100
0001
1000
0000
,  // measure 54
0001
0000
1000
0100
0010
0001
1000
0001
0100
0010
1000
0010
0100
0000
0001
1000
,  // measure 55
0100
0000
0010
0001
0100
0000
1000
0100
0001
0000
1000
0000
0001
0000
0010
0000
,  // measure 56
0100
0000
1000
0000
0001
0100
0010
1000
0001
1000
0100
0010
0100
1000
0010
0100
,  // measure 57
0010
0000
1000
0001
0010
0100
1000
0010
0100
0001
1000
0100
0010
0000
0001
0100
,  // measure 58
0001
0010
0100
1000
0010
0100
0001
1000
0010
0000
1000
0100
1000
0001
0100
0001
,  // measure 59
0010
0100
1000
0001
0100
0000
0010
0000
1000
0000
0001
0000
0010
0100
1000
0000
,  // measure 60
0001
0000
0100
0010
1000
0001
0100
0001
0010
0100
0010
0001
1000
0000
0010
0100
,  // measure 61
0001
0000
1000
0100
0010
0000
1000
0010
0001
0000
1000
0000
0001
0000
0100
0000
,  // measure 62
1000
0000
0100
0000
0001
0000
1000
0000
0100
0000
0010
0000
0001
1000
0010
0000
,  // measure 63
0110
0000
0101
0001
1100
1000
0011
0000
,  // measure 64
1100
0000
0110
0000
1001
0000
1100
1000
,  // measure 65
0101
0001
1100
0000
1001
0000
0101
0010
,  // measure 66
1001
0000
1100
0001
0011
1000
1010
0000
,  // measure 67
1001
0000
1100
0000
0110
0001
1000
0010
,  // measure 68
0101
0001
1000
0010
0100
0100
0010
0010
,  // measure 69
0200
0000
0000
0000
,  // measure 70
0000
0000
0000
0000
0000
0000
0000
0000
0301
0000
1000
0100
0010
0001
1000
0001
,  // measure 71
0100
0000
0000
0110
0000
0000
1010
0000
1000
0000
0001
0010
0100
0010
0001
1000
,  // measure 72
0010
0000
0100
0010
1000
0100
0010
0001
1000
0000
0010
0100
0001
1000
0100
0010
,  // measure 73
0001
0000
0000
0011
0000
0000
0110
0000
0100
0000
1000
0001
0100
0000
1000
0100
,  // measure 74
0001
0000
0200
0000
0000
0000
0000
0000
0301
0000
1000
0010
0100
0001
0010
0100
,  // measure 75
1000
0000
0000
0101
0000
0000
1001
0000
1000
0000
0100
0010
0001
1000
0010
0100
,  // measure 76
0001
0000
0100
0010
1000
0001
0010
0100
1000
0000
0001
0100
0010
1000
0100
0010
,  // measure 77
0100
0000
0000
1001
0000
0000
1100
0000
0100
0010
0001
1000
0010
0100
0001
1000
,  // measure 78
0001
0010
0100
0001
0100
0010
0001
1000
0020
0000
0000
0000
0130
0001
1000
0100
,  // measure 79
0010
0001
0100
0010
0200
0000
0000
0000
1300
0100
0001
1000
0100
0010
0001
0100
,  // measure 80
0000
0220
0000
0000
,  // measure 81
0000
0000
0000
0000
,  // measure 82
0000
0000
0000
0000
,  // measure 83
0000
0330
0000
0000
;

//---------------dance-double - ----------------
#NOTEDATA:;
#CHARTNAME:;
#STEPSTYPE:dance-double;
#DESCRIPTION:;
#CHARTSTYLE:;
#DIFFICULTY:Challenge;
#METER:18;
#RADARVALUES:0.886556,1.181111,0.356976,0.411896,0.778025,678.000000,639.000000,39.000000,45.000000,0.000000,0.000000,0.000000,0.000000,0.000000,0.886556,1.181111,0.356976,0.411896,0.778025,678.000000,639.000000,39.000000,45.000000,0.000000,0.000000,0.000000,0.000000,0.000000;
#CREDIT:Kekkle;
#NOTES:
00000000
00000000
00000000
00000000
,
00000000
00000000
00000000
00000000
,
00000000
00000000
00000000
00000000
,
00000000
00000000
00000000
00000000
,
00000000
00000000
00000000
00000000
,
00000000
00000000
00000000
00000000
,
00000000
00000000
00000000
00000000
,
10000000
00000000
20000000
00000000
00000000
00000000
30020000
00000000
00000000
00000000
01030000
00001000
00010000
00000000
00000000
00000000
,
00000010
00000000
00000000
00000000
00001000
00000000
00000001
00000010
00000100
00000000
00000010
00000000
00000000
00000000
00000001
00000000
,
00000000
00001000
00001010
00000000
00000010
00010000
00011000
00000000
,
00001000
00000000
00002000
00000000
00000000
00000000
02003000
00000000
00000000
00000000
03100000
10000000
00010000
00000000
00000000
00000000
,
10000000
00000000
00000000
00000000
01000000
00000000
00100000
00001000
00010000
00000000
00001000
00000000
00000000
00000000
00010000
00000000
,
00000000
00010000
00022000
00000000
00000000
00000000
00033000
00000000
,
00001000
00000000
01000000
00100000
10000000
00010000
10000000
01000000
00100000
00000000
00000000
00110000
00000000
00000000
00101000
00000000
,
00001000
00000000
00010000
00000010
00001000
00000010
00000100
00000001
00001000
00000000
00000001
00000010
00000100
00001000
00000010
00010000
,
00001000
00000000
00010000
00001000
01000000
00010000
00100000
01000000
10000000
00000000
00000000
11000000
00000000
00000000
01100000
00000000
,
00100000
00000000
00001000
00010000
00000010
00000000
00001000
00000100
00000010
00000000
00000002
00000000
00000000
00000000
00000000
00000000
,
00001003
00000000
00000010
00001000
00000100
00010000
00001000
00100000
00001000
00000000
00000000
00011000
00000000
00000000
00101000
00000000
,
00100000
00000000
01000000
10000000
01000000
00100000
00010000
10000000
00010000
00000000
00100000
00001000
00010000
00000010
00001000
00000100
,
00000010
00000000
00000001
00000010
00000100
00001000
00000100
00000010
00000100
00000000
00000000
00001100
00000000
00000000
00010100
00000000
,
00010000
00001000
01000000
00010000
01000000
00100000
10000000
00010000
10000000
01000000
00100000
00010000
00100000
00001000
00010000
00000010
,
00002000
00000000
00000000
00000000
00003010
00000100
00000001
00001000
00000010
00000100
00000010
00010000
00002000
00000000
00000000
00000000
,
00013000
00001000
00100000
00010000
00100000
01000000
10000000
00010000
00100000
00000000
01000000
00000000
10000000
00000000
00010000
00000000
,
01000000
00001000
01000000
00000000
00010000
00000000
00100000
00000000
00001000
00000000
00010000
00000000
00000010
00010000
00000010
00000000
,
00001000
00000100
00000002
00000000
00000103
00001000
00000020
00000000
,
00010030
00000100
00010000
00001000
00200000
00000000
01300000
10000000
,
00100000
00010000
00002000
00000000
00013000
00000100
00000010
00000100
,
00001000
00000000
00000001
00000000
00000010
00000000
00001000
00000000
00010000
00000000
00000100
00010000
00001000
00000000
00100000
00000000
,
00010000
00000000
00100000
00000000
01000000
10000000
00010000
10000000
00010000
00000000
01000000
00000000
00001000
00000000
00100000
00000000
,
00001000
00010000
00001000
00000000
01000000
00000000
00001000
00000000
00010000
00000000
00000010
00000000
00010000
00001000
00010000
00000000
,
00000010
00000100
00002000
00000000
00003100
00000001
00002000
00000000
,
00003100
00010000
00001000
00010000
02000000
00000000
03100000
00010000
,
10000000
00100000
00020000
00000000
00031000
00010000
00100000
00010000
,
00001000
00000100
00000001
00001000
00000100
00000010
00000100
00010000
,
00001000
00001000
01000000
00000000
00020000
00000000
00032000
00000000
,
00003002
00002003
00023000
00230000
,
01300000
10000000
01000000
00100000
00010000
00100000
00001000
00010000
00000010
00001000
00000100
00000010
00000002
00000000
00000000
00000000
,
00000000
00000000
00001003
00000000
00000100
00000200
00000000
00010300
,
00011000
00001000
01000000
00100000
00010000
00100000
10000000
00000000
,
01000000
02000000
00000000
03010000
00011000
00001000
00100000
00001000
,
00010000
00000010
00000110
00000100
00000001
00000002
00000000
00002003
,
00000000
00003100
00010100
00000000
00020000
00000000
00032000
00000000
,
01003000
02000000
00000000
03100000
00000000
00100000
10010000
00000000
,
10000000
01000000
00100000
00010000
10000000
00000000
00000000
00000000
00020000
00000000
00000000
00000000
01030000
00000000
00001000
00000000
,
00010000
00000010
00000200
00000000
00001300
00000000
00010000
00000010
,
00000200
00000000
00000301
00000100
00001000
00000100
00000020
00000000
,
00010030
00000000
00001000
01000000
00200000
00000000
10000000
10300000
,
00000000
00010000
10010000
00000000
10000000
00000000
01000000
00010000
,
00002000
01000000
01000000
00023000
,
00000100
00000000
00000000
00000000
00000100
00000000
00000000
00000000
00031000
01000000
00010000
01000000
00001000
00010000
00000010
00001000
,
00000010
00010000
00001000
01000000
00002000
00000000
00000000
00000000
00000000
00000000
00000000
00000000
00013000
00000000
00000000
00000000
,
00001000
00000000
01000000
00100000
10000000
00010000
10000000
01000000
00100000
00010000
01000000
00001000
00010000
00000000
00000100
00001000
,
00000100
00000010
00000001
00001000
00000010
00010000
00000010
00001000
00000100
00000000
00010000
00000100
00010000
00001000
00100000
01000000
,
00100000
00010000
10000000
00010000
01000000
00000000
00010000
00000000
00100000
00000000
00001000
00000000
00010000
00000000
00000010
00000000
,
00000100
00000000
00000001
00001000
00000001
00000010
00000100
00001000
00000100
00000010
00000100
00010000
00001000
00000000
00010000
00001000
,
01000000
00000000
00100000
00010000
00001000
00000000
00010000
00100000
10000000
00000000
00010000
00000000
10000000
00000000
01000000
00000000
,
00100000
00000000
00001000
00000000
00010000
00000010
00001000
00000010
00000100
00000001
00001000
00000100
00010000
00001000
01000000
00010000
,
01000000
00000000
00100000
10000000
00010000
01000000
00100000
01000000
00001000
00010000
00000010
00001000
00000010
00000000
00000100
00000001
,
00001000
00000001
00000010
00000100
00001000
00000100
00010000
00001000
00010000
00000000
00001000
01000000
00010000
00100000
01000000
10000000
,
01000000
00100000
01000000
10000000
01000000
00000000
00100000
00000000
00001000
00000000
00010000
00000000
00000010
00000000
00001000
00000000
,
00000100
00000000
00000010
00000001
00001000
00000010
00010000
00000010
00001000
00000100
00010000
00001000
00010000
00000000
00001000
01000000
,
00100000
00000000
00010000
00001000
01000000
00000000
00010000
01000000
10000000
00000000
01000000
00000000
00100000
00000000
10000000
00000000
,
00010000
00000000
00100000
00000000
00001000
00000000
00010000
00000000
00000010
00000000
00001000
00000000
00000100
00000010
00000001
00000000
,
00001001
00000000
00000001
00001000
00010000
00001000
00001001
00000000
,
00010010
00000000
00010100
00000000
00011000
00000000
00001000
00010000
,
10000000
00010000
00011000
00000000
00101000
00000000
00100000
00010000
,
10010000
00000000
10000000
00010000
00001000
00010000
10010000
00000000
,
01001000
00000000
00101000
00000000
00011000
00010000
00000010
00000100
,
00000101
00000001
00001000
00000100
00010000
00010000
00001000
00001000
,
00020000
00000000
00000000
00000000
,
00000000
00000000
00000000
00000000
00000000
00000000
00000000
00000000
00031000
00000000
01000000
00010000
01000000
00100000
10000000
00010000
,
10000000
00000000
00000000
11000000
00000000
00000000
01100000
00000000
00100000
00000000
00001000
00100000
00001000
00010000
00000010
00001000
,
00000100
00000000
00000010
00000001
00000010
00000100
00001000
00000100
00000010
00000000
00000100
00010000
00001000
01000000
00010000
00100000
,
01000000
00000000
00000000
11000000
00000000
00000000
10010000
00000000
00010000
00000000
01000000
00001000
00010000
00000000
00000010
00001000
,
00000100
00000000
00000020
00000000
00000000
00000000
00000000
00000000
00000031
00000000
00001000
00000010
00000100
00000001
00001000
00000100
,
00000010
00000000
00000000
00001001
00000000
00000000
00001100
00000000
00000100
00000000
00010000
00001000
01000000
00010000
01000000
00100000
,
10000000
00000000
00010000
00100000
01000000
10000000
00100000
01000000
00010000
00000000
01000000
00001000
00010000
00000100
00001000
00000100
,
00000010
00000000
00000000
00000011
00000000
00000000
00001001
00000000
00001000
00000010
00010000
00000010
00001000
00000100
00010000
00001000
,
01000000
00010000
00100000
01000000
10000000
00010000
01000000
00010000
00200000
00000000
00000000
00000000
00301000
00010000
00000010
00001000
,
00000010
00000100
00000001
00001000
00000020
00000000
00000000
00000000
00010030
00000100
00010000
00001000
00100000
01000000
10000000
00010000
,
00000000
20020000
00000000
00000000
,
00000000
00000000
00000000
00000000
,
00000000
00000000
00000000
00000000
,
00000000
30030000
00000000
00000000
;

//---------------dance-double - ----------------
#NOTEDATA:;
#CHARTNAME:;
#STEPSTYPE:dance-double;
#DESCRIPTION:;
#CHARTSTYLE:;
#DIFFICULTY:Hard;
#METER:17;
#RADARVALUES:0.865634,1.181111,0.100686,0.283750,0.778025,662.000000,651.000000,11.000000,31.000000,0.000000,0.000000,0.000000,0.000000,0.000000,0.865634,1.181111,0.100686,0.283750,0.778025,662.000000,651.000000,11.000000,31.000000,0.000000,0.000000,0.000000,0.000000,0.000000;
#CREDIT:Kekkle;
#NOTES:
00000000
00000000
00000000
00000000
,
00000000
00000000
00000000
00000000
,
00000000
00000000
00000000
00000000
,
00000000
00000000
00000000
00000000
,
00000000
00000000
00000000
00000000
,
00000000
00000000
00000000
00000000
,
00000000
00000000
00000000
00000000
,
10000000
00000000
10000000
00000000
00000000
00000000
00010000
00000000
00000000
00000000
01000000
00001000
02000000
00000000
00000000
00000000
,
03002000
00000000
00000000
00000000
00013000
00000000
00000100
00001000
00000100
00000000
00000010
00000000
00000000
00000000
00000001
00000000
,
00000000
00001000
00000010
00000010
00000000
00010000
00000000
00001000
,
00100000
00000000
00100000
00000000
00000000
00000000
01000000
00000000
00000000
00000000
10000000
00010000
20000000
00000000
00000000
00000000
,
30020000
00000000
00000000
00000000
01030000
00000000
00001000
00010000
00001000
00000000
00100000
00000000
00000000
00000000
00001000
00000000
,
00000000
00010000
00022000
00000000
00000000
00000000
00033000
00000000
,
00001000
00000000
01000000
00010000
01000000
00010000
01000000
00100000
01000000
00000000
00010000
10000000
00000000
00010000
10000000
00000000
,
01000000
00000000
00100000
00010000
00100000
00010000
00100000
00000000
00001000
00000000
00010000
00001000
00010000
00001000
00010000
00000000
,
00000010
00000000
00001000
00000010
00001000
00000010
00000100
00000010
00001000
00000000
00000001
00001000
00000000
00000001
00001000
00000000
,
00000100
00000000
00010000
00000100
00010000
00000000
00001000
00010000
00001000
00000000
00020000
00000000
00000000
00000000
00030000
00000000
,
00001000
00000000
00100000
00010000
00100000
00010000
00100000
01000000
00100000
00000000
00010000
10000000
00000000
00010000
10000000
00000000
,
00100000
00000000
01000000
00001000
01000000
00001000
01000000
00000000
00010000
00000000
00100000
00010000
00100000
00010000
00100000
00000000
,
00001000
00000000
00010000
00000100
00010000
00000100
00001000
00000100
00010000
00000000
00000100
00001000
00000000
00000100
00001000
00000000
,
00000001
00000100
00000001
00000100
00000010
00001000
00000010
00000000
00010000
00000010
00010000
00000010
00010000
00001000
00010000
00000000
,
00002000
00000000
00000000
00000000
00103000
00010000
00100000
00010000
00100000
01000000
00100000
00000000
02000000
00000000
00000000
00000000
,
13000000
00010000
10000000
00010000
01000000
00001000
01000000
00001000
01000000
00000000
00010000
00000000
00100000
00000000
00001000
00000000
,
00010000
00000100
00010000
00000000
00000100
00000000
00000010
00000000
00000001
00000000
00001000
00000000
00000010
00010000
00000010
00000000
,
00010000
00001000
00100000
01000000
10000000
00010000
02000000
00000000
,
03001000
00000000
00010000
00000000
00000010
00001000
00000010
00000000
00000200
00000000
00000000
00000000
00000301
00000000
00001000
00000000
,
00000010
00010000
00000200
00000000
00010300
00001000
01000000
00010000
,
00200000
00000000
00000000
00000000
01300000
00000000
10000000
00000000
00010000
00000000
01000000
00001000
01000000
00000000
00010000
00000000
,
00100000
00000000
00001000
00000000
00010000
00001000
00010000
00001000
00010000
00000000
00000010
00000000
00001000
00000000
00000001
00000000
,
00000010
00000001
00000010
00000000
00000100
00000000
00010000
00000000
00000010
00000000
00001000
00000000
00000100
00010000
00000100
00000000
,
00010000
00001000
01000000
00100000
10000000
00010000
00200000
00000000
,
00301000
00000000
00010000
00000000
00000010
00001000
00000010
00000000
00000200
00000000
00000000
00000000
00000301
00000000
00001000
00000000
,
00000010
00000100
00002000
00000000
00013000
00000010
00010000
00001000
,
01000000
00010000
00100000
01000000
10000000
01000000
00100000
00001000
,
01000000
00010000
00100000
00000000
00002000
00000000
00100000
00000000
,
00013000
00020000
00000010
00031000
,
00010000
00001000
00010000
00001000
00010000
00001000
00010000
00001000
00010000
00001000
00100000
00001000
00020000
00000000
00000000
00000000
,
00000000
00000000
00031000
00000000
01000000
01000000
00000000
00010000
,
10000000
01000000
00010000
00001000
00100000
00001000
00010000
00000010
,
00000100
00000100
00000000
00000001
00000100
00001000
00010000
00000010
,
00001000
00000100
00010000
00001000
01000000
01000000
00000000
00010000
,
00000000
00010000
10000000
01000000
00100000
00001000
01000000
00010000
,
00100000
00100000
00000000
00001000
00000000
00001000
00010000
00000100
,
00000010
00000001
00000010
00000100
00000010
00000000
00000000
00000000
00000002
00000000
00000000
00000000
00000103
00000000
00001000
00000000
,
00010000
00000010
00002000
00000000
00003100
00010000
00001000
00100000
,
00020000
00000000
00130000
01000000
10000000
00010000
02000000
00000000
,
03001000
00010000
00000010
00001000
00000100
00000000
00000010
00000001
,
00000000
00000001
00001000
00000000
00000010
00000000
00010000
00000000
,
00002000
00000000
00000000
00000000
,
00000000
00000000
00000000
00000000
00003000
00000000
00000000
00000000
00010000
00001000
00010000
00001000
00100000
00010000
00100000
00010000
,
10000000
01000000
10000000
01000000
00200000
00000000
00000000
00000000
00000000
00000000
00000000
00000000
00310000
00000000
00000000
00000000
,
10000000
00000000
00010000
01000000
00010000
01000000
00010000
01000000
00001000
01000000
00010000
01000000
00001000
00000000
00010000
00001000
,
00010000
00001000
00010000
00001000
00010000
00000100
00001000
00000100
00010000
00000000
00000010
00001000
00000010
00001000
00000010
00001000
,
00000001
00001000
00000010
00001000
00000001
00000000
00001000
00000100
00001000
00000100
00001000
00000100
00010000
00000100
00001000
00000100
,
00010000
00000000
00001000
01000000
00001000
00000000
00100000
00010000
00100000
00000000
01000000
00000000
10000000
00000000
00010000
00100000
,
00010000
00000000
01000000
00001000
01000000
00000000
00001000
00000000
00010000
00000000
00000010
00000000
00001000
00000000
00000100
00000000
,
00000010
00000000
00000001
00000000
00001000
00000010
00001000
00000010
00010000
00001000
00010000
00001000
00100000
00010000
00100000
01000000
,
00100000
00000000
00010000
10000000
00010000
10000000
00010000
10000000
00100000
10000000
00010000
10000000
00100000
00000000
01000000
00001000
,
01000000
00001000
01000000
00001000
00010000
00001000
01000000
00001000
00010000
00000000
00000100
00001000
00000100
00001000
00000100
00001000
,
00000001
00001000
00000100
00001000
00000001
00000000
00000100
00000010
00000100
00000010
00000100
00000010
00001000
00000010
00000100
00000010
,
00001000
00000000
00000010
00010000
00000010
00000000
00010000
00001000
00010000
00000000
00001000
00000000
00100000
00000000
00010000
00100000
,
00010000
00000000
10000000
00010000
10000000
00000000
00100000
00000000
01000000
00000000
00001000
00000000
00010000
00000000
00000100
00000000
,
00000010
00000000
00000100
00000000
00001000
00000000
00000001
00000000
00000100
00000000
00000010
00000000
00010000
00001000
00010000
00000000
,
00011000
00000000
00001000
01000000
00010000
00100000
00110000
00000000
,
00001000
00010000
00000010
00001000
00001010
00000000
00010000
00001000
,
01000000
00010000
01010000
00000000
10100000
00000000
11000000
00000000
,
00110000
00000000
00001000
00010000
00000100
00001000
00001100
00000000
,
00010000
00001000
01000000
00010000
01010000
00000000
01000000
00100000
,
10000000
00010000
00100000
00001000
00010000
00000100
00000010
00000001
,
00002000
00000000
00000000
00000000
,
00000000
00000000
00000000
00000000
00000000
00000000
00000000
00000000
00003001
00000000
00001000
00000010
00001000
00000010
00010000
00000010
,
00001000
00000000
00000010
00010000
00000000
00000010
00010000
00000000
00001000
00000000
00100000
00010000
00100000
01000000
00100000
00000000
,
00010000
00000000
10000000
00100000
01000000
00100000
10000000
00000000
00010000
00000000
01000000
00001000
01000000
00001000
00010000
00001000
,
01000000
00000000
00001000
00010000
00000000
00001000
00010000
00000000
00000100
00000000
00001000
00000100
00001000
00000000
00000001
00000100
,
00000001
00000000
00000200
00000000
00000000
00000000
00000300
00000000
00000010
00000000
00001000
00000010
00001000
00000010
00010000
00000010
,
00001000
00000000
00000010
00010000
00000000
00000010
00010000
00000000
00001000
00000000
00100000
00010000
00100000
00001000
00100000
00000000
,
00010000
00000000
01000000
00001000
01000000
00010000
01000000
00000000
00100000
00000000
10000000
00010000
10000000
00010000
00100000
00010000
,
10000000
00000000
00010000
01000000
00000000
00010000
01000000
00000000
00001000
00010000
00001000
00010000
00000100
00001000
00000100
00000000
,
00000010
00000001
00000010
00000001
00001000
00000010
00010000
00000010
00002000
00000000
00000000
00000000
00003010
00010000
00000010
00010000
,
00001000
00100000
00010000
00100000
00020000
00000000
00000000
00000000
10030000
00100000
10000000
00010000
01000000
00001000
00010000
00000100
,
00000000
00002002
00000000
00000000
,
00000000
00000000
00000000
00000000
,
00000000
00000000
00000000
00000000
,
00000000
00003003
00000000
00000000
;

//---------------dance-double - ----------------
#NOTEDATA:;
#CHARTNAME:;
#STEPSTYPE:dance-double;
#DESCRIPTION:;
#CHARTSTYLE:;
#DIFFICULTY:Medium;
#METER:15;
#RADARVALUES:0.679955,0.914408,0.164758,0.219678,0.283750,520.000000,502.000000,18.000000,24.000000,0.000000,0.000000,0.000000,0.000000,0.000000,0.679955,0.914408,0.164758,0.219678,0.283750,520.000000,502.000000,18.000000,24.000000,0.000000,0.000000,0.000000,0.000000,0.000000;
#CREDIT:Kekkle;
#NOTES:
00000000
00000000
00000000
00000000
,
00000000
00000000
00000000
00000000
,
00000000
00000000
00000000
00000000
,
00000000
00000000
00000000
00000000
,
00000000
00000000
00000000
00000000
,
00000000
00000000
00000000
00000000
,
00000000
00000000
00000000
00000000
,
10000000
10000000
00000000
00010000
00000000
01000000
00001000
00000000
,
00010000
00000000
00010000
00000000
00000010
00000010
00000000
00001000
,
00000000
00000001
00000010
00000000
00000100
00010000
00001000
00000000
,
01000000
01000000
00000000
00100000
00000000
10000000
00010000
00000000
,
00100000
00000000
00100000
00000000
00001000
00001000
00000000
00010000
,
00000000
00010000
00002000
00000000
00000000
00000000
00000000
00000000
,
01003000
00000000
00010000
00000000
01000000
00000000
00100000
00000000
10000000
00000000
00000000
00010000
00000000
00000000
00010000
00000000
,
00100000
00000000
00001000
00010000
00001000
00000000
00010000
00000000
00000100
00000000
00010000
00001000
00010000
00000000
00001000
00000000
,
01000000
00000000
00010000
00000000
00100000
00000000
00001000
00000000
00010000
00000000
00000000
00000100
00000000
00000000
00000100
00000000
,
00000010
00000011
00000000
00001100
00000000
00002002
00000000
00003003
,
00000001
00000000
00001000
00000000
00000010
00000000
00010000
00000000
00000100
00000000
00000000
00010000
00000000
00000000
00010000
00000000
,
00001000
00000000
00100000
00010000
00100000
00000000
00001000
00000000
00010000
00000000
00000010
00001000
00000010
00000000
00010000
00000000
,
00001000
00000000
00100000
00000000
01000000
00000000
10000000
00000000
00010000
00000000
00000000
01000000
00000000
00000000
01000000
00000000
,
00001000
00010000
00001000
00000000
00010000
00000010
00010000
00000000
00000100
00001000
00000100
00000010
00000001
00001000
00000001
00000000
,
00002000
00000000
00000000
00000000
00003010
00010000
00000010
00010000
00001000
00010000
00001000
00000000
00020000
00000000
00000000
00000000
,
00031000
00100000
00001000
00100000
00010000
00100000
00010000
00000000
10000000
00000000
00100000
00000000
01000000
00000000
00001000
00000000
,
00100000
00010000
00100000
00001000
00010000
00000010
00001000
00000100
,
00000010
00000100
00001000
00000001
00000100
00000010
00002000
00000000
,
00003100
00010000
00001000
00100000
00010000
00000000
00110000
00000000
,
11000000
00010000
01010000
01001000
,
00002000
00000000
00000000
00000000
00013000
00000000
00000010
00000000
00000100
00000000
00000001
00001000
00000001
00000000
00001000
00000000
,
00000010
00000000
00010000
00000000
00001000
00000000
00010000
00001000
00010000
00000000
00001000
00000000
01000000
00000000
00010000
00000000
,
00100000
01000000
10000000
00010000
01000000
00100000
00010000
00001000
,
00100000
00001000
00010000
00000100
00000010
00000100
00002000
00000000
,
00003001
00000100
00000010
00010000
00000100
00000000
00001100
00000000
,
00000011
00001000
00001010
00010010
,
00010000
00001000
00100000
00001000
00010000
01000000
10000000
00010000
,
01000000
00100000
10000000
00000000
00010000
00000000
00100000
00000000
,
00001000
00010000
00000010
00000100
,
00000001
00001000
00000001
00001000
00000100
00000000
00000010
00000000
00000100
00000000
00010000
00000000
00022000
00000000
00000000
00000000
,
00000000
00000000
00033000
00000000
00001000
00001000
00000000
01000000
,
00100000
10000000
00010000
00000000
00100000
00001000
00010000
00000000
,
00001000
00001000
00000000
00010000
00000010
00000000
00000100
00000001
,
00001000
00000010
00000100
00000000
00000010
00000010
00000000
00010000
,
00000000
00010000
00001000
00000000
01000000
00000000
00010000
00000000
,
00100000
00100000
00000000
01000000
00000000
01000000
10000000
00000000
,
00010000
01000000
00010000
01000000
00001000
00000000
00000000
00000000
00020000
00000000
00000000
00000000
00001000
00000000
00000000
00000000
,
00001000
00000000
00030020
00000000
00000030
00000000
00001000
00000001
,
00000200
00000010
00000010
00002300
,
00003000
00000000
00010000
00001000
01000000
00000000
00100000
01000000
,
00000000
01000000
00100000
00000000
10000000
00000000
00010000
00000000
,
00200000
00000000
00000000
00000000
,
00000000
00000000
00000000
00000000
00300000
00000000
00000000
00000000
00001000
00010000
00001000
00000000
00010000
00000010
00010000
00000000
,
00000100
00001000
00000100
00001000
00000002
00000000
00000000
00000000
00000000
00000000
00000000
00000000
00000003
00000000
00000000
00000000
,
00001000
00000000
00000010
00000000
00010000
00000000
00001000
00000000
00100000
00000000
01000000
00100000
01000000
00000000
10000000
00000000
,
00010000
00000000
01000000
00000000
00001000
00000000
00010000
00000100
00010000
00000000
00000100
00000000
00001000
00000000
00000100
00000000
,
00000010
00000000
00000001
00001000
00000001
00000000
00000100
00000000
00001000
00000000
00010000
00000000
00000010
00000000
00001000
00000100
,
00001000
00000100
00010000
00001000
01000000
00100000
00010000
00001000
,
00010000
00100000
01000000
00010000
20000000
00000000
31000000
00010000
,
00001000
00000000
00100000
00000000
00010000
00100000
00010000
00000000
00100000
00001000
00100000
00000000
00001000
00010000
00000010
00010000
,
00001000
00000000
00010000
00000000
00000100
00000000
00000010
00000000
00000100
00000000
00001000
00000001
00001000
00000000
00000010
00000000
,
00000100
00000000
00001000
00000000
00010000
00000000
00000100
00001000
00000100
00000000
00010000
00000000
00001000
00000000
01000000
00000000
,
00100000
00000000
10000000
00010000
10000000
00000000
00010000
00000000
00100000
00000000
00001000
00000000
00010000
00000000
00000100
00001000
,
00000100
00000010
00000001
00000100
00001000
00010000
00000010
00001000
,
00000100
00010000
00001000
00100000
01000000
00100000
00010000
01000000
,
10000000
00000000
01000000
00000000
00100000
00000000
10000000
00000000
00010000
00000000
00100000
00000000
00001000
00010000
00001000
00000000
,
00011000
00000000
00001000
01000000
00010000
00100000
00001000
00000000
,
00010000
00000010
00001000
00000100
00010000
00000000
00001000
01000000
,
00010000
00100000
00001000
00000000
01000000
00000000
00100000
00000000
,
10010000
00000000
10000000
01000000
00010000
00001000
00010000
00000000
,
00001000
00000100
00000001
00001000
00000010
00000000
00010000
00001000
,
00010000
01000000
00100000
00001000
00010000
00000010
00000100
00001000
,
00020000
00000000
00000000
00000000
,
00000000
00000000
00000000
00000000
00031000
01000000
00100000
10000000
,
00010000
00000000
00000000
01000000
00000000
00000000
01000000
00000000
00001000
00000000
00010000
00001000
00010000
00000000
00000010
00000000
,
00001000
00000000
00000100
00001000
00000100
00000000
00000010
00000000
00000001
00000000
00001000
00000000
00000010
00000000
00000100
00000000
,
00001000
00000000
00000000
00010000
00000000
00000000
00010000
00000000
00001000
00000000
01001000
00000000
00000000
00000000
01100000
00000000
,
00000000
20020000
00000000
30030000
00010000
10000000
01000000
00100000
,
00001000
00000000
00000000
00010000
00000000
00000000
00010000
00000000
00000010
00000000
00000100
00000001
00000100
00000000
00000010
00000000
,
00010000
00000000
00000100
00001000
00000100
00000000
00010000
00000000
00001000
00000000
00100000
00000000
01000000
00000000
10000000
00000000
,
00010000
00000000
00000000
01000000
00000000
00000000
01000000
00000000
00100000
10000000
00100000
00000000
01000000
00010000
01000000
00000000
,
00001000
00010000
00001000
00010000
00000100
00001000
00000100
00000000
00000020
00000000
00000000
00000000
00000031
00001000
00000001
00001000
,
00000100
00001000
00000100
00000000
00020000
00000000
00000000
00000000
00031000
01000000
00001000
01000000
00100000
10000000
00100000
10000000
,
00000000
20020000
00000000
00000000
,
00000000
00000000
00000000
00000000
,
00000000
00000000
00000000
00000000
,
00000000
30030000
00000000
00000000
;

//---------------dance-double - ----------------
#NOTEDATA:;
#CHARTNAME:;
#STEPSTYPE:dance-double;
#DESCRIPTION:;
#CHARTSTYLE:;
#DIFFICULTY:Easy;
#METER:11;
#RADARVALUES:0.422356,0.571505,0.018306,0.283750,0.036613,323.000000,321.000000,2.000000,31.000000,0.000000,0.000000,0.000000,0.000000,0.000000,0.422356,0.571505,0.018306,0.283750,0.036613,323.000000,321.000000,2.000000,31.000000,0.000000,0.000000,0.000000,0.000000,0.000000;
#CREDIT:Kekkle;
#NOTES:
00000000
00000000
00000000
00000000
,
00000000
00000000
00000000
00000000
,
00000000
00000000
00000000
00000000
,
00000000
00000000
00000000
00000000
,
00000000
00000000
00000000
00000000
,
00000000
00000000
00000000
00000000
,
00000000
00000000
00000000
00000000
,
00000001
00001000
00000000
00001000
00000000
00000010
00020000
00000000
,
00000000
00000000
00030000
00000000
00001000
01000000
00000000
01000000
,
00000000
00100000
10000000
00000000
00010000
10000000
00010000
00000000
,
00100000
00001000
00000000
00001000
00000000
00010000
00000020
00000000
,
00000000
00000000
00000030
00000000
00001000
00000001
00000000
00000001
,
00000000
00001000
00000002
00000000
00000000
00000000
00000000
00000000
,
00001003
00000000
00000000
00000000
00000010
00000000
00010000
00000000
00001000
00000000
00000000
00001000
00000000
00000000
00001000
00000000
,
01000000
00000000
00010000
00100000
01000000
00000000
10000000
00010000
,
10000000
00000000
00000000
00000000
00010000
00000000
01000000
00000000
00001000
00000000
00000000
00001000
00000000
00000000
00001000
00000000
,
00010000
00000010
00000000
00000010
00000000
00000020
00000000
00000030
,
00001000
00000000
00000000
00000000
00000001
00000000
00000010
00000000
00000100
00000000
00000000
00000100
00000000
00000000
00000100
00000000
,
00010000
00000000
00000010
00001000
00000100
00000000
00010000
00001000
,
01000000
00000000
00000000
00000000
00010000
00000000
01000000
00000000
00100000
00000000
00000000
00100000
00000000
00000000
00100000
00000000
,
10000000
00010000
00100000
00001000
00100000
00010000
01000000
00000000
,
00002000
00000000
00013000
00000010
00000100
00000010
00002000
00000000
,
00003001
00000010
00000100
00000010
00000001
00000000
00001000
00000010
,
00010000
00000100
00001000
00000000
00000100
00000000
00010000
00000000
,
00001000
00000000
01000000
00000000
00100000
10000000
00020000
00000000
,
00030000
00000000
10000000
01000000
00100000
00000000
00001000
00000000
,
00001000
00010000
00000010
00000010
,
00000200
00000000
00000001
00000002
,
00000000
00000000
00000303
00000000
00001001
00000000
00001000
00000010
,
00010000
00000100
00010000
00000000
00001000
00000000
01000000
00000000
,
00010000
00000000
10000000
00000000
00100000
10000000
00010000
00000000
,
00000000
00000000
00100000
00001000
00010000
00000000
00000010
00000000
,
00000010
00001000
00000001
00000001
,
00000200
00000000
00000000
00000310
,
00010000
00010000
00001000
01000000
,
01000000
00100000
10000000
10000000
,
00020000
00000000
00000000
20000000
,
30030000
00000000
00010000
00000000
00100000
00001000
00000000
00010000
,
00000010
00001000
00000100
00000010
,
00000001
00001000
00000000
00000010
00010000
00000000
00000100
00000000
,
00001000
00000000
00000100
00000000
00010000
00001000
00000000
01000000
,
00000000
01000000
00010000
00000000
10000000
00000000
00100000
00000000
,
01000000
00001000
00000000
00010000
00000000
00010000
00000100
00000000
,
00001000
00000100
00001000
00000000
00000001
00000000
00000100
00000000
,
00000100
00000010
00000000
00010000
,
00001000
01000000
01000000
00010000
,
00000000
00000000
10000000
00000000
01000000
00000000
00100000
00010000
,
00000000
00100000
00001000
00000000
00010000
00000000
00000010
00000000
,
00000200
00000000
00000000
00000000
,
00000000
00000000
00000300
00000000
00000010
00001000
00000001
00000100
,
00000010
00010000
00002000
00000000
00000000
00000000
00003000
00000000
,
01000000
00000000
00010000
10000000
00100000
01000000
00020000
00000000
,
00030000
00000000
01000000
00001000
00010000
00000000
00000100
00001000
,
00000100
00000010
00000002
00000000
00000003
00000000
00001000
00000010
,
00010000
00001000
01000000
00010000
,
00100000
01000000
20000000
30000000
,
00010000
01000000
00100000
00000000
10000000
00010000
00100000
00001000
,
00100000
00000000
00001000
00010000
00000010
00001000
00000020
00000000
,
00000030
00000000
00000100
00000001
00001000
00000000
00000010
00010000
,
00000100
00010000
00002000
00000000
00003000
00000000
01000000
00100000
,
10000000
00010000
00100000
00001000
,
00010000
00000010
00000200
00000000
,
00000000
00000000
00000002
00000000
00000303
00000000
00000001
00001000
,
00000002
00000000
00000003
00001000
,
00000010
00010000
00002000
00000000
,
00003000
02000000
00000000
03000000
,
00200000
00000000
00300000
10000000
,
00010000
00100000
00002000
00000000
,
00003000
00010000
00000010
00000100
,
00000020
00000000
00000000
00000000
,
00000000
00000000
00000000
00000000
00001030
00000000
00000001
00000010
,
00000100
00000000
00000000
00000100
00000000
00000000
00000100
00000000
00010000
00000000
00000000
00000000
00001000
00000000
00010000
00000000
,
00000100
00000000
00010000
00001000
01000000
00000000
00100000
10000000
,
00010000
00000000
00000000
00010000
00000000
00000000
00010000
00000000
00100000
00000000
00001000
00000000
00000000
00000000
00001000
00000000
,
00000000
00001000
00000000
00000000
00010000
00000000
00000010
00000100
,
00000001
00000000
00000000
00000001
00000000
00000000
00000001
00000000
00000100
00000000
00000000
00000000
00000010
00000000
00010000
00000000
,
00001000
00000000
00010000
00001000
00100000
00000000
01000000
10000000
,
00010000
00000000
00000000
00010000
00000000
00000000
00010000
00000000
01000000
00000000
00001000
00000000
00010000
00000000
00000010
00000000
,
00010000
00000100
00001000
00000000
00000002
00000000
00000103
00000010
,
00001000
00000010
00000200
00000000
00000310
00010000
00001000
00010000
,
00000000
00022000
00000000
00000000
,
00000000
00000000
00000000
00000000
,
00000000
00000000
00000000
00000000
,
00000000
00033000
00000000
00000000
;
