#VERSION:0.83;
#TITLE:DAYWALKER!;
#SUBTITLE:;
#ARTIST:Machine Gun Kelly & CORPSE;
#TITLETRANSLIT:;
#SUBTITLETRANSLIT:;
#ARTISTTRANSLIT:;
#GENRE:;
#ORIGIN:;
#CREDIT:;
#BANNER:DAYWALKER!.png;
#BACKGROUND:DAYWALKER!-bg.png;
#PREVIEWVID:;
#JACKET:DAYWALKER!-jacket.png;
#CDIMAGE:;
#DISCIMAGE:;
#LYRICSPATH:;
#CDTITLE:;
#MUSIC:DAYWALKER!.ogg;
#OFFSET:1.186000;
#SAMPLESTART:86.404297;
#SAMPLELENGTH:15.000000;
#SELECTABLE:YES;
#BPMS:0.000=178.000,
228.000=89.000,
242.750=170.000,
244.000=178.000;
#STOPS:242.750=0.089,
242.979=0.089,
243.208=0.089,
243.458=0.089,
324.000=2.360;
#DELAYS:;
#WARPS:;
#TIMESIGNATURES:0.000=4=4;
#TICKCOUNTS:0.000=4;
#COMBOS:0.000=1;
#SPEEDS:0.000=1.000=0.000=0;
#SCROLLS:0.000=1.000,
73.000=0.750,
84.000=1.000,
169.000=0.750,
180.000=1.000,
281.000=0.500,
292.000=1.000;
#FAKES:;
#LABELS:0.000=Song Start;
#BGCHANGES:;
#KEYSOUNDS:;
#ATTACKS:
;

//---------------dance-single - ----------------
#NOTEDATA:;
#CHARTNAME:;
#STEPSTYPE:dance-single;
#DESCRIPTION:;
#CHARTSTYLE:;
#DIFFICULTY:Hard;
#METER:14;
#RADARVALUES:0.653201,0.759437,0.087093,0.290312,0.137898,630.000000,618.000000,12.000000,40.000000,48.000000,0.000000,0.000000,0.000000,0.000000,0.653201,0.759437,0.087093,0.290312,0.137898,630.000000,618.000000,12.000000,40.000000,48.000000,0.000000,0.000000,0.000000,0.000000;
#CREDIT:Kekkle;
#NOTES:
// measure 0
0000
0000
0000
0000
,  // measure 1
0000
0000
0000
0000
,  // measure 2
0000
0000
0000
0000
,  // measure 3
0000
0000
0000
0000
,  // measure 4
0000
0000
0000
0000
,  // measure 5
0000
0000
0000
0000
,  // measure 6
0000
0000
0000
0000
,  // measure 7
0000
0000
0000
0000
,  // measure 8
0000
0000
0000
0000
0001
0100
0001
0010
,  // measure 9
0100
1000
0001
0100
0001
0000
0100
0010
,  // measure 10
0010
0000
1000
0001
1000
0100
0010
0001
,  // measure 11
1000
0100
0001
0000
0001
0100
1000
0000
,  // measure 12
0001
0000
0100
0000
1000
0000
0100
0000
0001
0000
1000
0000
0001
1000
0001
0000
,  // measure 13
1000
0100
0010
0001
0100
0000
0010
0100
,  // measure 14
0100
0000
0001
1000
0100
0010
0001
1000
,  // measure 15
0002
0000
0103
0000
0010
1000
0100
1000
,  // measure 16
0001
0000
0010
0000
0001
0000
0100
0000
0010
0000
1000
0000
0001
1000
0001
0000
,  // measure 17
1000
0100
1000
0010
0100
0000
0001
0100
,  // measure 18
0100
0000
0000
0010
1000
0001
0010
0100
,  // measure 19
1000
0001
1000
0100
M101
0000
1100
0000
,  // measure 20
1000
0000
0010
0000
M011
0000
0000
0000
1010
0000
0000
0000
1000
0001
1000
0000
,  // measure 21
0100
0010
0001
0100
0010
0000
2000
0010
,  // measure 22
3020
0000
1030
0001
0010
0100
1000
0010
,  // measure 23
0100
0001
0010
0001
1000
0010
1000
0100
,  // measure 24
0010
0000
0001
0000
1000
0000
0010
0000
0100
0000
0001
0000
1000
0001
1000
0000
,  // measure 25
0001
0010
0100
0M01
1000
0010
0100
1M00
,  // measure 26
0001
0010
0100
0M01
1000
0010
0100
1M00
,  // measure 27
0001
0010
0100
0M01
1000
0010
0100
1M00
,  // measure 28
0001
0000
0010
0000
0100
0000
0M01
0000
1000
0000
0010
0000
0100
0010
0100
0000
,  // measure 29
0001
0100
0010
00M1
1000
0100
0010
10M0
,  // measure 30
0001
0100
0010
00M1
1000
0100
0010
10M0
,  // measure 31
0001
0100
0010
00M1
1000
0100
0010
10M0
,  // measure 32
0001
0100
0020
0030
0020
1030
0001
0010
,  // measure 33
0100
0010
0001
0100
0020
0000
0030
0000
,  // measure 34
1000
0001
0100
0001
0010
0100
1000
0010
,  // measure 35
0100
1000
0100
0010
1000
0000
0001
0010
,  // measure 36
0100
0000
0001
0000
0100
0000
0010
0000
0001
0000
0000
0000
1000
0001
1000
0000
,  // measure 37
0100
0010
0001
0100
0020
0000
1030
0000
,  // measure 38
0200
0000
0010
0000
1300
0000
0001
0100
,  // measure 39
0010
1000
0001
0100
1000
0100
0010
1000
,  // measure 40
0001
0000
1000
0000
0100
0000
0010
0000
0001
0000
1000
0000
0001
1000
0001
0000
,  // measure 41
0100
0010
2000
3001
2000
0000
3100
0010
,  // measure 42
0001
0000
0000
1000
0100
0010
0001
0100
,  // measure 43
0010
1000
0001
0010
101M
0000
0011
0000
,  // measure 44
0001
0000
0100
0000
110M
0000
0000
0000
0101
0000
0000
0000
0001
1000
0001
0000
,  // measure 45
1000
0001
0100
0001
0020
0000
0130
1000
,  // measure 46
0020
0000
1000
0000
0130
0000
0001
1000
,  // measure 47
0001
0010
1000
0010
0100
1000
0001
0100
,  // measure 48
0010
1000
0010
0100
0002
0000
1003
0000
,  // measure 49
0001
0100
0010
00M1
1000
0100
0010
10M0
,  // measure 50
0001
0100
0010
00M1
1000
0100
0010
10M0
,  // measure 51
0001
0100
0010
00M1
1000
0100
0010
10M0
,  // measure 52
0001
0000
0100
0000
0010
0000
00M1
0000
1000
0000
0100
0000
0010
0100
0010
0000
,  // measure 53
0001
0010
0100
0M01
1000
0010
0100
1M00
,  // measure 54
0001
0010
0100
0M01
1000
0010
0100
1M00
,  // measure 55
0001
0010
0100
0M01
1000
0010
0100
1M00
,  // measure 56
0001
0010
0200
0300
0200
0300
0100
0M00
,  // measure 57
0002
0000
0000
0000
2003
0000
0002
0003
,  // measure 58
3020
0100
0000
2030
3200
0000
0320
0031
,  // measure 59
2000
0000
0000
0000
3002
0000
2000
3000
,  // measure 60
0023
0000
0000
0100
0000
0000
0000
0000
0000
0032
0000
0000
0203
0000
0000
0000
0300
0000
0000
0000
0000
0000
0000
0000
,  // measure 61
0000
0001
1000
0100
0010
0100
1000
0010
,  // measure 62
0100
0001
0010
0001
1000
1000
2000
3000
,  // measure 63
0000
0010
0100
0001
0100
0010
1000
0100
,  // measure 64
0010
0000
0001
0000
1000
0000
0010
0000
0100
0000
0100
0000
0100
0010
0100
0000
,  // measure 65
0000
0001
0100
0001
0010
0100
0010
0001
,  // measure 66
0100
0010
1000
0100
0010
0010
0020
0030
,  // measure 67
0000
0001
1000
0010
1000
0100
0010
0001
,  // measure 68
0100
0000
0010
0000
1000
0000
0001
0000
0100
0000
0100
0000
0100
0010
0100
0000
,  // measure 69
0000
0001
2000
0000
3200
0000
0310
0001
,  // measure 70
1000
0000
0000
0001
0100
0010
1000
0100
,  // measure 71
1000
0001
1000
0100
M101
0000
1100
0000
,  // measure 72
1000
0010
M011
0000
1010
0000
1000
0100
,  // measure 73
0010
0001
0100
0001
0010
0100
1000
0010
,  // measure 74
0100
0001
0100
0010
1000
1000
2000
3000
,  // measure 75
0001
0010
0100
0010
0001
0100
0010
1000
,  // measure 76
0001
0000
0010
0000
0100
0000
0010
0000
0001
0000
0001
0000
0001
1000
0001
0000
,  // measure 77
0100
0010
1000
0100
0010
0010
0020
0030
,  // measure 78
0001
1000
0100
1000
0010
0010
0020
0030
,  // measure 79
1000
0001
1000
0100
0010
0001
0100
0010
,  // measure 80
1000
0001
1000
0001
1000
0001
1000
0000
,  // measure 81
0000
0000
0001
0100
0001
1000
0100
1000
,  // measure 82
0010
0000
0000
0100
0000
0000
0001
0000
0010
0000
0001
0000
0010
0000
0100
0000
0010
0000
0100
0000
1000
0000
0100
0000
,  // measure 83
2000
3000
0001
0100
0010
1000
0100
1000
,  // measure 84
0010
0000
0000
0100
0000
0000
0001
0000
0100
0000
0001
0000
0100
0000
0010
0000
0100
0000
0010
0000
1000
0000
0010
0000
,  // measure 85
2000
0000
0000
3000
0000
0000
0000
0000
0001
0000
0010
0000
0001
0000
0010
0000
0100
0000
1000
0000
0010
0000
1000
0000
,  // measure 86
0010
0100
0001
1000
0100
1000
0100
0010
0100
0010
0001
0010
,  // measure 87
0002
0003
0000
0000
1000
M000
0000
0000
,  // measure 88
1000
M000
0000
0000
1000
M000
0000
0000
,  // measure 89
1000
M000
1000
0010
0100
1M00
0001
0010
,  // measure 90
0100
0M01
1000
0010
0100
1M00
0001
0010
,  // measure 91
0100
0M01
1000
0100
0010
10M0
0001
0100
,  // measure 92
0010
00M1
1000
0100
0010
10M0
0001
0100
,  // measure 93
0010
00M1
1000
0010
0100
1M00
0001
0010
,  // measure 94
0100
0M01
1000
0000
0020
0030
0020
0030
,  // measure 95
0010
00M0
0000
0000
0000
0000
0000
0000
;

//---------------dance-double - ----------------
#NOTEDATA:;
#CHARTNAME:;
#STEPSTYPE:dance-double;
#DESCRIPTION:;
#CHARTSTYLE:;
#DIFFICULTY:Hard;
#METER:14;
#RADARVALUES:0.651127,0.759437,0.087093,0.290312,0.137898,628.000000,616.000000,12.000000,40.000000,48.000000,0.000000,0.000000,0.000000,0.000000,0.651127,0.759437,0.087093,0.290312,0.137898,628.000000,616.000000,12.000000,40.000000,48.000000,0.000000,0.000000,0.000000,0.000000;
#CREDIT:Kekkle;
#NOTES:
00000000
00000000
00000000
00000000
,
00000000
00000000
00000000
00000000
,
00000000
00000000
00000000
00000000
,
00000000
00000000
00000000
00000000
,
00000000
00000000
00000000
00000000
,
00000000
00000000
00000000
00000000
,
00000000
00000000
00000000
00000000
,
00000000
00000000
00000000
00000000
,
00000000
00000000
00000000
00000000
00000001
00000100
00000010
00001000
,
00000001
00000010
00000001
00001000
00000100
00000000
00010000
00001000
,
00001000
00000000
00010000
00001000
00100000
00010000
00100000
01000000
,
10000000
01000000
00010000
00000000
00010000
01000000
00100000
00000000
,
00100000
00000000
00001000
00000000
00010000
00000000
00001000
00000000
00100000
00000000
00001000
00000000
00010000
00001000
00010000
00000000
,
00000010
00000100
00000001
00001000
00000100
00000000
00000010
00000001
,
00000001
00000000
00001000
00000001
00000010
00000001
00001000
00000100
,
00020000
00000000
00030100
00000000
00010000
00001000
01000000
00010000
,
10000000
00000000
01000000
00000000
00100000
00000000
00010000
00000000
01000000
00000000
00001000
00000000
00010000
00001000
00010000
00000000
,
00000010
00001000
00000001
00000100
00000010
00000000
00001000
00000001
,
00000001
00000000
00000000
00001000
00000010
00010000
00001000
00100000
,
00001000
00010000
00000010
00001000
00M11000
00000000
00001100
00000000
,
00000100
00000000
00001000
00000000
00M11000
00000000
00000000
00000000
00001010
00000000
00000000
00000000
00000010
00000100
00000010
00000000
,
00001000
00000001
00000010
00000100
00001000
00000000
00000200
00010000
,
00020300
00000000
00031000
01000000
00010000
00100000
01000000
10000000
,
00010000
01000000
00001000
00010000
00000100
00010000
00001000
00000010
,
00000100
00000000
00001000
00000000
00000001
00000000
00000100
00000000
00000010
00000000
00010000
00000000
00001000
00010000
00001000
00000000
,
00010000
00001000
01000000
0M010000
00001000
00010000
00000100
00001M00
,
00010000
00001000
00100000
00M10000
00001000
00010000
00000010
000010M0
,
00010000
00001000
01000000
0M010000
00001000
00010000
00000100
00001M00
,
00010000
00000000
00001000
00000000
00100000
00000000
00M10000
00000000
00001000
00000000
00010000
00000000
00000010
00010000
00000010
00000000
,
00010000
00001000
00100000
00M10000
00001000
00010000
00000010
000010M0
,
00010000
00001000
01000000
0M010000
00001000
00010000
00000100
00001M00
,
00010000
00001000
00100000
00M10000
00001000
00010000
00000010
000010M0
,
00010000
00001000
02000000
03000000
02000000
03010000
10000000
01000000
,
00100000
00010000
01000000
00001000
00020000
00000000
00030000
00000000
,
00000010
00001000
00000001
00000100
00000001
00000010
00000100
00001000
,
00000010
00000100
00001000
00010000
00001000
00000000
00100000
01000000
,
00010000
00000000
01000000
00000000
00100000
00000000
00010000
00000000
10000000
00000000
00000000
00000000
00010000
10000000
00010000
00000000
,
10000000
01000000
00100000
00010000
02000000
00000000
03001000
00000000
,
00020000
00000000
00000010
00000000
00031000
00000000
00010000
00000100
,
00000010
00000100
00001000
00000010
00001000
00000001
00000010
00000100
,
00010000
00000000
00001000
00000000
00100000
00000000
00001000
00000000
00010000
00000000
00000000
00000000
00001000
00010000
00001000
00000000
,
00100000
00010000
00200000
01300000
00200000
00000000
00310000
10000000
,
00100000
00000000
00000000
01000000
00001000
00010000
00000010
00001000
,
00000001
00000010
00000100
00001000
00M11000
00000000
00001010
00000000
,
00000010
00000000
00001000
00000000
00M11000
00000000
00000000
00000000
00001100
00000000
00000000
00000000
00000100
00000010
00000100
00000000
,
00000010
00000001
00001000
00000010
00020000
00000000
00030010
00000000
,
00002000
00000000
00000001
00000000
00003100
00000000
00010000
00001000
,
00010000
01000000
00100000
00010000
10000000
00100000
01000000
00010000
,
01000000
00001000
00010000
00000100
00020000
00000000
00031000
00000000
,
00010000
00001000
00100000
00M10000
00001000
00010000
00000010
000010M0
,
00010000
00001000
01000000
0M010000
00001000
00010000
00000100
00001M00
,
00010000
00001000
00100000
00M10000
00001000
00010000
00000010
000010M0
,
00010000
00000000
00001000
00000000
01000000
00000000
0M010000
00000000
00001000
00000000
00010000
00000000
00000100
00001000
00000100
00000000
,
00010000
00001000
01000000
0M010000
00001000
00010000
00000100
00001M00
,
00010000
00001000
00100000
00M10000
00001000
00010000
00000010
000010M0
,
00010000
00001000
01000000
0M010000
00001000
00010000
00000100
00001M00
,
00010000
00001000
00200000
00300000
00200000
00300000
01000000
0M000000
,
00020000
00000000
00000000
00000000
20030000
00000000
00020000
00030000
,
32000000
00010000
00000000
03200000
00302000
00000000
00023000
00030010
,
00002000
00000000
00000000
00000000
00003002
00000000
00002000
00003000
,
00000203
00000000
00001000
00000000
00000000
00000000
00000320
00000000
00020030
00000000
00000000
00030000
00000000
00000000
00000000
00000000
,
00000000
00001000
00100000
00010000
00100000
01000000
10000000
00100000
,
01000000
00010000
01000000
00100000
10000000
10000000
20000000
30000000
,
00000000
00010000
00100000
00001000
00010000
00000010
00001000
00000100
,
00000010
00000000
00000100
00000000
00001000
00000000
00000001
00000000
00000100
00000000
00000100
00000000
00000100
00000010
00000100
00000000
,
00000000
00000001
00001000
00000100
00000010
00000100
00001000
00000010
,
00010000
00001000
00100000
00001000
00010000
00010000
00020000
00030000
,
00000000
00001000
01000000
00010000
00100000
01000000
10000000
00010000
,
01000000
00000000
00001000
00000000
00010000
00000000
00000100
00000000
00010000
00000000
00010000
00000000
00010000
00001000
00010000
00000000
,
00000000
00000010
00002000
00000000
00003002
00000000
00000013
00000100
,
00001000
00000000
00000000
00000100
00010000
00001000
00100000
00010000
,
10000000
00100000
01000000
00010000
00011M00
00000000
00110000
00000000
,
00100000
00010000
00011M00
00000000
01010000
00000000
01000000
00100000
,
10000000
00010000
00100000
01000000
00100000
00001000
00010000
00000010
,
00001000
00000100
00000010
00000001
00001000
00001000
00002000
00003000
,
00000001
00000100
00000010
00001000
00000100
00000010
00000100
00010000
,
00000010
00000000
00010000
00000000
00001000
00000000
00100000
00000000
00010000
00000000
00010000
00000000
00010000
10000000
00010000
00000000
,
10000000
00100000
01000000
00001000
00010000
00010000
00020000
00030000
,
00000010
00001000
00000001
00000010
00000100
00000100
00000200
00000300
,
00010000
00001000
00100000
00001000
00010000
01000000
10000000
00010000
,
01000000
00100000
01000000
00100000
01000000
00100000
01000000
00000000
,
00000000
00000000
00010000
01000000
00010000
10000000
01000000
00100000
,
00010000
00000000
00000000
01000000
00000000
00000000
00001000
00000000
00010000
00000000
00001000
00000000
00010000
00000000
00000100
00000000
00010000
00000000
00000100
00000000
00001000
00000000
00000100
00000000
,
00000020
00000030
00000001
00000100
00000001
00001000
00000100
00000010
,
00000100
00000000
00000000
00010000
00000000
00000000
00001000
00000000
00010000
00000000
00001000
00000000
01000000
00000000
00001000
00000000
01000000
00000000
00010000
00000000
01000000
00000000
00100000
00000000
,
02000000
00000000
00000000
03000000
00000000
00000000
00000000
00000000
00010000
00000000
10000000
00000000
01000000
00000000
10000000
00000000
01000000
00000000
00100000
00000000
00010000
00000000
00100000
00000000
,
00010000
00100000
00001000
00010000
00000010
00010000
00000010
00001000
00000010
00000100
00000001
00000100
,
00000020
00000030
00000000
00000000
00010000
000M0000
00000000
00000000
,
00010000
000M0000
00000000
00000000
00010000
000M0000
00000000
00000000
,
00010000
000M0000
00010000
00001000
00100000
00M10000
00001000
00010000
,
00000010
000010M0
00010000
00001000
01000000
0M010000
00001000
00010000
,
00000100
00001M00
00010000
00001000
00100000
00M10000
00001000
00010000
,
00000010
000010M0
00010000
00001000
01000000
0M010000
00001000
00010000
,
00000100
00001M00
00010000
00001000
00100000
00M10000
00001000
00010000
,
00000010
000010M0
00010000
00000000
00002000
00003000
00002000
00003000
,
00010000
000M0000
00000000
00000000
00000000
00000000
00000000
00000000
;

//---------------dance-single - ----------------
#NOTEDATA:;
#CHARTNAME:;
#STEPSTYPE:dance-single;
#DESCRIPTION:;
#CHARTSTYLE:;
#DIFFICULTY:Medium;
#METER:10;
#RADARVALUES:0.430283,0.482643,0.275796,0.166929,0.007258,415.000000,377.000000,38.000000,23.000000,0.000000,0.000000,0.000000,0.000000,0.000000,0.430283,0.482643,0.275796,0.166929,0.007258,415.000000,377.000000,38.000000,23.000000,0.000000,0.000000,0.000000,0.000000,0.000000;
#CREDIT:Kekkle;
#NOTES:
0000
0000
0000
0000
,
0000
0000
0000
0000
,
0000
0000
0000
0000
,
0000
0000
0000
0000
,
0000
0000
0000
0000
,
0000
0000
0000
0000
,
0000
0000
0000
0000
,
0000
0000
0000
0000
,
0000
0000
0000
0000
0001
1000
0010
0000
,
1000
0000
0100
0000
0010
0000
0001
1000
,
0001
0000
0000
1000
0010
0000
1000
0001
,
0010
0001
1000
0100
,
0010
0001
1000
0001
0010
0000
0001
1000
,
0010
0000
1000
0000
0100
0000
0010
0100
,
0010
0000
0000
0001
1000
0000
0100
0010
,
0001
1000
0001
0010
,
0100
1000
0001
1000
0100
0000
1000
0010
,
0100
0000
0010
0000
1000
0000
0001
1000
,
0001
0000
0000
1000
0100
0000
0010
0000
,
0001
1000
0020
0130
,
0001
0020
0130
1000
,
0001
0010
0100
0000
1000
0000
0002
0000
,
2003
0000
3010
0000
0100
0001
1000
0000
,
0100
0010
0100
1000
,
0010
1000
0001
1000
0010
0000
1000
0001
,
1000
1100
0001
0101
,
1000
1100
0001
0101
,
1000
1100
0001
0101
,
1000
0000
1100
0000
0001
0000
1000
0001
,
1000
1010
0001
0011
,
1000
1010
0001
0011
,
1000
1010
0001
0011
,
1000
0000
0001
0000
0001
0000
1000
0010
,
0100
0001
0010
0000
,
0100
0000
1000
0001
0100
0000
0001
0100
,
0010
0000
1000
0000
0001
0000
1000
0100
,
0010
0000
0001
0000
1000
0000
0010
0100
,
0010
0100
0002
0003
,
2000
0000
0000
0000
3000
0000
0001
0010
,
0100
0010
0001
1000
,
0010
0100
0001
0100
0010
0000
1000
0000
,
0001
0010
0020
0000
,
0030
0000
0000
0100
1000
0000
0001
0000
,
0100
0001
0020
0130
,
1000
0000
0020
0000
0130
0000
0001
1000
,
0100
0010
0002
0003
,
0200
0000
0000
0000
0300
0000
0000
0010
,
1000
0001
0010
0001
,
1000
0010
0100
0010
2000
0000
3000
0000
,
0001
0011
1000
1010
,
0001
0011
1000
1010
,
0001
0011
1000
1010
,
0001
0000
0011
0000
1000
0000
0001
1000
,
0001
0101
1000
1100
,
0001
0101
1000
1100
,
0001
0101
1000
1100
,
0001
1000
1000
1001
,
0002
0000
2003
0000
,
3100
0020
0000
0031
2000
0000
0000
3010
,
0200
0000
0320
0000
,
1030
0000
0002
0000
0000
0000
0013
0000
0200
0000
0000
0300
0000
0000
0000
0000
,
0000
1000
0001
0000
0010
0000
0100
0000
,
1000
0001
1000
0001
0100
0010
0100
0000
,
0000
0010
1000
0000
0001
0000
1000
0000
,
0100
0010
0100
0010
0001
1000
0001
0000
,
0000
1000
0010
0000
0100
0000
0001
0000
,
1000
0100
1000
0100
0010
0001
0010
0000
,
0000
0001
1000
0000
0001
0000
0010
0000
,
0100
1000
0100
1000
0001
0010
0001
0000
,
0000
1000
2000
3000
,
0000
0000
0000
0001
0100
0000
0010
0000
,
1000
0001
0020
0130
,
1000
0020
0130
0001
,
1000
0100
0010
0001
,
1000
0010
1000
0010
0100
0001
0100
0000
,
0001
0100
0010
1000
,
0001
0010
0001
0010
0100
1000
0100
0000
,
1000
0000
0001
0000
0100
0010
0100
0000
,
0001
0000
1000
0000
0100
0010
0100
0000
,
1000
0001
0100
0010
,
1000
1000
1000
1000
,
0000
0001
0100
0010
,
1000
0001
0001
1000
,
1000
0100
0010
0001
,
1000
0010
0010
0100
,
0100
0000
0001
0100
,
0010
0000
0000
1000
0000
0000
0001
0000
0000
1000
0001
1000
,
0001
0000
0100
0000
,
0100
0000
0100
0000
,
0100
0001
0101
1000
,
1100
0001
0101
1000
,
1100
0001
0011
1000
,
1010
0001
0011
1000
,
1010
0001
0101
1000
,
1100
0001
1000
1000
,
1001
0000
0000
0000
;

//---------------dance-double - ----------------
#NOTEDATA:;
#CHARTNAME:;
#STEPSTYPE:dance-double;
#DESCRIPTION:;
#CHARTSTYLE:;
#DIFFICULTY:Medium;
#METER:10;
#RADARVALUES:0.428210,0.482643,0.275796,0.152414,0.007258,413.000000,375.000000,38.000000,21.000000,0.000000,0.000000,0.000000,0.000000,0.000000,0.428210,0.482643,0.275796,0.152414,0.007258,413.000000,375.000000,38.000000,21.000000,0.000000,0.000000,0.000000,0.000000,0.000000;
#CREDIT:Kekkle;
#NOTES:
00000000
00000000
00000000
00000000
,
00000000
00000000
00000000
00000000
,
00000000
00000000
00000000
00000000
,
00000000
00000000
00000000
00000000
,
00000000
00000000
00000000
00000000
,
00000000
00000000
00000000
00000000
,
00000000
00000000
00000000
00000000
,
00000000
00000000
00000000
00000000
,
00000000
00000000
00000000
00000000
00000001
00000100
00000010
00000000
,
00001000
00000000
00000001
00000000
00000010
00000000
00000100
00001000
,
00000100
00000000
00000000
00010000
00001000
00000000
01000000
00000000
,
00100000
10000000
00010000
00100000
,
01000000
10000000
00010000
10000000
01000000
00000000
00100000
00000000
,
00010000
00000000
01000000
00000000
00001000
00000000
00010000
00001000
,
00010000
00000000
00000000
00000010
00001000
00000000
00000001
00000000
,
00000100
00000001
00000010
00000100
,
00001000
00000001
00000010
00000001
00001000
00000000
00000010
00010000
,
00001000
00000000
00100000
00000000
00010000
00000000
10000000
00010000
,
10000000
00000000
00000000
00010000
01000000
00000000
00001000
00000000
,
00010000
00000100
00020000
00031000
,
01000000
00002000
00013000
00000010
,
00001000
00000001
00000010
00000000
00000100
00000000
00002000
00000000
,
00003002
00000000
00000103
00000010
00001000
00000000
00000010
00000000
,
00010000
00001000
01000000
00010000
,
00100000
01000000
10000000
01000000
00100000
00000000
00001000
00000000
,
00010000
00010100
00001000
01001000
,
00010000
00010100
00001000
01001000
,
00010000
00010100
00001000
01001000
,
00010000
00000000
00010100
00000000
00001000
00000000
00010000
00001000
,
00010000
00010010
00001000
00101000
,
00010000
00010010
00001000
00101000
,
00010000
00010010
00001000
00101000
,
00010000
00000000
00001000
00000000
00001000
00000000
01000000
00100000
,
10000000
00010000
00100000
00000000
,
01000000
00000000
00100000
00001000
00010000
00000000
00000010
00000000
,
00001000
00000000
00000001
00000100
00000010
00000000
00001000
00000000
,
00000001
00000000
00001000
00000100
00010000
00000000
00001000
00010000
,
00001000
01000000
00020000
00030000
,
20000000
00000000
00000000
00000000
30000000
00000000
01000000
00100000
,
00010000
10000000
00100000
01000000
,
00010000
01000000
00001000
01000000
00010000
00000000
00100000
00000000
,
00001000
00010000
00020000
00000000
,
00030000
00000000
00000000
00000010
00001000
00000000
00000001
00000000
,
00000010
00000100
00020000
00031000
,
01000000
00002000
00013000
00000100
,
00010000
00001000
01000000
00001000
00010000
00000000
00000000
00000000
,
00002000
00000000
00000000
00000000
00003000
00000000
00000000
01000000
,
00100000
10000000
00010000
00100000
,
01000000
00100000
00010000
00100000
01000000
00000000
00100000
00000000
,
00001000
00101000
00010000
00010010
,
00001000
00101000
00010000
00010010
,
00001000
00101000
00010000
00010010
,
00001000
00000000
00101000
00000000
00010000
00000000
00001000
00010000
,
00001000
01001000
00010000
00010100
,
00001000
01001000
00010000
00010100
,
00001000
01001000
00010000
00010100
,
00001000
00010000
00010000
00011000
,
00002000
00000000
00203000
00000000
,
01300000
20000000
00000000
30010000
02000000
00000000
00000000
03001000
,
00020000
00000000
00030020
00000000
,
00000130
00000000
00000002
00000000
00000000
00000000
00001003
00000000
00000200
00000000
00000000
00000300
00000000
00000000
00000000
00000000
,
00000000
00000010
00000001
00000000
00001000
00000000
00000010
00000000
,
00010000
00001000
00010000
00001000
01000000
00010000
01000000
00000000
,
00000000
00010000
10000000
00000000
01000000
00000000
00100000
00000000
,
00010000
00100000
00010000
00100000
00001000
00010000
00001000
00000000
,
00000000
00010000
00000010
00000000
00001000
00000000
00000100
00000000
,
00000010
00000001
00000010
00000001
00001000
00000100
00001000
00000000
,
00000000
00000010
00010000
00000000
00001000
00000000
01000000
00000000
,
00010000
01000000
00010000
01000000
00100000
10000000
00100000
00000000
,
00000000
10000000
20000000
30000000
,
00000000
00000000
00000000
01000000
10000000
00000000
00010000
00000000
,
01000000
00001000
00020000
00031000
,
00100000
00002000
00013000
00000010
,
00000100
00000001
00000010
00000100
,
00001000
00000100
00001000
00000100
00010000
00001000
00010000
00000000
,
00001000
01000000
00100000
10000000
,
00010000
01000000
00010000
01000000
00001000
00010000
00001000
00000000
,
00010000
00000000
00000100
00000000
00000010
00000100
00000010
00000000
,
00000100
00000000
00001000
00000000
00000001
00001000
00000001
00000000
,
00000100
00000010
00010000
00001000
,
00010000
00010000
00010000
00010000
,
00000000
00001000
01000000
00010000
,
00100000
01000000
01000000
10000000
,
10000000
00010000
01000000
00001000
,
00010000
00000100
00000100
00000010
,
00000010
00000000
00000001
00001000
,
00000010
00000000
00000000
00010000
00000000
00000000
00001000
00000000
00000000
00010000
00001000
00010000
,
00001000
00000000
00010000
00000000
,
00010000
00000000
00010000
00000000
,
00010000
00001000
00101000
00010000
,
00010010
00001000
00101000
00010000
,
00010010
00001000
01001000
00010000
,
00010100
00001000
01001000
00010000
,
00010100
00001000
00101000
00010000
,
00010010
00001000
00010000
00010000
,
00011000
00000000
00000000
00000000
;

//---------------dance-single - ----------------
#NOTEDATA:;
#CHARTNAME:;
#STEPSTYPE:dance-single;
#DESCRIPTION:;
#CHARTSTYLE:;
#DIFFICULTY:Easy;
#METER:6;
#RADARVALUES:0.232249,0.275796,0.000000,0.087093,0.000000,224.000000,224.000000,0.000000,12.000000,0.000000,0.000000,0.000000,0.000000,0.000000,0.232249,0.275796,0.000000,0.087093,0.000000,224.000000,224.000000,0.000000,12.000000,0.000000,0.000000,0.000000,0.000000,0.000000;
#CREDIT:Kekkle;
#NOTES:
0000
0000
0000
0000
,
0000
0000
0000
0000
,
0000
0000
0000
0000
,
0000
0000
0000
0000
,
0000
0000
0000
0000
,
0000
0000
0000
0000
,
0000
0000
0000
0000
,
0000
0000
0000
0000
,
0000
0000
0000
0000
,
0001
1000
0010
0000
,
0100
0000
0001
1000
,
0100
0000
0010
0000
,
0001
1000
0001
0000
,
0100
0010
1000
0000
,
0001
0000
1000
0001
,
0010
0000
0100
0000
,
1000
0001
1000
0000
,
0010
0100
0001
0000
,
1000
0000
0001
0000
,
0010
0100
0010
0000
,
0100
0010
0100
0000
,
1000
0001
0100
0000
,
0020
0000
0030
0000
,
0100
0000
0010
0000
,
1000
0001
1000
0000
,
0000
0010
0000
0010
,
0000
0010
0000
0010
,
0000
0010
0000
0010
,
0000
0010
0000
1000
,
0001
0010
0000
0010
,
0000
0010
0000
0010
,
0000
0010
0000
0010
,
0000
0010
0010
0001
,
1000
0010
0100
0000
,
0001
1000
0100
0000
,
1000
1000
1000
0000
,
0001
0001
0001
0100
,
0010
1000
0002
0003
,
2000
0000
3000
0000
,
0100
0010
0001
0000
,
1000
0001
1000
0000
,
0010
0010
0020
0000
,
0030
0000
1000
0000
,
0100
0010
0100
0000
,
0010
0100
0010
0000
,
0001
0001
0001
0000
,
0200
0000
0300
0000
,
0010
0000
1000
0000
,
0001
1000
0001
0000
,
0000
0010
0000
0010
,
0000
0010
0000
0010
,
0000
0010
0000
0010
,
0000
0010
0000
0001
,
1000
0010
0000
0010
,
0000
0010
0000
0010
,
0000
0010
0000
0010
,
0000
0010
0010
0010
,
2000
3000
0002
0003
,
0010
0010
0000
0100
0200
0000
0300
0000
,
2000
3000
0002
0003
,
0100
0000
0100
0000
0000
0000
0010
0000
0020
0000
0000
0030
0000
0000
0000
0000
,
0000
1000
0001
0000
,
0010
0100
0010
0010
,
0000
0001
1000
0000
,
0010
0100
0010
0010
,
0000
1000
0001
0000
,
0010
0001
0010
0010
,
0000
0001
1000
0000
,
0010
1000
0010
0010
,
0000
0100
0200
0300
,
0000
0000
0001
0000
,
0010
0100
0010
0000
,
0100
0010
0100
0000
,
1000
0000
0001
0000
,
0100
0010
0100
0100
,
0001
0000
1000
0000
,
0100
0010
0100
0100
,
1000
0000
0001
0001
,
1000
0000
1000
1000
,
0001
0000
0100
0000
,
0010
0010
0010
0010
,
0000
1000
0000
0001
,
0000
0010
0100
0010
,
0010
0001
0000
1000
,
0000
0010
0100
0010
,
0010
0000
1000
0000
,
0001
0010
0100
0010
,
0010
0000
0001
0000
,
0001
0000
0001
0000
,
0001
0000
0100
0000
,
0100
0000
0100
0000
,
0100
0000
0010
0000
,
0010
0000
0010
0000
,
0010
0000
0100
0000
,
0100
0000
0100
0100
,
0100
0000
0000
0000
;

//---------------dance-double - ----------------
#NOTEDATA:;
#CHARTNAME:;
#STEPSTYPE:dance-double;
#DESCRIPTION:;
#CHARTSTYLE:;
#DIFFICULTY:Easy;
#METER:6;
#RADARVALUES:0.229139,0.275796,0.000000,0.079836,0.000000,221.000000,221.000000,0.000000,11.000000,0.000000,0.000000,0.000000,0.000000,0.000000,0.229139,0.275796,0.000000,0.079836,0.000000,221.000000,221.000000,0.000000,11.000000,0.000000,0.000000,0.000000,0.000000,0.000000;
#CREDIT:Kekkle;
#NOTES:
00000000
00000000
00000000
00000000
,
00000000
00000000
00000000
00000000
,
00000000
00000000
00000000
00000000
,
00000000
00000000
00000000
00000000
,
00000000
00000000
00000000
00000000
,
00000000
00000000
00000000
00000000
,
00000000
00000000
00000000
00000000
,
00000000
00000000
00000000
00000000
,
00000000
00000000
00000000
00000000
,
00000001
00001000
00000010
00000000
,
00010000
00000000
00001000
00100000
,
00010000
00000000
00100000
00000000
,
01000000
00100000
00010000
00000000
,
10000000
00100000
01000000
00000000
,
00010000
00000000
01000000
00001000
,
00010000
00000000
00001000
00000000
,
00010000
00000100
00001000
00000000
,
00000100
00000010
00000001
00000000
,
00001000
00000000
00000001
00000000
,
00000100
00000010
00000100
00000000
,
00000010
00000100
00000010
00000000
,
00001000
00000000
00000001
00000000
,
00000020
00000000
00000030
00000000
,
00000100
00000000
00010000
00000000
,
00001000
01000000
00001000
00000000
,
00000000
00010000
00000000
00010000
,
00000000
00010000
00000000
00010000
,
00000000
00010000
00000000
00010000
,
00000000
00010000
00000000
00010000
,
00010000
00001000
00000000
00001000
,
00000000
00001000
00000000
00001000
,
00000000
00001000
00000000
00001000
,
00000000
00001000
00001000
01000000
,
00100000
10000000
00010000
00000000
,
00100000
00001000
00010000
00000000
,
00000100
00000100
00000100
00000000
,
00000010
00000010
00000010
00000000
,
00000001
00001000
00000010
00000000
,
00000200
00000000
00000300
00000000
,
00000001
00001000
00000100
00000000
,
00010000
00010000
00010000
00000000
,
00001000
00001000
00002000
00000000
,
00003000
00000000
01000000
00000000
,
00100000
01000000
00100000
00000000
,
01000000
00100000
01000000
00000000
,
00010000
00000000
10000000
00000000
,
02000000
00000000
03000000
00000000
,
00100000
00000000
00001000
00000000
,
00010000
00000100
00010000
00000000
,
00000000
00001000
00000000
00001000
,
00000000
00001000
00000000
00001000
,
00000000
00001000
00000000
00001000
,
00000000
00001000
00000000
00001000
,
00001000
00010000
00000000
00010000
,
00000000
00010000
00000000
00010000
,
00000000
00010000
00000000
00010000
,
00000000
00010000
00010000
00010000
,
00002000
00003000
02000000
03000000
,
00100000
00100000
00000000
01000000
02000000
00000000
03000000
00000000
,
00002000
00003000
00020000
00030000
,
00000100
00000000
00000100
00000000
00000000
00000000
00000010
00000000
00000020
00000000
00000000
00000030
00000000
00000000
00000000
00000000
,
00000000
00000001
00001000
00000000
,
00000010
00010000
00000010
00000010
,
00000000
00010000
00001000
00000000
,
00100000
01000000
00100000
00100000
,
00000000
00010000
10000000
00000000
,
01000000
00100000
01000000
01000000
,
00000000
00100000
00001000
00000000
,
00010000
00000010
00010000
00010000
,
00000000
00000010
00000020
00000030
,
00000000
00000000
00001000
00000000
,
00000100
00000010
00000100
00000000
,
00000010
00000100
00000010
00000000
,
00000001
00000000
00001000
00000000
,
00000010
00010000
00000010
00000010
,
00010000
00000000
00001000
00000000
,
00100000
00010000
00100000
00100000
,
01000000
00000000
10000000
00010000
,
00100000
00000000
00001000
00010000
,
00001000
00000000
00010000
00000000
,
00000010
00000010
00000010
00000010
,
00000000
00000100
00000000
00000001
,
00000000
00001000
00001000
00000100
,
00000100
00010000
00000000
00001000
,
00000000
01000000
01000000
00100000
,
00100000
00000000
10000000
00000000
,
00010000
00100000
00100000
00001000
,
00001000
00000000
00010000
00000000
,
00010000
00000000
00010000
00000000
,
00010000
00000000
00001000
00000000
,
00001000
00000000
00001000
00000000
,
00001000
00000000
00010000
00000000
,
00010000
00000000
00010000
00000000
,
00010000
00000000
00001000
00000000
,
00001000
00000000
00001000
00001000
,
00001000
00000000
00000000
00000000
;

//---------------dance-single - ----------------
#NOTEDATA:;
#CHARTNAME:;
#STEPSTYPE:dance-single;
#DESCRIPTION:;
#CHARTSTYLE:;
#DIFFICULTY:Beginner;
#METER:3;
#RADARVALUES:0.145156,0.172372,0.000000,0.036289,0.000000,140.000000,140.000000,0.000000,5.000000,0.000000,0.000000,0.000000,0.000000,0.000000,0.145156,0.172372,0.000000,0.036289,0.000000,140.000000,140.000000,0.000000,5.000000,0.000000,0.000000,0.000000,0.000000,0.000000;
#CREDIT:Kekkle;
#NOTES:
0000
0000
0000
0000
,
0000
0000
0000
0000
,
0000
0000
0000
0000
,
0000
0000
0000
0000
,
0000
0000
0000
0000
,
0000
0000
0000
0000
,
0000
0000
0000
0000
,
0000
0000
0000
0000
,
0000
0000
0000
0000
,
0001
0000
1000
0000
,
0001
0000
0000
0000
,
0010
0000
0100
0000
,
0010
0000
0010
0000
,
0001
0000
1000
0000
,
0001
0000
0000
0000
,
0100
0000
0010
0000
,
0100
0000
0100
0000
,
0001
0000
1000
0000
,
0001
0000
0000
0000
,
0010
0000
0010
0000
,
0100
0000
0100
0000
,
1000
0000
0001
0000
,
2000
0000
3000
0000
,
0010
0000
0100
0000
,
0010
0000
0010
0000
,
0000
1000
0000
1000
,
0000
1000
0000
1000
,
0000
1000
0000
1000
,
0000
1000
0000
1000
,
0000
0001
0000
0001
,
0000
0001
0000
0001
,
0000
0001
0000
0001
,
0000
0000
0000
0000
,
0100
0000
0010
0000
,
0100
0000
0000
0000
,
0001
0000
1000
0000
,
0001
0000
0001
0000
,
0010
0000
0100
0000
,
0020
0000
0030
0000
,
0001
0000
1000
0000
,
0001
0000
0001
0000
,
0100
0000
0020
0000
,
0030
0000
0000
0000
,
1000
0000
1000
0000
,
0001
0000
0001
0000
,
0100
0000
0020
0000
,
0030
0000
0000
0000
,
1000
0000
0001
0000
,
1000
0000
1000
0000
,
0000
0001
0000
0001
,
0000
0001
0000
0001
,
0000
0001
0000
0001
,
0000
0001
0000
0001
,
0000
1000
0000
1000
,
0000
1000
0000
1000
,
0000
1000
0000
1000
,
0000
0000
0000
1000
,
0000
0000
0010
0000
,
0100
0000
0010
0000
,
1000
0000
0001
0000
,
0010
0000
0100
0000
,
0000
0000
1000
0000
,
0001
0000
0001
0000
,
0000
0000
1000
0000
,
0010
0000
0010
0000
,
0000
0000
1000
0000
,
0100
0000
0100
0000
,
0000
0000
0010
0000
,
0001
0000
0001
0000
,
0000
0000
0100
0000
,
0000
0000
0000
0000
,
0010
0000
0010
0000
,
0100
0000
0100
0000
,
0000
0000
0001
0000
,
1000
0000
1000
0000
,
0000
0000
0100
0000
,
0010
0000
0010
0000
,
0001
0000
0001
0000
,
1000
0000
1000
0000
,
0010
0000
0010
0000
,
0020
0000
0030
0000
,
0000
0000
0000
0100
,
0000
0001
0000
0001
,
0000
0000
0000
1000
,
0000
0100
0000
0100
,
0000
0000
0000
0010
,
0000
0010
0000
0010
,
0000
0000
0000
0000
,
0000
0000
0000
0000
,
0000
0000
0001
0000
,
0001
0000
0001
0000
,
0001
0000
1000
0000
,
1000
0000
1000
0000
,
1000
0000
0001
0000
,
0001
0000
0000
0000
,
0001
0000
0000
0000
;
