#TITLE:Best of Z-I-v Battle Royale 2020;
#SUBTITLE:~The Battle Begins~;
#ARTIST:Various Artists;
#TITLETRANSLIT:;
#SUBTITLETRANSLIT:;
#ARTISTTRANSLIT:;
#GENRE:;
#CREDIT:;
#BANNER:Best of BR ~The Battle Begins~.png;
#BACKGROUND:Best of BR ~The Battle Begins~-bg.png;
#LYRICSPATH:;
#CDTITLE:;
#MUSIC:Best of BR ~The Battle Begins~.ogg;
#OFFSET:-0.090000;
#SAMPLESTART:24.090000;
#SAMPLELENGTH:12.000000;
#SELECTABLE:YES;
#BPMS:0.000000=170.000000
,164.000000=150.000000
,196.000000=75.000000
,212.000000=145.000000
,260.000000=140.000000
,328.000000=134.000000
,392.000000=128.000000
,455.000000=119.172997
,519.000000=109.000000
,577.000000=104.000000
,625.500000=107.000000
,670.000000=110.000000
,736.000000=120.000000
,802.000000=126.999992
,870.000000=132.000000
,947.750000=135.000000
,1078.000000=143.000000
,1142.000000=150.000000
,1214.000000=160.000000
,1278.000000=170.000000
,1474.000000=175.000000
,1602.000000=180.000000
,1662.500000=182.000000
,1730.000000=92.500000
,1732.000000=185.000000
,1810.000000=187.000000
,1874.000000=200.445007
;
#STOPS:564.000000=1.651000,
577.000000=1.651000,
1760.500000=0.324000
;
#BGCHANGES:0.000=Best of BR ~The Battle Begins~-bg.png=1.000=0=0=1=====,
4.000=GAIAPEX-bg.png=1.000=0=0=1===CrossFade_Faster==,
100.000=Try Again-bg.png=1.000=0=0=1===CrossFade_Fastest==,
164.000=Shiva-bg.png=1.000=0=0=1===CrossFade_Fastest==,
212.000=THE EARTH LIGHT-bg.png=1.000=0=0=1===CrossFade_Faster==,
260.000=Identity Part 4-bg.png=1.000=0=0=1===FadeCenterVertical==,
328.000=Confession-bg.png=1.000=0=0=1===FadeUp==,
392.000=Best of BR ~The Battle Begins~-bg.png=1.000=0=0=1===CrossFade_Faster==,
519.000=Greenhorn-bg.png=1.000=0=0=1===CrossFade_Fastest==,
578.000=That_s How You Write a Song-bg.png=1.000=0=0=1===CrossFade_Fastest==,
626.000=CAN_T DANCE-bg.png=1.000=1=0=1===CrossFade==,
670.000=Cycling!-bg.png=1.000=0=0=1===CrossFade_Faster==,
736.000=Best of BR ~The Battle Begins~-bg.png=1.000=0=0=1===FadeCenterHorizontal==,
802.000=Can_t Escape-bg.png=1.000=0=0=1===FadeCenterHorizontal==,
870.000=Sangria Wine-bg.png=1.000=1=0=1===CrossFade==,
948.000=Silver Cross-bg.png=1.000=1=0=1===CrossFade==,
1012.000=WWW-bg.png=1.000=1=0=1===CrossFade==,
1078.000=Extasy-bg.png=1.000=0=0=1===CrossFade_Fastest==,
1142.000=Kiyarora eisei no kiseki-jacket.png=1.000=0=0=1===CrossFade_Faster==,
1214.000=Piano Concerto No.1 Anti-Ares (BlackY Remix)-bg.png=1.000=1=0=1===CrossFade==,
1278.000=Darkness-bg.png=1.000=0=0=1===CrossFade_Fastest==,
1342.000=Elektrikshot-bg.png=1.000=0=0=1===FadeDown==,
1406.000=Infection-bg.png=1.000=0=0=1===FadeCenterVertical==,
1474.000=NANI THE FUCK!!-bg.png=1.000=1=0=1===CrossFade==,
1538.000=SUMMER - 2019 Remaster-bg.png=1.000=0=0=1===FadeCenterHorizontal==,
1602.000=chameleon-bg.png=1.000=0=0=1===CrossFade_Faster==,
1662.000=Noctilucence-bg.png=1.000=1=0=1===CrossFade==,
1730.000=Inferno-bg.png=1.000=0=0=1===FadeCenterVertical==,
1810.000=Wing of Hearts-jacket.png=1.000=0=0=1===CrossFade_Fastest==,
1874.000=Meow-bg.png=1.000=0=0=1===CrossFade_Fastest==,
1939.000=Best of BR ~The Battle Begins~-bg.png=1.000=0=0=1=====,
99999=-nosongbg-=1.000=0=0=0 // don't automatically add -songbackground-
;
#KEYSOUNDS:;
#ATTACKS:;

//---------------dance-single - ver. Zenius----------------
#NOTES:
     dance-single:
     ver. Zenius:
     Edit:
     17:
     0.705464,0.982697,0.333864,0.315520,0.555828,4038.000000,3765.000000,273.000000,258.000000,18.000000,0.000000,0.705464,0.982697,0.333864,0.315520,0.555828,4038.000000,3765.000000,273.000000,258.000000,18.000000,0.000000:
0000
0000
0000
0000
,
0000
0000
0000
0000
,
0000
0000
0000
0000
,
0000
0000
0000
0000
,
0000
0000
0000
0000
,
0001
0000
0000
0000
0010
0000
0000
0000
0100
0000
0000
1000
0000
0000
0001
0000
,
0000
0100
0010
0100
0001
0000
1001
0000
,
1000
0000
0010
0000
1000
0001
0100
0010
,
1000
0000
0100
0000
0010
0000
0001
1000
0001
0100
0010
0000
1010
0000
0000
0000
,
0101
0000
0001
0100
0001
0000
0100
0010
0100
0000
0010
1000
0010
0000
1000
0100
,
1000
0000
0010
1000
0010
0000
0100
0001
0100
0000
0001
1000
0001
0000
0100
0000
,
0010
0000
1000
0100
1000
0000
0001
0010
0001
0000
1000
0010
1000
0000
0001
0100
,
0010
0000
1000
0100
0010
0000
0001
1000
0001
0100
0010
0100
0001
0000
0010
0000
,
1100
0000
1100
0000
1100
0000
1100
1000
,
0011
0000
0011
0000
0011
0000
0011
0001
,
0110
0010
1000
0100
0010
0001
0100
0010
,
1000
0100
1000
0001
1000
0100
1000
0001
0100
0010
0100
0001
2000
0000
0000
0000
,
3001
0000
0100
0000
0010
0000
1000
0100
0010
0000
0001
0000
0100
0001
1000
0000
,
0001
0000
0100
0001
0010
0000
0001
0000
1000
0100
0010
0100
1000
0000
0010
0000
,
1000
0000
0001
0000
0100
0000
0010
0100
0001
0000
1000
0000
0010
1000
0001
0000
,
1000
0000
0100
1000
0010
0000
0100
0000
0001
0100
0010
0100
0001
1000
0100
0000
,
1000
0001
0010
0000
0100
0000
1000
0001
0100
0000
0010
0000
1000
0100
0010
0000
,
0001
0000
1000
0010
0100
0000
0001
0000
0010
0100
1000
0100
0010
0000
0001
0000
,
1000
0010
0100
0000
0001
0000
0010
0001
0100
0000
0010
0000
1000
0100
0010
0000
,
0100
0000
1000
0001
0100
0000
0010
0000
1000
0010
0100
0001
0010
0100
1000
0000
,
2200
3300
2020
3030
2200
3300
2020
3030
,
0001
0100
0100
1000
0100
0100
0002
0003
,
0220
0330
1000
0010
0010
0001
0010
0010
,
2000
3000
0100
0001
0100
1000
0020
0030
,
0220
0330
0001
0010
0010
1000
0100
0100
,
0001
0010
1000
0010
0001
0010
2000
3000
,
0022
0033
0202
0303
0022
0033
0202
0303
,
0002
0000
1003
0100
0001
0100
1000
0010
,
0002
0000
0013
1000
0010
0100
0100
0001
,
2000
0000
3100
0001
0100
1000
0200
0300
,
0010
0001
0100
0010
1000
0010
0010
0001
,
2000
0000
3100
0100
0001
0010
0100
1000
,
0002
2003
3010
0100
0001
1000
0001
2000
,
0000
3001
0100
0010
1000
0100
0010
0001
,
2000
0000
3001
0010
1000
0010
0001
0020
,
0030
0100
0010
0100
0010
0100
0010
1001
,
2002
0000
0000
0000
,
0000
0000
0000
3000
,
0200
0000
0000
0003
,
0020
0000
0000
0300
,
2000
0000
0000
0000
,
0000
0000
0000
0030
,
3001
0000
0000
0000
,
0001
1000
0100
0010
0001
1000
0020
0030
,
0110
0000
0010
1000
1020
0000
1030
0100
1100
0010
0011
0000
0101
0000
0110
1000
,
1002
0000
1003
0100
0210
0000
0010
0000
0001
0000
1000
1000
1300
0100
0010
0000
,
0110
0000
0010
0001
0021
0000
0031
0100
0101
0010
1010
0000
1100
0000
0110
0001
,
2001
0000
3001
0100
0210
0000
0010
0000
1000
0000
0001
0001
0301
0100
0010
0000
,
1000
0000
0100
1000
0000
0100
1000
0000
0001
0010
0001
0000
1000
0010
0000
1000
,
0010
0000
0100
0001
0000
0100
0001
0000
1000
0001
1000
0000
0001
0010
0000
0001
,
0010
0000
0100
1000
0000
0100
1000
0000
0010
1000
0010
0000
0100
0001
0000
0100
,
0001
0000
1000
0100
0000
1000
0100
0000
0010
0001
0010
0000
0001
1000
0000
0010
,
0100
0000
0001
1000
0000
0001
0010
0000
0100
1000
0100
0000
1000
0010
0000
0100
,
0001
0000
1000
0100
0000
0010
0001
0000
1000
0010
1000
0000
0001
0010
0000
0100
,
0010
0000
0001
1000
0000
0100
1000
0000
0001
0100
0010
0000
1000
0010
0000
0100
,
0001
0000
0010
0001
0000
1000
0010
0000
0100
0001
1000
0000
0001
0010
0000
0100
,
0010
0000
0001
0100
0000
1000
0100
0000
0001
0010
0100
0000
0010
0001
0000
1000
,
0010
0000
0100
0001
0000
1000
0100
0000
0001
0100
1000
0000
0001
0100
0000
0010
,
1000
0000
0001
0010
0000
1000
0010
0000
0001
1000
0010
0000
0100
0001
0000
1000
,
0100
0000
0001
0100
0000
0010
0001
0000
1000
0010
0100
0000
0001
1000
0000
0010
,
1000
0000
0000
0000
,
2000
0010
0010
3010
,
0020
0100
0100
0130
,
0200
0001
0001
0301
,
0002
0000
2000
3003
,
1000
0100
0010
0001
0100
0010
1000
0010
,
0100
0001
0010
0100
1000
0001
0010
0001
,
1000
0001
1000
0001
0100
0010
0100
0010
,
0001
1000
0001
1000
0001
1000
0001
1000
0010
0100
0010
0100
0010
0100
0001
1000
,
0002
0203
0320
2030
3002
0023
0230
2300
,
3020
0230
0302
0203
2300
3200
0302
2003
,
3200
0320
0032
2003
3020
0230
0302
0023
,
2030
3020
0032
0203
0320
2030
0000
3000
,
0001
0010
0001
0000
1000
0100
1000
0000
0010
0001
0010
0000
0100
1000
0100
0000
,
0001
0100
0010
0000
1000
0100
0010
0000
0001
0010
0100
0000
1000
0010
0100
0000
,
0001
1000
0100
0000
1000
0001
0010
0000
0001
1000
0010
0000
1000
0001
0100
0000
,
0001
0010
1000
0000
1000
0010
0001
0000
0001
0100
1000
0000
1000
0100
0001
0000
,
0001
0000
0001
0100
0001
0000
0001
1000
0001
0000
0001
0100
0001
0000
0010
0000
,
0001
0000
0001
0100
0001
0000
0001
1000
0001
0000
0100
0001
0100
0000
0010
0000
,
1000
0000
1000
0100
1000
0000
1000
0010
1000
0000
0100
0000
0010
0000
0001
0000
,
1000
0000
1000
0100
1000
0000
1000
0010
1000
0000
0100
0000
0010
0000
0001
0000
,
0010
0000
0010
0001
0010
0000
0010
1000
0010
0000
0010
0100
0010
0000
1000
0000
,
0010
0000
0010
0001
0010
0000
0010
1000
0010
0000
0100
0010
0100
0000
1000
0000
,
0001
0000
0001
1000
0001
0000
0001
0100
0001
0000
1000
0000
0100
0000
0010
0000
,
0001
0000
0001
0010
0001
0000
0010
0001
0000
0010
0001
0000
1000
0000
0010
0000
,
1000
0000
1000
0010
1000
0000
1000
0100
1000
0000
1000
0001
1000
0000
0100
0000
,
1000
0000
1000
0010
1000
0000
1000
0001
1000
0000
0100
1000
0100
0000
0010
0000
,
0100
0000
0100
1000
0100
0000
0100
0001
0100
0000
0100
0000
0010
0000
0001
0000
,
0100
0000
0100
1000
0100
0000
0100
0001
0100
0000
0100
0000
0010
0000
1000
0000
,
0001
0000
0001
0100
0001
0000
0001
1000
0001
0000
0001
0010
0001
0000
1000
0000
,
0001
0000
0001
0100
0001
0000
0001
1000
0001
0000
0010
0001
0010
0000
1000
0000
,
0010
0000
0010
0100
0010
0000
0010
0001
0010
0000
0100
0000
1000
0000
0001
0000
,
0101
0000
0000
0100
0010
0000
1000
0000
0000
0001
0000
0000
0220
0000
0330
0000
,
0101
0000
0010
1000
0010
0000
0100
0000
0001
1000
0001
0000
0100
0010
0100
0000
,
0001
0010
0100
1000
0001
0100
0010
0010
,
1010
0000
1000
0001
1000
0000
0010
0000
0100
0001
0100
0000
0010
1000
0010
0000
,
0110
0000
0100
0000
0101
0000
0001
0000
1000
0100
1000
0010
0100
0000
0000
0000
,
1001
0000
0001
0100
0010
0000
1000
0000
0001
0100
0010
0000
1000
0001
1000
0000
,
1001
0001
0100
0010
0110
0010
1000
0000
,
1001
0000
0001
0100
0010
0000
0100
0000
0001
1000
0001
0000
0100
0010
0100
0000
,
0001
1000
0001
1000
0010
0100
0010
0100
0001
1000
0100
1000
0001
0000
0100
0000
,
0101
0000
0010
1000
0100
0000
0010
0000
0100
1000
0010
0000
0100
0001
0100
0000
,
0010
0000
1000
0001
1000
0000
0010
0000
0100
0000
0001
1000
0001
0000
1000
0000
,
1010
0000
0100
0001
0100
0000
0010
0000
1000
0001
1000
0001
1000
0000
0010
0000
,
1000
0000
0100
0010
0100
0000
1000
0000
0001
0100
0001
0100
0010
0000
1000
0000
,
1001
0000
0010
0100
0010
0000
0100
0000
0001
1000
0001
0000
0100
0010
0100
0000
,
0020
0000
1030
0010
2000
0000
3001
0000
0200
0000
0310
1000
0010
0000
0100
0000
,
0101
0000
0010
1000
0010
0000
0100
0000
0001
0000
1000
0100
1000
0000
0001
0100
,
0001
1000
0100
0010
0001
0100
0010
1000
0100
0010
0100
1000
0010
0000
0000
0000
,
0010
0000
0000
0000
1000
0000
0000
0002
0000
0000
0000
0000
0013
0000
0000
0000
,
0100
0000
1000
0010
0000
0100
0000
0001
0000
1000
0010
0000
1010
0000
0000
0000
,
1000
0000
0001
0010
0001
0000
0101
0000
,
1000
0000
0100
1000
0000
0001
0000
0100
0000
0001
1000
0001
1000
0100
1000
0100
,
1000
0000
0000
0000
0001
0000
0000
0200
0000
0000
0000
0000
0310
0000
0000
0000
,
0110
0000
1000
0010
0000
0100
0000
0001
0000
1000
0001
0000
1100
0000
0000
0000
,
1000
0010
0001
0010
2000
0000
3200
0000
,
0320
0000
0000
0032
0000
0000
0000
0000
2003
0000
0000
0000
3020
0000
0000
0000
,
0130
0000
0000
0000
0001
0000
0000
2000
0000
0000
0000
0000
3100
0000
0000
0000
,
0010
0000
0001
0100
0000
0001
0000
1000
0000
0001
0100
0000
0101
0000
0000
0000
,
0001
0000
1000
0100
1000
0000
0101
0000
,
0001
0000
0010
0100
0000
1000
0000
0010
0000
1000
0001
1000
0001
1000
0100
1000
,
0100
0000
0000
0000
1000
0000
0000
0020
0000
0000
0000
0000
0130
0000
0000
0000
,
0110
0000
0001
0100
0000
0001
0000
0010
0000
0001
1000
0000
0011
0000
0000
0000
,
0001
0100
1000
0100
0002
0000
0023
0000
,
0230
0000
1300
2000
0000
0001
3001
0000
,
1001
0000
0000
0100
0001
0000
0001
0000
0100
0000
1000
0000
0001
0000
1000
0000
,
1100
0000
0000
0001
0100
0000
0100
0000
0010
0000
0001
0000
0010
0000
1000
0000
,
1001
0000
0000
0010
0100
0000
0100
0000
1000
0000
0001
0000
0010
0000
0100
0000
,
0110
0000
0000
1000
0001
0000
0001
0000
0100
0000
0010
0000
1000
0000
0001
0000
,
0101
0000
1100
0000
0110
0000
1000
0010
,
0010
0000
0110
0100
0001
0010
0100
0010
,
0011
0000
0100
1000
1010
0000
0100
0010
,
1010
0001
0101
1000
0110
0000
1001
0000
,
0110
0000
0000
0000
0001
0100
0010
0000
0001
0000
0010
0100
0001
0000
0010
0000
,
1100
0000
0000
0000
0001
0100
0010
1000
0001
0000
0100
0010
1000
0000
0010
0000
,
0101
0000
0000
0000
1000
0100
0010
0100
1000
0000
0001
0010
0100
0000
1000
0000
,
0101
0000
0000
0000
1001
0000
0100
0010
0100
0000
1000
0000
0001
0010
1000
0010
,
0001
0000
0100
0000
1010
0000
0010
0100
0010
0000
0010
0000
0100
0001
0010
1000
,
0010
0000
0001
0000
0110
0000
0100
1000
0001
0000
0010
0000
0100
1000
0010
0100
,
0010
0100
1001
0000
1001
0000
1010
0000
,
0100
0000
0001
1000
0000
0011
0000
0000
1100
0000
1000
0001
0000
0100
0000
0001
,
0000
0101
0000
0110
1001
0000
0011
0001
,
1000
0000
0010
0100
0000
0101
0000
0000
0001
0000
0100
0010
1000
0001
0000
1001
,
0000
0000
1000
0100
0010
0100
1000
0000
0001
0000
0100
0000
0001
0000
1000
0100
,
0000
0010
0000
0100
1000
0000
0001
0000
0100
0000
0010
0000
1000
0000
0001
0100
,
0000
0000
0010
1000
0010
1000
0001
0000
1000
0000
0100
0000
0010
0000
0001
0010
,
0000
0100
0000
0010
0001
0000
1000
0000
0001
0000
0100
0000
0010
0000
1000
0001
,
0000
0220
0330
0000
,
1000
0000
0001
1000
0000
0001
1000
0000
0000
0010
0000
0000
0000
0000
0000
0000
0000
0000
0000
0000
0000
0000
0000
0000
,
0001
0000
0100
0010
0000
0100
0001
0000
0000
0000
0000
0000
0000
0000
0000
0000
0000
0000
0000
0000
0000
0000
0000
0000
,
1000
0001
1001
0000
0100
0000
0001
0000
,
1000
0100
0010
0001
0100
0010
1000
0001
,
1000
1000
0001
0000
1000
1000
0001
0000
,
1000
1000
0100
0000
0010
0001
0100
0001
,
0010
0000
0010
0000
0100
0000
0000
0000
1000
0000
0000
0001
0000
0000
1000
0000
,
0001
0100
0010
1000
0001
0100
0010
0100
,
0001
0001
0100
0000
0001
0001
1000
0000
,
0001
0001
0010
0000
0001
0010
0100
1000
,
1000
0000
1000
0000
0010
0000
0000
0000
1000
0000
0000
1000
0000
0000
1000
0000
,
0100
0010
0100
1000
1001
2002
0000
3000
,
0003
0000
0000
0000
0110
0220
0000
0030
,
0300
0000
MMMM
MMMM
,
MMMM
0000
0000
0000
MMMM
0000
0000
0000
0001
1000
0000
0010
0000
0100
0000
0001
,
0000
1000
0100
0010
0001
0000
1000
0000
1002
0000
1000
0000
0100
0000
0000
0000
,
0100
0100
1003
0010
1000
2000
0001
0000
,
0100
0100
3001
0100
0010
0020
1000
0000
,
0100
0000
0100
0000
1030
0000
0100
0000
0001
0010
0000
0110
0000
1100
0000
1001
,
0000
0101
0000
0100
0001
0000
1000
0000
1001
0000
1100
0000
1000
0010
0100
0010
,
0000
0010
1000
0001
0010
0001
0100
0000
1100
0000
1000
0100
0010
0001
0100
0010
,
0000
0010
0100
1000
0010
0100
0001
0000
0110
0000
0101
0000
0001
0100
0010
1000
,
0000
1000
0010
1000
0010
0100
0010
0000
1001
0000
0100
0010
0001
0100
0000
0110
,
0000
1000
0100
0010
0100
0010
0001
0000
1001
0000
0101
0000
1000
0100
1000
0010
,
0000
0100
0001
1000
0100
1000
0001
0000
1001
0000
0001
0100
0010
1000
0100
0010
,
0000
0010
0001
1000
0100
1000
0010
0000
0110
0000
1000
0100
0010
0001
0100
0001
,
0000
0001
1000
0000
1010
0000
0100
0000
0101
0000
0010
0001
0100
0010
1000
0010
,
1000
0000
0001
1000
0000
0010
0100
0010
1001
0000
0000
1000
0001
0000
0001
0100
,
0010
0000
0000
0010
1000
0100
0001
0100
0010
0000
0000
0010
0100
0000
0001
0100
,
0020
0000
0000
0000
0130
0000
0000
0000
1001
0000
0110
0000
1001
0000
1000
0100
,
0000
0100
0001
0010
0100
1000
0010
0200
0000
0000
0010
0000
0010
0000
0310
0000
,
1000
0000
0001
0100
0001
0000
1000
0100
1000
0001
0100
0000
0001
0000
0010
0000
,
0001
0100
0000
0010
0100
0001
1000
0100
0010
0100
1000
0000
0010
0000
1000
0000
,
0100
0000
0010
0000
0000
0000
0100
1000
0000
0000
1000
0000
0100
0000
0010
0000
1000
0000
0010
0000
0100
0000
0000
0000
1000
0000
0000
0000
0001
0000
0000
0000
,
0100
0010
0000
0100
0001
1000
0100
0010
0100
1000
0020
0000
0130
0001
2000
0000
,
3100
0010
0001
1000
0001
1000
0010
0100
0010
0100
0010
0000
1000
0000
0001
0000
,
0010
0100
0000
0010
0001
0010
0100
1000
0001
0100
0001
0000
1000
0000
0010
0000
,
0001
0000
0010
0000
0000
0000
0100
0001
0000
0000
0100
0000
0001
0000
0100
0000
0010
0000
1000
0000
0001
0000
0000
0000
0010
0000
0000
0000
0001
0000
0000
0000
,
1000
0100
0000
0010
0100
1000
0001
1000
0100
0010
0200
0000
0310
0001
0020
0000
,
0130
1000
0001
1000
0010
0100
0001
0010
0100
0000
0000
0000
1000
0100
0000
0010
,
0000
0001
0000
1001
0000
0000
0000
0000
0001
0100
0000
1000
0000
0100
0000
0002
,
0000
0010
0000
0013
0000
0000
0000
0000
0000
0000
0010
0000
0100
1000
0000
0010
,
0000
1000
0000
1100
0000
0000
0010
0000
0110
0000
0100
1000
0001
0000
0100
0010
,
0100
0000
0001
0010
0100
1000
0100
0010
0001
0000
0000
0000
0100
1000
0000
0100
,
0000
0001
0000
0011
0000
0000
0000
0000
0100
1000
0000
0010
0000
0100
0000
0020
,
0000
1000
0000
1030
0000
0000
0000
0000
0000
0000
0001
0000
0010
1000
0000
0010
,
0000
0100
0000
0110
0000
0000
0001
0000
1001
0000
1000
0100
0010
0000
0001
0010
,
0100
0000
1000
0001
0100
0001
1000
0010
0100
0000
0000
0000
0000
0000
0000
0000
,
0000
0000
1001
0002
1003
0010
0102
0000
,
0013
0100
2000
0000
3100
0010
0100
1000
0002
0000
0000
0000
1003
0010
0200
0000
,
0301
0000
0000
1000
0000
0000
0100
0000
0000
1000
0000
0000
0020
0000
0000
0000
0000
0000
1030
0000
0000
0001
0000
0000
0100
0000
0000
0000
0000
0000
0010
0000
0000
0000
0000
0000
1000
0000
0000
0000
1000
0000
0100
0000
0000
0000
0000
0000
,
0010
0000
0000
0001
0000
0000
0011
0000
0001
1000
0000
0000
0100
0000
0000
0010
0000
0000
0001
0000
0001
0100
0000
0000
,
0010
0000
0000
1000
0000
0000
1010
0000
1000
0001
0000
0000
0100
0000
0000
0001
0000
0000
2010
0000
0000
0000
0000
0000
,
3100
0010
0002
0000
0013
0100
1000
0010
0200
0000
0000
0000
0301
1000
0020
0000
,
1030
0100
0010
0001
2000
0000
3001
0010
0100
0000
0010
0000
0210
0000
2300
0000
,
3002
0000
0000
0013
0000
0000
0110
0000
0100
0010
0000
0000
0011
0000
0000
0001
0000
0000
1001
0000
0000
1000
0000
0000
,
0010
0000
0000
0010
0000
1000
0100
0000
0010
0001
0000
0000
0100
0000
0000
0010
0000
0000
2010
0000
0000
0000
0000
0000
,
3001
0100
2000
0000
3100
0001
0010
1000
0002
0000
0000
0000
0103
1000
0020
0000
,
0031
0000
0000
1000
0000
0000
0100
0000
0000
0001
0000
0000
0010
0000
0000
0100
0000
0000
0010
0000
0000
0100
0000
0000
1000
0000
0000
0000
0000
0000
0001
0000
0000
0000
0000
0000
0100
0000
0000
0000
0100
0000
0010
0000
0000
0000
0000
0000
,
1000
0000
0000
0100
0000
0000
0011
0000
0001
1000
0000
0000
0010
0000
0000
1000
0000
0000
0100
0000
0100
0010
0000
0000
,
0001
0000
0000
0100
0000
0000
1010
0000
1000
0001
0000
0000
0101
0000
0000
0100
0000
0000
0120
0000
0000
0000
0000
0000
,
1030
0010
0002
0000
0013
1000
0001
0010
2000
0000
0000
0000
3010
0001
0200
0000
,
1300
0001
0010
1000
0100
0010
0100
0010
0002
0000
0023
0000
0230
0000
2300
0000
,
3002
0023
0230
2300
3010
0100
0010
1000
,
0100
0010
0001
1000
2000
0000
0000
0000
,
0100
0100
3200
0000
,
0000
0000
2300
0000
,
0000
0000
0000
0000
3002
0000
0000
0003
,
1000
0100
1000
0100
0010
0010
0001
1000
,
0001
0100
0010
0000
1001
1001
0000
0000
,
0010
0100
0010
1000
0010
0100
0010
1000
,
0001
0000
0100
0000
0001
0001
0000
0000
,
1000
0010
0100
0001
1000
0010
0100
0010
,
1000
0100
0100
0000
1100
0000
0000
0000
,
0010
0001
0010
0100
1000
0000
0001
0100
,
0001
0000
0020
0000
0130
0000
1000
0100
,
1000
0000
0101
0000
0101
0000
0010
1000
,
0001
0000
1010
0000
1010
0000
0001
0100
,
0001
1000
0010
1000
0001
0000
0110
0000
,
1000
0000
0100
1000
0100
0000
1000
0001
,
1000
0000
0100
0000
0110
0000
0110
0001
,
1000
0000
0001
0000
1100
0000
1100
0010
,
0001
0000
0010
0000
0100
0000
1000
0001
,
1000
0000
0010
0000
0200
0000
0000
0300
,
0000
0000
0000
0000
0000
0000
0000
0000
0001
0000
0000
0000
1000
0000
0100
1000
,
0000
0000
0000
0000
0001
0000
0000
0000
0100
0000
0010
0100
0010
0000
0000
0000
,
1000
0000
0100
0010
0000
0000
0000
0000
0001
0000
0000
0000
0100
0000
0001
1000
,
0000
0000
0000
0000
0100
0000
0000
0000
0010
0000
0001
0010
0001
0000
0000
0000
,
1000
0000
0010
0100
0000
0000
0000
0000
0001
0000
0000
0000
0010
0000
0001
0010
,
0000
0000
0000
0000
0001
0000
0000
0000
1000
0000
0010
1000
0010
0000
0000
0000
,
0100
0000
0001
0010
0100
0000
0010
0000
0002
0000
0000
0000
1003
0000
0010
1000
,
0001
0000
0010
0000
0200
0000
0000
0000
1300
0000
0100
0010
0100
0000
0000
0000
,
1000
0000
0001
1000
0000
0000
0000
0000
0010
0000
0000
0000
0100
0000
0001
1000
,
0000
0000
0000
0000
0010
0000
0000
0000
1000
0000
0100
1000
0100
0000
0000
0000
,
0010
0000
0001
0100
0000
0000
0000
0000
0001
0000
0000
0000
1000
0000
0010
1000
,
0000
0000
0000
0000
0100
0000
0000
0000
0010
0000
0100
0010
0100
0000
0000
0000
,
1000
0000
0010
0100
0000
0000
0000
0000
0001
0000
0000
0000
1000
0000
0010
1000
,
0000
0000
0000
0000
0100
0000
0000
0000
0010
0000
0001
0010
0001
0000
0000
0000
,
1000
0000
0010
0100
0001
0000
1000
0000
0200
0000
0000
0000
0310
0000
0100
1000
,
0001
0000
0100
0000
0020
0000
0000
0000
1030
0000
0100
0010
0100
0000
0000
0000
,
1000
0000
0001
0000
1001
0000
1000
0010
,
0001
0010
0100
0010
1000
0100
0010
0001
,
0000
0100
0010
1000
0001
0010
0100
0010
,
1000
0010
0100
1000
0010
0001
0010
0100
,
0001
1000
0100
0000
0010
0100
0001
0100
,
0010
0001
1000
0010
0001
0010
1000
0001
,
0000
0100
0010
0001
0020
0000
2030
0000
,
3002
0000
0000
0000
0013
0000
0100
0000
1000
0000
0001
0000
0000
1000
0000
0000
,
0001
0000
0000
0000
0000
1000
0001
0000
1000
0001
0000
0000
0101
0000
0000
0000
0000
0000
1000
0000
0000
0100
0000
0000
,
0101
0000
1000
0100
0010
1000
0010
0100
,
0010
0000
0001
0100
1100
0000
0001
0100
,
1100
0000
0001
0100
0010
0001
0010
0100
,
0010
0000
1000
0010
0011
0000
1000
0010
,
0011
0000
1000
0010
0100
1000
0100
0010
,
0100
0000
0001
0010
1010
0000
0001
0010
,
1010
0000
0001
1000
1001
0000
1100
0000
,
0101
0000
0000
1000
0001
0000
0010
0000
0001
0000
0010
0001
0010
0000
0100
0010
,
0100
0000
1000
0100
1000
0100
0000
0200
0000
0000
0000
0000
0000
0000
1300
0000
,
0100
0000
1000
0000
0100
0000
0010
0000
0000
0000
0001
0000
0100
0000
0001
0100
,
0000
0100
0000
0001
0100
0000
0010
0000
1000
0100
0010
0000
0001
0000
0100
0000
,
0010
0000
0100
0000
0001
0000
1000
0000
0010
0000
1000
0010
1000
0000
0010
0100
,
0010
0000
0100
0001
0100
0010
0000
0020
0000
0000
0000
0000
0000
0000
1030
0000
,
1000
0000
0001
0100
0010
1000
0000
0001
0000
0001
0000
0000
1000
0000
0010
0000
,
0100
0001
0010
0001
0100
0010
1000
0100
,
0010
0001
1000
0010
1000
0100
0010
0100
,
0001
0100
0000
1000
0010
0100
0001
1000
,
0001
0000
0100
0000
0000
0000
0100
0000
0110
0000
0000
0000
0100
0000
0000
0100
,
0000
0100
0010
1000
0001
0010
0100
0001
,
0100
0010
1000
0010
0001
1000
0010
0100
,
0010
0001
0000
0010
1000
0100
0010
0001
,
0010
0100
0000
0100
1000
0010
1000
0100
,
1000
0010
0100
0001
0000
0001
0100
2000
,
0000
3001
0000
0000
0020
0000
1000
0000
,
0130
0001
2000
0100
,
3001
0010
0200
1000
,
0310
0000
0001
0000
0000
0000
0001
0000
0020
0000
0000
0000
0001
0000
0000
0130
,
1000
0000
0100
1000
0100
0000
0010
0000
0001
0000
1000
0000
0002
0000
0000
0000
,
0000
0103
0010
1000
0020
0000
0001
0000
,
1000
0000
0230
0000
0301
0010
2000
0000
,
0000
0000
0000
3010
0001
0100
0001
0010
,
0100
0000
1000
0001
1000
0000
0010
0000
0200
0000
0000
0000
0010
0000
0310
0000
,
1001
0000
0000
0000
0100
1000
0010
0100
0002
0000
0000
0000
1003
0000
0010
0000
,
0001
0000
1001
0000
0020
0000
0001
0031
,
1100
0000
0000
0000
0010
0001
1000
0010
0100
0000
0001
0000
1000
0000
0001
0000
,
0010
0001
1000
0100
0010
0010
0020
0000
,
0000
0000
0000
0000
0130
0010
0100
0010
0100
0000
1001
0000
0000
1010
0000
0000
,
1001
0000
0000
0011
0000
0000
0001
0000
2000
0000
0000
0000
0000
0000
0000
0000
,
0000
0000
0000
0000
,
0000
0000
3002
0000
,
0000
0000
0000
0000
0000
0000
0000
0000
0103
0010
0000
0010
1000
0000
0100
0010
,
0000
0010
0001
0000
0100
0010
0000
0010
0100
0000
0000
0010
1000
0000
0010
0000
,
0100
0000
0000
0001
0010
0000
0001
0000
1000
0000
0000
0001
0100
0000
0001
0000
,
1000
0000
0000
0100
0010
0000
0100
0000
1000
0000
0000
0010
0100
0000
0001
0000
,
0010
0000
0000
0001
0100
0000
0010
0000
1000
0000
0000
0100
0010
0000
0100
0000
,
1000
0000
0000
0001
1000
0000
0010
0000
1000
0000
0000
0001
0010
0000
0001
0000
,
1000
0000
0010
0100
0010
0000
1000
0000
0001
0000
0000
1000
0010
0000
1000
0000
,
0001
0000
0100
0010
0100
0000
0001
0000
0020
0000
0000
0000
0130
0000
0010
0000
,
0001
0100
0001
0100
0010
1000
0010
1000
0001
0000
1000
0000
1001
0000
0000
0000
,
0101
0000
0000
0011
0000
0000
1100
0000
1010
0000
1000
0000
0001
0000
0100
0000
,
0010
1000
0000
0010
1000
0000
0100
0000
1000
0000
0010
0000
0010
0000
0100
0000
,
0001
0010
0000
0001
0010
0000
0001
0000
1000
0000
0100
0000
0100
0000
0010
0000
,
0001
0100
0000
0001
0100
0000
0010
0000
1000
0000
0001
0000
0010
0000
0001
0000
,
0100
0000
0000
0101
0000
0000
1010
0000
0000
0000
0110
0000
1001
0000
0000
0000
,
0001
0100
0000
0010
1000
0000
0001
0000
1000
0000
0100
0000
0100
0000
1000
0000
,
0001
0010
0000
0100
1000
0000
0001
0000
0100
0000
0000
0000
0001
0010
0001
0000
,
0100
0000
0000
1010
0000
0000
0011
0000
1002
0000
0000
0000
0013
0000
0000
0000
,
2001
0000
0000
3010
0000
0000
1100
0000
0100
1000
0000
1000
,
0010
0000
0010
0100
0001
0100
0020
0000
0000
1000
0000
0000
,
0100
0000
0000
1030
0000
0000
0001
0010
0100
1000
0100
0010
,
0001
1000
0010
0100
0001
0100
0010
0000
0010
1000
0000
1000
,
0001
0000
0001
0010
0100
1000
0200
0000
0000
0310
0000
0000
,
1001
0000
0000
0100
0010
0100
0010
0000
0000
0010
1000
0100
,
0010
0000
0000
0011
0000
0000
1100
0000
0000
0001
0000
0100
,
0001
1000
0001
0100
0000
0100
0010
1000
0010
0100
0001
0100
,
0010
1000
0100
0001
0100
1000
0010
0000
0010
1000
0000
1000
,
0100
0000
0100
0010
0001
0010
0200
0000
0000
1000
0000
0000
,
0010
0000
0000
1300
0000
0000
0001
0010
0100
0010
0001
0100
,
0010
1000
0001
1000
0010
0100
0010
0000
0010
1000
0000
1000
,
0100
0000
0100
0010
0001
0010
0200
0000
0000
0310
0000
0000
,
1001
0000
0000
0100
0010
0100
0010
0000
0000
1000
0000
0010
,
1000
0000
0000
1010
0000
0000
0101
0000
0000
1000
0000
0100
,
0010
0001
0010
0100
0000
0100
2000
0000
0000
3020
0000
0000
,
0130
0001
0100
0010
0100
0010
1002
0000
0000
0100
0000
0000
,
1003
0000
0001
1000
0010
1000
0001
0100
,
0001
0000
0100
0010
1000
0010
0100
0001
,
0100
0000
0010
1000
0010
0100
0001
0200
,
1000
0301
2001
0010
,
3001
0000
1000
0001
0100
0001
1000
0010
,
1000
0000
0010
0100
0001
0100
0010
1000
,
0010
0000
0100
0001
0100
0010
1000
0020
,
0001
0000
0000
0000
1030
0000
0000
0000
0100
0000
0000
1000
0100
0000
0010
0000
,
0001
0000
0000
0100
0001
0000
0010
0000
0100
0000
0000
1000
0100
0000
0010
0000
,
0001
0000
0000
0100
0001
0000
1000
0000
0010
0000
0000
1000
0010
0000
0100
0000
,
0001
0000
0000
0010
0001
0000
0100
0000
0010
0000
0000
1000
0010
0000
0100
0000
,
0001
0000
0000
0010
0001
0000
1000
0000
0010
1000
0010
0000
1000
0001
1000
0000
,
0001
0100
0001
0000
0100
0010
0100
0000
0010
0100
0010
0000
0100
0001
0100
0000
,
0001
1000
0001
0000
1000
0010
1000
0000
0100
1000
0100
1000
0010
1000
0010
1000
,
0001
0100
0001
0100
0001
0010
0001
0010
0200
0000
0000
0000
2300
0000
0000
0000
,
3001
0100
0001
0000
0001
0010
1000
0010
,
0001
0010
1000
0010
0001
0010
1000
0010
,
0002
0000
0000
0000
1003
0010
1000
0010
0100
0000
1000
0000
0100
0000
0001
0000
,
0100
1000
0100
0001
0000
0100
1000
0000
,
0100
0001
0100
0001
0020
0000
0000
0000
0130
0000
0010
0000
0001
0000
0100
0000
,
0010
0100
0001
0010
0100
0010
0001
0100
,
0020
0000
0000
0000
1030
0001
1000
0001
0100
0000
0010
0000
1000
0000
0100
0000
,
1000
0010
0100
0010
1000
0100
0000
0100
,
0020
0000
0032
0000
0103
1000
0100
0001
,
0010
0100
1000
0100
0001
0100
1000
0100
,
0020
0000
0000
0000
0031
0100
0001
0100
0001
0000
0010
0000
1000
0000
0010
0000
,
0001
0100
0010
1000
0000
0100
0010
0001
,
1000
0010
1000
0010
0200
0000
0000
0000
0301
0000
1000
0000
0100
0000
1000
0000
,
0001
0100
1000
0100
0001
1000
0010
1000
,
0200
0000
0000
0000
0310
0001
0010
0001
1000
0000
0001
0000
0100
0000
0001
0000
,
1000
0100
0001
0100
0000
0010
0000
0100
,
1000
0100
0010
0001
2000
0000
0000
0000
0200
0000
0000
0000
0000
0000
0000
0000
,
0000
0000
3300
0000
1001
0000
0010
1010
,
0000
0000
0001
0000
0100
0000
0101
0000
0001
0010
0001
0010
0100
1000
0100
1000
,
0001
0100
0010
1000
0002
0000
0000
0000
1003
0000
0100
0010
0000
0010
0001
0000
,
0100
0000
0010
1000
0000
0010
0001
0000
0010
0000
0100
0001
0000
0001
1000
0000
,
0001
0000
0010
0100
0000
1000
0001
1000
0100
0000
1000
0000
1010
0000
0100
0000
,
0001
0000
0010
0001
0000
1000
0001
0000
0100
0000
0001
0010
0000
0010
0100
0000
,
1000
0000
0010
1000
0000
0001
1000
0000
0001
0000
1000
0100
0000
0001
0100
0000
,
1000
0000
0010
0001
0000
0010
1000
0001
1000
0000
0100
0000
1100
0000
0000
0000
,
0001
0000
1000
0000
0001
0100
0001
0100
0010
0000
0000
0000
0100
0000
0101
0000
,
0000
0000
1000
0000
0100
0000
1100
0000
1000
0100
1000
0100
0010
0001
0010
0001
,
1000
0010
0100
0001
1000
0000
0000
0000
0010
0000
0100
0001
0000
0100
0010
0100
,
0001
0000
0010
0100
0000
0010
0100
0010
0001
0000
1000
0010
0000
0100
0010
0100
,
0001
0000
0010
0100
0000
1000
0001
1000
0010
1000
0010
0000
0100
0001
0100
0000
,
0001
0010
0001
0000
1000
0100
1000
0000
0010
1000
0010
0000
0100
0001
0100
0000
,
0001
0010
0100
1000
0001
1000
0001
0100
0010
0000
0000
0110
0000
0000
0001
0000
,
0101
0000
0000
0110
0000
0000
2020
0000
0000
0000
0000
0000
0000
0000
0000
0000
,
0000
0000
0000
0000
3030
0000
0000
0000
2000
0000
0000
0000
3002
0000
0000
0023
,
0000
0000
0130
0000
1000
0000
0020
0000
0000
0032
0000
0000
0013
0000
1000
0000
,
0001
0010
0000
0000
0010
0000
0100
0000
1100
0000
0000
1000
0000
0000
0010
0000
,
1010
0000
0000
0010
0000
0000
0110
0000
0000
0100
0000
0000
0001
0000
0100
0000
,
0001
0010
0000
0000
0100
0010
0100
0000
2000
0000
0000
0000
3010
0000
0000
0000
,
0110
0000
0000
0100
0000
0000
1001
0000
0000
1000
0000
0000
0100
0000
0010
0000
,
0001
1000
0000
0000
0010
0000
1000
0001
1000
0000
0000
0010
0000
0000
1000
0000
,
1100
0000
0000
0000
0110
0000
0000
0010
0000
0000
0001
0000
0000
0100
0000
0000
,
0010
0000
0100
0000
0100
0000
0001
0000
1002
0000
0000
0000
2003
0000
0000
3020
,
0000
0000
0130
0000
0001
0100
0002
0000
0000
0023
0000
0000
0130
0000
1000
0000
,
0000
0001
0100
0001
0200
0000
0320
0000
1030
0000
0000
1000
0000
0000
1000
0000
,
1100
0000
0000
1001
0000
0000
0012
0000
0000
0000
0000
0000
1000
0000
0000
0000
,
0103
0000
0000
0000
0001
0000
0000
0000
1000
0000
0000
0100
1000
0000
0010
0000
,
0100
0001
0000
0100
0001
0000
0010
0000
0001
0000
0000
0100
0001
0000
0010
0000
,
0100
1000
0000
0100
1000
0000
0010
0000
1000
0000
0100
0000
0001
0000
0100
0000
,
1000
0000
0000
0001
0000
0000
1000
0000
2002
0000
0000
0000
0000
0000
0000
0000
,
0000
0000
3003
0000
1001
0000
1000
0100
,
0000
0001
0100
0000
1000
0100
0010
0001
,
0000
1000
0001
0000
1001
0000
0001
0100
,
0000
1000
0100
0000
0001
0010
0011
0000
,
0000
1001
0110
0000
1010
0000
1000
0010
,
0000
0001
0010
0000
1000
0010
0100
0001
,
0000
1000
0001
0000
0011
0000
0001
0010
,
0000
1000
0010
0000
0001
0100
0101
0000
,
0000
1001
0110
0000
2000
0010
3010
2000
,
0001
3001
1000
0010
0100
0001
1000
0100
,
0001
0100
1000
0000
0002
0010
0013
0002
,
1000
1003
0001
0010
0100
1000
1100
0000
,
0000
1001
0110
0000
0002
0100
0103
0002
,
1000
1003
0001
0100
0010
1000
0100
0001
,
0100
1000
0010
0100
0001
0010
0100
1000
,
0010
0100
0010
0100
0010
0000
0210
0000
0000
0000
0000
0000
0000
0000
0000
0000
,
0310
0000
0100
0000
0100
0000
0000
0000
0001
0000
1000
0001
1000
0001
1000
0000
,
0010
0000
0100
0001
0100
0001
0100
0010
1000
0001
1000
0000
0001
1000
0000
0100
,
1000
0000
0100
0010
0100
0000
1000
0000
0001
0100
0010
0000
1000
0010
0000
1000
,
0100
0010
0100
0010
0001
0000
1000
0010
0100
0010
0100
0000
0001
0100
0000
0010
,
0100
0001
0100
0000
0010
1000
0010
0000
1000
0100
1000
0000
0100
0010
0000
0100
,
1000
0000
0001
0100
0001
0100
0010
0000
1000
0100
1000
0000
0001
1000
0001
0000
,
0010
0001
0010
0000
0100
0010
0100
0000
1000
0100
1000
0000
0001
0100
0000
0010
,
1000
0000
0001
0010
0000
0010
0100
0000
1000
0100
1000
0000
0001
0100
0010
0100
,
0010
1000
0010
0000
1000
0001
1000
0001
0010
0100
0010
0000
0001
1000
0000
0010
,
1000
0010
0000
1000
0001
1000
0000
0001
0010
0100
0010
0001
0000
0001
1000
0000
,
0010
0100
0001
0100
0000
0100
0010
0000
1000
0010
0100
0000
0001
0100
0000
0010
,
1000
0001
1000
0001
1000
0100
0000
0010
0001
0010
0100
0000
1000
0001
0000
0010
,
0001
1000
0001
0000
1000
0010
0000
0100
0001
0100
0001
0000
1000
0100
0000
0010
,
0001
1000
0001
0000
1000
0010
0000
0100
0001
1000
0000
0100
1000
0001
0000
0010
,
0001
1000
0000
0010
1000
0001
0000
0100
0001
0100
0010
0000
1000
0001
0000
0010
,
0100
0010
0100
0010
0100
1000
0000
0001
0100
0010
0000
1000
0001
1000
0100
0010
,
0100
0000
0000
0010
0000
0000
0000
0000
0000
0001
0000
0000
1000
0000
0000
0010
0000
0000
1000
0000
0000
0010
0000
0000
1000
0000
0000
0000
0001
0000
0000
0000
1000
0000
0000
0000
0001
0000
0000
0000
0000
0000
2000
0000
0000
0000
0000
0000
,
3010
0000
0010
1000
0100
0000
M100
0001
,
1000
0100
0010
0001
0100
0000
0100
0001
,
1000
0100
0010
0001
0100
0000
0100
0001
,
0020
0001
0230
1000
,
0310
0000
0010
0001
0100
0000
010M
1000
,
0001
0100
0010
1000
0100
0000
0100
1000
,
0001
0100
0010
1000
0001
0010
0100
1000
,
0001
0000
0001
0000
0100
0000
0100
0000
0010
0100
0010
0100
0010
0000
0000
0000
,
0010
1000
0001
0000
0001
0010
0100
1000
,
0001
0100
0010
0000
0001
0010
0001
0001
,
1000
0010
1000
1000
0001
0100
0010
0000
,
0010
0000
1000
0000
0001
0000
0000
0000
1000
0001
1000
0001
2000
0000
0000
0000
,
3001
0002
0013
0020
,
1030
2000
3100
0200
,
0301
0002
0013
0020
,
0130
0200
1300
1100
,
1001
1010
0110
0101
,
1001
0011
0110
1100
,
0101
0000
0011
0000
1010
0000
1000
1000
,
0000
0000
0001
0001
0000
0000
1001
0000
,
1000
0100
0001
0000
1100
0000
0001
0100
,
1000
0000
0100
0100
0001
0001
0010
0000
,
1000
0010
0001
0000
1001
0000
1000
0100
,
0010
0001
0100
0010
1000
0100
1000
1000
,
0001
0100
0001
0000
0011
0000
0010
0100
,
0010
0000
0100
1000
0001
1000
0100
0000
,
0001
0100
1100
0000
0110
0000
0010
0001
,
0010
1000
0010
0001
0010
0100
1000
0000
,
1000
0001
0010
0001
0100
0000
0010
1000
,
0001
1000
0010
0000
0100
0001
1000
0000
,
0010
0100
0001
0000
0101
0000
0100
0010
,
1000
1000
0001
0100
0001
1000
0010
0010
,
0100
0001
0010
0000
1001
0000
1000
0010
,
0100
0010
1000
0010
0100
0010
1000
0000
,
0001
0000
1000
0000
1010
0000
0000
0000
0010
0000
0100
0001
0100
0000
0001
0000
,
1000
0100
1100
1000
0011
0000
1002
0000
,
0103
0120
0000
1030
1100
0000
2001
0000
,
3010
0000
0210
0000
0000
0000
0301
0000
0100
0001
0100
0001
2000
0000
0000
0000
,
3100
0120
0000
0031
0101
0000
1002
0000
,
0103
0000
0120
0000
0000
0000
1030
0000
0010
0100
0010
0100
0020
0000
0000
0000
,
1030
1200
0000
0310
0110
0000
0012
0000
,
0103
0000
0120
0000
0000
0000
1030
0000
0001
1000
0001
1000
0200
0000
0000
0000
,
0310
0210
0000
1300
1010
0000
0210
0000
,
0301
0000
0021
0000
0000
0000
0130
0000
1000
0001
1000
0001
1000
0000
0010
0000
,
1000
0001
0010
0001
1000
1000
0001
0100
,
0001
0000
1000
0000
0100
0000
1000
0000
0001
0100
0001
0100
0010
0000
0100
0000
,
0010
1000
0001
1000
0100
0100
0001
0100
,
1000
0000
0001
0000
0100
0000
0010
0000
0100
0010
0100
0010
0100
0000
0001
0000
,
0010
0100
1000
0010
0100
0100
0010
1000
,
0100
0000
0010
0000
0001
0000
0100
0000
0010
1000
0010
1000
0001
0000
0010
0000
,
1000
0001
0100
1000
0001
0001
1000
0010
,
0001
0000
0010
0000
2000
0000
0000
0000
3001
0010
0100
1000
0002
0000
0000
0000
,
0000
0000
0000
0000
,
0000
0000
0000
0000
,
0003
0000
0000
0000
;

//---------------dance-single - ver. Kekkle----------------
#NOTES:
     dance-single:
     Kekkle:
     Challenge:
     18:
     0.726254,0.893361,0.358323,0.604134,0.610860,4157.000000,3864.000000,293.000000,494.000000,23.000000,0.000000,0.726254,0.893361,0.358323,0.604134,0.610860,4157.000000,3864.000000,293.000000,494.000000,23.000000,0.000000:
0000
0000
0000
0000
,
0000
0000
0000
0000
,
0000
0000
0000
0000
,
0000
0000
0000
0000
,
0000
0000
0000
0000
,
0102
0000
0000
0000
1003
0000
0000
0000
0100
0000
0000
1000
0000
0000
0002
0000
,
0000
0103
0010
1000
0002
0000
0013
0000
,
2100
0000
3001
0000
0100
0010
0100
0001
,
1000
0000
0100
1000
0100
0000
0010
0001
1000
0000
0010
1000
0200
0000
0000
0000
,
0310
0000
0001
0010
0001
0000
1000
0010
1000
0000
0010
1000
0001
0000
0010
0001
,
0010
0000
0100
1000
0100
0000
0010
0001
1000
0000
0010
1000
0100
0000
0010
0000
,
0001
0000
0100
0010
1000
0000
0010
0100
0010
0000
0100
0001
1000
0000
0100
1000
,
0100
0000
0010
0001
1000
0000
0010
0100
0001
0100
0010
1000
0001
0000
0010
0000
,
0011
0000
1001
0000
0101
0000
0110
0010
,
1010
0000
1001
0000
1100
0000
0110
0010
,
0011
0001
1000
0010
1010
1000
0001
0010
,
0001
0010
0001
0010
0100
1000
0100
1000
0001
0100
0010
1000
0002
0000
0000
0000
,
1003
0000
0100
1000
0100
0000
0010
0001
0100
0000
0010
0000
1000
0010
1000
0000
,
0001
0000
0100
0001
0100
0000
0010
0000
2000
0000
0001
0000
3002
0000
0010
0000
,
0013
0000
0100
1000
0001
0000
0100
0001
0100
0000
0010
0000
1000
0001
0010
0000
,
0001
0000
0010
0001
0100
0000
0010
0000
2000
0000
3200
0000
0320
0000
0032
0000
,
0103
0000
0010
1000
0100
0000
0010
0001
0010
0000
0001
0000
0100
0010
1000
0000
,
0010
0000
0100
0001
0010
0000
0100
0000
2000
0000
0010
0000
3020
0000
0100
0000
,
0130
0000
0001
1000
0100
0000
1000
0010
0100
0000
0010
0000
1000
0001
0010
0000
,
0100
0000
1000
0100
1000
0000
0001
0000
0200
0000
0010
0000
0310
0000
0000
0000
,
2020
3030
0202
0303
2200
3300
0022
0033
,
0001
0100
0010
0001
0010
1000
0200
0000
,
0320
0000
0031
0100
0010
1000
0100
0010
,
0012
0000
0103
0010
1010
0000
2002
3003
,
0202
0303
0001
0100
1000
0001
0020
0000
,
0130
0001
1000
0100
0001
0100
0020
0000
,
0031
0100
0001
0100
0010
0000
1000
0000
0100
1000
0100
1000
0001
0000
0100
0000
,
0202
0303
2020
3030
1000
0001
2002
3003
,
2010
0000
3100
0001
0100
1000
0010
0100
,
0201
0000
1300
0100
0001
0010
0110
0000
,
1200
0000
0301
0100
1000
0010
0100
0001
,
0201
0000
0310
1000
0200
0000
0320
0000
,
0031
0100
0010
0100
0001
1000
0100
0020
,
0000
0031
1000
0100
0001
0100
1000
1000
,
0002
0000
0203
0000
0310
1000
0100
1000
,
0001
0100
0001
0100
0010
0000
1000
0000
0100
0000
0010
0000
0011
0000
0000
0000
,
2002
0000
0000
0000
,
0000
0000
0000
0003
,
0020
0000
0000
3000
,
0200
0000
0000
0000
0030
0000
0301
2000
,
0200
0000
0000
0000
,
0000
0000
0000
0300
,
3001
0100
0010
0010
1000
0100
0010
0010
,
0001
0100
1000
0001
0010
1000
0100
0000
,
0110
0000
0010
0001
0201
0000
1300
0100
0001
0010
0100
0000
0110
0000
0010
0001
,
0201
0000
1300
0100
0020
0000
0000
0000
0031
1000
0100
0100
0001
0010
0110
0000
,
1100
0000
1000
0010
0210
0000
0301
0010
0100
1000
0010
0000
0110
0000
0100
0010
,
2010
0000
3001
0010
0200
0000
0000
0000
0301
1000
0010
0010
0001
0100
0110
0000
,
1010
0000
1000
0001
0000
0010
0001
0000
0001
0000
0100
0000
0010
1000
0000
1000
,
0100
0000
0010
0001
0000
1000
0010
0000
0010
0000
0100
0000
0001
0010
0000
0010
,
0100
0000
1000
0001
0000
0010
0100
0000
0100
0000
1000
0000
0001
0100
0000
0100
,
0010
0000
1000
0100
0000
0010
0001
0000
0001
0000
0100
0000
0010
1000
0000
1000
,
0100
0000
0010
0001
0000
0010
1000
0000
1000
0000
0010
0000
0001
0100
0000
0100
,
0010
0000
0001
0010
0000
1000
0010
0000
0010
0000
0100
0000
0001
1000
0000
1000
,
0100
0000
0010
1000
0000
0010
0001
0000
0001
0000
0100
0000
0010
1000
0000
1000
,
0100
0000
0010
0001
0000
0100
1000
0000
1000
0000
0100
0000
0010
1000
0000
1000
,
0100
0000
0010
0001
0000
0100
0001
0000
0100
1000
0100
0000
0010
1000
0000
1000
,
0100
0000
0010
0001
0000
1000
0010
0000
0001
0010
0001
0000
0010
1000
0000
1000
,
0100
0000
0010
0001
0000
0100
0010
0000
1000
0001
1000
0000
0100
0010
0000
0010
,
0001
0000
0100
1000
0000
0100
0001
0000
0010
0100
0010
0000
0001
0100
0000
0010
,
2000
0000
0000
0000
0000
0000
0000
0000
0000
0000
0000
0000
3001
0010
0100
1000
,
0002
0000
0000
0000
,
2003
0000
0000
0000
0000
0000
0000
0100
,
3200
0000
0000
0000
,
2300
0000
0000
0002
0000
0000
3003
0000
,
0201
0010
1000
0010
,
0302
0010
1000
0010
,
0103
0010
1000
0001
0010
0100
0010
0001
,
1000
0010
1000
0010
0100
0001
0010
0100
0010
0100
1000
0001
0100
0010
0100
0010
,
1000
0000
0001
0010
0001
0000
0100
0000
010M
0000
1000
0100
1000
0000
0010
0000
,
0100
0000
0010
1000
0010
0000
0100
0000
010M
0000
0010
0001
0010
0000
0100
0000
,
1000
0000
0001
0010
0001
0000
0100
0000
0010
0000
1000
0100
1000
0000
0010
0000
,
0001
0010
0100
0020
0000
1030
1001
0001
,
0010
0001
0010
0000
0001
0100
0010
0000
1000
0010
1000
0000
0100
0010
0001
0000
,
0100
0010
0100
0000
1000
0100
0001
0000
0010
0001
0010
0000
1000
0010
0001
0000
,
0100
0010
1000
0000
0100
0010
0001
0000
0010
0001
0100
0000
0010
1000
0100
0000
,
0010
0001
0100
0010
0100
0001
1000
0100
0010
0001
0100
0010
1000
0001
1000
0001
,
1000
0100
0000
0010
0100
0000
1000
0100
0000
0010
0200
0000
1000
0000
1300
0000
,
0001
0100
0000
0010
0100
0000
0001
0100
0000
0010
0200
0000
0001
0000
0301
0000
,
0010
0100
0000
1000
0100
0000
0010
0100
0000
1000
0200
0000
0010
0000
0310
0000
,
0100
1000
0000
0001
1000
0000
0100
1000
0000
0001
2000
0000
0010
0000
3010
0000
,
0100
0001
0000
0001
0010
0000
0010
0100
0000
0100
2000
0000
0010
0000
3010
0000
,
0100
0001
0000
0001
1000
0000
1000
0100
0000
0100
0020
0000
0001
0000
0031
0000
,
0100
0010
0000
0010
1000
0000
1000
0100
0000
0100
0020
0000
0100
0000
0130
0000
,
1000
0001
0000
0001
0100
0000
0100
1000
0000
1000
0200
0000
0301
0000
0002
0000
,
0013
0100
0000
0010
1000
0000
0010
0100
0000
0010
0002
0000
0100
0000
0103
0000
,
0010
0001
0000
0010
0100
0000
0010
1000
0000
0010
0200
0000
0001
0000
0301
0000
,
1000
0100
0000
0010
0100
0000
0001
0100
0000
0010
0200
0000
1000
0000
1300
0000
,
0001
0100
0000
0010
0100
0000
1000
0100
0000
0010
0200
0000
0001
0000
0301
0000
,
1000
0100
0000
0100
0001
0000
0001
0100
0000
0100
0020
0000
0001
0000
0031
0000
,
1000
0010
0000
0010
0100
0000
0100
1000
0000
1000
0200
0000
0010
0000
0310
0000
,
1000
0001
0000
0010
1000
0000
0010
0001
0000
0100
0020
0000
0100
0000
0130
0000
,
0001
1000
0000
0100
0001
0000
0100
0010
0000
0001
2000
0000
0010
0000
3010
0000
,
0110
0000
0100
0001
0100
0000
0010
0000
1000
0100
0010
0000
0010
0100
1000
0000
,
1200
0310
0002
0103
0201
0310
2000
0000
,
3001
0000
0010
0001
0010
0000
0001
0000
0100
0010
1000
0000
1000
0010
0100
0000
,
0102
0000
0013
0000
0200
0000
1300
0000
0001
1000
0001
1000
1020
0000
0000
0000
,
0130
0000
0001
1000
0001
0000
0010
0000
0100
0010
0001
0000
0001
0010
0100
0000
,
2100
3010
0200
0301
0021
0130
2000
0000
,
3001
0000
1000
0100
1000
0000
0010
0000
0100
0001
0010
0000
0010
0001
0100
0000
,
0010
1000
0100
1000
0010
1000
0100
0010
0001
0100
0001
0010
0200
0000
0000
0000
,
2300
0000
3001
0100
0010
0000
0001
0000
0010
1000
0100
0000
0100
0010
0001
0000
,
0201
0310
2010
3010
2010
3100
0120
0000
,
0031
0000
0100
0010
1000
0000
0100
0000
0010
0001
1000
0000
1000
0010
0100
0000
,
0102
0000
1003
0000
1200
0000
0310
0000
0001
0010
0001
0010
0210
0000
0000
0000
,
1300
0000
0010
0100
0001
0000
1000
0000
0100
0010
0001
0000
0001
0100
0010
0000
,
2010
3100
0120
0130
0120
0031
0201
0000
,
0310
0000
1000
0100
0010
0000
0100
0000
1000
0010
0100
0000
0100
0001
0010
0000
,
0100
1000
0100
0010
0100
1000
0001
0100
0010
0100
0001
0010
0200
0000
0000
0000
,
1300
0000
0001
0100
0001
0000
0010
0100
0000
0010
0002
0000
0203
0000
0000
0000
,
0310
0000
1000
0001
1000
0000
0001
0010
0000
0010
0100
0000
2000
0000
0000
0000
,
3002
0103
0110
0010
1000
0100
0001
0100
,
1000
0000
0001
0100
0000
0100
0000
0010
0000
1000
0001
0010
0001
0010
0100
1000
,
0001
0000
0100
0010
0100
0000
0001
1000
0000
0100
2000
0000
3200
0000
0000
0000
,
0310
0000
0001
0100
0001
0000
1000
0100
0000
0100
0010
0000
0002
0000
0000
0000
,
0203
0310
1000
0001
0010
1000
0010
0001
,
0100
0000
0010
1000
0010
0000
0100
0001
0000
0001
1000
0100
0010
0100
0010
0001
,
0100
0000
0010
1000
0001
0000
0010
0001
0000
0100
0001
0000
2002
0000
3003
0000
,
1000
0000
0100
0010
0100
0000
1000
0001
0000
0001
0100
0000
0220
0000
0300
0000
,
2030
3001
0010
1000
0010
0001
0100
0010
,
2000
0000
3001
0010
0100
0000
0010
0001
0000
0100
0010
0100
0010
1000
0001
0010
,
0100
0000
1000
0100
0010
0000
0001
0100
0000
0010
1000
0000
2002
0000
3003
0000
,
0001
0000
1000
0100
0010
0000
0100
1000
0000
1000
0001
0000
0202
0000
0003
0000
,
0320
1030
0100
0001
0200
0010
0310
0000
,
0002
0000
1003
0010
1000
0000
0100
0010
0000
0001
0100
0000
0220
0000
0330
0000
,
0010
0000
1000
1000
0100
0000
0001
0000
0100
0000
0010
0000
0011
0000
0000
0000
,
0001
0000
0100
0100
0010
0000
0001
0000
0010
0000
1000
0000
1100
0000
0000
0000
,
0100
0000
0010
0010
0001
0000
0100
0000
1000
0000
0100
0000
0110
0000
0000
0000
,
0010
1000
0100
0001
1000
0010
0100
1000
,
1002
0000
0203
0000
0320
0000
0031
0010
,
1000
0100
0010
0010
0001
0100
0010
1000
,
1200
0000
0310
0001
0201
0000
0310
1000
,
1100
0010
0101
0010
2002
0000
3003
0000
,
0201
0000
0000
0000
0310
0000
0001
0000
0010
0000
1000
0100
0010
0000
0001
0000
,
0201
0000
0000
0000
1300
0000
0100
0000
0010
0000
1000
0100
0010
0000
0001
0000
,
0201
0000
0310
1000
0100
0001
0100
1000
,
1010
0000
0000
0000
0210
0000
0000
0000
0302
0000
0000
0000
1003
0100
1000
0000
,
0010
0000
0100
0000
0102
0000
0000
0000
2003
0000
0000
0000
3100
0010
0100
0000
,
1000
0010
0010
0100
0101
0001
1000
1000
,
0100
0010
0002
0000
0203
0000
2300
0000
,
3100
0000
0001
2000
0000
0100
0000
0000
3020
0000
0000
0000
0001
0000
0000
0000
,
0100
1000
2030
3200
,
0301
0000
0100
0020
0000
0001
0000
0000
0230
0000
0000
0000
0001
0000
0000
0000
,
0310
0001
1000
0000
0010
1000
0010
0000
0100
0000
0001
0000
1000
0000
0100
0010
,
0000
0010
0000
0002
0000
0000
0103
0000
0010
0000
0010
0000
1000
0000
0100
0020
,
0001
0000
0031
1000
0001
1000
0001
1000
0010
0000
0100
0000
0010
0000
1000
0001
,
0000
0001
0000
0020
0000
0000
0031
0000
0100
0000
0100
0000
0010
0000
1000
0002
,
0010
0000
0013
0100
0010
0100
0010
0100
2000
0000
0000
0000
0001
0000
0000
0000
,
3200
0010
2300
0010
,
3002
0010
0203
1000
,
0320
0001
2030
3002
,
0013
0001
0010
0001
1000
0000
0010
0000
0100
0000
0001
0000
1001
0000
1000
0000
,
0001
0010
001M
0000
1000
0010
001M
0000
,
0001
0010
001M
1000
0100
0010
0011
0001
,
0100
0010
001M
0000
0002
0100
0103
0010
,
1000
0000
1001
0000
0001
0100
0101
0001
,
1000
0100
M100
0000
0001
0100
M100
0000
,
1000
0100
M100
0001
0010
0100
0110
0010
,
0001
0100
M100
0000
2000
0100
3100
0010
,
0001
0000
1001
0000
1020
0200
0000
0030
,
0300
0000
0002
0003
2001
0200
0000
3000
,
0300
2000
0002
0000
,
0000
0000
0000
0000
3003
0000
0000
0000
0001
0100
0000
0010
0000
1000
0000
1000
,
0000
0001
0000
0010
0002
0000
0100
0000
0203
0000
0000
0000
1000
0000
0000
0000
,
0301
0010
1000
0001
0200
0000
0001
0000
,
1300
0010
0100
1000
0200
0000
0001
0000
,
0310
0000
1000
0000
0100
0000
0010
0001
0100
0010
0000
1010
0000
1001
0000
0011
,
0000
0101
0000
0100
0020
0000
1000
0000
2030
0000
3001
0010
0100
0020
0000
0031
,
0200
0000
0310
2000
0000
3001
0010
0000
0200
0000
0310
0001
1000
0010
0000
0100
,
0020
0000
1030
0002
0000
0013
0001
0000
0200
0000
0310
1000
0100
0020
0000
0031
,
0200
0000
0310
2000
0000
3100
0010
0000
0002
0000
0103
0010
1000
0001
0010
0000
,
0200
0000
1300
0020
0000
0130
0001
0100
0020
0000
1030
0001
0010
0200
0000
0310
,
0002
0000
0103
0020
0000
1030
0100
0000
2000
0000
3010
0100
0001
0200
0000
0301
,
0020
0000
0130
2000
0000
3010
0100
0000
0020
0000
1030
0001
0010
0200
0000
1300
,
0002
0000
0103
0020
0000
1030
0100
0000
0020
0000
0130
1000
0001
1000
0100
0000
,
0020
0000
0031
0200
0000
0310
1000
1000
0002
0000
0100
0000
0100
0000
0100
0000
,
2003
0100
0100
0100
3020
0100
0100
0130
,
0001
1000
0001
1000
2200
0000
3300
0000
1000
0000
0101
0000
0010
0000
1100
0000
,
1000
0000
0010
0000
0100
0001
1000
0200
0000
0000
0010
0000
1000
0000
0310
0000
,
0001
0100
0010
1000
0001
0010
0100
0010
0001
0100
0010
0000
1010
0000
1000
0000
,
0001
0010
0000
001M
1000
0100
0010
0001
0100
0010
1000
0000
1001
0000
0001
0000
,
0010
0001
0000
0002
0000
0103
0010
0001
0010
1000
0100
0000
0110
0000
0010
0000
,
0001
0100
0000
01M0
1000
0001
0100
0010
1000
0100
0020
0000
0031
0100
0020
0000
,
1030
0100
0001
0100
1000
0010
0100
0001
0100
0010
1000
0000
1100
0000
0100
0000
,
0010
0001
0000
M001
0010
0100
0001
1000
0100
0010
0100
0000
1100
0000
1000
0000
,
0010
0100
0000
0200
0000
0310
1000
0001
0010
1000
0010
0000
0011
0000
0001
0000
,
0100
0010
0000
001M
1000
0010
0001
0100
0010
1000
0002
0000
0013
0001
2000
0000
,
3010
0100
0001
0010
0100
1000
0010
0100
0002
0000
1003
0000
0100
1000
0000
0100
,
0000
0100
0000
0020
0000
0031
0100
0000
0010
0100
0000
0002
0000
1000
0000
1003
,
0000
0100
0000
0020
0000
0000
0031
0000
0101
0000
0100
0000
0010
1000
0000
0100
,
0000
0100
0000
0020
0000
0000
0031
0000
0100
0000
0010
1000
0100
0000
0010
0001
,
0100
0000
0010
1000
0001
0010
0100
1000
0200
0000
0310
0000
0001
0100
0000
0010
,
0000
0010
0000
2000
0000
3001
0010
0000
0100
0010
0000
0002
0000
1000
0000
1003
,
0000
0010
0000
0200
0000
0000
0310
0000
1010
0000
1000
0000
0001
0010
0000
0100
,
0000
0100
0000
2000
0000
0000
3010
0000
0100
0000
0001
0100
0010
0000
1000
0100
,
0010
0001
0010
0001
0100
0010
1000
0001
2000
0000
0000
0000
0000
0000
0000
0000
,
0000
3000
1001
0000
0201
0310
2010
0000
,
3001
0000
0000
0000
0001
0000
0010
0000
0000
0000
0000
0000
0100
0000
0000
1000
0000
0000
0000
0000
0000
1000
0000
0000
0020
0000
0000
0000
0000
0000
0000
0000
0000
0000
0000
0000
0031
0000
0000
0010
0000
0000
1000
0000
0000
0000
0000
0000
,
0100
0000
0000
0010
0000
0000
0001
0000
0000
0100
0000
0000
0010
0000
0000
0000
0000
0000
1000
0000
0000
0000
0000
0000
2010
0000
0000
0000
0000
0000
3001
0000
0000
0000
0000
0000
0010
0000
0000
0000
0010
0000
0001
0000
0000
0000
0000
0000
,
0201
0000
0000
0310
0000
0000
1000
0000
1000
0100
0000
0000
0120
0000
0000
0031
0000
0000
0100
0000
0100
0010
0000
0000
,
2010
0000
0000
3100
0000
0000
0010
0000
0010
0001
0000
0000
2001
0000
0000
3010
0000
0000
0210
0000
0000
0000
0000
0000
,
0301
0000
0000
0000
0001
0000
1000
0000
0000
0000
0000
0000
0100
0000
0000
0010
0000
0000
0000
0000
0000
0010
0000
0000
0002
0000
0000
0000
0000
0000
0000
0000
0000
0000
0000
0000
0103
0000
0000
1000
0000
0000
0001
0000
0000
0000
0000
0000
,
0010
1000
0100
0010
0001
0000
0100
0000
0120
0000
2030
0000
3002
0000
0023
0000
,
2030
0000
0000
3001
0000
0000
0100
0000
0100
0010
0000
0000
0021
0000
0000
0130
0000
0000
1020
0000
0000
0130
0000
0000
,
1001
0000
0000
0001
0000
0100
0010
0000
1000
0001
0000
0000
0021
0000
0000
0130
0000
0000
2001
0000
0000
0000
0000
0000
,
3010
0000
0000
0000
0010
0000
0100
0000
0000
0000
0000
0000
1000
0000
0000
0100
0000
0000
0000
0000
0000
0100
0000
0000
0002
0000
0000
0000
0000
0000
0000
0000
0000
0000
0000
0000
0013
0000
0000
0100
0000
0000
1000
0000
0000
0000
0000
0000
,
0010
0000
0000
0001
0000
0000
0010
0000
0000
1000
0000
0000
0100
0000
0000
0000
0000
0000
0010
0000
0000
0000
0000
0000
0201
0000
0000
0000
0000
0000
0310
0000
0000
0000
0000
0000
1000
0000
0000
0000
1000
0000
0100
0000
0000
0000
0000
0000
,
0120
0000
0000
0031
0000
0000
0100
0000
0100
0010
0000
0000
2010
0000
0000
3100
0000
0000
0010
0000
0010
0001
0000
0000
,
2001
0000
0000
3010
0000
0000
0100
0000
0100
0001
0000
0000
2001
0000
0000
3100
0000
0000
0120
0000
0000
0000
0000
0000
,
0031
0000
0000
0000
0001
0000
0100
0000
0000
0000
0000
0000
0010
0000
0000
0100
0000
0000
0000
0000
0000
0100
0000
0000
2000
0000
0000
0000
0000
0000
0000
0000
0000
0000
0000
0000
3100
0000
0000
0001
0000
0000
0010
0000
0000
0000
0000
0000
,
1000
0001
0100
1000
0020
0000
0100
0000
0130
0000
0001
0000
0010
0000
1000
0000
,
0010
0001
0100
1000
0100
0010
1000
0001
,
0010
0100
1000
0010
2010
0000
3100
0000
,
0011
0101
2010
0000
,
0000
0000
0200
0000
,
0000
3000
0020
0000
,
0330
0000
0000
0000
0110
0000
0010
0010
,
0001
0100
1000
0000
1100
0000
0100
0100
,
0001
0010
0100
0000
0110
0000
0010
0010
,
1000
0010
0001
0000
0101
0000
0100
0100
,
1000
0001
0010
0100
0110
0000
0010
0010
,
1000
0100
0001
0000
0101
0000
0100
0100
,
0010
0001
0100
0000
0110
0000
0010
0010
,
0001
0010
1000
0000
2100
0000
0000
0000
,
0001
0000
3001
0000
0101
0100
01M0
1000
,
0001
0000
1001
0000
0001
0100
01M0
1000
,
0001
0000
1001
0000
1000
0010
0M10
0001
,
1000
0000
1001
0000
1000
0010
0M10
0001
,
1000
0000
1001
0000
0001
0100
M100
0001
,
0100
0000
1100
0000
1000
0010
001M
1000
,
0010
0011
0002
0000
,
0203
0000
0020
0000
,
0300
0000
0000
0000
0030
0000
0000
0000
2000
0000
0000
0000
0000
0000
3001
0020
,
0000
0000
0230
1000
,
0001
0000
0000
0002
0000
0000
0300
0000
2003
0000
0000
0000
0000
0000
3010
0200
,
0000
0000
0320
0001
,
1000
0000
0000
2000
0000
0000
0030
0000
3002
0000
0000
0000
0000
0000
0103
0020
,
0000
0000
0032
1000
,
0100
0000
0000
0200
0000
0000
0003
0000
2300
0000
0000
0000
0000
0000
3001
0020
,
0000
0000
0230
1000
,
0001
0000
0000
0002
0000
0000
0300
0000
2003
0000
0000
0000
0000
0000
3100
0020
,
0000
0000
0000
0000
0000
0000
0000
0000
0031
0000
0100
0001
0200
0000
0000
0000
,
1000
0000
0000
2000
0000
0000
0300
0000
3002
0000
0000
0000
0000
0000
0013
2000
,
0000
0000
0000
0000
0000
0000
0000
0000
3100
0000
0001
0100
0002
0000
0000
0000
,
0100
0000
0000
0200
0000
0000
0003
0000
0320
0000
0000
0000
0000
0000
0130
2000
,
0000
0000
0000
0000
0000
0000
0000
0000
3100
0000
0010
1000
0020
0000
0000
0000
,
0001
0000
0000
0002
0000
0000
0030
0000
2003
0000
0000
0000
0000
0000
3010
0200
,
0000
0000
0000
0000
0000
0000
0000
0000
1300
0000
0100
1000
0200
0000
0000
0000
,
0010
0000
0000
0000
0000
0000
0310
0000
0000
0000
0000
0000
1001
0000
0000
1000
0000
0100
1000
0000
0000
0100
0000
0000
,
0010
0000
0000
0001
0000
0100
0001
0000
0000
0100
0000
0000
1000
0000
0000
0100
0000
0000
0000
0000
0001
0000
0000
0000
,
1001
0000
0000
1000
0000
0100
0010
0000
0000
0001
0000
0000
0200
0000
0000
0000
0000
0000
0310
0000
0000
1000
0000
0000
,
1002
0000
0000
0000
0000
0013
0001
0000
0000
0100
0000
0000
0010
0000
0000
1000
0000
0000
0000
0000
0001
0000
0000
0100
,
0020
0000
0000
1000
0000
0000
0230
0000
0000
0001
0000
0000
0310
0000
0000
1000
0000
0100
1000
0000
0000
0001
0000
0000
,
0100
0000
0000
0010
0000
1000
0010
0000
0000
0100
0000
0000
0001
0000
0000
1000
0000
0000
0000
0000
0100
0000
0000
0000
,
0110
0000
0000
0010
0000
0001
0010
0000
0000
0001
0000
0000
0100
0000
0000
0010
0000
0000
1000
0000
0000
0100
0000
0000
,
1000
0000
0000
0001
0000
0000
0100
0000
0000
0100
0000
0000
0010
0000
0000
1010
0000
0000
0000
0000
1001
0000
0000
0000
,
0021
0000
0000
0000
0000
0031
1000
0000
0001
0100
0000
0000
0110
0000
0000
0010
0000
0000
1000
0000
0000
0100
0000
0000
,
0110
0010
0001
0100
0010
1000
0010
0001
,
0010
1000
0100
0010
0011
0001
0100
0010
,
1010
1000
0100
0010
0001
0100
0010
0100
,
0002
0000
1003
0000
1100
0100
0010
0001
,
0101
0100
0010
1000
0100
0001
0100
0010
,
0001
0100
0010
1000
1020
0000
0130
0000
,
0021
0130
1100
0101
,
0011
0000
0000
0010
0100
0000
0100
0000
1000
0100
1000
0100
1000
0010
1000
0010
,
0100
0010
0100
0010
1000
0010
0000
0200
0000
0000
0301
0000
1000
0000
0100
0010
,
0100
0010
0001
0100
0001
0100
0010
0000
0000
1000
0100
1000
0100
1000
0010
0100
,
0000
0100
0000
0001
1000
0100
0010
0100
1000
0001
0100
0000
0001
1000
0100
0000
,
0010
0001
0010
0001
1000
0010
0100
0000
0010
1000
0010
1000
0001
0010
0001
0010
,
0100
0010
0100
0010
0001
1000
0000
0020
0000
0000
0130
0000
0001
0000
1000
0100
,
1000
0100
1000
0001
0100
0010
0000
1000
0000
1000
0001
0010
0001
0100
0001
0100
,
0010
1000
0010
1000
0100
0010
0100
0010
0001
0100
0000
1000
0100
0000
0001
0100
,
0010
1000
0010
0100
0001
1000
0001
1000
0100
0000
0010
0000
0001
0000
0010
0000
,
1000
0001
0100
0010
0010
0001
0100
1000
,
0001
0000
0010
0000
0100
0000
0001
0000
2001
0000
0000
0000
0100
0000
0000
0100
,
0000
0000
3100
0000
0010
0001
1000
0010
1000
0000
0100
0000
0010
0000
0001
0100
,
0010
0100
0001
0100
0001
1000
0100
0010
0100
0000
1000
0000
0010
0000
0001
0000
,
1000
0100
0010
0010
0100
0001
1000
0100
,
0001
1000
0010
0010
0100
1000
0020
0000
,
0130
0000
0001
0000
0020
0000
0000
0000
0130
1000
0001
0000
0100
0001
1000
0000
,
0100
1000
0100
0010
0001
0100
0001
0100
0020
0000
0000
0000
1030
0000
0000
0000
,
1010
1000
0100
0001
2000
0000
3010
0000
,
0011
0001
1000
1100
1002
0000
0103
0000
,
0110
0010
0001
1000
0200
0000
0301
0000
,
1000
1000
0100
0001
1000
0010
2000
0000
,
3010
0001
0100
0010
2010
0000
0100
0000
,
3001
0100
0010
0001
1000
0100
0002
0000
,
1003
0100
0010
0100
1000
1000
0001
0100
,
0010
0000
1000
0001
1000
0000
1000
0000
1200
0000
0000
0000
0001
0000
0000
0000
,
1300
0000
0010
0000
0100
0001
0100
0001
0020
0000
0000
0000
1000
0000
0000
0000
,
0031
0100
0110
1000
2001
0000
0100
0000
,
3001
0000
0100
0000
0010
1000
0010
1000
0200
0000
0000
0000
0001
0000
0000
0000
,
0010
0000
1300
0001
0100
0100
0010
0000
,
1010
0000
1000
0001
0010
0001
0100
0010
1000
0000
1010
0000
0000
0101
0000
0000
,
0011
0000
0000
1001
0000
0000
1000
0000
0020
0000
0000
0000
0000
0000
0000
0000
,
0000
0000
0000
0000
,
0000
0000
0000
1030
0002
0000
0000
0000
,
0000
0000
0000
0000
0000
0000
0000
0000
1003
0010
0000
0010
0001
0000
0010
1000
,
0000
1000
0100
0000
0010
0001
0100
0001
1000
0000
0000
0100
1000
0000
0100
0000
,
0002
0000
0000
0103
1000
0000
0010
0000
0002
0000
0000
0013
1000
0000
0100
0000
,
0002
0000
0000
0103
1000
0000
0010
0000
0200
0000
0000
0310
1000
0000
0100
0000
,
0020
0000
0000
0031
0100
0000
0010
0000
0200
0000
0000
0310
1000
0000
0100
0000
,
0020
0000
0000
0031
0100
0000
0010
0000
2000
0000
0000
3001
0010
0000
0100
1000
,
0002
0000
0000
0103
0010
0000
0010
0000
2000
0000
0000
3001
0010
0000
0100
0010
,
0002
0000
0000
1003
0010
0000
0010
0000
0200
0000
0000
0301
0010
0000
0001
1000
,
0010
1000
0010
0100
0001
1000
0001
1000
0200
0000
0000
0310
0001
0000
0100
0000
,
0110
0000
0000
1010
0000
0000
1001
0000
2000
0000
3010
0000
0210
0000
0000
0302
,
0000
0000
1003
0100
1000
0000
0010
0000
0200
0000
0301
0000
2001
0000
0000
3200
,
0000
0000
0310
0001
0010
0000
0001
0000
0100
0000
0010
0000
1000
0100
0000
1000
,
0010
0000
0010
0100
0000
0100
0001
0000
1000
0000
0001
0000
0010
0001
0100
0001
,
0200
0000
0000
0310
0000
0000
2010
0000
0000
0000
0001
0000
3001
0000
0010
0001
,
0000
0001
0000
1000
0010
0000
0100
0000
0001
0000
1000
0000
0100
0010
0100
0000
,
1000
0100
0000
0010
0001
0000
0100
0000
0010
0000
0010
0000
1000
0000
0001
0000
,
0011
0000
0000
1001
0000
0000
1010
0000
2000
0000
0000
0000
0100
0000
0000
0000
,
3002
0000
0000
0100
0000
0000
1003
0000
0100
1000
0000
1000
,
0010
0000
0010
0100
0001
1000
0200
0000
0000
0001
0000
0000
,
1300
0000
0000
0010
0000
0010
0100
0000
0100
0001
1000
0100
,
0010
0001
0100
1000
0100
0001
0020
0000
0000
1000
0000
0000
,
0031
0000
0000
0100
0000
0100
0020
0000
1030
0001
0010
0001
,
0200
0000
0310
1000
0100
0001
0200
0000
0310
0001
0100
1000
,
0200
0000
0000
0320
0000
0000
1030
0000
0001
0100
0000
0100
,
0010
1000
0100
0001
0000
0100
0010
0000
0001
0100
0000
1000
,
0100
0000
0001
0010
1000
0001
0100
0000
0100
0010
0000
0010
,
0001
0000
0001
0100
1000
0100
0020
0000
0000
0001
0000
0000
,
1030
0000
0000
0100
0000
0100
0010
0001
0100
0010
0100
1000
,
0100
0001
0010
0100
1000
0001
0200
0000
0000
1000
0000
0000
,
0301
0000
0000
0010
0000
0010
0002
0000
1003
0010
0100
0010
,
0002
0000
1003
0100
0010
0100
0002
0000
1003
0100
0001
0100
,
2000
0000
0000
3002
0000
0000
0103
0000
0010
1000
0000
1000
,
0100
0001
0100
0010
0000
0001
0100
0000
1000
0001
0000
0010
,
1000
0000
0000
0000
0000
0000
0000
0000
0100
0000
0000
0000
0010
0000
0000
0000
0001
0000
0000
0000
0100
0000
0000
0000
0020
0000
0000
0000
0000
0000
0000
0000
0000
0000
0000
0000
2000
0000
0000
0030
0000
0000
0000
0000
0000
0000
0000
0000
,
0200
3000
0000
0000
0310
0000
0001
0000
0100
0000
0100
0000
1000
0000
0001
0000
,
0020
0000
0031
1000
0100
0100
0001
0010
,
0200
0000
0301
1000
0010
0001
0100
0010
,
1010
0000
0000
0000
0101
0000
0000
0000
0002
0000
0000
0000
2000
0003
0000
0000
,
0200
3000
0000
0000
0310
0000
0001
0000
0100
0000
0100
0000
1000
0000
0001
0000
,
0020
0000
1030
0100
0001
0001
1000
0010
,
0200
0000
1300
0001
0100
1000
0100
0001
,
0011
0000
0000
0000
1100
0000
0000
0000
1000
0000
0000
0100
1000
0000
0001
0000
,
0101
0000
0000
0100
0001
0000
1000
0000
1100
0000
0000
0100
1000
0000
0001
0000
,
0101
0000
0000
0100
0010
0000
1000
0000
1100
0000
0000
0100
0010
0000
0001
0000
,
0101
0000
0000
0100
0010
0000
1000
0000
1100
0000
0000
0100
0010
0000
0001
0000
,
0101
0000
0000
0100
0010
0000
1000
0000
0100
0000
0100
0000
0010
0000
0001
0000
,
0100
0100
0010
1000
0001
0001
0010
0100
,
1000
0000
1000
0000
0001
0000
0100
0000
0010
1000
0010
1000
0100
0010
0100
0010
,
0001
1000
0010
1000
0100
0010
0100
1000
0002
0000
0000
0000
0100
0000
0000
0000
,
0103
0000
1001
0000
1000
0100
0001
1000
,
0001
0100
1000
0100
0001
1000
0001
0100
,
2000
0000
0000
0000
3001
0100
0001
0100
0010
0000
1000
0000
0100
0000
0010
0000
,
0100
1000
0010
0100
0001
0010
1000
0010
,
0001
1000
0001
1000
0200
0000
0000
0000
0301
0000
0100
0000
1000
0000
0001
0000
,
1000
0100
0001
0100
1000
0001
1000
0100
,
0002
0000
0000
0000
0103
1000
0100
1000
0001
0000
0100
0000
0010
0000
0001
0000
,
0010
0100
0001
1000
0100
0001
1000
0010
,
0012
0000
0203
0000
0310
0001
0010
1000
,
0100
0001
0100
1000
0010
0100
0010
0001
,
0020
0000
0000
0000
1030
0100
1000
0100
0010
0000
0001
0000
0010
0000
0100
0000
,
0001
0100
0010
0001
0100
1000
0100
0010
,
0100
0001
0100
0001
2000
0000
0000
0000
3100
0000
0010
0000
0100
0000
1000
0000
,
0010
0001
1000
0100
0001
0010
0100
1000
,
0200
0000
0000
0000
0310
0001
0010
0001
1000
0000
0010
0000
0100
0000
1000
0000
,
0100
0010
1000
0100
0001
1000
0001
0100
,
0010
0001
1000
0001
0200
0000
0000
0000
0020
0000
0000
0000
0000
0000
0000
0000
,
0000
0000
0330
0000
2010
0000
3001
0012
,
0000
0000
0103
0000
0010
0000
2010
0000
0000
0000
3001
0010
0100
0010
0001
1000
,
0010
1000
0010
0100
0002
0000
0000
0000
1003
0000
0100
0010
0000
0100
1000
0001
,
2000
0000
3010
0100
0000
0001
0100
0000
0010
0000
1000
0100
0000
0010
0001
1000
,
0002
0000
0103
0010
0000
1000
0010
0000
0110
0000
0100
0001
0000
0100
0010
1000
,
0020
0000
1030
0100
0000
0010
0001
0000
0100
0000
0001
0010
0000
0100
0010
0001
,
0020
0000
0031
1000
0000
0010
0100
0000
0001
0000
0010
0001
0000
0100
0001
0100
,
0020
0000
1030
0001
0000
0010
0001
0000
0100
0000
0010
1000
0000
0100
1000
0000
,
0100
0000
0010
0001
0000
0100
0001
0000
2001
0000
0000
0000
3010
0000
0210
0000
,
0000
0000
0301
0000
1000
0000
1200
0000
0000
0000
0310
0001
1000
0010
1000
0010
,
0100
0001
0010
0100
2000
0000
0000
0000
3001
0000
0010
0001
0010
0001
1000
0000
,
0010
0000
0100
0001
0100
0010
1000
0000
0001
0000
0010
0001
0000
0010
0001
1000
,
0002
0000
0103
0010
0000
1000
0001
0000
0010
0001
0010
0001
0010
0001
1000
0000
,
0010
1000
0010
1000
0010
1000
0001
0000
0010
0001
1000
0001
0010
0001
0100
0000
,
0010
1000
0001
1000
0010
1000
0100
0010
0001
0000
0100
0010
0000
0000
1000
0000
,
1001
0000
0001
0010
0000
0000
0002
0000
0000
0000
0000
0000
0000
0000
0000
0000
,
0000
0000
0000
0000
0003
0000
0000
0000
2001
0000
0000
3000
0010
0000
0000
0010
,
0000
0000
0100
0001
0100
0010
2000
0000
0000
3100
0000
0000
0010
0000
0010
0000
,
0001
0100
0000
0010
1000
0000
0100
0000
1100
0000
0000
0011
0000
0000
1001
0000
,
1000
0000
0010
0100
0001
0100
0020
0000
0000
1030
0000
0000
0001
0000
0001
0000
,
0010
0001
0000
1000
0010
1000
0100
1000
0200
0000
0000
0000
0320
0000
0000
0000
,
0031
0000
0000
0101
0000
0000
2010
0000
0000
3100
0000
0000
0010
0000
0010
0000
,
0001
1000
0000
0100
0010
0001
0010
0001
0100
0000
0010
1000
0000
0100
1000
0000
,
0001
0000
0001
0000
0010
0001
0000
2000
0000
0000
0010
0000
0000
3010
0000
0000
,
0100
0010
1000
0000
1001
0000
0000
0000
0021
0000
0000
0000
0032
0000
0000
0103
,
0000
0000
0010
1000
0010
1000
0100
0000
0010
0001
0000
1000
0010
1000
0100
0000
,
0010
0000
0001
1000
0010
0000
0100
0000
0110
0000
0000
1010
0000
0000
0101
0000
,
0002
0000
0000
1003
0000
0000
0200
0000
0000
0000
0000
0310
0001
0000
1000
0000
,
0010
0100
0000
0001
0100
0000
0010
0000
2010
0000
0000
0000
3001
0000
0000
0000
,
0011
0000
0000
0101
0000
0000
1001
0000
0012
0000
0000
0000
0103
0000
0000
0000
,
1010
0000
0000
0101
0000
0000
0011
0000
0001
0000
1000
0100
1000
0000
0001
0000
,
0100
0000
0000
0100
0000
0000
0100
0000
2002
0000
0000
0000
0000
0000
0000
0000
,
0000
0000
3003
0000
0001
1000
0200
0001
,
0000
1300
0200
0000
0301
0100
0010
0002
,
0000
1003
1010
0010
0100
0001
0020
1000
,
0000
0031
0020
0000
1030
0010
0001
0200
,
0000
0310
1001
0000
1000
0001
0200
1000
,
0000
0301
0200
0000
1300
0100
0001
0020
,
0000
0031
0101
0100
0010
1000
0020
0001
,
0000
1030
0020
0000
0031
0010
1000
0200
,
0000
0310
1001
0000
0001
0100
0100
0010
,
1000
0100
0100
0001
1000
0010
0001
0200
,
0000
0310
1010
1000
0100
0001
0001
1000
,
0010
0100
0100
1000
0001
0100
0010
2000
,
0000
3001
1001
1000
0100
0010
0010
1000
,
0010
0001
0001
0100
0010
0001
0010
2000
,
0000
3001
0011
0010
1000
0001
0001
0100
,
0010
0001
0010
0001
0010
0002
2000
0000
0000
0000
0000
0000
0000
0000
0003
0000
,
3001
0000
0100
0000
0200
0000
0000
0000
0310
0000
1000
0100
1000
0001
0100
0010
,
1000
0000
0100
1000
0100
0010
0001
0100
0001
0100
0010
0000
1000
0100
0000
0010
,
0100
0000
1000
0001
0100
0000
0010
0000
1000
0100
0010
0000
0001
0100
0000
0010
,
1000
0100
1000
0100
0010
0000
0001
0100
0010
0100
1000
0000
0100
0010
0000
1000
,
0100
1000
0001
0000
0100
0010
0001
0000
0010
1000
0100
0000
0001
0100
0000
0010
,
0001
0000
1000
0001
1000
0010
0100
0000
0001
1000
0100
0000
0001
0100
0001
0000
,
0100
1000
0001
0000
1000
0010
0001
0000
0010
1000
0100
0000
0001
0100
0000
0100
,
1000
0000
0010
0100
0000
0010
0001
0000
0010
1000
0100
1000
0100
0010
0001
0000
,
0100
0001
0100
0001
0010
0100
1000
0000
0001
0100
0010
0000
1000
0010
0000
1000
,
0100
1000
0001
0000
0100
0001
0000
0100
0010
0100
1000
0100
0000
0010
1000
0001
,
0010
0001
0010
0100
0000
1000
0100
0001
0100
0010
0001
0000
1000
0010
0000
0100
,
0001
0100
0010
1000
0010
1000
0000
0100
0001
0100
0010
0001
0010
0001
0000
0100
,
1000
0100
0010
1000
0010
1000
0000
0001
0010
0100
0010
0000
0001
1000
0000
0010
,
1000
0100
1000
0000
0001
0100
0000
1000
0100
0001
0000
0100
0010
1000
0000
0001
,
0010
1000
0000
0010
0001
0100
0000
0010
1000
0001
0010
0000
1000
0010
0000
0001
,
0100
0001
0100
0010
0001
0010
0000
1000
0001
0010
0001
0100
0010
0000
1000
0000
,
0001
0010
0001
1000
0010
0001
0010
0100
0002
0000
0000
0000
0000
0000
1003
0100
,
0200
0000
0310
0001
0200
0000
0310
0100
,
01M0
1000
0100
0001
2000
0000
3010
0001
,
0100
0010
1000
0010
0001
0010
1000
0100
,
0020
0000
0001
0000
0230
0000
0310
0001
,
2000
0000
3010
0100
0002
0000
1003
0100
,
M100
0010
1000
0001
0020
0000
1030
0010
,
0001
0100
0010
0010
1000
0001
0010
0100
,
0010
0000
0010
0000
0001
0000
0001
0000
0010
0100
0010
0100
2000
0000
0000
0000
,
3001
0100
0020
0000
0031
0010
0M10
0001
,
1000
0100
0002
0000
0103
0010
0001
0100
,
1000
0001
0010
0100
0001
1000
0200
0000
,
1000
0000
0000
0000
0320
0000
0000
0000
0130
1000
0100
1000
0002
0000
0000
0000
,
0103
0200
1300
2000
,
3010
0020
0031
0002
,
0103
0200
1300
2000
,
3010
0220
0330
1100
,
1001
0101
0011
1001
,
1010
1100
1001
0101
,
0011
0000
1010
0000
1100
0000
0102
0203
,
0000
0000
0000
0000
0310
0000
0010
0000
1000
0001
1000
0001
0010
0000
1000
0000
,
0001
0100
0002
0000
1003
0010
1000
0010
,
0001
0100
0110
1000
1001
0000
1000
0010
,
0001
0010
0002
0000
1003
0100
0010
1000
,
0010
0100
0101
0002
1000
1003
0100
0001
,
1000
0010
0002
0000
0103
0010
0001
1000
,
0100
0010
1010
0100
0101
0000
0002
0000
,
1000
1003
0100
0001
1000
0010
0100
1000
,
0001
0100
0020
1030
0100
0120
0000
0000
,
0031
0100
0010
1000
0100
0000
0001
0100
,
1000
0100
0001
0100
0110
0000
0010
0001
,
0100
1000
0002
0000
0013
1000
0100
0001
,
0100
0010
0011
0002
0100
0103
0010
0010
,
1000
0100
0002
0000
1003
0010
0001
0010
,
0001
0000
0100
0000
0010
1000
0010
1000
0100
0000
0010
0000
0001
0100
0001
0000
,
0010
0100
0010
0000
0100
1000
0100
1000
0001
0100
0001
0100
0020
0000
0000
0000
,
1030
0001
0011
0000
1001
0000
2010
0000
,
3100
0120
0000
0031
1001
1000
1020
0000
,
0130
0000
0102
0000
0000
0000
1003
0000
0100
0010
0100
0010
0002
0000
0000
0000
,
1003
1020
0000
0130
0101
0001
2001
0000
,
3001
0000
0021
0000
0000
0000
0130
0000
1000
0001
0100
0001
2000
0000
0000
0000
,
3010
0210
0000
0301
1001
1000
1200
0000
,
0310
0000
0012
0000
0000
0000
0103
0000
0010
1000
0010
1000
0002
0000
0000
0000
,
0013
0210
0000
1300
1001
0001
0021
0000
,
0031
0000
0201
0000
0000
0000
0310
0000
1000
0001
0010
0001
1000
0000
0010
0000
,
0100
0102
0000
1003
1100
0100
0110
0010
,
0001
0000
0201
0000
0000
0000
0310
0000
1000
0001
0010
0100
0010
0000
0001
0000
,
0100
0120
0000
1030
1001
0001
0011
0010
,
0001
0000
0201
0000
0000
0000
0301
0000
1000
0100
0010
0001
0100
0000
0010
0000
,
1000
1020
0000
0130
0101
0001
0011
0010
,
0001
0000
2001
0000
0000
0000
3010
0000
0100
0001
1000
0100
0010
0000
0001
0000
,
0100
0120
0000
1030
1001
0001
0101
0100
,
0010
0000
2010
0000
0000
0000
3100
0000
1000
0010
0001
0010
2000
0000
0000
0000
,
0000
0000
0000
0000
,
0000
0000
0000
0000
,
3000
0000
0000
0000
;

//---------------dance-single - ver. Blank----------------
#NOTES:
     dance-single:
     about-blank:
     Medium:
     17:
     0.769756,1.126362,0.333864,0.346093,0.651829,4406.000000,4133.000000,273.000000,283.000000,0.000000,0.000000,0.769756,1.126362,0.333864,0.346093,0.651829,4406.000000,4133.000000,273.000000,283.000000,0.000000,0.000000:
0000
0000
0000
0000
,
0000
0000
0000
0000
,
0000
0000
0000
0000
,
0000
0000
0000
0000
,
0000
0000
0000
0000
,
0002
0000
0000
0000
0103
0000
0000
0000
0001
0000
0000
1000
0000
0000
0100
0000
,
0000
1000
0100
0010
0001
0000
1001
0000
,
1000
0000
0001
0000
0100
0010
0100
0010
,
1000
0000
0100
0000
0010
0000
0001
0000
1000
0100
1000
0001
0200
0000
0000
0000
,
0310
0000
1000
0010
0100
0000
0010
0100
0001
0000
1000
0100
0010
0000
0100
1000
,
0001
0000
1000
0100
0001
0000
0001
0100
1000
0000
1000
0010
0100
0000
0001
0000
,
1001
0000
0001
0010
0100
0000
1000
0100
0010
0000
0100
1000
0001
0000
0010
0001
,
0100
0000
0010
1000
0100
0000
1000
0100
0010
0100
0010
0001
1000
0000
0001
0000
,
0100
0010
1000
0010
0100
0010
1000
1000
,
0001
0100
0010
0100
0001
0100
0010
0010
,
1000
0100
0010
0001
1000
0010
0100
0001
,
1000
0010
1000
0010
0100
0001
0100
0001
1000
0100
0010
0001
2000
0000
0000
0000
,
3001
0000
0100
0000
0010
0000
1000
0100
0010
0000
0100
0000
1000
0001
0010
0000
,
0001
0000
0100
0010
1000
0000
0001
0000
0010
0100
1000
0100
0010
0000
0001
0000
,
1000
0000
0001
0000
0100
0000
0010
1000
0100
0000
1000
0000
0010
1000
0100
0000
,
0010
0000
0001
0100
0010
0000
1000
0000
0001
0100
0001
0100
0010
1000
0010
1000
,
0001
0010
0100
0000
1000
0000
0010
1000
0001
0000
0100
0000
0001
1000
0010
0000
,
0100
0000
0001
0010
0100
0000
1000
0000
0010
0100
0001
1000
0100
0000
0010
0000
,
0001
0100
0010
0000
1000
0000
0010
1000
0100
0000
1000
0000
0010
0100
0001
0000
,
1000
0000
0001
0100
0010
0000
1000
0000
0001
0010
0100
1000
0001
0100
0010
1000
,
0001
1001
1000
1001
,
0001
0001
1000
1000
0010
0100
0001
0000
,
1000
0100
0001
0100
1000
0100
0010
0001
,
0100
0010
1000
0010
0100
0001
1000
0000
,
0001
0000
0100
0000
0010
0000
0100
0000
0001
1000
0001
0000
1000
0001
1000
0000
,
0010
1000
0010
0000
1000
0100
1000
0000
0001
0100
0010
0000
1000
0000
0001
0000
,
1000
0100
1000
0100
0010
0001
0010
0001
1000
0010
1000
0010
0100
0001
0100
0001
,
2000
0000
3001
0100
0010
1000
0100
0010
,
0001
0100
0020
0000
1030
0001
1000
0100
,
1000
0010
0200
0000
0301
0010
0002
0000
,
1003
0100
0010
0010
0100
1000
0001
0100
,
0010
1000
0001
0001
1000
0010
0100
0000
,
0001
0100
1000
0100
0010
1000
0100
1000
,
0001
0010
1000
0010
0001
0100
0010
1000
,
0001
0010
0100
1000
0001
0100
0010
1000
,
1000
0001
0100
0010
1000
0010
0010
0100
,
0002
0000
0000
0000
,
0000
0000
0000
0000
,
2003
0000
0000
0000
,
3020
0000
0230
0000
,
0302
0000
0000
0000
,
0000
0000
0000
0000
,
2000
0000
0000
0000
0000
0000
0000
3003
,
1000
0100
0010
0001
0000
0000
1000
0100
0010
0001
0000
0000
1000
0100
0010
0001
0000
0000
2000
0000
0000
0000
0000
0000
,
3001
0000
0100
0010
2000
0000
3010
1000
0100
0100
0010
0010
0001
0001
1000
1000
,
0002
0000
0000
0000
0103
0000
0010
0000
2000
0000
0000
0000
3001
0000
0000
0000
0001
1000
0001
1000
0001
0000
0100
0000
0010
0000
1000
0000
0100
0000
0010
0000
,
0001
0000
1000
0010
2000
0000
3001
0100
0001
0001
1000
1000
0100
0100
0010
0010
,
0002
0000
0000
0000
0103
0000
0010
0000
2000
0000
0000
0000
0001
0000
0000
0000
3001
0100
0010
1000
0001
0000
1000
0000
0001
0000
0100
0000
0110
0000
0000
0000
,
1000
0100
1000
0000
0001
0010
0001
0000
,
1000
0100
0010
0001
0010
0100
1000
0001
,
1001
1000
0010
0000
0100
0001
0100
0000
,
0101
1100
1010
0011
,
0001
0010
0001
0010
0100
0000
1000
0000
0001
1000
0001
1000
0010
0000
0100
0000
,
0001
1000
0100
0010
0001
0000
1000
0000
0010
0100
0001
0100
0010
1000
0100
0010
,
0001
1000
0010
0100
0001
0000
1000
0000
0001
0100
0010
1000
0001
0000
1000
0000
,
0001
0010
0001
0010
0100
1000
0100
1000
0001
0100
0010
1000
0010
0100
0001
1000
,
0001
0000
1000
0100
0000
0010
0001
0000
1000
0000
0001
1000
0001
0000
1000
0000
,
0001
0000
0100
0010
0000
1000
0010
0000
1000
0100
0010
0001
1000
0100
1000
0001
,
0100
0000
0010
1000
0000
0010
0100
0000
0001
0100
0010
1000
0001
1000
0100
0010
,
0001
1000
0100
1000
0001
0100
0010
1000
0100
0010
0001
1000
0010
0100
0001
1000
,
0002
0000
0000
0000
0000
0000
0000
0000
0000
0000
0000
0000
1003
0100
0010
0001
,
2000
0000
0000
0001
0000
0000
3100
0000
0000
0000
1100
0000
0000
0000
0010
0000
,
0002
0000
0000
1000
0000
0000
0103
0000
0000
0000
0101
0000
0000
0000
0100
0000
,
0020
0000
0000
1000
0000
0000
0000
0230
,
0000
0001
0001
0010
0000
0000
0300
0000
,
0001
0100
0010
1000
0001
0100
0010
1000
0001
0100
0001
1000
0100
0010
0100
1000
,
0001
0010
0100
1000
0001
0010
0100
1000
0001
0010
0001
1000
0010
0100
0010
1000
,
0001
0100
0010
1000
0100
0010
0001
1000
0010
1000
0001
1000
0100
0010
0001
1000
,
0001
0100
0001
0100
0010
1000
0010
1000
0001
0010
0100
1000
0010
0100
0001
1000
,
0001
0000
0000
0100
0001
0000
2000
0000
0000
0000
3010
0000
0000
0000
1010
0000
,
1000
0000
0000
0100
1000
0000
0002
0000
0000
0000
0103
0000
0000
0000
0101
0000
,
0002
0000
0013
0200
0000
0000
1000
0320
,
0000
1000
1000
0230
0000
0000
0301
0000
,
0001
0010
0100
1000
0001
0010
0100
1000
0001
1000
0010
0100
0001
1000
0010
0100
,
0001
0100
0010
1000
0001
0100
0010
1000
0001
0010
0100
1000
0001
0010
0100
1000
,
0001
0100
0001
1000
0100
0010
0001
1000
0010
0100
0001
1000
0010
0100
0010
1000
,
0001
0100
0010
0100
0001
0100
0010
1000
0010
0100
0001
1000
0100
0010
0001
1000
,
0002
0000
0103
0000
2000
0010
3010
0000
,
0002
0000
0013
0000
2000
0100
3100
0000
,
2000
0000
3001
0000
0002
0100
0103
0000
,
0002
0000
1003
0000
2000
0100
3100
0000
,
1000
0100
0000
0010
0001
0000
1000
0100
0000
0001
0100
0000
0010
0000
0001
0000
,
1000
0010
0000
0100
0001
0000
1000
0010
0000
0001
0010
0000
0100
0000
0001
0000
,
1000
0100
0000
1000
0010
0000
0100
0001
0000
0100
0010
0000
1000
0000
0001
0000
,
0010
0001
0000
0010
0100
0000
1000
0100
0000
1000
0001
0000
0100
0000
0010
0000
,
1000
0010
0100
0001
0100
0000
0001
0010
0000
1000
0010
0000
0100
0000
1000
0000
,
0010
0100
0001
1000
0100
0000
1000
0010
0000
1000
0001
0000
0100
0000
0001
0000
,
0010
0001
0010
0100
1000
0000
0100
1000
0000
0001
0100
0000
0010
0000
1000
0000
,
0001
0010
1000
0010
0001
0000
0100
1000
0000
0100
0010
0000
1000
0000
0100
0000
,
1000
0010
0100
0001
0100
0000
0001
0100
0000
0010
1000
0000
0001
0000
1000
0000
,
0001
0010
0100
1000
0100
0000
0010
0001
0000
0100
0010
0000
1000
0000
0001
0000
,
1000
0020
0000
1030
0002
0000
1003
0200
0000
1300
0002
0000
0013
0001
0100
0000
,
0001
0020
0000
0031
2000
0000
3001
0200
0000
0301
2000
0000
3010
1000
0100
0000
,
1000
0000
0010
0100
0010
0000
1000
0000
0200
0000
1300
0000
0020
0000
1030
0000
,
0002
0103
0002
0013
0002
0103
0020
0000
,
1030
0000
0001
1000
0001
0000
1000
0000
0200
0000
0310
0000
2000
0000
3010
0000
,
0200
0000
1300
0000
0020
0000
1030
0000
0001
0100
0010
1000
0001
0000
0000
0000
,
1000
0000
0000
0000
0000
0000
0001
0000
0000
0010
0000
0000
0001
0000
0000
0000
0000
0000
1000
0000
0000
0000
0000
0000
0001
0000
0100
0000
0001
0000
0100
0000
0000
0000
0000
0000
0010
0000
1000
0000
0010
0000
1000
0000
0000
0000
0000
0000
,
0100
1000
0100
1000
0000
0000
0100
0010
0100
0010
0000
0000
0001
1000
0001
1000
0000
0000
0002
0000
0000
0000
0000
0000
,
1003
0000
0000
0000
0000
0000
0100
0000
0000
1000
0000
0000
0100
0000
0000
0000
0000
0000
0010
0000
0000
0000
0000
0000
0100
0000
1000
0000
0100
0000
0010
0000
0000
0000
0000
0000
0001
0000
0010
0000
0100
0000
0010
0000
0000
0000
0000
0000
,
0001
0100
0010
1000
0010
0100
0001
1000
0100
0010
0001
1000
0002
0000
0000
0000
,
1003
0000
0000
0000
0000
0000
0010
0000
0000
0100
0000
0000
0001
0000
0000
0000
0000
0000
1000
0000
0000
0000
0000
0000
0010
0000
1000
0000
0010
0000
0100
0000
0000
0000
0000
0000
0001
0000
1000
0000
0001
0000
0100
0000
0000
0000
0000
0000
,
0001
1000
0100
1000
0000
0000
0010
1000
0001
1000
0000
0000
0001
0100
0001
1000
0000
0000
0200
0000
0000
0000
0000
0000
,
1300
0000
0000
0000
0000
0000
0001
0000
0000
0010
0000
0000
0001
0000
0000
0000
0000
0000
1000
0000
0000
0000
0000
0000
0001
0000
0100
0000
0001
0000
1000
0000
0000
0000
0000
0000
0100
0000
1000
0000
0100
0000
0010
0000
0000
0000
0000
0000
,
0001
0000
0010
0000
0100
0000
0010
0000
0000
0000
0000
0000
0100
0000
1000
0000
0001
0000
0100
0000
0000
0000
0000
0000
0010
0000
0000
1000
0000
0000
0100
0000
0000
0010
0000
0000
0002
0000
0000
0000
0000
0000
0000
0000
0000
0000
0000
0000
,
1003
0000
0000
0000
0000
0000
0001
0000
0000
0100
0000
0000
0010
0000
0000
0000
0000
0000
1000
0000
0000
0000
0000
0000
0001
0000
0010
0000
0100
0000
1000
0000
0000
0000
0000
0000
0010
0000
1000
0000
0001
0000
0100
0000
0000
0000
0000
0000
,
0001
0100
0010
1000
0000
0000
0100
1000
0001
0010
0000
0000
0001
1000
0010
0100
0000
0000
0002
0000
0000
0000
0000
0000
,
1003
0000
0000
0000
0000
0000
0010
0000
0000
0100
0000
0000
0001
0000
0000
0000
0000
0000
0100
0000
0000
0000
0000
0000
0001
0000
0100
0000
0010
0000
1000
0000
0000
0000
0000
0000
0001
0000
0010
0000
0100
0000
1000
0000
0000
0000
0000
0000
,
0001
0100
0010
0100
0001
0010
0100
1000
0001
1000
0010
0100
0002
0000
0000
0000
,
1003
0000
0000
0000
1100
0000
0000
0011
0000
0000
0000
0000
0010
0001
0010
0100
,
1000
0000
0010
0100
0000
0001
0000
2000
0000
3001
0000
0000
1001
0000
0000
0000
,
0002
0100
2003
0100
,
3001
0000
0100
0010
0000
0100
0000
0001
0000
1000
0100
0010
0001
0100
0010
1000
,
0001
0000
0000
0000
0101
0000
0000
2010
0000
0000
0000
0000
3001
0000
0000
0000
,
1000
0000
0010
0001
0000
0010
0000
2000
0000
3001
0000
0000
1001
0000
0000
0000
,
0001
0100
0010
1000
0002
0000
2003
0000
,
3100
0000
0010
0000
1001
0000
0000
0000
0001
0100
0010
1000
0010
0100
0001
1000
,
0001
0000
0100
0000
0101
0000
0000
1010
0000
1000
0000
0000
1001
0000
0000
0000
,
0001
0000
0010
0100
0000
1000
0000
0001
0000
1001
0000
0000
0110
0000
0000
0000
,
1000
0000
0010
1000
0001
0000
1000
0100
0000
0010
0001
1000
0001
0000
0100
0010
,
1000
0001
0000
0000
0101
0000
0100
0001
1000
0001
0100
0001
1000
0100
0010
0001
,
1000
0000
0001
0100
0010
0000
0000
1001
0000
1000
0100
0010
0001
0000
1000
0000
,
0101
0000
0001
0100
0010
1000
0000
1001
0000
0001
0100
1000
0100
0000
0010
0000
,
1001
1000
0002
0100
2003
0100
3020
0000
,
0130
0000
0001
0100
0000
0010
0000
1000
0000
0001
0000
1000
0002
0000
0003
0000
,
0101
0000
0001
0100
1000
0000
0100
0000
0010
0000
0100
0000
0001
0000
1000
0000
,
1100
0000
1000
0100
0001
0000
0100
0000
1000
0000
0100
0000
0010
0000
0001
0000
,
0011
0000
0001
0010
1000
0000
0010
0000
0100
0000
1000
0000
0010
0000
1000
0000
,
1010
0000
1000
0010
0001
0000
0010
0000
0100
0000
0010
0000
1000
0000
0010
0000
,
1001
0000
0001
0100
1000
0000
0001
0000
0010
0000
1000
0000
0100
0000
0010
0000
,
1001
0000
1000
0100
0001
0000
1000
0000
0010
0000
0001
0000
0100
0000
0010
0000
,
1001
0000
1000
0010
0001
0000
1000
0000
0100
0000
0001
0000
0010
0000
0100
0000
,
0110
0000
1000
0000
1001
0000
0010
0000
0110
0000
0001
1000
0001
0000
0000
0000
,
1001
0000
0000
0000
1000
0100
0001
0000
1000
0000
0001
0100
1000
0000
0001
0000
,
1001
0000
0000
0000
0001
0100
1000
0000
0001
0000
1000
0100
0001
0000
1000
0000
,
1001
0000
0000
0000
1000
0100
0001
0000
0010
0000
0001
0100
1000
0000
0001
0000
,
2002
3003
0000
0000
0110
0000
0010
1000
0100
0000
1000
0000
0100
1000
0010
0100
,
0001
0000
0010
0000
0110
0000
0010
0001
0100
0000
0010
0000
0100
0001
0100
0010
,
1000
0000
0100
0000
0110
0000
0100
1000
0010
0000
1000
0000
0001
0100
1000
0100
,
0001
0000
1000
0000
2002
3003
0000
0000
1000
0000
0001
0000
1001
0000
0000
0000
,
0001
0000
0100
0000
0001
2000
0000
0000
0002
0000
3003
0000
1001
0000
1000
0000
,
1100
0020
0001
0000
0031
0002
0100
0000
,
0103
0000
0001
0000
1000
0200
0000
0000
0020
0000
0000
0330
0110
0000
0100
1000
,
0001
0100
0010
0000
1000
0001
1000
0000
0001
0000
0100
0000
0101
0000
0100
0010
,
0000
1000
0010
0000
1010
0000
2000
0000
3001
0000
0010
0000
0011
0000
0010
0001
,
0000
1000
0001
0100
0010
1000
0002
0000
1003
0000
0010
0000
1010
0000
0010
1000
,
0000
0001
0100
0000
0101
0000
0100
0000
0010
0000
1000
0000
1001
0000
1000
0100
,
0000
0010
0001
1000
0010
0100
0001
1000
0100
1000
0100
1000
0010
0000
0100
0000
,
0100
0001
0100
0001
0010
0000
0100
0000
1000
0100
1000
0100
0020
0000
0030
0000
,
0001
0100
0001
0100
0020
0000
0030
0000
1010
0000
1100
0000
0101
0000
0000
0000
,
0011
0000
0101
0000
1100
0000
0001
0000
1000
0000
0100
0010
0001
2000
0000
0002
,
0000
0000
0000
0000
3003
0000
0001
0100
0001
1000
0100
0000
1000
0000
0010
0000
,
0100
0000
0100
0002
0000
0000
0013
0000
0100
0000
0100
2000
0000
0000
3010
0000
,
0100
0000
0100
0002
0000
0000
0013
0000
0100
1000
0100
0000
1000
0000
0010
0000
,
0100
0000
0100
0002
0000
0000
1003
0000
0100
1000
0000
0010
0000
0100
0001
0000
,
0020
0000
0031
0000
0200
0000
1300
0000
0010
0001
0100
0000
0010
0000
1000
0000
,
0001
0000
0001
0200
0000
0000
0310
0000
1000
0000
1000
0200
0000
0000
0310
0000
,
0001
0000
0001
0200
0000
0000
0310
0000
1000
0100
0010
0000
0001
0000
1000
0000
,
0001
0000
0001
0020
0000
0000
0130
0000
1000
0010
0000
0100
0000
0001
0100
0000
,
0020
1030
0200
0301
0110
0110
1001
1000
,
0002
0103
2000
3100
0110
0110
1001
0001
,
2000
3100
0002
0103
0220
0000
0000
0000
,
0000
0000
0000
0000
0000
0000
0330
0000
0001
0100
0001
0100
0010
1000
0010
1000
,
0001
0000
0100
0000
0010
0000
1000
0000
0001
0000
0000
0000
1000
0100
0010
0001
2000
0000
0000
0000
0001
0000
0000
0000
0100
0000
0000
0000
0000
0000
0010
0000
,
0000
0000
0010
0000
0100
0000
0000
0000
3001
0000
0000
0000
0001
0100
0010
1000
0002
0000
0000
0000
1000
0000
0000
0000
0100
0000
0000
0000
0000
0000
0010
0000
,
0000
0000
0010
0000
0100
0000
0000
0000
1003
0000
0000
0000
1000
0100
0010
0001
2000
0000
0000
0000
0001
0000
0000
0000
0010
0000
0000
0000
0000
0000
0100
0000
,
0000
0000
0100
0000
0010
0000
0000
0000
3001
0000
0000
0000
0001
1000
0001
1000
0001
0000
0100
0000
0000
0000
0101
0000
0000
0000
1100
0000
0000
0000
1010
0000
,
0000
0011
0000
0001
1000
0000
0010
0000
0100
0000
0001
0100
0010
0000
1000
0000
,
0001
0000
1000
0100
0010
0000
0001
0000
1000
0000
0100
1000
0010
0000
0100
0000
,
0001
0000
0010
0001
0100
0000
0010
0000
1000
0010
0100
0000
0001
0100
0010
0000
,
1000
0100
0010
0000
0001
0010
0100
0000
1000
0100
1000
0100
0010
0001
0010
0001
,
1000
0000
0010
0000
0100
0000
0001
0000
0100
0000
0000
0000
0010
0000
1000
0001
1000
0000
0000
0000
0100
0000
1000
0000
0010
0000
0000
0000
1000
0000
0000
0000
,
0001
0000
0010
0001
0100
0000
0010
0000
0100
0000
0001
1000
0100
0000
1000
0000
,
0010
0000
0100
0001
0100
0000
0001
0000
0010
0100
1000
0000
0100
1000
0010
0000
,
1000
0010
0100
1000
0100
0001
0100
0000
0001
0010
0100
0000
0010
0100
1000
0000
,
0001
0000
0100
0000
0010
0000
1000
0000
0001
0000
0100
0000
0010
0000
1000
0001
1000
0000
0100
0000
0001
0000
0100
0000
0010
0000
0001
0000
0100
0000
0010
0000
,
1000
0010
0001
0010
0100
0001
0010
0100
1000
0001
0100
0010
1000
0100
0010
0001
,
1000
0100
1000
0100
0010
0001
0010
0001
1000
0000
0000
0000
0000
0000
0000
0000
1000
0000
0001
0000
0100
0000
0001
0000
1000
0000
0100
0000
1000
0000
0010
0000
,
0100
0001
0010
0001
1000
0100
0010
0001
2000
0000
0010
0000
0010
0000
0010
0000
,
3010
0100
0001
1000
0100
0001
0100
1000
0001
0100
0002
0000
1000
0000
0103
0000
,
0001
0100
0000
1000
0100
0001
0100
0010
1000
0100
2000
0000
0001
0000
3100
0000
,
1000
0000
0001
0000
0000
0000
0010
0001
0010
0000
0001
0000
0100
0000
0010
0000
1000
0000
0010
0000
0200
0000
0000
0000
0001
0000
0000
0000
0310
0000
0000
0000
,
1000
0000
0010
0000
0000
0000
1000
0001
1000
0000
0001
0000
0100
0000
0010
0000
1000
0000
0100
0000
2000
0000
0000
0000
3001
0000
0100
0000
0002
0000
0000
0000
,
1003
0100
0010
0001
0010
0100
1000
0001
0100
0010
2000
0000
0010
0000
0100
0000
,
3010
0000
0100
0000
0000
0000
0001
0100
0001
0000
1000
0000
0100
0000
0010
0000
0001
0000
0100
0000
0020
0000
0000
0000
1000
0000
0000
0000
0130
0000
0000
0000
,
0001
0000
0010
0000
0000
0000
0100
1000
0100
0000
1000
0000
0001
0000
0100
0000
0010
0000
1000
0000
0200
0000
0000
0000
0010
0000
0000
0000
0301
0000
0000
0000
,
0010
0000
0001
0000
0000
0000
1000
0001
1000
0000
0001
0000
0100
0000
0010
0000
1000
0000
0010
0000
0200
0000
0000
0000
0301
0000
0010
0000
0200
0000
0000
0000
,
1300
0010
0100
0001
0100
0010
1000
0001
2000
0000
0000
0000
0010
0000
0000
0010
,
0000
0100
0000
0100
0000
0000
3010
0000
0002
0000
0000
1000
0000
1000
0000
0010
,
0000
0100
0000
0100
0000
0000
0000
0000
2003
0000
0000
0000
0010
0000
0000
0010
,
0000
0100
0000
0100
0000
0000
0010
0000
3001
0000
0100
0001
1000
0000
0100
1000
,
0001
0000
1000
0100
0010
0001
1000
0001
2000
0000
0000
0000
0001
0000
0000
0010
,
0000
0100
0000
0100
0000
0000
0010
0000
3002
0000
0000
0100
0000
0100
0000
0010
,
0000
1000
0000
1000
0000
0000
0000
0000
2003
0000
0000
0000
0100
0000
0000
0010
,
0000
0100
0000
0001
0000
0000
0010
0000
3002
0000
0100
0000
1000
0000
0100
0000
,
1000
0010
0100
0010
2000
0000
0000
0000
,
0000
0000
3003
0000
1001
1000
0020
0000
,
1030
0000
0100
0020
0000
0000
0130
0000
1000
0000
0000
1000
0002
0000
0000
0000
0000
0000
0103
0000
0010
2000
0000
0000
,
3001
0000
0100
0001
0000
1000
0001
0000
0100
0010
0000
1000
0001
0000
0000
0010
0000
0000
0100
0000
0100
1000
0000
0000
,
1000
0000
0000
0010
0000
0000
0100
0000
0100
0001
0000
0000
1000
0000
0000
0001
0000
0000
0010
0000
0010
0100
0000
0000
,
0100
0000
0000
1000
0000
0000
0010
0000
0010
0100
0000
0000
0101
0000
0000
0010
0000
0000
2001
0000
0000
0000
0000
0000
,
3001
0000
0000
0200
0000
0000
0310
0000
1000
0000
0000
0001
0020
0000
0000
0031
0000
0000
1000
0000
0000
0200
0000
0000
,
1300
0000
0010
1000
0000
0001
0100
0000
0010
1000
0000
0001
0010
0000
0000
0001
0000
0000
2000
0000
0000
3010
0000
0000
,
0002
0013
0200
1300
0020
1030
0200
0301
,
1001
0000
1000
0100
0001
0100
1000
0000
1001
0000
0001
0000
0200
0000
0000
0000
,
0310
0000
1000
0001
0000
0000
1000
0000
0100
0010
0000
0001
2000
0000
0000
3001
0000
0000
0200
0000
0000
0320
0000
0000
,
1030
0000
0100
1000
0000
0001
0100
0000
0010
0100
0000
0001
1000
0000
0000
0001
0000
0000
0100
0000
0100
0010
0000
0000
,
0010
0000
0000
1000
0000
0000
0100
0000
0100
0010
0000
0000
0010
0000
0000
0001
0000
0000
0100
0000
0100
0010
0000
0000
,
0010
0000
0000
1000
0000
0000
0100
0000
0010
0001
0000
0000
1001
0000
0000
0100
0000
0000
1020
0000
0000
0000
0000
0000
,
0130
0000
0001
1000
0000
0000
0100
0000
1000
0100
0000
0010
0002
0000
0000
1003
0000
0000
0001
0000
0000
0200
0000
0000
,
0310
0000
1000
0010
0000
0100
0001
0000
1000
0100
0000
0010
0002
0000
0000
2003
0000
0000
3020
0000
0000
0230
0000
0000
,
0302
2003
3200
0320
0032
0203
0320
2030
,
3002
0000
0000
0000
0000
0000
0000
0000
0000
0000
0000
0000
0000
0000
0000
0000
0000
0000
0000
0000
0000
0000
0000
0000
2003
0000
0000
0000
0000
0000
0000
0000
0000
0000
0000
0000
0000
0000
0000
0000
0000
0000
0000
0000
0000
0000
0000
0000
3200
0000
0000
0000
0000
0000
0000
0000
0000
0000
0000
0000
0000
0000
0000
0000
0000
0000
0000
0000
0000
0000
0000
0000
0320
0000
0000
0000
0000
0000
0000
0000
0000
0000
0000
0000
0000
0000
0000
0000
0000
0000
0000
0000
0000
0000
0000
0030
0110
0000
0000
0000
0000
0000
0000
0000
0000
0000
0000
0000
0000
0000
0000
0000
0000
0000
0000
0000
0000
0000
0000
0000
0000
0000
0000
0000
0000
0000
0000
0000
0000
0000
0000
0000
0000
0000
0000
0000
0000
0000
0000
0000
0000
0000
0000
0000
0010
0000
0000
0000
0000
0000
0000
0000
0000
0000
0000
0000
0000
0000
0000
0000
0000
0000
0000
0000
0000
0000
0000
0000
0000
0000
0000
0000
0000
0000
0000
0000
0000
0000
0000
0000
0000
0000
0000
0000
0000
0000
0000
0000
0000
0000
0000
0000
,
1001
0101
2100
0001
,
0000
0000
0001
0000
0020
0030
0001
0001
,
0100
0000
0001
0000
0020
0030
3001
0000
,
1000
0100
0010
0001
1000
0100
0001
0100
,
1000
0010
0100
0001
1001
0000
0110
0000
,
0001
0100
0010
1000
0001
0010
0100
0010
,
0001
0100
0010
1000
1001
0000
0110
0000
,
1000
0100
0010
0100
1000
0010
0100
0001
,
1000
0001
0100
0010
1010
0000
0101
0000
,
0001
0010
0100
1000
0001
0100
0010
1000
,
0001
1000
0100
0010
0011
0000
1100
0000
,
1001
0000
0110
0000
1001
0000
1000
0100
,
0001
0000
0110
0000
1001
0000
0001
0100
,
1000
0100
0110
0000
1001
0000
1000
0100
,
0001
0100
0110
0000
1001
0000
0001
0010
,
1000
0010
0100
0000
0110
0000
1000
0010
,
0001
0010
0100
0000
0110
0000
0001
0100
,
0010
1000
1010
0000
0101
0000
1000
0100
,
0010
0011
1100
0000
,
0002
0000
0000
0000
2003
0000
0000
3020
,
0000
0000
0100
0000
0000
1000
0130
0000
,
0101
0000
1010
0000
2000
0000
0000
3002
,
0000
0000
0100
0000
0000
1003
1000
0000
,
0001
0100
0001
0000
2000
0000
0100
3002
,
0000
0000
0100
0000
1000
0010
0013
0000
,
0001
0000
1000
0001
1000
0000
0000
0000
0002
0000
0000
0000
0100
0000
2003
0000
,
0010
0000
0010
0000
0001
0100
3100
0000
,
0001
0000
1000
0100
0010
0000
0000
0000
0002
0000
0000
0000
2003
0000
3020
0000
,
0230
0000
0302
0000
2003
0100
3100
0000
,
0010
0000
0001
1000
0001
0000
0000
0000
2000
0000
0000
0000
3002
0000
0203
0000
,
0320
0000
0000
0000
2030
0000
0000
0000
3001
0000
0100
0001
0100
0000
0000
0000
,
0010
0000
1000
0001
1000
0000
0001
0000
0020
0000
0000
0000
0032
0000
2003
0000
,
3002
0000
0000
0000
0203
0000
0000
0000
0301
0000
1000
0100
1000
0000
0000
0000
,
0001
0000
1000
0100
0010
0000
0001
0000
0200
0000
0000
0000
0320
0000
2030
0000
,
3002
2003
3020
0000
0000
0100
0130
0000
,
0101
0000
0000
0000
0000
0000
1010
0000
0000
0000
0000
0000
2000
0000
0000
0000
0000
0000
3001
0000
0010
0001
0000
0000
,
1000
0100
0001
0100
0010
0001
1000
0010
,
0100
0000
0000
0001
0000
0000
0010
0000
0100
0010
0000
0100
1000
0000
0000
0010
0000
0000
1000
0000
0000
0001
0000
0000
,
1000
0000
0100
0010
0000
0001
0100
0000
0000
0010
0000
0000
1000
0000
0000
0010
0000
0000
0001
0000
0000
0000
0000
0000
,
0110
0000
1001
0000
0002
0000
0103
0010
,
1000
0000
0000
0001
0000
0100
0001
0000
0000
1000
0000
0000
0100
0000
0000
0010
0000
0000
0001
0000
0000
1000
0000
0000
,
0010
0000
0100
0010
0000
0100
0001
0000
0000
1000
0000
0000
0001
0000
0100
0010
0000
0000
1000
0000
0000
0001
0000
0000
,
1000
0000
0100
0010
0000
0000
0001
0000
0000
1000
0000
0000
0001
0000
0000
1001
0000
0000
0000
0000
0110
0000
0000
0000
,
1001
0000
0000
0000
0000
0000
0000
0000
0000
0000
0001
0000
0100
0000
0000
0000
0010
0000
1000
0000
0000
0000
0000
0000
0001
0000
0000
0100
0000
0000
0010
0000
0000
0100
0000
0000
0001
0000
0000
0000
0000
0000
1000
0000
0000
0000
0000
0000
,
0010
0100
0001
1000
0100
0000
1000
0000
0001
0010
0100
1000
0001
0100
0010
1000
,
0001
0000
1000
0000
0020
0000
0100
0000
0130
0001
0100
0010
1000
0000
0001
0000
,
1000
0100
0010
0001
1000
0000
0010
0000
0100
0001
1000
0100
0010
0000
0001
1000
,
0000
1000
0010
0100
0002
0000
0000
0000
2003
0000
0000
0000
3001
0100
0001
0000
,
2000
0000
0000
0000
3001
0010
0001
0000
0100
0000
0010
0000
1000
0000
0010
0000
,
1000
0100
0010
0001
1000
0010
0100
0001
0020
0000
0000
0000
0130
1000
0100
1000
,
0020
0000
0000
0000
0130
0001
0100
0001
1000
0000
0001
0000
0100
0010
1000
0000
,
1001
0000
0000
0001
1000
0000
0010
0000
0101
0000
0001
0000
0100
0000
0001
0000
,
1000
0000
0100
0000
0010
0000
0000
2002
0000
0000
0000
3003
0000
0000
0001
0000
,
0100
0000
0010
0000
1000
0000
0002
0000
0000
0000
1003
0000
0100
0000
1000
0001
,
0000
1001
0000
0000
0001
0000
0100
0000
0010
0000
1000
0000
0010
0000
1000
0000
,
0001
0010
0001
0010
0100
1000
0010
1000
,
0001
0000
0100
0000
0010
0000
0000
2002
0000
0000
3003
0000
0000
0000
1000
0000
,
0100
0000
0010
0000
0001
0000
0000
2000
0000
0000
3001
0000
0100
0000
0001
0000
,
1000
0001
0100
0001
1000
0100
0010
0001
,
1000
0100
0010
0001
1000
0010
0100
0010
,
1000
0001
0000
0101
0000
0001
0100
0010
,
1000
0001
0000
1000
0100
0100
1000
1000
,
0010
0010
0100
1001
0000
0101
0000
0000
,
0001
1000
0100
0010
0002
0003
1000
0100
,
0001
0100
0000
0020
0000
0031
0100
1000
,
0100
0001
0000
1000
0010
0010
0100
0100
,
0001
0000
0001
0000
1000
0000
0002
0000
0103
0010
0000
1000
0010
0000
1000
0001
,
0000
1000
0100
0000
0010
0000
0001
0000
0201
0000
0000
0000
0010
0000
0000
0000
,
1000
0310
0021
0100
,
1000
0130
2010
0100
,
0001
3100
0012
0103
,
0001
0100
0010
1000
0001
0000
1000
0000
0010
0000
1000
0000
0001
0000
1000
0000
,
1100
0100
0010
0001
0100
0010
0100
0001
,
0011
0010
0001
0100
0010
1000
0010
0100
,
0110
0010
1000
0100
1000
0100
0010
0001
,
1001
0000
1000
0001
1000
0100
0010
0000
0011
0000
0001
0000
0100
0000
0010
0000
,
1010
0000
0010
0000
1000
0100
0010
0001
1000
0000
0001
0000
0100
0000
0010
0000
,
1010
0010
1000
0001
0010
0100
0010
0001
,
0011
0000
0001
0000
0100
0001
0100
0010
1000
0000
0100
0000
0010
0000
0001
0000
,
1001
0001
0100
0010
1010
0010
0100
0001
,
0101
0000
0001
0000
0100
0010
0100
0010
1000
0000
1100
0000
0000
0101
0000
0000
,
0011
0000
0000
1010
0000
0000
1001
0000
2000
0000
0000
0100
0000
0100
0000
0100
,
0000
0000
0001
0000
0001
0000
0010
0000
3002
0000
0000
0100
0000
0100
0000
0100
,
0000
0000
1000
0000
1000
0000
0010
0000
2003
0000
0000
0010
0000
0010
0000
0010
,
0000
0000
0100
0000
0100
0000
0010
0000
3001
0100
0000
1000
0100
0000
0001
0010
,
0000
1000
0010
0000
0001
1000
0001
0100
0020
0000
0000
0000
1030
0001
0000
0000
,
0200
0000
0000
0000
0301
1000
0000
0000
2000
0000
0000
0000
3100
0010
0000
0000
,
0002
0000
0000
0000
0013
0100
0000
0000
2000
0000
0000
0000
3100
0001
0000
0000
,
0002
0000
0000
0000
0103
1000
0000
0000
2000
0000
0000
0000
3001
0010
0000
0000
,
0002
0000
0000
0000
0013
0100
1000
0000
0020
0000
0000
0000
1030
0100
0000
0000
,
0020
0000
0000
0000
0031
0100
0000
0000
0200
0000
0000
0000
0310
1000
0000
0000
,
0200
0000
0000
0000
0310
0001
0000
0000
2000
0000
0000
0000
3001
0100
0010
0000
,
1000
0100
0010
0001
1000
0010
0100
0001
1000
0000
1100
0000
0202
0000
0303
0000
,
0001
0010
0001
0100
0010
1000
0010
0100
0001
1000
0000
0000
1000
0100
0000
0000
,
0100
0010
0000
0000
0020
0001
0000
0000
0031
0100
0000
0000
0100
0010
0000
0000
,
0010
1000
0000
0000
2000
0100
0000
0000
3100
0010
0000
0000
0010
0001
0000
0000
,
0002
1000
0000
0003
2000
0001
0000
3000
0001
0100
0000
0010
1000
0100
0010
0001
,
1000
0100
1000
0001
0100
0010
0100
0001
1000
0000
1010
0000
0022
0000
0033
0000
,
0001
0100
0000
0100
0010
0000
0010
0000
1000
0000
1100
0000
0202
0000
0303
0000
,
0001
0010
0000
0010
0100
0000
0100
0000
1000
0000
0010
1000
0001
0100
0000
0010
,
1000
0001
0010
0100
1000
0010
0100
0001
2000
0000
0000
0000
0100
0000
3000
0000
,
0002
0000
0000
0000
0000
0000
0100
0000
0000
0003
0000
0000
1001
0000
0000
0000
0000
0000
1000
0000
0010
0000
1000
0000
,
0010
0100
0010
0100
0001
0100
0002
0000
0000
0010
0000
0000
,
0100
0000
0000
0013
0000
0000
1001
0000
0000
0001
0010
0001
,
0010
0100
0010
0100
1000
0100
2000
0000
0000
0100
0000
0000
,
0010
3100
1001
0010
,
0101
0000
0000
0001
0100
0010
1010
0000
0000
0001
0000
0000
,
1100
0001
0011
1001
,
0001
0100
1000
0100
0000
0000
0110
0000
0000
1010
0000
0000
,
1100
0000
0000
0011
0000
0000
1001
0000
0000
1000
0100
0010
,
0001
0010
0100
1000
0001
0100
0010
0000
0000
1010
0000
0000
,
1100
0000
0000
0101
0000
0000
1001
0000
0000
0001
0100
0010
,
1000
0100
0010
0001
0100
0010
1000
0000
0000
1100
0000
0000
,
0011
0000
0000
0101
0000
0000
1010
0000
0000
1000
0100
0010
,
0001
0000
0000
0010
0100
1000
0001
0000
0000
1000
0010
0100
,
0001
0000
0000
0100
0010
0100
0001
0000
0000
1000
0100
1000
,
0010
1000
0100
0010
0001
0100
0010
0100
0001
1000
0100
0001
,
1000
0010
0001
0100
0010
1000
0002
0000
0000
2003
0000
0000
,
3020
0000
0130
0001
1000
0100
0001
0100
,
0010
0000
0001
1000
0001
0100
1000
0100
,
0010
0000
1000
0001
1000
0100
0001
0100
,
0010
0000
0001
1000
1001
0000
0101
0000
,
1100
0000
0001
0010
0100
0010
1000
0010
,
0001
0000
1000
0010
0100
0010
0001
0010
,
1000
0000
0001
0010
0100
0010
1000
0010
,
0001
0000
1000
0001
1001
0000
1010
0000
,
1100
1010
1001
0011
,
0101
0011
1001
1100
,
1010
1100
1001
0011
,
0101
0000
0011
0000
0001
0100
0010
1000
,
0001
0100
0001
1000
0100
0010
0100
1000
,
0010
0000
0100
0000
0001
0000
1000
0000
0001
0100
0001
0100
0010
1000
0010
1000
,
0001
0100
0010
1000
0001
0100
1000
0100
0020
0000
0000
0000
0000
0000
0000
0000
,
0000
0000
0000
0000
0031
0010
1000
0001
,
0010
0000
1000
0000
0001
0000
0100
0000
1000
0000
0001
0000
0100
0010
1000
0100
,
0002
0000
0000
0000
0103
0010
0100
0010
1000
0000
0010
0000
0001
0000
1000
0000
,
0010
0000
0001
0000
1000
0000
0100
0000
0001
0000
1000
0000
0100
0010
1000
0010
,
0002
0000
0000
0000
0103
0010
0100
0010
1000
0000
0100
0000
0001
0000
1000
0000
,
0010
0001
1000
0100
0001
1000
0010
0001
,
2000
0000
0000
0000
3100
0010
0100
0010
0001
0000
0100
0000
1000
0000
0001
0000
,
0010
1000
0001
0100
1000
0001
0010
1000
,
0002
0000
0000
0000
0103
0010
0100
0010
1000
0000
0100
0000
0001
0000
1000
0000
,
0001
0100
1000
0001
0100
1000
0100
0001
,
2000
0000
0000
0000
3100
0010
0100
0010
0001
0000
0100
0000
1000
0000
0001
0000
,
1000
0100
0001
1000
0100
0001
0100
1000
,
0002
0000
0000
0000
0103
0010
0100
0010
1000
0000
0100
0000
0010
0000
1000
0000
,
0010
0100
1000
0010
0100
1000
0100
0010
,
2000
0000
0000
0000
3010
0100
0010
0100
0001
0000
0010
0000
0100
0000
0001
0000
,
0100
0010
0001
0100
0010
0001
0010
0100
,
0002
0000
0000
0000
0013
0100
0010
0100
2000
0000
0000
0000
0000
0000
0000
0000
,
0000
0000
0000
0000
3001
0000
0100
0101
,
0000
0000
0001
0000
1000
0000
1020
0000
0000
0000
1030
0100
0010
0001
0010
0100
,
1000
0001
0100
0010
2000
0000
0000
0000
3001
0000
1000
0000
0001
0000
0100
0000
,
1000
0100
0010
1000
0010
0100
0001
1000
,
0001
0000
0100
0000
0010
0000
1000
0000
0001
1000
0001
1000
0001
0000
0100
0000
,
0010
0000
1000
0000
0001
0000
2000
0000
0100
0000
0000
0000
3100
0000
0010
0001
,
1000
0001
0100
0000
0010
0000
1000
0000
0001
0000
0100
0001
0100
0000
0010
0000
,
1000
0000
0010
1000
0010
0000
0100
0000
0001
0000
1000
0100
0010
0001
0100
0010
,
1000
0001
1000
0001
0100
0010
1000
0000
1100
0000
0100
1000
0001
0000
0011
0000
,
0001
0000
0010
0001
0100
0000
0001
0000
1000
0000
0010
1000
0010
0100
0001
1000
,
0100
0010
0001
1000
0002
0000
0000
0000
1003
0000
0100
0000
1000
0000
0010
0000
,
0100
0001
1000
0001
0100
1000
0100
0001
,
0010
0000
1000
0000
0010
0000
0001
0000
1000
0100
1000
0100
0010
0000
0001
0000
,
1000
0010
1000
0010
0100
0000
0001
0000
1000
0001
0100
0010
1000
0000
0001
0000
,
1000
0001
0010
0100
1000
0000
0001
0000
1000
0100
0010
0001
1000
0010
0001
0010
,
0100
0001
0010
0100
1000
0010
0100
0001
2000
0000
0000
0000
0000
0000
0000
0000
,
0000
0000
0000
0000
0000
0000
0000
0000
3001
0000
0000
0000
0101
0000
0000
1010
,
0000
0000
1000
0000
0001
0100
1000
0000
0000
1100
0000
0000
0110
0000
1000
0000
,
0100
0010
0000
0010
0001
0000
0100
0000
0101
0000
0000
1100
0000
0000
1001
0000
,
0001
0100
0010
1000
0010
0100
0001
0000
0000
0011
0000
0000
1010
0000
1000
0000
,
0001
0010
0000
1000
0010
0001
1000
0001
2000
0000
0000
3010
0002
0000
0000
0013
,
1000
0000
0000
1010
0000
0000
0101
0000
0001
1000
0000
0001
0100
0000
0010
0000
,
1000
0100
0010
0001
1000
0000
0001
0000
0201
0000
0000
0010
0000
0000
1000
0000
,
0000
0000
0310
0000
1200
0000
0000
0010
0000
0000
0001
0000
0000
0000
0310
0000
,
0001
1000
0001
0000
0100
0000
0010
0000
1010
0000
0000
0000
0101
0000
0000
1001
,
0000
0000
0001
0000
1000
0100
0001
0000
0100
1000
0000
0010
0100
0000
0001
0000
,
0010
0001
0100
0000
0010
0000
1000
0000
1010
0000
0000
1100
0000
0000
0101
0000
,
0001
0000
0100
0001
0000
0100
0020
0000
0000
0000
0000
0000
1030
0000
0001
0100
,
0001
0000
1000
0100
0010
0000
0001
0000
0101
0000
1000
0001
1000
0000
0001
0000
,
0101
0000
0100
0010
1000
0000
0001
0000
1001
0000
0001
1000
0010
0000
0100
0000
,
1001
0000
0001
0010
0001
0000
1000
0000
1001
0000
1000
0100
0001
0100
1000
0000
,
1001
0000
0001
0010
1000
0010
0001
0000
1001
0000
0001
0100
0001
1000
0100
0010
,
0001
1000
0001
1000
0001
1000
0001
0000
0101
0000
0000
0000
0100
0000
0110
0000
,
0000
0010
2010
0000
0000
0001
0001
0000
,
0100
3100
1000
0001
0011
0000
0010
0110
,
0000
0100
2100
0000
0000
0001
0100
0000
,
0001
0000
3010
0000
1000
0010
1000
0000
1001
0000
0000
0000
1000
0000
1100
0000
,
0000
0100
0120
0000
0000
0001
0001
0000
,
0100
0130
1000
0001
1001
0000
0001
0011
,
0000
1000
1100
0000
0000
0001
1002
0000
,
0000
0000
0103
0000
0010
1000
0010
1000
0001
0000
1000
0000
0100
0000
0001
0000
,
0100
0010
0001
1000
0010
0001
0010
1000
,
0010
0100
0001
1000
0100
0010
0001
1000
,
0001
0100
0010
1000
0100
0001
0100
0010
,
0001
0100
0010
1000
0001
0010
1000
0010
,
0001
0010
0100
1000
0001
0100
1000
0100
,
0010
1000
0010
0100
0001
0010
0100
1000
,
0001
0010
0001
0000
1000
0100
1000
0000
0001
0100
0001
0100
0010
1000
0010
1000
,
0001
0010
0001
0010
0100
1000
0100
1000
0001
0000
1000
0000
0010
1000
0010
0000
,
0100
0000
0001
1000
0001
0000
1000
0000
0100
0000
1000
0000
0010
0100
0000
0001
,
0100
0000
0010
1000
0001
0000
1000
0000
0100
0010
0100
0000
0010
0001
0000
1000
,
0010
0000
0100
0001
0100
0000
0001
0000
1000
0100
0000
0000
1000
0100
0000
0000
,
0010
0001
0000
0000
0010
0001
0000
0000
1000
0010
1000
0000
0001
0100
0001
0000
,
1000
0000
0100
0000
0001
0000
0100
0000
1000
0001
1000
0000
0001
0100
0001
0000
,
1000
0010
1000
0000
0001
1000
0001
0000
0100
0000
0010
0000
1000
0010
0000
0100
,
0001
0000
1000
0100
0000
0010
0001
0000
1000
0100
0000
0000
0001
0100
0000
0000
,
1000
0010
0000
0000
0001
0010
0000
0000
1000
0010
1000
0000
0001
0100
0000
0010
,
1000
0000
0100
1000
0100
0000
0010
0000
0001
0100
0000
0001
0100
0000
0010
0000
,
1000
0100
0000
1000
0100
0000
0010
0000
0001
1000
0001
0000
0100
0000
0010
0000
,
1000
0010
0100
0000
0001
0100
0010
0000
1000
0001
0000
0000
1000
0001
0000
0000
,
0100
0010
0000
0000
0100
0010
0000
0000
1000
0100
0010
0000
0001
0000
1000
0000
,
0001
0010
0001
0000
0001
0100
0001
0000
1000
0010
0100
0000
0001
0010
0100
0000
,
1000
0100
0010
0000
0001
0100
0010
0000
1000
0001
1000
0000
0001
0100
0000
0001
,
0100
0000
0010
1000
0000
0010
1000
0000
0001
0010
0100
1000
0010
0100
0001
1000
,
0100
0000
1000
0000
0001
0000
0100
0000
0010
0000
0100
0000
0001
0000
1000
0000
0002
0000
0000
1000
0000
0000
1000
0000
1003
0000
0000
0000
0000
0000
0000
0000
,
0001
0100
1000
0001
0010
1000
0100
0010
,
0001
0010
0100
1000
0001
0100
1000
0100
,
0001
1000
0100
0010
0100
1000
0010
0100
,
0001
1000
0001
0100
0010
1000
0010
0100
,
0001
0100
1000
0100
0001
0010
1000
0010
,
0001
0100
0010
1000
0100
0010
1000
0010
,
0100
0001
0100
0010
0001
1000
0010
0100
,
0001
0000
2000
0000
3001
0000
0100
0000
0010
1000
0010
1000
0001
0000
1000
0000
,
0100
0010
0001
0100
0010
0100
0001
0010
,
0100
1000
0001
0100
0010
1000
0001
1000
,
0100
1000
0001
0100
0010
0100
0001
1000
,
0010
0000
0100
0000
0001
0000
1000
0000
0010
0100
0010
0100
0001
0000
1000
0000
,
0010
1000
0001
0010
0100
0010
0001
1000
,
0100
0010
0001
0100
0010
1000
0001
0010
,
0100
1000
0001
0100
0010
1000
0001
0100
,
0001
1000
0100
0010
0001
0000
1100
0000
,
0110
0011
1001
1010
,
0110
0101
1001
0011
,
1010
0000
1100
0000
0101
0000
0110
0220
,
0000
0000
0330
0000
1001
0000
1001
0000
0001
0100
0010
1000
0001
0000
0000
0000
,
0010
0001
0100
0000
0101
0000
0001
0100
,
1000
0000
1000
0100
1000
0100
0010
0000
,
1010
1000
0100
0000
1100
0000
0101
0001
,
1000
0000
1001
0001
1000
0010
0101
0100
,
0101
0001
1000
0000
1010
0000
1100
1000
,
0001
0000
0101
0100
0110
0010
1010
0000
,
1001
1000
1100
0000
0011
0000
0101
0100
,
1010
1000
0100
0001
0100
0010
0002
0000
,
1003
0100
1000
0010
0100
0001
1000
0100
,
0010
0001
1000
0001
0100
0010
1000
0010
,
0100
0001
0010
0100
1000
0001
1000
0100
,
1000
0001
0100
0010
0100
0001
1000
0100
,
1000
0000
0001
0000
0100
0000
0010
0000
1000
0000
0010
0000
0100
0001
0100
0010
,
1000
0000
0001
0000
1000
0100
0010
0001
1000
0000
0001
0000
0100
0010
0100
0010
,
1000
0001
0010
0001
1000
0100
1000
0001
0100
0010
0100
0001
1000
0000
0001
0000
,
0010
0100
1000
0010
0100
0001
1001
0000
,
0001
0100
1000
0100
0001
0000
1001
0000
,
1000
0100
0001
0100
1000
0000
1001
0000
,
0001
0010
1000
0010
0001
0000
1001
0000
,
1000
0010
0001
0010
1000
1000
0001
0000
,
0100
0010
1000
0010
0100
0001
1000
0000
,
0001
0010
0100
0001
0100
1000
0010
0000
,
0100
0001
1000
0100
0010
0001
1000
0000
,
0001
0000
0100
0000
0010
0000
1000
0000
0001
1000
0001
1000
0001
0000
1000
0000
,
0100
0010
0001
0100
0010
1000
0001
0100
,
0001
0000
1000
0000
0100
0000
1000
0000
0010
0100
0010
0100
0001
0000
0010
0000
,
0100
1000
0001
0100
0001
1000
0001
0100
,
0010
0000
1000
0000
0001
0000
0010
0000
0100
1000
0100
1000
0001
0000
1000
0000
,
0100
0010
0001
0100
0010
1000
0001
0100
,
0010
0000
0100
0000
0001
0000
0100
0000
0010
1000
0010
1000
0001
0000
1000
0000
,
0100
1000
0001
0100
1000
0100
0001
1000
,
0010
0000
0100
0000
0001
0000
1000
0000
0001
0010
0100
1000
0001
0000
0000
0000
;

//---------------dance-single - ver. EmeraldX----------------
#NOTES:
     dance-single:
     SHAYMIN:
     Hard:
     18:
     0.723808,1.217792,0.282500,0.294730,0.603523,4143.000000,3912.000000,231.000000,241.000000,0.000000,0.000000,0.723808,1.217792,0.282500,0.294730,0.603523,4143.000000,3912.000000,231.000000,241.000000,0.000000,0.000000:
// measure 0
0000
0000
0000
0000
,  // measure 1
0000
0000
0000
0000
,  // measure 2
0000
0000
0000
0000
,  // measure 3
0000
0000
0000
0000
,  // measure 4
0000
0000
0000
0000
,  // measure 5
2000
0000
3200
0000
,  // measure 6
0320
0001
0230
0000
,  // measure 7
2300
0000
3020
0000
,  // measure 8
0130
0000
0000
0001
1000
0000
0100
0000
0110
0000
0010
0001
2000
0000
0000
0000
,  // measure 9
3001
0000
0100
0001
0100
0000
0010
1000
0010
0000
0100
0001
0100
0000
0010
1000
,  // measure 10
0010
0000
0100
0001
1000
0000
0100
1000
0001
0000
0100
0010
1000
0000
0100
0000
,  // measure 11
0010
0000
0100
1000
0100
0000
0010
0001
0010
0000
0100
1000
0100
0000
0010
0001
,  // measure 12
0010
0000
0100
1000
0001
0000
0100
0001
1000
0100
0010
0001
1000
0000
0010
0000
,  // measure 13
0110
0000
0110
0000
1010
0000
1010
1000
,  // measure 14
1100
0000
1100
0000
0110
0000
0110
0010
,  // measure 15
0001
0100
0001
0100
0010
1000
0010
0100
,  // measure 16
0001
1000
0100
0010
0001
0010
0100
1000
0001
0100
0010
1000
0020
0000
0030
0000
,  // measure 17
1000
0000
0001
0000
0010
0000
0100
1000
0100
0000
0010
0000
0100
1000
0100
0000
,  // measure 18
0010
0000
0001
0100
0001
0000
1000
0000
0010
0100
0001
0100
0010
0000
1000
0000
,  // measure 19
0001
0010
0001
0000
1000
0000
0001
0100
0001
0000
1000
0000
0010
0100
0010
0000
,  // measure 20
1000
0000
0001
0010
0001
0000
1000
0000
0010
1000
0001
1000
0010
0000
0100
0000
,  // measure 21
0010
0100
0010
0000
1000
0000
0001
0010
0001
0000
1000
0000
0001
0100
0001
0000
,  // measure 22
1000
0000
0010
0100
0010
0000
1000
0000
0001
0010
0100
1000
0001
0000
0100
0000
,  // measure 23
0010
1000
0010
0000
0100
0000
0001
1000
0001
0000
0010
0000
0100
1000
0100
0000
,  // measure 24
0010
0000
0001
1000
0001
0000
0010
0000
0100
1000
0001
0100
0010
0000
0000
0000
,  // measure 25
2010
3100
0012
0103
,  // measure 26
1000
1000
0100
0100
0001
0100
1000
0000
,  // measure 27
0010
0000
1000
0100
0010
0000
0100
0000
1000
0000
0010
0000
0100
0000
0010
0000
,  // measure 28
1000
0100
0010
0001
0100
0010
1001
0000
,  // measure 29
1000
0000
0001
0010
0100
0000
1000
0000
0001
0000
0100
0000
0101
0000
0000
0000
,  // measure 30
1000
1000
0010
0010
0001
0010
1000
0000
,  // measure 31
1010
0110
0101
1001
,  // measure 32
2100
0000
3001
0100
0010
1000
0001
0010
,  // measure 33
0200
0000
1000
1300
2010
0010
0010
0010
,  // measure 34
3020
0000
0100
0130
0102
0100
1000
0003
,  // measure 35
0020
0000
0001
0031
1002
1000
1000
1000
,  // measure 36
2003
0000
0010
3010
1020
1000
0200
0330
,  // measure 37
0002
0000
0013
0001
0100
0010
1000
0200
,  // measure 38
0000
1300
0010
0010
0100
0001
1000
0100
,  // measure 39
0020
0000
0031
1000
0100
1000
0001
0100
,  // measure 40
0010
0100
0010
0100
0010
0000
1000
0000
0001
0000
0010
0000
0110
0000
0000
0000
,  // measure 41
2002
0000
0000
0000
,  // measure 42
0000
0000
0000
3000
,  // measure 43
0200
0000
0000
0003
,  // measure 44
0020
0000
0000
0330
,  // measure 45
2020
0000
0000
0000
,  // measure 46
0000
0000
0000
3030
,  // measure 47
0100
0001
0100
0001
1000
0001
1000
0001
0010
0001
0100
0010
1000
0100
0010
0001
,  // measure 48
2000
3010
0200
0301
2000
3100
0110
0000
,  // measure 49
2001
0000
0000
3100
1200
0000
0010
0310
0011
1000
1100
0000
0101
0100
0110
0000
,  // measure 50
1000
0100
1000
0100
0010
0001
0010
0001
2000
0000
0000
0000
3010
0100
0001
1000
0010
0100
0001
1000
0010
0000
0010
0000
1000
0000
0100
0000
0020
0000
0030
0000
,  // measure 51
0012
0000
0000
1003
1020
0000
1000
1030
1100
0100
0110
0000
0011
0001
1001
0000
,  // measure 52
0102
0000
0000
0000
0013
0000
0010
0000
0012
0000
0000
0000
1003
0010
0100
0001
1000
0010
0100
0001
1000
0000
1000
0000
0100
0000
0010
0000
0002
0000
0000
0000
,  // measure 53
1003
0000
0010
0100
0000
0010
0100
0000
0001
1000
0001
0000
0010
0001
0000
1000
,  // measure 54
0100
0000
0010
0100
0000
0010
0100
0000
1000
0001
1000
0000
0010
1000
0000
0001
,  // measure 55
0100
0000
0010
1000
0000
1000
0010
0000
0100
0001
0100
0000
0010
1000
0000
0100
,  // measure 56
0010
0000
0001
0100
0000
0100
0001
0000
1000
0100
1000
0000
0001
0100
0000
0010
,  // measure 57
1000
0000
0100
1000
0000
1000
0100
0000
0010
0001
1000
0000
0001
0100
0000
0001
,  // measure 58
1000
0000
0001
0010
0000
0010
0001
0000
1000
0010
0100
0000
0010
1000
0000
0001
,  // measure 59
0010
0000
0100
1000
0000
1000
0010
0000
1000
0010
0100
0000
0010
1000
0000
0100
,  // measure 60
0010
0000
0001
0100
0000
0100
0010
0000
1000
0100
0010
0000
0100
1000
0000
0001
,  // measure 61
0100
0000
0010
1000
0000
0010
1000
0000
0100
1000
0001
0000
0100
0001
0000
1000
,  // measure 62
0001
0000
0010
0001
0000
0010
0001
0000
1000
0001
0100
0000
0001
1000
0000
0100
,  // measure 63
1000
0000
0010
0100
0000
0001
0100
0000
0010
1000
0001
0000
1000
0100
0000
0010
,  // measure 64
0100
0000
1000
0001
0000
0010
0001
0000
0100
0010
1000
0000
0001
0010
0000
0100
,  // measure 65
0010
0000
0000
0000
,  // measure 66
2000
0000
0000
0002
0000
0000
3003
0000
,  // measure 67
0200
0000
0000
0020
0000
0000
0330
1010
,  // measure 68
1002
0000
0000
0020
0000
0000
0033
0200
,  // measure 69
0000
1300
0001
0200
0000
0000
0300
0000
,  // measure 70
0010
1000
0100
0000
0010
0001
0100
0000
,  // measure 71
0001
1000
0010
0000
1000
0001
0010
0000
,  // measure 72
0100
1000
0001
1000
0100
1000
0001
0100
,  // measure 73
0010
1000
0010
1000
0010
1000
0010
1000
0001
0100
0001
0100
0010
1000
0100
0010
,  // measure 74
0001
0000
1000
0100
1000
0000
0001
0000
0100
0000
0010
0000
0010
0000
1000
0100
,  // measure 75
0010
0000
0001
0010
0001
0000
1000
0000
0010
0000
0010
0000
1000
0000
0001
0000
,  // measure 76
0100
0001
0010
0001
0100
0010
1000
0200
,  // measure 77
0000
1300
0001
0020
0000
0000
0130
0000
,  // measure 78
1000
0100
1000
0000
1000
0001
1000
0000
1000
0010
1000
0000
1000
0001
1000
0000
,  // measure 79
0001
0100
0001
0000
0001
1000
0001
0000
0001
0010
0001
0000
0001
1000
0001
0000
,  // measure 80
0010
0100
0010
0000
0001
1000
0001
0000
0100
0010
0100
0000
0001
1000
0001
0000
,  // measure 81
1000
0010
1000
0010
0100
0010
0100
0010
1000
0100
0010
0001
1000
0010
0100
0001
,  // measure 82
1000
0100
0000
0100
0010
0000
0010
0001
0000
0001
0100
0000
0010
0000
1000
0000
,  // measure 83
0001
0100
0000
0100
0010
0000
0010
1000
0000
1000
0001
0000
1000
0000
0100
0000
,  // measure 84
0010
0001
0000
1000
0001
0000
0100
0001
0000
1000
0001
0000
0100
0000
0010
1000
,  // measure 85
0010
0100
0000
0001
0100
0000
0010
1000
0000
0010
0100
0000
0001
0000
1000
0100
,  // measure 86
1000
0010
1000
0001
1000
0100
1000
0001
,  // measure 87
0010
0001
1000
0001
0100
0001
1000
0001
,  // measure 88
0100
0010
0000
0010
1000
0000
0100
0010
0000
0010
0001
0000
0100
0000
0010
0000
,  // measure 89
1000
0100
0000
0100
0010
0000
0001
0100
0000
0100
0010
0000
1000
0000
0001
0000
,  // measure 90
1000
0001
1001
1000
0010
0100
0110
0100
,  // measure 91
0001
0100
0101
0001
1000
0100
1100
1000
,  // measure 92
0010
0100
0000
0001
0100
0000
0010
0100
0000
0001
0100
0000
0010
0000
1000
0000
,  // measure 93
0100
1000
0000
0100
0010
0000
0100
1000
0000
0100
0010
0000
0100
0000
1000
0000
,  // measure 94
0001
1000
1010
1000
0001
0100
0101
0001
,  // measure 95
1000
0100
1100
1000
0010
0100
0101
0001
,  // measure 96
1000
0100
0000
0100
0010
0000
0010
0001
0000
0001
0100
0000
0010
0000
1000
0000
,  // measure 97
0001
1000
0000
0100
1000
0000
0001
0100
0010
1000
0001
0000
1001
0000
0010
0000
,  // measure 98
0100
0000
1000
0001
1000
0000
0100
0000
0010
0001
1000
0000
0010
1000
0001
0000
,  // measure 99
0101
0100
0110
0010
1010
1000
1001
0001
,  // measure 100
0010
0000
0001
1000
0001
0000
0010
0000
0100
1000
0001
0000
0100
0001
1000
0000
,  // measure 101
1100
0000
0100
0000
0110
0000
0010
0000
0001
1000
0010
0100
0002
0000
0000
0000
,  // measure 102
1003
0000
0010
0100
0001
0000
0100
0000
0010
1000
0100
0000
0100
1000
0010
0000
,  // measure 103
1010
1000
0101
0001
1100
1000
0011
0001
,  // measure 104
1000
0000
0001
0100
0010
0000
0100
0000
0001
0010
0100
0000
0100
0010
0001
0000
,  // measure 105
2000
3020
0230
0302
,  // measure 106
1003
0000
0100
0010
0100
0000
1000
0000
0010
0100
0001
0000
0100
0010
1000
0000
,  // measure 107
0001
0000
0001
0010
0100
0000
0100
0000
1000
0000
1000
0010
0200
0000
0000
0000
,  // measure 108
0301
0000
0010
0100
0010
0000
0001
0000
0100
0010
1000
0000
0010
0100
0001
0000
,  // measure 109
1000
0000
1000
0100
0010
0000
0010
0000
0001
1000
0001
0100
0020
0000
0000
0000
,  // measure 110
1030
0000
0100
1000
0001
0000
0100
0000
0001
1000
0100
0000
0100
1000
0001
0000
,  // measure 111
0100
0000
0100
0010
1000
0000
1000
0000
0100
0000
0100
0010
0002
0000
0000
0000
,  // measure 112
1003
0000
0010
0100
0001
0000
1000
0000
0100
0010
0001
0000
0100
0010
1000
0000
,  // measure 113
0002
0023
0230
1300
,  // measure 114
1001
0000
0000
0000
1010
0000
0000
0110
0000
0100
0001
0000
1000
0000
0000
0000
,  // measure 115
0100
0000
0010
0001
0000
0100
0000
0100
0000
0010
1000
0000
0001
0000
0000
0000
,  // measure 116
0100
0000
0010
1000
0100
0000
0010
0000
,  // measure 117
0001
0000
1000
0100
0000
0010
0000
0100
0000
1000
0001
0100
0001
1000
0001
1000
,  // measure 118
0001
0000
0000
0000
0101
0000
0000
0110
0000
0010
1000
0000
0001
0000
0000
0000
,  // measure 119
0010
0000
0100
1000
0000
0010
0000
0010
0000
0100
0001
0000
1000
0000
0000
0000
,  // measure 120
0010
0100
0010
1000
0001
0000
0010
0000
,  // measure 121
0100
0000
0010
0000
0001
0000
1000
0000
0010
1000
0001
1000
0010
0100
0001
0100
,  // measure 122
0010
0000
1000
0000
0100
0000
0010
0001
0000
0001
0100
0000
0010
0000
0000
0000
,  // measure 123
1000
0000
0100
1000
0000
0001
0000
0100
0000
0001
1000
0000
0100
0000
0000
0000
,  // measure 124
0010
0000
0001
0100
0010
0000
1000
0000
,  // measure 125
0001
0000
1000
0100
0000
0010
0000
0100
0000
1000
0010
0100
0001
1000
0001
1000
,  // measure 126
0001
0000
0010
0000
0100
0000
1000
0010
0000
0010
0100
0000
0001
0000
0000
0000
,  // measure 127
1000
0000
0100
0010
0000
0100
0000
1000
0000
0010
0100
0000
0001
0000
0000
0000
,  // measure 128
1000
0100
0010
0100
1000
0000
0001
0000
,  // measure 129
1000
0010
0001
1000
0100
0001
1000
0000
,  // measure 130
0001
0010
0010
0001
0100
0010
0110
0000
,  // measure 131
1000
0100
0100
1000
0010
0100
0110
0000
,  // measure 132
1000
0001
0001
0010
0001
1000
1001
0000
,  // measure 133
0010
1000
1000
0100
1000
0010
0100
0001
,  // measure 134
0010
0000
0001
0100
1000
0000
0100
0010
,  // measure 135
1000
0100
0100
1000
0001
0100
0010
1000
,  // measure 136
0001
0000
0001
1000
0001
0000
0001
1000
,  // measure 137
0100
0010
0001
1000
0010
0100
0110
0000
,  // measure 138
1000
0000
0000
0000
0001
0010
0001
0000
1000
0000
0001
0100
0010
0000
1000
0000
,  // measure 139
0001
0000
0000
0000
1000
0100
1000
0000
0001
0000
1000
0100
0010
0000
0001
0000
,  // measure 140
1000
0000
0000
0000
0010
0100
0010
0000
1000
0000
0001
0010
0100
0000
1000
0000
,  // measure 141
1001
0000
0000
0000
0001
0000
1000
0100
1000
0000
0001
0000
1000
0010
1000
0010
,  // measure 142
0100
0000
0001
0000
1000
0000
0001
0010
0001
0000
1000
0000
0001
0010
0001
0010
,  // measure 143
0100
0000
1000
0000
0001
0000
0100
0010
1000
0000
0001
0000
1000
0100
0010
0001
,  // measure 144
1000
0001
1001
0000
1000
0000
1000
0000
,  // measure 145
0001
0000
0010
0001
0000
1000
0000
0000
0001
0000
1000
0000
0100
0000
1000
0000
,  // measure 146
0001
0000
0001
0010
0001
0000
0001
0000
,  // measure 147
1000
0000
0010
1000
0000
0001
0000
0000
1000
0000
0100
0000
1000
0000
0010
0000
,  // measure 148
1000
0000
0000
0000
0001
0000
0010
0000
0001
0000
0001
0000
0001
0000
0000
1000
,  // measure 149
0000
0001
0000
1000
0000
0000
0000
0000
1000
0000
0100
0000
1000
0000
0010
0100
,  // measure 150
0000
0000
0010
0000
0100
0000
0010
0000
1000
0000
1000
0000
1000
0000
0000
0001
,  // measure 151
0000
1000
0000
0001
0000
0000
0000
0000
0001
0000
0100
0000
0001
0000
0010
0100
,  // measure 152
0000
1000
1001
0000
2000
0000
3010
0010
,  // measure 153
0002
0000
0013
0010
2000
0000
3100
0000
,  // measure 154
0002
0000
0103
0000
1000
0100
0010
0000
,  // measure 155
1000
0000
0100
0000
0010
0000
0000
0000
0001
0000
0100
0010
0100
0001
0000
1000
,  // measure 156
0000
0001
0001
0000
1000
0100
1000
0010
,  // measure 157
0100
0001
0001
0000
0100
0001
0001
0000
,  // measure 158
0100
0001
1000
0000
0001
0100
0001
0010
,  // measure 159
0100
1000
1000
0000
0100
1000
0001
0100
,  // measure 160
0010
0000
0100
0000
0001
1000
0100
1001
,  // measure 161
0100
0001
0010
0000
0100
0001
0010
0000
,  // measure 162
0010
0001
0100
0000
1000
0100
1000
0001
,  // measure 163
1000
0010
1000
0000
0100
1000
0001
0010
,  // measure 164
0100
0000
0010
0000
0011
0022
0000
0030
,  // measure 165
0003
0000
0000
0000
1010
2020
0000
0030
,  // measure 166
3000
0000
0200
0000
,  // measure 167
0000
0000
0000
0000
0300
0000
0000
0000
0010
0001
0010
0001
1000
0010
0000
0100
,  // measure 168
0000
0100
0000
0010
1000
0000
0001
0010
0100
0000
1000
0100
1000
0000
0100
0010
,  // measure 169
0001
0000
0100
0010
1000
0000
0001
0000
1000
0000
0010
0100
0001
0000
0100
0001
,  // measure 170
0100
0000
0010
1000
0001
0000
1000
0000
0001
0000
1000
0100
1000
0000
0001
0100
,  // measure 171
0001
0000
1000
0100
0010
0000
0001
0000
1000
0010
0000
0110
0000
0101
0000
1001
,  // measure 172
0000
1000
0100
0010
0001
0000
0000
0000
1000
0000
0010
0100
0001
0100
0000
0010
,  // measure 173
0000
0010
1000
0000
0001
0000
1000
0000
0100
0000
0010
0001
0010
0100
0000
1000
,  // measure 174
0000
1000
0001
0000
0100
0000
0010
0000
1000
0000
0100
1000
0001
0100
0000
0010
,  // measure 175
0000
0100
0001
0000
1000
0000
0100
0000
0110
0000
0010
0001
0011
0000
0001
1000
,  // measure 176
1001
0000
1000
1010
0000
0010
0100
0000
0001
0000
0100
0010
1000
0010
0000
0100
,  // measure 177
0000
0100
0001
0000
1000
0000
0001
0000
0010
0000
0100
1000
0100
0010
0000
0001
,  // measure 178
0000
0001
1000
0000
0010
0000
0100
0000
0001
0000
0010
0001
1000
0010
0000
0100
,  // measure 179
0000
0010
1000
0000
0001
0000
0010
0000
0110
0000
0100
1000
1100
0000
1000
0001
,  // measure 180
1001
0000
0001
0101
0000
0100
0010
0000
2000
0000
0100
0000
0100
0000
0100
3010
,  // measure 181
0001
0000
1000
0001
0100
0000
0001
0000
0020
0000
0000
0032
0000
0000
2003
0000
,  // measure 182
3010
0000
0000
1000
0001
0010
0100
0000
0000
0000
0000
0000
1000
0000
0000
1010
0000
0000
1000
0000
0000
1001
0000
0000
,  // measure 183
1000
0000
0100
0010
0000
0001
0000
0200
0000
0000
0010
0000
0010
0000
0310
0000
,  // measure 184
1000
0001
0010
0001
1000
0001
0100
0001
1000
0100
0010
0000
0100
0000
1000
0000
,  // measure 185
0010
0100
0000
0110
0000
0100
0010
1000
0001
0010
0100
0000
0010
0000
0001
0000
,  // measure 186
0100
0010
0000
0110
0000
0010
1000
0001
0010
0100
1000
0000
0100
0000
0010
0000
,  // measure 187
0100
1000
0000
1001
0000
1000
0010
0100
0001
0010
0001
0000
1000
0010
1000
0000
,  // measure 188
0001
0010
0100
1000
0010
0100
0001
1000
0010
1000
0001
0000
1000
0000
0100
0000
,  // measure 189
1000
0010
0000
1010
0000
0010
0100
0001
1000
0001
0010
0000
0001
0000
0100
0000
,  // measure 190
0001
0010
0000
0011
0000
0010
0100
1000
0001
0100
0010
0000
0100
0000
0001
0000
,  // measure 191
1000
0100
0000
0110
0000
0100
1000
0001
0100
0010
1000
0000
0100
0010
0001
0000
,  // measure 192
1000
0010
0100
0001
1000
0100
0010
0001
1000
0000
0000
0000
0010
0100
0000
0101
,  // measure 193
0000
1001
0000
2200
0000
0000
3300
0000
0010
0001
0000
0100
0000
0010
0000
1010
,  // measure 194
0000
0110
0000
0202
0000
0000
0303
0000
1000
0000
0100
0000
0100
1000
0000
0001
,  // measure 195
0000
0100
0000
0010
0000
0000
1000
0000
0100
0000
0010
0001
1000
0000
0010
1000
,  // measure 196
0001
0000
1000
0100
0010
0001
1000
0010
1000
0000
0000
0000
1000
0010
0000
1010
,  // measure 197
0000
1001
0000
0022
0000
0000
0033
0000
0100
1000
0000
0010
0000
0100
0000
0101
,  // measure 198
0000
0110
0000
2020
0000
0000
3030
0000
0001
0000
0010
0000
0010
0001
0000
1000
,  // measure 199
0000
0010
0000
0100
0000
0000
0001
0000
0010
0000
0100
1000
0001
0000
0100
0001
,  // measure 200
1000
0000
0001
0010
0100
1000
0001
0100
0010
0000
0000
0000
0000
0000
0000
0000
,  // measure 201
0000
0000
2000
3002
0013
0100
2100
0000
,  // measure 202
3010
0000
0000
0000
0100
0000
0010
0000
0000
0000
0000
0000
1000
0000
0000
0001
0000
0000
1000
0000
0000
0001
0000
0000
2000
0000
0000
0000
0000
0000
3100
0000
0000
0000
0000
0000
0010
0000
0000
0000
0000
0000
0002
0000
0000
0003
0000
0000
,  // measure 203
0000
0000
0000
0100
0000
0000
0010
0000
0000
1000
0000
0000
0001
0000
0000
1000
0000
0000
0001
0000
0010
0100
0000
0000
,  // measure 204
1000
0000
0000
0001
0000
0000
1000
0000
0001
0100
0000
0000
1000
0000
0000
0100
0000
0000
1000
0000
0010
0100
0000
0000
,  // measure 205
0001
0000
0000
1000
0000
0000
0001
0000
0010
0100
0000
0000
1000
0000
0000
0001
0000
0000
0201
0000
0000
0000
0000
0000
,  // measure 206
1300
0000
0000
0000
0001
0000
1000
0000
0000
0000
0000
0000
0100
0000
0000
0010
0000
0000
0100
0000
0000
0010
0000
0000
0200
0000
0000
0000
0000
0000
1300
0000
0000
0000
0000
0000
0010
0000
0000
0000
0000
0000
0200
0000
0000
0300
0000
0000
,  // measure 207
0000
0000
0000
0001
0000
0000
1000
0000
0000
0100
0000
0000
0010
0000
0000
0100
0000
0000
0010
0000
0001
1000
0000
0000
,  // measure 208
0010
0000
0000
0100
0000
0000
0010
0000
1000
0001
0000
0000
0101
0000
0000
1000
0000
0000
1100
0000
0000
0001
0000
0000
,  // measure 209
0010
0000
0001
1000
0000
0010
0100
0000
0001
0010
0000
0000
0100
0000
0000
0010
0000
0000
0012
0000
0000
0000
0000
0000
,  // measure 210
0103
0000
0000
0000
0010
0000
0100
0000
0000
0000
0000
0000
0001
0000
0000
1000
0000
0000
0001
0000
0000
1000
0000
0000
0002
0000
0000
0000
0000
0000
0013
0000
0000
0000
0000
0000
0100
0000
0000
0000
0000
0000
2000
0000
0000
0000
0000
0000
,  // measure 211
3000
0000
0000
0010
0000
0000
0100
0000
0000
0001
0000
0000
1000
0000
0000
0001
0000
0000
1000
0000
0100
0010
0000
0000
,  // measure 212
0001
0000
0000
1000
0000
0000
0001
0000
1000
0010
0000
0000
1000
0000
0000
0010
0000
0000
1000
0000
0100
0010
0000
0000
,  // measure 213
0001
0000
0000
1000
0000
0000
0100
0000
0010
0001
0000
0000
1000
0000
0000
0010
0000
0000
1020
0000
0000
0000
0000
0000
,  // measure 214
1030
0000
0000
0000
0001
0000
1000
0000
0000
0000
0000
0000
0010
0000
0000
0100
0000
0000
0010
0000
0000
0100
0000
0000
0020
0000
0000
0000
0000
0000
1030
0000
0000
0000
0000
0000
0100
0000
0000
0000
0000
0000
0020
0000
0000
0030
0000
0000
,  // measure 215
0000
1000
0001
0010
0200
2300
3002
0203
,  // measure 216
0320
0000
0000
2030
0000
0000
3002
0000
0000
0023
0000
0000
0130
0000
1000
0100
0000
1000
0100
0000
0010
0001
0000
0010
,  // measure 217
0100
0000
1000
0100
0000
0010
0001
0000
1000
0010
0000
0000
0200
0000
0000
0000
0000
0000
0300
0000
0000
0000
0000
0000
,  // measure 218
1010
0101
2100
0000
,  // measure 219
0000
0000
3020
0000
,  // measure 220
0000
0000
0200
0000
,  // measure 221
0330
0000
0000
0000
1000
0001
0010
0001
,  // measure 222
1000
0010
1000
0000
0100
0100
0000
0000
,  // measure 223
0010
0001
1000
0000
0001
0100
0001
1000
,  // measure 224
0100
1000
0001
0000
0010
0010
0000
0000
,  // measure 225
0100
1000
0001
0000
0100
0010
1000
0010
,  // measure 226
0100
0001
0100
0000
0010
1000
0000
0000
,  // measure 227
0001
0010
0001
0000
1000
0100
0010
0001
,  // measure 228
0100
0010
1000
0001
0010
0010
0100
1000
,  // measure 229
0001
0000
0000
0000
0100
0010
0000
0000
2010
0000
0000
0000
3100
0000
0010
0000
,  // measure 230
0001
0000
0000
0000
0100
0010
0000
0000
2010
0000
0000
0000
3001
0000
0010
0000
,  // measure 231
0001
1000
0001
1000
0002
0000
0103
0000
,  // measure 232
1000
0000
0100
0010
0001
1000
0010
0100
,  // measure 233
0001
0000
0000
0000
1000
0100
0000
0000
2100
0000
0000
0000
3010
0000
0100
0000
,  // measure 234
0001
0000
0000
0000
1000
0100
0000
0000
2100
0000
0000
0000
3010
0000
0100
0000
,  // measure 235
0001
0000
0000
0000
1000
0100
0000
0000
2100
0000
0000
0000
3010
0000
0100
0000
,  // measure 236
0010
0000
0000
0000
1000
0001
0000
0000
2002
0000
0000
0000
3003
0000
0000
0000
,  // measure 237
2000
0000
0000
0000
0000
0000
0000
0000
3002
0000
0000
0000
0000
0000
0013
0200
,  // measure 238
0000
0000
0000
0000
0000
0000
0000
0000
0310
0000
0001
1000
0002
0000
0000
0000
,  // measure 239
0103
0000
0010
2000
0000
0000
0000
0000
3002
0000
0000
0000
0000
0000
0013
0200
,  // measure 240
0000
0000
0000
0000
0000
0000
0000
0000
1300
0000
0001
1000
0002
0000
0000
0000
,  // measure 241
0103
0000
0010
0200
0000
0000
0000
0000
0320
0000
0000
0000
0000
0000
1030
0200
,  // measure 242
0000
0000
0000
0000
0000
0000
0000
0000
0310
0000
0001
1000
0002
0000
0000
0000
,  // measure 243
0103
0000
0010
2000
0000
0000
0000
0000
3200
0000
0000
0000
1300
0000
0010
0000
,  // measure 244
0100
0001
0200
0000
0010
0000
0301
0000
,  // measure 245
0100
0000
0010
0100
0010
0000
0000
0000
2000
0000
0000
0000
3100
0000
0010
0000
,  // measure 246
0001
1000
0010
1000
0002
0000
0013
0000
,  // measure 247
0001
0000
1000
0001
1000
0000
0000
0000
0200
0000
0000
0000
1300
0000
0010
0000
,  // measure 248
0100
0001
0020
0000
0100
0000
0031
0000
,  // measure 249
1000
0000
0010
1000
0010
0000
0000
0000
0200
0000
0000
0000
0301
0000
1000
0000
,  // measure 250
0100
0010
0002
0013
,  // measure 251
0100
0000
1000
0001
0000
0000
0000
0000
0020
0000
0000
0000
0031
0000
0010
0000
,  // measure 252
0100
1000
0001
0000
0010
0001
1000
0000
,  // measure 253
0001
0000
1000
0000
0001
0100
0001
0010
,  // measure 254
0100
1000
0010
1000
0100
0010
0001
1000
,  // measure 255
0010
0100
0010
1000
0001
1000
0100
1000
,  // measure 256
0010
0100
0001
1000
0001
0010
0001
1000
,  // measure 257
0100
0000
0010
0000
0001
0100
0010
1000
,  // measure 258
0010
0100
0001
0010
0100
0001
0100
0010
,  // measure 259
0001
1000
0001
0010
0100
0010
1000
0010
,  // measure 260
0001
0000
1000
0000
0100
0000
0010
0000
0001
0000
1000
0000
0000
1000
0000
0000
,  // measure 261
1000
0000
0000
0001
0000
0100
0001
0000
0100
0001
0000
0000
1000
0000
0000
0100
0000
0000
0010
0000
0000
0001
0000
0000
,  // measure 262
1000
0010
0100
0001
1000
0001
1000
0001
,  // measure 263
0010
0001
1000
1000
0001
0100
0010
1000
,  // measure 264
0001
0010
0100
1000
0010
0100
0010
1000
,  // measure 265
0010
0000
0100
0001
1000
0100
0010
0100
,  // measure 266
1000
0010
0100
0010
1000
0100
0010
0001
,  // measure 267
0100
0001
0010
0100
1000
0000
0100
0010
,  // measure 268
0001
0000
1000
0010
0101
0000
0011
0000
,  // measure 269
1001
0000
0000
1000
0001
0000
1000
0000
0001
0010
0001
0010
0001
1000
0001
1000
,  // measure 270
0001
0100
0001
0100
0001
1000
0000
0020
1000
0000
0000
0000
1030
0000
0100
0010
,  // measure 271
0001
0010
0100
1000
0010
0100
0020
0000
1030
0100
0010
0001
0010
0100
1000
0001
,  // measure 272
0000
0100
0000
0001
1000
0100
0010
0001
1000
0100
1000
0001
0100
0001
1000
0010
,  // measure 273
0100
0010
1000
0010
0100
0001
0100
0010
1000
0001
1000
0001
1000
0100
1000
0100
,  // measure 274
1000
0010
1000
0010
0100
0001
0000
2000
0100
0000
0000
0000
3100
0000
0010
0001
,  // measure 275
0100
0010
1000
0001
0010
0001
0000
1000
0000
0010
0100
0001
1000
0100
0010
0001
,  // measure 276
0010
0100
0010
0100
1000
0001
1000
0001
0100
0010
1000
0001
0010
0001
0100
0010
,  // measure 277
1000
0100
0010
0001
1000
0010
0100
0001
1000
0000
0100
0000
0010
0000
0010
0000
,  // measure 278
0001
0100
0010
1000
0001
0010
0001
1000
,  // measure 279
0001
0000
0100
0000
0001
0000
1000
0000
1100
0000
0000
0000
1001
0000
0000
0100
,  // measure 280
0000
0000
0010
1000
0010
1000
0010
0100
0001
0000
1000
0000
0100
0010
0100
0010
,  // measure 281
0001
1000
0010
1000
0001
0010
0001
0000
1000
0000
0010
0000
0100
0000
0100
0000
,  // measure 282
0001
0010
0100
1000
0001
0100
0010
1000
,  // measure 283
0010
0100
0001
0010
0001
0001
1000
1000
,  // measure 284
0010
0000
1000
0000
0001
0000
1000
0000
0010
1000
0010
1000
0001
1000
0010
1000
,  // measure 285
0001
0010
0100
1000
0010
0100
0001
1000
0020
0000
0000
0000
1000
0000
0000
0000
,  // measure 286
0100
2030
3200
1000
,  // measure 287
0010
2300
3020
0100
,  // measure 288
1030
0000
0100
0000
0000
0010
0000
0000
0001
0200
0000
0000
0001
0000
0000
0000
,  // measure 289
0310
0000
1000
0001
1000
0010
0100
0000
0001
0000
0010
0000
0002
0000
0000
0000
,  // measure 290
0103
0010
1000
0001
2000
0000
0100
0000
,  // measure 291
0010
0000
3002
0000
0013
0100
2000
0000
,  // measure 292
3010
0000
0001
0001
0010
0001
0100
0010
,  // measure 293
1000
0000
0100
0010
0001
0100
0010
0000
1000
0000
0001
0000
0010
0000
0001
0000
,  // measure 294
1000
0000
0001
0000
1000
0001
1000
0001
1000
0000
0100
0000
1000
0000
0001
0000
,  // measure 295
1000
0010
0100
0001
2000
0000
0100
0000
,  // measure 296
3010
0000
0100
0000
0000
0001
1000
0100
0020
0000
0000
0000
0001
0000
0000
0000
,  // measure 297
0100
0000
0031
0100
0010
1000
0020
0000
,  // measure 298
0130
0000
0001
0000
1000
0100
0010
0001
0100
0000
0101
0000
0000
0110
0000
0000
,  // measure 299
1010
0000
0000
1001
0000
0000
1100
0000
0220
0000
0000
0000
0000
0000
0000
0000
,  // measure 300
0000
0000
0000
0000
,  // measure 301
0000
0000
0330
2000
0002
0000
0000
0000
,  // measure 302
0000
0000
0000
0000
3003
0000
0000
0000
1000
0100
0000
0010
0100
0000
0001
0100
,  // measure 303
0000
0010
0100
0000
1000
0001
0100
0010
1000
0000
0000
0100
0010
0000
0001
0000
,  // measure 304
0100
0000
0000
0010
1000
0000
0001
0000
1000
0000
0000
0001
0100
0000
0001
0000
,  // measure 305
1000
0000
0100
0010
0001
0000
1000
0000
0010
0000
1000
0001
1000
0000
0001
0000
,  // measure 306
0010
0000
0001
1000
0001
0000
0100
0000
0010
0000
1000
0100
0010
0000
0001
0000
,  // measure 307
0100
0000
0010
1000
0001
1000
0100
0000
1000
0000
0000
0010
1000
0000
0100
0000
,  // measure 308
1000
0000
0000
0010
0100
0000
0001
0000
0010
0000
0000
0001
0100
0000
0001
0000
,  // measure 309
1000
0000
0000
0001
0010
0000
0100
0000
1000
0000
0001
0100
0010
0000
1000
0010
,  // measure 310
0100
0001
1000
0100
0010
0001
0010
0100
1000
0000
1100
0000
1001
0000
0000
0001
,  // measure 311
0100
0000
0010
1000
0000
0001
0010
0000
0100
0000
1000
0100
1000
0000
0010
1000
,  // measure 312
0010
0000
0100
0001
0100
0000
0001
0000
0010
0000
0001
0100
0001
0000
0010
0001
,  // measure 313
0010
0000
0100
1000
0100
0000
0010
0000
0100
0000
1000
0001
1000
0000
0010
0100
,  // measure 314
0001
0000
1000
0100
0000
0010
0100
0000
1000
0000
0001
0010
0001
0100
0010
1000
,  // measure 315
0100
0000
0000
1100
0000
0000
1001
0000
0000
0000
0101
0000
0110
0000
1000
0001
,  // measure 316
0010
0000
0001
0100
0000
0010
1000
0000
0001
0000
1000
0000
0100
0000
1000
0010
,  // measure 317
0100
0000
0010
1000
0000
0001
0100
0000
0001
0000
0010
0100
0010
0000
0100
1000
,  // measure 318
0001
0100
0001
0100
0010
1000
0001
1000
0020
0000
0000
0000
0230
0000
0000
0000
,  // measure 319
0301
0000
0000
0000
0000
0000
1000
0000
0000
0100
0000
0000
0010
0000
0000
0001
0000
0000
1000
0000
0000
0000
0000
0000
1001
0000
0000
0000
0000
0000
0000
0000
1000
0000
0000
0000
0100
0000
0000
0000
0000
0000
0000
0000
0100
0000
0000
0000
,  // measure 320
0010
0000
0010
0001
0100
0010
0200
0000
0000
0001
0000
0000
,  // measure 321
0310
0000
0000
1001
0000
0000
1000
0000
0100
1000
0001
1000
,  // measure 322
0100
0010
0100
1000
0001
0100
0020
0000
0000
1000
0000
0000
,  // measure 323
0100
0030
0000
1000
0000
0001
0020
0000
0031
1000
0010
0100
,  // measure 324
0020
0000
1030
0001
0010
0100
2000
0000
3001
0100
0001
1000
,  // measure 325
0100
0000
0010
0001
0000
1000
0001
0000
0000
0100
0000
0010
,  // measure 326
1000
0010
0100
0010
0000
1000
0001
0100
0001
1000
0100
1000
,  // measure 327
0001
0010
0100
1000
0010
0100
0010
0000
0010
0001
1000
0001
,  // measure 328
0010
0100
0010
0001
1000
0010
0200
0000
0000
0001
0000
0000
,  // measure 329
0310
0000
0000
1001
0000
0000
1000
0000
1000
0010
0100
0001
,  // measure 330
0010
0001
0100
0010
1000
0001
2000
0000
0000
0100
0000
0000
,  // measure 331
0010
0000
0000
3001
0000
0010
0200
0000
1300
0010
0100
0001
,  // measure 332
0200
0000
0310
1000
0001
1000
0002
0000
0013
0001
0100
0010
,  // measure 333
1000
0000
0001
0100
0000
0001
1000
0000
1000
0100
0000
0100
,  // measure 334
1000
0010
0100
0001
0000
0010
0002
0000
0000
0203
0000
0000
,  // measure 335
0310
0000
0010
1000
0001
0010
0002
0000
0000
0100
0000
0000
,  // measure 336
1000
0000
0013
0001
0100
0100
0010
1000
,  // measure 337
0002
0000
1003
0010
0100
0100
0001
0010
,  // measure 338
0200
0000
1300
0010
0100
0010
1000
0001
,  // measure 339
0020
0130
2000
0010
,  // measure 340
0001
0000
3010
1000
0100
0100
1000
0010
,  // measure 341
0200
0000
0301
0010
0100
0100
0010
0001
,  // measure 342
2000
0000
3001
0010
0001
0001
0100
0010
,  // measure 343
2000
0000
0000
0000
3100
0000
0000
0000
0010
0000
0001
1000
0001
0000
0010
0000
,  // measure 344
0001
0000
0100
0010
0100
0000
0001
0000
1000
0000
0100
1000
0100
0000
1000
0000
,  // measure 345
0010
0000
0100
0001
0100
0000
0010
0000
1000
0000
0001
0010
0100
0000
0010
0000
,  // measure 346
0001
0000
0100
0010
1000
0000
0001
0000
1000
0000
0010
0100
0001
0000
0100
0000
,  // measure 347
0010
1000
0000
0001
1000
0000
0100
0000
1000
0000
1000
0000
0010
0000
0010
0000
,  // measure 348
0100
0100
0001
0001
0010
0010
0001
0001
,  // measure 349
1000
0100
1000
0001
1000
0010
0001
0010
,  // measure 350
1000
0100
0001
0100
1100
0000
1010
0000
,  // measure 351
1001
0000
0110
0000
1000
0100
0001
1000
,  // measure 352
0010
0001
1000
0100
0001
0100
1000
0010
,  // measure 353
0100
0000
0000
0000
0001
1000
0001
1000
0001
0000
0010
0000
1000
0000
0001
0000
,  // measure 354
0100
1000
0001
0100
1000
0100
0001
0000
,  // measure 355
1000
0001
1000
0001
1000
0000
0000
0000
0001
0000
0010
0000
1000
0000
0001
0000
,  // measure 356
0100
1000
0010
1000
0100
0001
1000
0100
,  // measure 357
0010
0000
0000
0000
0001
1000
0001
1000
0001
0000
0100
0000
1000
0000
0001
0000
,  // measure 358
0010
1000
0001
0010
1000
0010
0001
0000
,  // measure 359
2000
0000
0000
0000
3001
0000
0000
0000
1000
0000
0100
0000
1000
0000
0010
0100
,  // measure 360
0001
0100
0010
0000
1000
0000
0001
0000
0010
0000
0001
0000
0100
0000
0001
0000
,  // measure 361
0020
0000
0000
0000
0031
1000
0001
1000
0001
0000
0010
0000
0001
0000
0100
0010
,  // measure 362
1000
0010
0100
0000
0001
0000
1000
0000
0100
0000
1000
0000
0001
0000
0000
0000
,  // measure 363
1000
0100
0010
0100
1000
0000
0000
0000
0001
0000
0100
0000
0001
0000
1000
0010
,  // measure 364
0100
0010
1000
0000
0001
0000
0010
0000
0001
0000
0100
0000
0010
0000
1000
0000
,  // measure 365
0001
0000
0000
0000
1000
0100
0010
0001
1000
0000
0001
0000
0010
0000
0001
0100
,  // measure 366
0010
0100
0001
0000
1000
0000
0100
0000
1000
0000
0010
0000
0100
0000
0000
0000
,  // measure 367
0001
1000
0100
0010
0001
0000
0000
0000
2000
0000
0000
0000
0000
0000
0000
0000
,  // measure 368
0000
0000
3000
0000
0102
0000
1003
2100
,  // measure 369
0000
3010
0100
0220
0000
0000
0000
0000
,  // measure 370
0000
0000
0000
0000
0330
0000
0000
0000
1000
0000
0001
0010
0000
0100
0010
0000
,  // measure 371
0001
0000
0100
0010
0000
1000
0010
0100
0001
0000
1000
0100
0000
0010
0100
0000
,  // measure 372
1000
0000
0010
0100
0000
0001
0100
0000
0010
0000
0010
0000
1000
0000
0001
0000
,  // measure 373
1000
0000
0100
0010
0001
0010
0100
0000
1000
0000
0010
1000
0000
0001
1000
0100
,  // measure 374
0010
0000
0100
1000
0000
0001
0100
0010
1000
0000
0001
0010
0001
0000
1000
0000
,  // measure 375
0010
0000
0100
0001
1000
0000
0100
0000
1000
0000
1000
0000
0001
0000
0100
0010
,  // measure 376
1000
0001
0010
0001
0100
0010
1000
0001
0010
0000
0000
0000
0000
0000
1100
0000
,  // measure 377
0000
0001
0100
0220
0000
0000
0000
0000
,  // measure 378
0000
0000
0000
0000
0330
0000
0000
0000
0001
0000
1000
0100
0000
0010
0100
0000
,  // measure 379
1000
0000
0010
0100
0000
0001
0100
0010
1000
0000
0001
0010
0000
0100
0010
0000
,  // measure 380
0001
0000
0100
0010
0000
1000
0010
0000
0100
0001
0100
0001
1000
0100
1000
0100
,  // measure 381
0010
0001
0010
0001
1000
0010
1000
0010
0100
0001
1000
0001
0100
0010
1000
0001
,  // measure 382
0010
0001
0100
0010
1000
0100
0010
0001
1000
0010
1000
0001
1000
0100
1000
0001
,  // measure 383
1000
0010
0100
0001
0010
0001
2002
0000
0000
0000
0000
0000
3003
0000
0000
0000
,  // measure 384
1000
0000
0010
0100
0010
0100
0010
0000
1000
0000
0000
0000
0100
0000
0000
1000
,  // measure 385
0000
0000
0010
0000
0100
0001
0100
0000
0000
0010
0000
0000
1000
0000
0001
0000
,  // measure 386
0010
0100
0000
0000
0010
0000
0010
0000
0001
0000
1000
0100
0000
0100
1000
0000
,  // measure 387
0010
0100
0001
0100
0010
1000
0001
0000
0000
0010
0000
0000
0100
0000
1000
0000
,  // measure 388
0001
0100
0000
0000
0010
1000
0010
1000
0010
0000
0000
0100
0001
0000
0000
0000
,  // measure 389
0100
0000
0000
0001
0000
0000
1000
0000
0000
0100
0000
0000
1000
0000
0010
0000
,  // measure 390
0100
0001
0100
0001
1000
0100
0010
0001
1000
0000
0010
0100
0000
0010
1000
0000
,  // measure 391
0100
0000
0100
0000
0010
0001
0000
1000
0000
0001
0010
0000
0100
0000
1000
0000
,  // measure 392
0010
0000
0100
0000
0010
0000
0000
0000
1000
0000
0000
0000
0100
0000
0000
0010
,  // measure 393
0000
0100
0010
0000
0001
1000
0010
0000
0000
1000
0000
0000
0100
0000
1000
0000
,  // measure 394
0001
0100
0001
1000
0100
0010
0001
0000
1001
0000
0000
0001
0000
0000
0010
0000
,  // measure 395
0110
0000
0000
1100
0000
0000
2001
0000
0000
0000
0000
0000
0100
0000
0000
0000
,  // measure 396
0010
0000
3100
0000
0001
0100
0010
0100
,  // measure 397
0101
0000
0000
1001
0000
0000
1100
0000
1000
0000
0100
0000
0010
0000
0100
0000
,  // measure 398
1100
0000
0000
1001
0000
0000
0101
0000
0001
0000
0010
0000
0001
0000
0100
0000
,  // measure 399
0010
0000
1000
0000
0001
1000
0000
0100
0020
0000
0000
0000
0000
0000
0000
0000
,  // measure 400
0000
0000
0030
0000
0011
0000
0000
1001
,  // measure 401
0000
0000
1010
0000
0010
0100
0001
0001
,  // measure 402
1000
0100
0010
0000
0011
0000
0000
1001
,  // measure 403
0000
0000
1100
0000
0001
0100
0010
0000
,  // measure 404
0100
0001
0000
1000
1100
0000
0000
1001
,  // measure 405
0000
0000
0011
0000
0010
0001
1000
1000
,  // measure 406
0010
1000
0001
0000
0101
0000
0000
1001
,  // measure 407
0000
0000
1100
0000
0001
0100
0010
0010
,  // measure 408
1000
0001
1000
0010
0001
0010
0100
0010
,  // measure 409
1000
0010
0100
0000
0001
0000
1001
0000
,  // measure 410
0000
0000
1100
0000
1000
0001
0100
0001
,  // measure 411
1000
0100
0010
0000
0001
0000
0011
0000
,  // measure 412
0000
0110
0000
0000
0001
0010
0100
0010
,  // measure 413
0001
1000
0100
0000
1000
0000
1001
0000
,  // measure 414
0000
0000
0101
0000
0100
0010
1000
0001
,  // measure 415
1000
0000
0010
0000
0100
0000
0000
0000
0001
0010
0001
0010
0001
1000
0001
1000
,  // measure 416
0001
0100
0001
0100
0001
1000
0010
0100
0001
0100
0001
0000
1000
0100
0000
0010
,  // measure 417
0100
0000
1000
0001
0100
0010
0100
0000
0001
1000
0001
0000
0100
0010
0000
1000
,  // measure 418
0010
0000
0100
0001
1000
0000
0100
0000
1000
0010
1000
0001
1000
0100
0010
0100
,  // measure 419
1000
0001
0010
0100
1000
0001
0100
0001
1000
0100
0010
0000
0001
0100
0010
0000
,  // measure 420
1000
0010
0100
0001
0100
0010
1000
0000
0001
0010
0001
0000
1000
0100
0000
0010
,  // measure 421
0100
0000
1000
0100
0010
0100
1000
0000
0001
0100
0001
0000
1000
0100
1000
0000
,  // measure 422
0001
0100
0010
0100
0001
1000
0100
0000
0010
0001
0010
0000
0100
1000
0000
0100
,  // measure 423
0010
0000
0100
1000
0000
0001
0100
0000
0010
1000
0010
0000
0100
0001
0100
0000
,  // measure 424
0010
1000
0001
1000
0010
0100
0001
0000
1000
0100
1000
0000
0010
0100
0001
0100
,  // measure 425
0010
0100
0001
0000
1000
0100
0010
0000
0100
1000
0001
1000
0000
0001
0100
0000
,  // measure 426
0001
0100
0010
0100
0000
0001
1000
0000
0100
0010
0001
0000
0100
0010
1000
0010
,  // measure 427
0100
0010
1000
0000
0010
1000
0001
1000
0100
0010
0001
0000
0010
0100
0000
1000
,  // measure 428
0100
0010
0001
0000
0100
0010
1000
0000
0001
1000
0001
0000
0100
0001
0000
1000
,  // measure 429
0100
0010
0100
0000
1000
0001
0100
0010
1000
0100
1000
0100
0010
0001
0010
0001
,  // measure 430
0100
0001
0100
0001
1000
0010
1000
0010
0100
0001
1000
0000
0100
1000
0000
0001
,  // measure 431
0100
0010
0100
0000
0001
1000
0100
0000
0010
0001
0010
0000
0100
1000
0100
1000
,  // measure 432
0100
0010
0100
0000
1000
0001
1000
0000
2002
0000
0000
0000
0000
0000
3003
0000
,  // measure 433
1200
0000
0310
0001
0200
0000
0301
1000
,  // measure 434
0020
0000
1030
0001
0020
0000
0130
1000
,  // measure 435
0010
1000
0010
0100
0010
1000
0001
1000
,  // measure 436
0010
0100
0101
0000
0010
0100
1100
0000
,  // measure 437
2000
0000
3001
0100
0020
0000
0130
0001
,  // measure 438
2000
0000
3100
0010
0200
0000
1300
0010
,  // measure 439
0100
0001
1000
0001
0100
0010
1000
0100
,  // measure 440
0010
0010
1001
1001
1000
0001
2000
0000
,  // measure 441
3010
0100
0020
0000
1030
0001
0200
0000
,  // measure 442
0301
1000
0020
0000
1030
0100
0010
0100
,  // measure 443
1000
0001
0010
0001
1000
0010
0100
0001
,  // measure 444
0101
0000
1000
0100
0010
0010
0020
0000
,  // measure 445
0031
0002
1003
0020
,  // measure 446
0130
0002
0013
2000
,  // measure 447
3001
0200
0310
2000
,  // measure 448
3100
0010
0002
0000
0103
0000
1010
0000
,  // measure 449
0110
1010
0110
0101
,  // measure 450
1100
0101
1100
0011
,  // measure 451
1100
0000
1010
0000
0101
0000
0110
0110
,  // measure 452
0000
0000
0000
0000
1001
0000
1001
0000
0001
0010
0100
1000
0001
0000
0100
0000
,  // measure 453
0020
1000
1000
1030
0100
0010
0002
1000
,  // measure 454
1000
0000
1003
0000
0001
0000
0100
0001
1000
0000
0100
0000
0010
0000
0100
0000
,  // measure 455
2000
0010
0010
3010
0100
0001
2000
0001
,  // measure 456
0001
0000
0001
0000
3001
0000
0010
0100
1000
0000
0010
0000
0110
0000
0100
0000
,  // measure 457
0110
0010
1000
0100
1000
0001
0200
0010
,  // measure 458
0010
0000
0310
0000
1000
0000
0100
0010
0001
0000
1000
0000
0010
0000
1000
0000
,  // measure 459
0100
0000
0010
0000
0001
0000
0010
0100
1000
0000
0001
0000
0100
0000
0001
0000
,  // measure 460
1000
0000
0001
0000
0100
0000
0010
1000
0010
0000
0100
0000
0110
0000
0000
0000
,  // measure 461
1000
0100
0001
0100
1000
0001
1000
0010
,  // measure 462
0001
0000
0010
0000
1000
0000
0100
0010
0100
0000
1000
0000
0001
0000
0100
0000
,  // measure 463
0020
1000
1000
1030
0100
1000
0002
0010
,  // measure 464
0010
0000
0013
0000
0100
0000
1000
0001
0100
0000
0010
0000
1010
0000
1000
0000
,  // measure 465
1010
0010
0100
0001
0010
0001
0200
0010
,  // measure 466
0010
0000
0310
0000
1000
0000
0001
0010
0100
0000
0010
0000
0001
0100
0001
0000
,  // measure 467
1000
0010
1000
0000
0001
0100
0010
1000
0010
0100
0001
1000
0100
0000
0100
0000
,  // measure 468
1000
1000
0010
0100
0110
0100
0102
0000
,  // measure 469
1003
2100
0000
3010
0110
0000
0102
0000
,  // measure 470
0013
0021
0000
0130
1000
0001
0201
0000
,  // measure 471
0310
2010
0000
3100
1100
0000
0012
0000
,  // measure 472
1000
0000
0100
0103
0010
1000
2001
0000
,  // measure 473
3100
1200
0000
0310
0011
0000
0201
0000
,  // measure 474
0310
2010
0000
3100
1100
0000
0210
0000
,  // measure 475
1300
1020
0000
0130
0101
0000
1002
0000
,  // measure 476
0013
0021
0000
0130
1000
0001
0100
0001
,  // measure 477
0100
0010
1000
0010
0100
0001
1000
0100
,  // measure 478
1000
0000
0001
0000
0010
0000
0001
0000
1000
0001
1000
0001
1000
0000
0010
0000
,  // measure 479
1000
0001
0100
0001
1000
0100
0010
0001
,  // measure 480
0010
0000
0100
0000
1000
0000
0100
0000
0010
0100
0010
0100
0010
0000
0001
0000
,  // measure 481
0100
0010
1000
0100
0010
0010
0100
1000
,  // measure 482
0010
0100
0001
0010
0100
0100
0010
0001
,  // measure 483
0010
0100
1000
0100
0010
0001
1000
0010
,  // measure 484
0100
0000
0001
0000
1000
0000
0001
0000
1000
0001
1000
0001
0020
0000
0000
0000
,  // measure 485
0000
0000
0000
0030
;
