#TITLE:Best of Z-I-v Battle Royale 2020;
#SUBTITLE:~Rising Tension~;
#ARTIST:Various Artists;
#TITLETRANSLIT:;
#SUBTITLETRANSLIT:;
#ARTISTTRANSLIT:;
#GENRE:;
#CREDIT:;
#BANNER:Best_of_BR_~Rising_Tension~.png;
#BACKGROUND:Best_of_BR_~Rising_Tension~-bg.png;
#LYRICSPATH:;
#CDTITLE:;
#MUSIC:Best_of_BR_~Rising_Tension~.ogg;
#OFFSET:-0.080000;
#SAMPLESTART:26.403000;
#SAMPLELENGTH:12.000000;
#SELECTABLE:YES;
#DISPLAYBPM:64.000000:200.000000;
#BPMS:0.000000=155.000000
,196.000000=128.000000
,221.000000=256.000000
,222.000000=128.000000
,223.000000=256.000000
,224.000000=128.000000
,225.000000=256.000000
,226.000000=128.000000
,227.000000=256.000000
,228.000000=128.000000
,244.000000=64.000000
,250.000000=113.000000
,318.000000=120.000000
,381.000000=130.000000
,446.000000=155.000000
,554.000000=168.000000
,654.000000=173.000000
,758.000000=177.000000
,822.000000=90.000000
,824.000000=180.000000
,884.000000=190.000000
,964.000000=195.000000
,1148.000000=200.000000
,1172.000000=100.000000
,1176.000000=200.000000
,1243.000000=100.000000
;
#STOPS:221.000000=0.117000,
221.500000=0.117000,
223.000000=0.117000,
223.500000=0.117000,
225.000000=0.117000,
225.500000=0.117000,
227.000000=0.117000,
227.500000=0.117000,
1208.000000=0.150000,
1239.500000=0.150000
;
#BGCHANGES:4.000=MissYou(EmoCosineRemix)-bg.png=1.000=1=0=1===CrossFade==,
100.000=Dolphika(FeryquitousRemix)-bg.png=1.000=0=0=1===FadeCenterHorizontal==,
196.000=Language-bg.png=1.000=0=0=1===FadeCenterVertical==,
250.000=ShineOnMe-bg.png=1.000=0=0=1===CrossFade_Faster==,
318.000=HighHorse-bg.png=1.000=1=0=1===CrossFade==,
381.000=ButIGoBack-bg.png=1.000=0=0=1===FadeCenterHorizontal==,
446.000=PartyoftheYear-bg.png=1.000=0=0=1===CrossFade_Fastest==,
554.000=FlyingHigh(SpeedUpAlejzRemix)-bg.png=1.000=0=0=1===FadeDown==,
654.000=MamiMamiZone-bg.png=1.000=0=0=1===FadeRight==,
758.000=U.S.A-bg.png=1.000=0=0=1===CrossFade_Faster==,
822.000=retract.shine-bg.png=1.000=0=0=1===FadeUp==,
884.000=PhonDrome!-bg.png=1.000=0=0=1===FadeCenterHorizontal==,
964.000=BoxelAdventure-bg.png=1.000=0=0=1===CrossFade_Fastest==,
1060.000=Carmina-bg.png=1.000=0=0=1===FadeLeft==,
1148.000=KnightRider-jacket.png=1.000=0=0=1===FadeCenterHorizontal==,
1239.500=dealbreaker-bg.png=1.000=1=0=1===CrossFade==,
99999=-nosongbg-=1.000=0=0=0 // don't automatically add -songbackground-
;
#KEYSOUNDS:;
#ATTACKS:;

//---------------dance-single - ver. blank----------------
#NOTES:
     dance-single:
     ver. blank:
     Medium:
     16:
     0.736737,1.187238,0.350389,0.193318,0.471213,2561.000000,2387.000000,174.000000,96.000000,0.000000,0.000000,0.736737,1.187238,0.350389,0.193318,0.471213,2561.000000,2387.000000,174.000000,96.000000,0.000000,0.000000:
// measure 0
0000
0000
0000
0000
,  // measure 1
0000
0000
0000
0000
,  // measure 2
0000
0000
0000
0000
,  // measure 3
0000
0000
0000
0000
,  // measure 4
0000
0000
0000
0000
,  // measure 5
0000
0000
0000
0000
,  // measure 6
0000
0000
0000
0000
,  // measure 7
0000
0000
0000
0000
,  // measure 8
0000
0000
0000
0000
,  // measure 9
2100
0000
0000
0000
3001
0000
0000
0000
1000
0000
0000
0001
0000
0000
1000
0000
,  // measure 10
0100
0000
0000
0000
1000
0000
0001
0000
0100
0000
0000
0010
0000
0000
1000
0000
,  // measure 11
0001
0000
0000
0000
1000
0000
0001
0000
0100
0000
0000
0010
0000
0000
1000
0000
,  // measure 12
0100
0000
0000
0000
0010
0000
0001
0000
0100
0000
0000
0001
0000
0000
0100
0000
,  // measure 13
0010
0000
0000
1000
0000
0000
0001
0000
0100
0000
0000
0001
0000
0000
0100
0000
,  // measure 14
0010
0000
0000
1000
0000
0000
0100
0000
0010
0000
0000
0001
0000
0000
0100
0000
,  // measure 15
0010
1000
0010
1000
0001
0100
0001
0100
,  // measure 16
0001
0010
0001
0010
0100
1000
0100
1000
,  // measure 17
1100
0000
0001
1100
0000
0001
2100
3000
,  // measure 18
0101
0000
1000
0101
0000
1000
0002
0003
,  // measure 19
1010
0000
0001
1010
0000
0001
1001
0000
,  // measure 20
1100
0000
0000
0000
0101
0000
0000
0000
1001
0000
0000
0001
0100
0000
0010
0000
,  // measure 21
1000
0100
1000
0100
1000
0001
1000
0001
,  // measure 22
0100
0001
0100
0001
0100
0010
0100
0010
,  // measure 23
1000
0100
1000
0100
0010
0100
0010
0001
0010
0001
1000
0002
,  // measure 24
2000
0000
0000
3003
,  // measure 25
0102
0000
1003
1000
0001
0100
0010
1000
,  // measure 26
0001
0000
0010
1000
0000
0010
0001
0000
1000
0000
0010
0000
1000
0001
1000
0000
,  // measure 27
0001
0010
0001
0010
0100
0000
1000
0000
1100
0000
0010
0000
0001
0100
0010
0000
,  // measure 28
1000
0000
0100
0001
0000
0100
0010
0001
0010
0000
0001
0000
0100
0000
0010
0000
,  // measure 29
2000
0000
0000
0000
3002
0000
0000
0000
0103
0010
1000
0000
0100
0010
0001
0000
,  // measure 30
0000
0000
1000
0000
0001
0000
0010
0000
0001
1000
0000
0100
1000
0000
0001
0000
,  // measure 31
1000
0100
1000
0100
0010
0000
0001
0000
0100
0001
0100
0000
0010
1000
0010
0000
,  // measure 32
0000
0000
1000
0000
0001
0000
1000
0000
0001
0010
0100
1000
0010
0100
0000
0000
,  // measure 33
0002
0000
0000
0000
1003
0100
0000
1000
0001
0100
0010
0100
0001
0100
0010
0100
,  // measure 34
0000
0000
0001
0000
1000
0000
0010
0000
1000
0100
0010
0100
1000
0100
0010
0001
,  // measure 35
0000
0000
1000
0000
0001
0100
0000
0010
1000
0001
1000
0001
0100
0010
0100
0010
,  // measure 36
0000
0000
1000
0000
0001
0000
0010
0000
0001
1000
0001
1000
0010
0100
0010
0100
,  // measure 37
0001
0000
0000
0000
1000
0100
0000
1000
0010
0100
0001
1000
0010
0100
0001
1000
,  // measure 38
0000
0000
0001
0000
0100
0000
0010
0000
1000
0100
0010
0001
1000
0100
0010
0001
,  // measure 39
0000
0000
1000
0000
0001
0100
0000
0001
1000
0100
1000
0001
1000
0100
1000
0001
,  // measure 40
0000
0000
0100
0000
0010
0000
1000
0000
0001
0100
1000
0100
0001
1000
0000
0000
,  // measure 41
2010
0000
0000
0000
3001
0000
0000
0000
0101
0000
0000
1100
0000
0000
0101
0000
,  // measure 42
0000
1100
0000
0000
0011
0000
0000
0000
1010
0000
0000
0000
2002
0000
3003
0000
,  // measure 43
1000
0000
1100
1000
0100
0001
0100
0010
,  // measure 44
0001
0100
1000
0100
0010
1000
0010
0100
,  // measure 45
0001
0010
0100
1000
0001
0100
0010
1000
,  // measure 46
0100
0010
0001
1000
0001
0100
0010
1000
,  // measure 47
0001
0100
0001
1000
0010
0100
0010
1000
,  // measure 48
0100
0000
0010
0000
0001
0000
1000
0000
0001
0100
1000
0100
0001
0000
0000
0000
,  // measure 49
2000
0100
0100
3100
,  // measure 50
0002
0010
0010
0013
,  // measure 51
2000
0010
0010
3010
,  // measure 52
0002
0100
0100
0103
,  // measure 53
0001
0100
0001
0000
1000
0100
1000
0000
,  // measure 54
1000
0010
1000
0000
0001
0010
0001
0000
,  // measure 55
0001
0100
0001
1000
0001
0100
0001
1000
,  // measure 56
0001
0100
0001
1000
0001
0100
0001
1000
,  // measure 57
1010
0000
1000
0001
0100
0001
1000
0000
,  // measure 58
0011
0000
0001
0100
0010
1000
0001
0000
,  // measure 59
1000
0100
0000
0100
1000
0010
0000
0010
,  // measure 60
0100
0001
0000
0001
0010
0100
0000
1000
,  // measure 61
0010
0100
0010
0100
0010
0100
0010
0100
,  // measure 62
1001
0000
0000
0110
0000
0000
0000
0000
0001
1000
0000
0001
0000
0000
1000
0001
,  // measure 63
0000
1000
0000
0000
0010
0100
0001
0000
0101
0000
0000
0000
1100
0000
0000
0000
,  // measure 64
1000
0100
0001
0100
2000
0000
3010
0000
,  // measure 65
0200
0301
0011
1010
,  // measure 66
0001
0010
1000
0010
0002
0000
0103
0000
,  // measure 67
0020
0000
0000
0000
1030
0000
0000
1000
0100
0000
0000
0000
0001
0000
0000
0001
,  // measure 68
0100
0000
0000
0000
0010
0000
0000
0010
0001
0000
1000
0000
0001
0000
0100
0000
,  // measure 69
0010
0000
0000
0000
1000
0100
1000
0000
0001
0000
0010
0000
1000
0000
0010
0000
,  // measure 70
0100
0000
0000
0000
1100
0000
0000
0000
0100
1000
0000
0010
0000
0000
0100
0001
,  // measure 71
0000
0010
0000
0000
0001
1000
0001
0000
0101
0000
0000
0100
1000
0000
0100
0000
,  // measure 72
0010
0000
1000
0000
0001
1000
0000
0100
2000
0000
0000
0000
0010
0000
0000
0000
,  // measure 73
0100
0000
0000
0000
3001
0000
0000
0000
1100
0000
0000
0100
0001
0000
0100
0000
,  // measure 74
0010
0000
0001
0000
1000
0001
0000
0100
0002
0000
0000
0000
0010
0000
0000
0000
,  // measure 75
0100
0000
0000
0000
1003
0000
0000
1000
0100
0000
0000
0000
0010
0000
0000
0010
,  // measure 76
0100
0000
0000
0000
0001
0000
0000
0001
0100
0000
0010
0000
0001
0000
0010
0000
,  // measure 77
0010
0000
0000
0000
0001
0100
0001
0100
0001
0000
1000
0000
0100
0000
1000
0000
,  // measure 78
0010
0000
0000
0000
0110
0000
0000
0000
1000
0100
0000
0010
0000
0000
0001
0100
,  // measure 79
0000
0010
0000
0000
1001
0000
0000
0000
2000
0000
0000
0000
3100
0000
0000
0000
,  // measure 80
0002
0000
0103
0000
0010
1000
0001
0000
,  // measure 81
1100
0000
0101
0000
0001
0010
0001
0100
,  // measure 82
1000
0100
0001
1000
0001
0000
0011
0000
,  // measure 83
1100
0000
1001
0000
1000
0001
0100
0000
,  // measure 84
0001
1000
0100
0000
2000
0000
3200
0000
,  // measure 85
0302
0023
1030
1001
,  // measure 86
0001
0100
1000
0100
0001
0000
1010
0000
,  // measure 87
0100
0001
0100
0000
0001
0010
0001
0010
,  // measure 88
0100
1000
0100
1000
0010
0000
0100
0000
,  // measure 89
0001
1000
0001
0000
1000
0010
1000
0010
,  // measure 90
0100
0001
0100
0001
0010
0000
0100
0000
,  // measure 91
1000
0001
1000
0000
0001
0100
0001
1000
,  // measure 92
0001
0100
0001
1000
0010
0000
0100
0000
,  // measure 93
0001
0010
0100
0000
1000
0100
1000
0001
,  // measure 94
0000
1000
0010
0000
0100
0001
0100
0010
,  // measure 95
1000
0000
0000
0000
0000
0000
0001
0000
0000
1000
0000
0000
0101
0000
0000
0100
0000
1000
0000
0000
0100
0001
0000
0000
,  // measure 96
1100
0000
0000
0100
0000
0001
0000
0000
0100
1000
0000
0000
0010
0000
0000
0100
0000
0000
0001
0000
1000
0000
0000
1001
,  // measure 97
0000
0000
0000
1000
0000
0000
0001
0000
0000
0010
0000
0000
0011
0000
0000
0010
0000
1000
0000
0000
0010
0001
0000
0000
,  // measure 98
1010
0000
0000
0010
0000
0001
0000
0000
0010
1000
0000
0000
0001
0000
0100
0000
0000
0010
0000
0000
1000
0000
0000
1001
,  // measure 99
0000
0000
0000
0001
0000
0000
1000
0000
0000
0100
0000
0000
1001
0000
0000
1000
0000
0001
0000
0000
0100
0001
0000
0000
,  // measure 100
1001
0000
0000
0001
0000
1000
0000
0000
0100
1000
0000
0000
0010
0000
0000
0100
0000
0000
0001
0000
1000
0000
0000
1001
,  // measure 101
0000
0000
0000
1000
0000
0000
0001
0000
0000
0010
0000
0000
1001
0000
0000
0001
0000
1000
0000
0000
0010
1000
0000
0000
,  // measure 102
1001
0000
0000
1000
0000
0001
0000
0000
0010
0001
0000
2000
0000
0000
0000
3010
0000
0100
0010
0000
0100
0000
0000
1001
,  // measure 103
0000
0000
0000
0011
0000
0000
1100
0000
0000
0001
0000
0000
1001
0000
0000
1000
0000
0001
0100
0000
0001
1000
0000
0001
,  // measure 104
0000
0000
0000
1000
0000
0100
0010
0000
0001
0100
0000
0010
1000
0000
0000
0001
0000
1000
0100
0000
1000
0001
0000
1000
,  // measure 105
0000
0000
0000
0001
0000
0010
0100
0000
0010
0100
0000
1000
0001
0000
0000
1000
0000
0010
0100
0000
0001
1000
0000
0001
,  // measure 106
0000
0000
0000
1000
0000
0100
1000
0000
0001
1000
0000
0100
1000
0000
0000
0010
0000
0000
0100
0000
0000
0001
0000
1000
,  // measure 107
0000
0000
0000
0101
0000
0000
1100
0000
0000
0000
0000
0000
1001
0000
0000
0001
0000
1000
0100
0000
1000
0001
0000
1000
,  // measure 108
0000
0000
0000
0001
0000
0100
0010
0000
0100
0010
0000
1000
0100
0000
0000
1000
0000
0000
0001
0000
0000
0100
0000
0010
,  // measure 109
0000
0000
0000
1010
0000
0000
0011
0000
0000
1000
0000
0000
0001
0000
0000
1000
0000
0100
0010
0000
0100
1000
0000
0100
,  // measure 110
0000
0000
0000
0010
0000
0001
1000
0000
0001
0100
0000
0010
1000
0000
0100
0010
0000
0000
0001
0000
0000
1000
0000
1001
,  // measure 111
0000
1000
0001
0100
0010
1000
0001
0010
,  // measure 112
0100
0001
0100
1000
0010
0100
0001
0100
,  // measure 113
1000
0100
0010
1000
0001
0010
0100
0001
,  // measure 114
1000
0010
0001
1000
0001
0100
0010
1000
,  // measure 115
0001
0010
0100
1000
0001
0100
0010
0100
,  // measure 116
0001
0010
0100
0010
0001
1000
0010
1000
,  // measure 117
0001
1000
0100
1000
0001
0100
0010
1000
,  // measure 118
0001
0000
1000
0000
0100
0000
0010
0000
0001
1000
0000
0001
1000
0000
0010
0100
,  // measure 119
0000
0010
0100
0000
0001
0000
1000
0100
0020
0000
0000
0000
0001
0000
0000
0000
,  // measure 120
1000
0000
0031
0000
0001
0100
0010
1000
,  // measure 121
0001
0100
0001
0100
0010
1000
0010
1000
0001
0000
0000
0000
0000
0000
0000
0000
,  // measure 122
0000
0000
0000
0000
1100
0001
0100
0000
,  // measure 123
0101
1000
0100
0000
1010
0010
0100
0000
,  // measure 124
0001
0100
1000
0100
0110
1000
0001
0000
,  // measure 125
0011
0100
1000
0000
1000
0100
1000
0100
,  // measure 126
0010
0001
0010
0001
1001
1000
0100
0000
,  // measure 127
1010
0010
0100
0000
0011
0010
0100
0000
,  // measure 128
1100
0001
0100
0010
1010
0001
0100
0000
,  // measure 129
0011
1000
0100
0000
1000
0100
0001
0100
,  // measure 130
1000
0000
0000
0000
1001
0000
0000
0000
0001
0000
1000
0000
0001
0100
0001
0000
,  // measure 131
2000
0000
3000
0000
2000
0000
3000
0000
0010
0000
1000
0000
0010
0100
0010
0000
,  // measure 132
0200
0000
0300
0000
0200
0000
0300
0000
0001
0000
0010
0000
0001
0010
0001
0000
,  // measure 133
0020
0000
0030
0000
0020
0000
0030
0000
0001
0000
1000
0000
0001
1000
0001
0000
,  // measure 134
0200
0000
0300
0000
0200
0000
0300
0000
0001
0000
1000
0000
0001
0100
0001
0000
,  // measure 135
2000
0000
3000
0000
0002
0000
0003
0000
0010
0000
0001
0000
0010
0001
0010
0000
,  // measure 136
0200
0000
0300
0000
2000
0000
3000
0000
0001
0000
0010
0000
0001
0010
0001
0000
,  // measure 137
0200
0000
0300
0000
0020
0000
0030
1000
0001
0000
0000
0001
1000
0000
0000
1000
,  // measure 138
0001
0000
0000
0001
1000
0000
0000
1000
0001
0000
0000
0000
0000
0000
0100
0000
,  // measure 139
0000
0100
0000
0100
0000
0100
0000
0100
,  // measure 140
0000
0100
0000
0100
0010
1000
0001
0010
,  // measure 141
0100
1000
0010
0100
0001
1000
0100
1000
,  // measure 142
0001
0100
0010
0100
0001
1000
0100
0001
,  // measure 143
0100
0010
0001
1000
0001
0100
0010
1000
,  // measure 144
0001
0000
0010
0000
0100
0000
1000
0000
0001
0100
0001
0000
1000
0000
0010
0000
,  // measure 145
0100
0000
0001
0000
0010
0000
0100
0000
1000
0010
1000
0000
0001
0000
0100
0000
,  // measure 146
0010
0000
1000
0000
0100
0000
0010
0000
0001
1000
0001
0000
1000
0000
0010
0000
,  // measure 147
0100
0000
0001
0000
0100
0000
0010
0000
1000
0010
1000
0000
0001
0000
0100
0000
,  // measure 148
0010
0000
1000
0000
0001
0000
1000
0000
0100
0010
0001
0000
0001
0000
1000
0000
,  // measure 149
0001
0000
0100
0001
0000
1000
0010
0000
1000
0100
1000
0000
0001
0000
0100
0000
,  // measure 150
0010
0000
1000
0100
0000
0010
0001
0000
1000
0001
1000
0000
0001
0000
0100
0000
,  // measure 151
0010
0000
1000
0010
0000
0100
0001
0000
0010
0100
0010
0000
0001
0000
1000
0000
,  // measure 152
0001
0000
0100
0001
0000
0100
0010
0000
1000
0000
0010
1000
0010
0000
0100
0000
,  // measure 153
0001
0000
0010
0001
0000
0010
0100
0000
1000
0000
0100
1000
0100
0000
1000
0000
,  // measure 154
0010
0000
0100
0001
0000
0010
0100
0000
1000
0000
0001
1000
0001
0000
1000
0100
,  // measure 155
1000
0000
0010
1000
0000
1000
0010
0000
0100
0000
0001
0100
0001
0000
1000
0000
,  // measure 156
0001
0000
1000
0100
0000
0010
0001
0000
1000
0100
0010
0100
1000
0000
0010
1000
,  // measure 157
0010
0000
0100
0001
0000
0001
0100
0000
0001
0010
0100
0010
0001
0000
0100
0010
,  // measure 158
1000
0000
0001
1000
0000
1000
0100
0000
1000
0100
0010
0100
1000
0000
0010
0100
,  // measure 159
0001
0000
1000
0001
0000
0001
0100
0000
0010
0100
0001
0100
0010
0000
0010
1000
,  // measure 160
0001
0000
1000
0100
0000
0100
0010
0000
0001
1000
0001
1000
0001
0000
0100
0010
,  // measure 161
1000
0000
0100
0010
0000
0001
1000
0000
0001
1000
0001
1000
0001
0000
0100
0010
,  // measure 162
1000
0000
0001
1000
0000
0100
0010
0000
0001
0000
1000
0000
0001
0000
1000
0000
,  // measure 163
0001
0000
1000
0000
0001
0000
0100
0000
0101
0000
0000
0100
1000
0000
0100
0000
,  // measure 164
0101
0000
0000
0100
1000
0000
0100
0000
0001
0000
1000
0000
0001
0000
0000
0000
,  // measure 165
1001
0000
0000
0000
0011
0000
0000
0000
1100
0000
0000
0100
0001
0000
0100
0000
,  // measure 166
1100
0000
0000
0100
0001
0000
0100
0000
1100
0000
0000
0000
0011
0000
0000
0000
,  // measure 167
1010
0000
0000
0000
0101
0000
0000
0000
1010
0000
0000
0010
0001
0000
0010
0000
,  // measure 168
1010
0000
0000
0010
0001
0000
0010
0000
1000
0000
0001
0000
1000
0000
0000
0000
,  // measure 169
1100
0000
0000
0000
0101
0000
0000
0000
0011
0000
0000
0001
1000
0000
0010
0000
,  // measure 170
1010
0000
0000
1000
0001
0000
0100
0000
0101
0000
0000
0000
0001
0000
1000
0000
,  // measure 171
0001
0000
0100
0000
0010
0000
0000
0000
0110
0000
0000
0010
1000
0000
0100
0000
,  // measure 172
0110
0000
0000
0010
0001
0000
0100
0000
0001
0000
1000
0000
0001
0000
1000
0000
,  // measure 173
0100
0000
0010
0000
0100
0000
0000
0000
0110
0000
0000
0100
1000
0000
0010
0000
,  // measure 174
0110
0000
0000
0100
0001
0000
0010
0000
0110
0000
0000
0000
1010
0000
0000
0000
,  // measure 175
0110
0000
0000
0000
0101
0000
0000
0000
0110
0000
0000
0100
0001
0000
0010
0000
,  // measure 176
0011
0000
0000
0010
0001
0000
0100
0000
0010
0000
1000
0000
0010
0000
1000
0000
,  // measure 177
0100
0000
0010
0000
0001
0000
0000
0000
1001
0000
0000
0001
0100
0000
0010
0000
,  // measure 178
1001
0000
0000
1000
0100
0000
0010
0000
0001
0000
0100
0000
0001
0000
0100
0000
,  // measure 179
1000
0100
1001
0000
0220
0000
0000
0000
,  // measure 180
0000
0000
0330
0000
1000
0010
0100
0000
,  // measure 181
0001
0100
0010
0000
1000
0001
0100
0000
,  // measure 182
0001
1000
0100
0000
1000
0100
0010
0000
,  // measure 183
0100
0010
0001
0000
1000
0010
0100
0000
,  // measure 184
0010
0100
0001
0000
1000
0100
0010
0100
,  // measure 185
1000
0100
0010
0000
0001
0100
0010
0100
,  // measure 186
0001
0100
0010
0000
1000
0010
0100
0001
,  // measure 187
0010
0100
1000
0001
1000
0100
0010
0001
,  // measure 188
1000
0010
0100
0001
0020
0000
0000
0000
,  // measure 189
0000
0030
1100
0011
,  // measure 190
1010
0000
0101
0000
0001
0100
1000
0100
,  // measure 191
0001
1001
2000
0100
,  // measure 192
0100
3100
0002
0010
,  // measure 193
0010
0013
0011
1010
,  // measure 194
0101
0000
1100
0000
1000
0100
0001
0100
,  // measure 195
1000
0000
1010
0010
0200
0000
0001
0000
,  // measure 196
0001
0301
0020
1000
,  // measure 197
1000
1030
1100
0101
,  // measure 198
0011
0000
1010
0000
0001
0010
1000
0010
,  // measure 199
0001
0010
1000
0000
0120
0000
0100
0000
,  // measure 200
0100
0130
2001
0001
,  // measure 201
0001
3001
0101
1010
,  // measure 202
1100
0000
0011
0000
0001
0100
1000
0100
,  // measure 203
0001
0100
1000
0000
0201
0000
0310
0000
,  // measure 204
1200
0000
0000
0000
0310
0000
0000
0000
0001
1000
0001
0000
1000
0001
1000
0000
,  // measure 205
0001
1000
0001
1000
0100
0010
0100
0010
0002
0000
0000
0000
0000
0000
0000
0000
,  // measure 206
1003
0010
0000
0100
0000
0001
0000
1001
,  // measure 207
0000
0001
0100
0000
0001
1000
0100
0000
,  // measure 208
1000
0000
0010
0000
1000
0001
0001
0000
,  // measure 209
0100
0000
0001
0010
0000
0100
0010
0000
,  // measure 210
0001
0000
1000
0010
0000
1000
0100
0000
,  // measure 211
0010
0000
0001
1000
0001
0100
0010
0000
,  // measure 212
1000
0000
0000
0000
0001
0000
1000
0000
0010
0100
0010
0100
0001
0000
1000
0000
,  // measure 213
1100
0000
0011
0000
0001
1000
0001
0100
,  // measure 214
1010
0000
0101
0000
0001
0010
0100
1000
,  // measure 215
1001
0000
1100
0000
1000
0100
1000
0010
,  // measure 216
0110
0000
0101
0000
0001
0100
0001
0010
,  // measure 217
0100
1000
0010
0100
1000
0100
0010
1000
,  // measure 218
0100
0010
0001
0100
0010
0001
0010
0100
,  // measure 219
0001
0010
0100
1000
0001
0100
0010
1000
,  // measure 220
0001
0100
0001
0100
0010
1000
0010
1000
,  // measure 221
1002
0000
0000
0100
0000
0000
0103
0000
,  // measure 222
2001
0000
0000
0100
0000
0000
3100
0000
,  // measure 223
1020
0000
0000
0100
0000
0000
0130
0000
,  // measure 224
0201
0000
0000
0010
0000
0000
0310
0000
,  // measure 225
2100
0000
0000
0001
0000
0000
3001
0000
,  // measure 226
0102
0000
0000
1000
0000
0000
1003
0000
,  // measure 227
0101
0000
0000
1001
0000
1001
0000
1010
,  // measure 228
0000
0000
1000
0001
1000
0000
0001
0000
0202
0000
0000
0000
0303
0000
0000
0000
,  // measure 229
0101
0000
1100
0000
0001
1000
0000
1010
,  // measure 230
0000
0000
0010
0100
0010
0000
1000
0000
0100
0000
0010
0000
0001
0000
1000
0000
,  // measure 231
1100
0000
1100
0000
1000
0001
0000
0011
,  // measure 232
0000
0000
0001
1000
0001
1000
0001
0000
0200
0000
0000
0010
0000
0000
0310
0000
,  // measure 233
2000
0000
0000
3100
0000
1000
1001
0000
,  // measure 234
0001
0000
0100
0000
0010
0000
1000
0000
0001
0010
0001
0010
0100
1000
0100
1000
,  // measure 235
0001
0100
1000
0100
0010
1000
0010
0100
,  // measure 236
0001
0010
0100
1000
0001
0100
0010
1000
,  // measure 237
0001
0010
1000
0010
0100
0010
0001
0010
,  // measure 238
0100
1000
0000
0100
1000
0000
0010
0000
0100
0001
0000
0100
0001
0000
1000
0000
,  // measure 239
0001
0000
0100
0000
0010
0000
1000
0000
0001
0010
0100
1000
0001
0010
0100
1000
,  // measure 240
0002
0000
0000
1003
0000
0110
1001
0000
,  // measure 241
1000
0100
0001
0100
0010
0100
1000
0002
,  // measure 242
0000
1003
0010
0002
0000
1003
0100
0002
,  // measure 243
0000
1003
0100
0010
1000
0010
0100
2000
,  // measure 244
0000
3010
0100
2000
0000
3100
0110
0000
,  // measure 245
1001
0001
0010
0100
1000
0010
0100
0002
,  // measure 246
0000
0013
0100
0002
0000
0103
0010
2000
,  // measure 247
0000
3010
0100
1000
0010
0100
0001
1001
,  // measure 248
1000
0000
0100
0000
1000
0000
0001
0000
0100
0001
0100
0000
0010
1000
0010
0000
,  // measure 249
1000
0100
0010
0000
0100
0010
0001
0000
1000
0000
0001
0000
1000
0000
2000
0000
,  // measure 250
0000
3010
0100
0002
0000
0013
0100
2000
,  // measure 251
3001
0010
0001
0000
0010
0001
0010
0000
0001
0000
0100
0000
0010
0000
2000
0000
,  // measure 252
0000
3010
1000
0200
0000
0310
1100
1000
,  // measure 253
0001
0010
0001
0000
1000
0100
1000
0000
0010
0100
0001
0000
1000
0000
0002
0000
,  // measure 254
0000
0000
1003
0000
0100
0000
2000
0000
0000
0000
3010
0000
1000
0100
0010
0001
,  // measure 255
1000
0001
0101
1000
0000
1010
0100
0001
,  // measure 256
1000
0000
1001
0000
0001
1000
0001
0000
1000
0010
1000
0000
0001
0100
0001
0000
,  // measure 257
1000
0100
0010
0001
1000
0100
0010
0001
1000
0000
0010
0000
0100
0000
0001
0000
,  // measure 258
1000
0100
0010
0001
1000
0100
0010
0001
1000
0000
0001
0000
0100
0000
0010
0000
,  // measure 259
1000
0010
0100
0001
1000
0010
0100
0001
1000
0000
0100
0000
0010
0000
0001
0000
,  // measure 260
1000
0010
0100
0001
1000
0010
0100
0001
1000
0000
0001
0000
0100
0000
0001
0000
,  // measure 261
1000
0100
1000
0000
0001
0100
0001
0000
1000
0010
1000
0000
0001
0010
0001
0000
,  // measure 262
1000
0001
1000
0000
0001
0100
0001
0000
1000
0100
1000
0000
0001
0100
0001
0000
,  // measure 263
1000
0100
1000
0100
0010
0001
0010
0001
1000
0010
1000
0010
0100
0001
0100
0001
,  // measure 264
1000
0100
0001
0100
1000
0010
0001
0010
,  // measure 265
2200
0000
0000
3300
,  // measure 266
0022
0000
0000
0033
,  // measure 267
0001
1000
0001
1000
0001
1000
0001
1000
0001
1000
0001
1000
,  // measure 268
0010
0100
0010
0100
0010
0100
0010
0100
0010
0100
0010
0100
,  // measure 269
0002
0000
0000
0000
,  // measure 270
2003
0000
0000
0000
,  // measure 271
3001
0100
0000
1000
0100
0000
0002
0000
0000
0000
0013
0000
0100
0000
0100
0000
,  // measure 272
1000
0100
0000
0001
0100
0000
2000
0000
0000
0000
3100
0000
0010
0000
0010
0000
,  // measure 273
0001
0010
1000
0010
0100
1000
0010
0110
,  // measure 274
0000
0001
0100
0001
0000
1000
0100
0010
,  // measure 275
0001
0010
0000
1000
0010
0000
0002
0000
0000
0000
0103
0000
0010
0000
0010
0000
,  // measure 276
1000
0010
0000
0001
0010
0000
2000
0000
0000
0000
3100
0000
0010
0000
0001
0000
,  // measure 277
1000
0000
0001
0000
0100
0000
0001
0000
1000
0000
0100
0000
0010
0000
0001
1000
,  // measure 278
0001
0000
0100
0000
0010
0000
2000
0000
0000
0000
3001
0100
0001
0100
0001
0100
,  // measure 279
0001
0000
1000
0100
1000
0000
0001
0010
0001
0000
1000
0000
0010
0000
0100
0000
,  // measure 280
0101
0000
0000
1100
0000
0000
0101
0000
0001
1000
0001
0000
1000
0000
0100
0000
,  // measure 281
0001
0000
0000
0100
0000
0000
1000
0000
0000
0001
0000
0000
0100
0000
0010
0000
1000
0000
0100
0000
0010
0000
0001
0000
,  // measure 282
1000
0000
0010
1000
0010
0000
0100
0000
0001
0000
0020
0000
0000
0000
0000
0000
,  // measure 283
0031
1000
0001
0100
1000
0100
0010
1000
,  // measure 284
0010
0001
1000
0100
0001
0100
0010
1000
,  // measure 285
0001
0010
0001
0000
1000
0010
1000
0000
0001
0010
0001
0000
1000
0010
1000
0000
,  // measure 286
0010
0100
0010
0100
0010
0100
0010
0100
0010
0100
0010
0100
0010
0100
0010
0100
,  // measure 287
0001
1000
0001
0100
1000
0100
0001
0000
,  // measure 288
1000
0001
1000
0100
0001
0100
1000
0000
,  // measure 289
0010
1000
0010
0100
0001
0100
0010
0000
,  // measure 290
1000
0000
0100
0000
0010
0000
0001
0000
1000
0000
0010
0000
0100
0001
0100
0001
,  // measure 291
1000
0100
0001
0100
1000
0010
0100
0001
,  // measure 292
1000
0100
0001
0100
0010
0001
1000
0001
,  // measure 293
1000
0100
0010
0001
0010
0100
0001
0100
1000
0000
1010
0000
0101
0000
1001
0000
,  // measure 294
0001
0010
1000
0010
0100
1000
0010
0100
,  // measure 295
1000
0100
0001
0010
0100
0010
1000
0001
,  // measure 296
0100
1000
0010
0100
0001
1000
0100
0010
,  // measure 297
0001
0100
0010
1000
0001
0010
0100
1000
,  // measure 298
0001
0100
0001
1000
0100
0010
0001
1000
,  // measure 299
0010
0100
0001
0100
0010
1000
0100
0010
,  // measure 300
0001
0100
0001
1000
0100
0010
1000
0010
,  // measure 301
0001
0000
0100
0000
1000
0000
0100
0000
0010
0000
1000
0000
0100
0010
0100
0010
,  // measure 302
0002
1003
0100
0010
0100
1000
0010
0001
,  // measure 303
1000
0100
0010
1000
0100
0010
0001
0100
,  // measure 304
0001
0100
0010
1000
0010
0100
0001
0010
,  // measure 305
0100
0000
1000
0000
0001
0000
0100
0000
0010
0000
1000
0001
1000
0001
0100
0000
,  // measure 306
0010
1000
0100
0010
0100
1000
0100
0010
,  // measure 307
0001
0100
1000
0100
0010
1000
0010
0100
,  // measure 308
0001
0010
0100
1000
0001
0100
0010
1000
,  // measure 309
0100
0000
0010
0000
0001
0000
1000
0000
0001
0000
0100
0010
0100
0010
2000
0000
,  // measure 310
0000
0000
0000
0000
0000
0000
0000
0000
0000
0000
0000
0000
3001
0100
0010
1000
,  // measure 311
0001
0100
1000
0100
0010
1000
0010
0100
0001
0010
0100
1000
0001
0010
1000
0010
,  // measure 312
0100
0001
0100
1000
0100
0010
1000
0010
0001
0100
1000
0100
0010
1000
0010
0100
,  // measure 313
0001
0100
1000
0001
0010
1000
0100
0010
1000
0010
0001
1000
0001
0100
1000
0100
,  // measure 314
0001
1000
0100
0001
1000
0010
0001
0010
0100
1000
0100
0010
1000
0010
0001
1000
,  // measure 315
0001
0100
0010
0001
1000
0100
0001
0010
1000
0001
0100
1000
0010
0001
1000
0100
,  // measure 316
0001
0010
0100
0001
0100
1000
0001
0010
0100
0001
0100
1000
0100
0001
0100
0010
,  // measure 317
0100
0000
0000
0001
0000
0000
1000
0000
0000
0010
0000
0000
0001
0000
0000
0010
0000
0000
1000
0000
0000
0010
0000
0000
0100
0000
0000
0010
0000
0000
0001
0000
0000
1000
0000
0000
0001
0000
0100
0000
0001
0000
0100
0000
0010
0000
0100
0000
,  // measure 318
0010
0000
1000
0000
0010
0000
1000
0000
0001
0000
1000
0000
0001
0000
0000
0100
0000
0000
0010
0000
0000
1000
0000
0000
0001
0000
0000
0010
0000
0000
0100
0000
0000
1000
0000
0000
0000
0000
0000
0000
0000
0000
0000
0000
0000
0000
0000
0000
;

//---------------dance-single - ver. forcednature----------------
#NOTES:
     dance-single:
     ver. forcednature:
     Challenge:
     19:
     0.829657,1.319975,0.529611,0.235606,0.718901,2884.000000,2621.000000,263.000000,117.000000,64.000000,0.000000,0.829657,1.319975,0.529611,0.235606,0.718901,2884.000000,2621.000000,263.000000,117.000000,64.000000,0.000000:
0000
0000
0000
0000
,
0000
0000
0000
0000
,
0000
0000
0000
0000
,
0000
0000
0000
0000
,
0000
0000
0000
0000
,
2000
0000
3000
0200
0000
0000
0300
0020
,
0000
0030
2000
0000
3000
0002
0000
0003
,
0200
0000
0300
0020
0000
0000
0030
0002
,
0000
0003
2000
0000
3000
0020
0000
0030
,
1010
0000
0000
0000
0001
0000
0000
0000
0100
0000
0000
0010
0000
1000
0100
0000
,
1000
0000
0000
0000
0001
0010
0001
0000
0100
0000
0010
1000
0010
1000
0100
0000
,
0010
0000
0001
0000
0100
0010
0100
0000
0010
0000
0000
1000
0100
1000
0100
0000
,
0010
0000
1000
0000
0010
0001
0010
0000
0100
0000
1000
0001
1000
0001
0100
0000
,
0010
0000
0000
0100
0000
0000
0001
0000
0010
0000
0000
0100
0000
1000
0200
0000
,
0000
0000
0300
0010
0001
0000
0200
0000
0000
0000
0300
0010
0000
1000
0200
0000
,
0000
0000
0300
0010
0001
0000
1000
0000
0010
0000
0000
0100
0000
0001
0010
0000
,
0001
1000
0001
1000
0001
1000
0001
1000
0001
0010
0100
1000
0100
0010
0001
1000
,
0001
0000
0100
0010
0001
0010
0100
0000
0010
0000
1000
0000
0110
0000
0000
0000
,
1100
0000
0000
0101
0000
0000
1010
0000
0011
0000
0000
0110
0000
0000
1000
0001
,
1000
0000
0010
0000
0100
0001
0100
0000
1000
0000
0000
0000
0110
0000
0000
0000
,
0101
0000
0000
0100
0010
0000
1010
0000
1001
0000
1000
0100
0000
0001
0100
0000
,
1000
0100
1000
0010
1000
0100
0001
0100
,
1000
0010
0001
0010
0100
0001
0010
0001
,
0100
0010
0100
0010
0100
0010
0100
0010
0100
0010
0100
0010
0100
0010
0100
0010
,
0100
0000
0000
0110
0000
0000
1001
0000
1100
0000
0000
1010
0000
0000
0010
0000
,
1020
0000
0031
0000
0010
1000
0100
0120
,
0000
0000
0000
0000
1000
0000
0000
0000
0001
0000
0030
0000
0000
0000
0000
0000
0011
0000
0000
0000
0000
0000
0000
0000
0100
1000
0000
0000
0100
0000
0000
0000
,
0110
0000
1001
0001
0100
0010
1000
0200
,
0000
0000
0001
0000
1000
0300
0000
0000
0110
0000
0000
0000
1001
0000
0000
0000
,
1000
0000
0000
0000
0100
0010
0000
0000
0001
0100
0010
1000
0010
0100
0001
0010
,
0000
0000
0100
0000
1000
0000
0100
0010
0001
0100
0001
1000
0010
1000
0100
0010
,
0100
0000
1000
0000
0010
0100
0000
0001
0100
0010
1000
0001
1000
0100
0010
0001
,
0200
0000
0000
0000
0000
0000
0000
0000
0310
0100
0010
0100
0001
1000
0000
0000
,
2000
0000
0100
0000
3010
1000
0000
0100
0001
0100
1000
0010
0100
0001
0100
0010
,
0000
0000
0100
0000
0110
0000
0000
0001
1000
0010
0001
0010
0100
0001
0100
0010
,
0000
0000
1000
0000
0001
0100
0000
0010
0001
0010
0100
0001
1000
0100
0010
0001
,
0000
0000
0101
0000
1001
0000
1010
0000
1000
0100
0010
0100
1000
0010
0000
0000
,
0110
0000
0000
0000
0001
0100
0000
0010
0001
0010
0100
0001
1000
0100
0001
0100
,
0000
0000
1000
0000
1001
0000
0000
1000
0010
0100
0010
1000
0001
0100
0001
0010
,
0100
0000
1000
0000
0100
0001
0000
0100
0010
1000
0010
0001
1000
0010
0100
0001
,
0100
0000
1000
0000
0100
0000
0001
0000
0100
0010
1000
0100
0001
0100
0000
0000
,
0220
0000
0330
0000
0001
1000
0000
0010
0100
0001
0101
0000
0001
1000
1001
0000
,
0000
0110
0000
0000
1100
0000
0000
0000
0101
0000
0000
0000
0001
1000
0001
1000
,
0200
0000
0001
0300
0100
1000
0000
0010
0100
1000
0100
0001
0100
0010
1000
0001
,
0000
0000
1100
0000
0110
0000
0011
0000
0001
0100
0001
0010
1000
0010
0000
0000
,
0110
0000
0000
0000
1000
0001
0000
1000
0010
1000
0100
1000
0010
0001
0010
0100
,
0000
0000
0001
0000
0011
0000
0000
0001
0100
1000
0100
0010
1000
0100
0010
0001
,
0100
0000
0010
0000
1000
0001
0000
1000
0100
0001
0100
0010
0001
1000
0010
0100
,
0001
0000
0010
0000
0100
0000
1000
0000
0001
0100
1000
0100
0010
1000
0000
0000
,
1001
1100
1010
0101
,
0011
1001
0110
1100
,
0101
1010
0011
1001
,
1010
0101
1001
0110
,
1100
0101
1010
1100
,
0101
0011
1001
1010
,
0101
0000
0110
0110
1100
0000
1001
1001
,
0101
0000
0000
0000
0000
0000
0000
0000
0000
0000
0000
0000
0000
0000
0000
0000
0000
0000
0000
0000
0000
0000
0000
0000
0000
0000
0000
0000
0000
0000
0000
0000
0000
0000
0000
0000
0000
0000
0000
0000
0000
0000
0000
0000
0000
0000
0000
0000
0110
0000
0000
0000
0000
0000
0000
0000
0000
0000
0000
0000
0000
0000
0000
0000
0000
0000
0000
0000
0000
0000
0000
0000
0110
0000
0000
0000
0000
0000
0000
0000
0000
0000
0000
0000
0000
0000
0000
0000
0000
0000
0000
0000
0000
0000
0000
0000
1010
0000
0000
0000
0000
0000
0000
0000
0000
0000
0000
0000
0000
0000
0000
0000
0000
0000
0000
0000
0000
0000
0000
0000
0000
0000
0000
0000
0000
0000
0000
0000
0000
0000
0000
0000
0000
0000
0000
0000
0000
0000
0000
0000
0000
0000
0000
0000
2002
0000
0000
0000
0000
0000
0000
0000
0000
0000
0000
0000
0000
0000
0000
0000
0000
0000
0000
0000
0000
0000
0000
0000
0000
3003
0000
0000
0000
0000
0000
0000
0000
0000
0000
0000
0000
0000
0000
0000
0000
0000
0000
0000
0000
0000
0000
0000
,
0101
0000
0011
0010
0110
0000
1100
0000
,
1001
1010
0101
1001
,
1100
0000
0110
0100
1100
0000
1001
0000
,
0101
0001
1001
1000
1010
0000
0110
0000
,
0002
0000
0000
0020
0003
0000
0000
0000
0000
0000
0000
0000
0000
0000
2000
0030
,
0020
3000
0000
0200
0030
0000
0000
0000
1300
0001
0000
0100
0000
0000
0001
1000
,
0000
0100
0000
0000
1000
0001
1000
0000
1010
0000
0000
0000
0110
0000
0000
0000
,
0001
0010
1000
0010
0100
1000
1010
0000
,
1001
0000
0001
0100
0110
0000
1001
0000
,
1000
0100
1000
0001
0000
0010
0110
0000
,
0011
0000
0000
0001
0100
0000
0010
1000
0000
0000
0000
0000
0110
0000
1000
0001
,
0000
0000
0000
0000
1010
0000
0001
0100
0000
0000
0010
0000
1010
0000
1000
0000
,
0110
0000
0000
0000
0001
0010
0000
0001
0000
0000
0100
0000
1000
0000
0100
0000
,
0010
0000
0000
0000
1001
0000
0000
0000
1000
0100
0000
0010
0000
0000
0001
0100
,
0000
0010
0000
0000
1000
0001
1000
0000
1001
0000
0000
1001
0000
0000
0110
0000
,
0000
0000
0101
0000
0000
1001
0000
0000
1100
0000
0000
0000
1000
0000
0100
0000
,
1000
0000
0010
0000
1000
0000
0100
0000
0110
0000
0000
1001
0000
0000
0110
0000
,
0000
0000
0011
0000
0000
1010
0000
0000
1001
0000
0000
0000
0101
0000
0100
0000
,
0011
0000
0010
0000
0101
0000
0100
0000
0010
0000
0000
1000
0100
0000
1000
0001
,
0000
0000
0000
0000
0100
0000
0001
1000
0000
0000
0010
0000
0110
0000
0001
0000
,
0011
0000
0000
0000
1000
0001
1000
0200
0000
0000
0000
0000
0001
0000
0000
0000
,
1300
0000
0220
0000
0330
0000
0000
0000
0001
0100
0000
0001
0000
0000
1000
0100
,
0000
1000
0000
0001
1000
0001
1000
0000
0001
0000
0100
0001
0000
0000
0000
0000
,
1000
0000
0100
1000
0000
0000
0010
0000
0000
0000
0000
0000
0110
0000
0000
0000
,
1010
0000
0101
0000
0001
0100
1000
0100
,
0010
1000
0100
0010
0000
0000
0010
0100
,
1000
0000
0000
0000
0101
0000
0000
0000
1000
0000
0100
1000
0000
0000
0000
0000
,
0001
0000
0010
0001
0000
0000
0100
0000
0000
0000
0000
0000
0110
0000
0000
0000
,
1010
0000
0011
0000
1000
0000
0001
0100
,
0010
1000
0100
0001
0000
0000
0100
0010
,
0001
0000
1000
0001
1000
0000
0000
0000
0001
0000
0100
0000
0010
0000
1000
0000
,
0001
0000
0000
0100
0010
0000
0000
0000
1000
0000
0100
0000
0010
0000
0001
0000
,
1000
0000
0000
0100
0010
0000
0000
0000
0001
0000
0100
0000
1000
0000
0100
0000
,
0010
1000
0001
0010
1000
0010
0100
1000
,
0001
0100
0010
0000
1000
0001
0100
0010
,
1000
0000
0000
0001
0100
0000
0000
0000
0001
0000
1000
0000
0100
0000
0010
0000
,
0001
0000
0000
1000
0100
0000
0000
0000
0010
0000
0001
0000
0010
0000
1000
0000
,
0010
0100
1000
0001
0100
0010
1000
0001
,
0100
0000
0000
0000
0000
0000
0010
0000
0000
0100
0000
0000
0010
0000
0000
0000
0000
0000
1000
0000
0000
0000
0000
0000
1001
0000
0000
0000
0000
0000
1000
0000
0000
0000
0100
0000
0000
0000
0000
0000
0010
0000
0001
0000
0000
0000
0000
0000
,
0100
0000
0000
0010
0000
1000
0000
0000
0001
0100
0000
0100
1000
0000
0000
0100
0000
0000
0010
0000
1000
0000
0000
0100
,
0000
0000
0000
0010
0000
0000
0001
0000
0000
0100
0000
0000
0001
0000
0000
1000
0000
0100
0000
0000
0010
0100
0000
0000
,
1000
0000
0000
0010
0000
0100
0000
0000
0001
1000
0000
0001
0200
0000
0010
0000
0000
1000
0000
0000
0301
0000
0000
1001
,
0000
0000
0000
1000
0000
0000
0100
0000
0000
0010
0000
0000
1001
0000
0000
0001
0000
0100
0000
0000
0001
0010
0000
0000
,
0100
0000
0000
1000
0000
0010
0000
0000
1000
0100
0000
0100
0010
0000
0000
0001
0000
0000
1000
0000
0010
0000
0000
0100
,
0000
0000
0000
0001
0000
0000
0100
0000
0000
0010
0000
0000
1000
0000
0000
0100
0000
0001
0000
0000
0100
0010
0000
0000
,
0001
0000
0000
1000
0000
0010
0000
0000
1000
0001
0000
1001
0000
0000
0000
0101
0000
0000
0001
0000
1000
0000
0000
1100
,
0000
0000
0000
1001
0000
0000
0001
0000
0000
0100
0000
0000
0010
0000
0000
1000
0000
0000
0001
0000
0100
0000
0000
0100
,
0000
0000
0000
0010
0000
0000
1000
0000
0000
0100
0000
0000
0010
0000
0000
0001
0000
0000
1000
0000
0001
0000
0000
0001
,
0000
0000
0000
0100
0000
0000
0001
0000
0000
1000
0000
0000
0100
0000
0000
0010
0000
0000
0100
0000
1000
0000
0000
1000
,
0000
0000
0000
0010
0000
0000
0100
0000
0000
0001
0000
0000
1000
0000
0000
0010
0000
0000
1000
0000
0100
0000
0000
0100
,
0000
0000
0000
0010
0000
0001
0010
0000
0100
0000
0000
0000
1000
0000
0000
0010
0000
0000
1000
0000
0001
0000
0000
0001
,
0000
0000
0000
0100
0000
0000
0001
0000
0000
1000
0000
0000
0100
0000
0000
0010
0000
0000
0100
0000
1000
0000
0000
1000
,
0000
0000
0000
0010
0000
0000
0100
0000
0000
0001
0000
0000
0100
0000
0000
0010
0000
0000
1000
0000
0001
0000
0000
0001
,
0000
0000
0000
0010
0000
0000
1000
0000
0000
0010
0000
0000
0100
0000
0000
1000
0000
0000
0001
0000
0000
0100
0000
0110
,
0000
0000
0001
0000
1000
0000
0001
0000
0101
0000
0001
0100
0010
0000
1000
0100
,
0000
1000
0001
0010
0100
0010
0001
0000
1000
0010
0000
0010
1000
0000
1000
0001
,
0000
0100
0000
0010
0001
0010
1000
0100
0010
0000
0001
0100
0010
0000
1000
0001
,
0000
1000
0100
0010
0001
0100
0010
1000
0001
0100
0000
0001
0100
0000
0010
1000
,
0000
0010
1000
0000
0100
0000
0010
0001
1000
0000
0001
0010
0100
0000
1000
0001
,
0000
0100
0001
1000
0100
0010
0001
0000
1000
0010
0000
1000
0010
0000
0100
0001
,
0000
1000
0000
0100
0010
0100
1000
0010
0100
0000
0001
0010
0100
0000
0001
0100
,
0000
1000
0000
0010
0100
0001
1000
0100
1000
0001
0000
1000
0001
0000
0100
0010
,
0000
0100
0010
0000
1000
0000
0001
0000
1001
0000
0000
0000
1001
0000
0000
0000
,
1001
0000
1001
0000
0001
1000
0001
1000
,
0001
1000
0001
1000
0001
1000
0001
1000
0002
0000
0000
0000
0000
0000
0010
0000
,
0010
0010
0013
0000
0001
0100
1000
0100
,
0010
1000
0100
0010
1000
0010
0001
1000
,
0010
0100
0001
0010
1000
0010
0100
1000
,
0001
0100
1000
0100
0010
1000
0100
0010
,
0001
0000
0100
0010
0100
0000
1000
0000
0100
0000
0001
0000
1000
0000
0100
0000
,
0010
1000
0001
0100
0010
0001
1000
0010
,
0001
0010
0100
0010
1000
0001
1000
0100
,
0001
0100
0010
0001
0010
0100
0001
1000
,
0010
0000
0001
0010
0001
0000
0100
0001
0100
0000
0010
0000
1000
0000
0001
0000
,
0010
1000
0010
0001
1000
0010
0100
0001
,
0100
1000
0100
0001
1000
0010
0001
0010
,
0100
1000
0001
0010
0100
0001
1000
0100
,
0010
0000
0001
1000
0001
0000
1000
0100
1000
0000
0010
0000
0100
0000
1000
0000
,
0100
0000
0001
0000
1000
0000
0100
0010
0100
0000
1000
0000
0010
0000
0001
0000
,
0010
0000
0100
0000
0001
0000
0010
0100
0010
0000
0001
0000
0010
0000
0001
1000
,
0001
0000
0100
0000
1000
0000
0100
0010
0100
0000
0001
1000
0001
0000
1000
0100
,
1000
0000
0001
0100
0001
0000
1000
0000
2002
0000
0000
0000
0000
0000
0000
0000
,
0000
0000
0000
0000
,
0000
3003
0001
0100
,
0010
0000
0000
1000
0000
0000
0010
0000
1000
0000
0000
0000
0100
0000
0000
0000
,
0010
0000
0000
0001
0000
0000
0010
0000
1000
0000
0000
0000
0010
0000
0000
0000
,
0100
0000
0000
1000
0000
0000
0001
0000
0100
0000
0000
0000
0010
0000
0000
0000
,
1000
0000
0000
0001
0000
0000
1000
0000
0100
0000
0000
0000
1000
0000
0000
0000
,
0010
0000
0000
0100
0000
0000
0001
0000
0100
0000
0000
0000
0010
0000
0000
0000
,
1000
0000
0000
0100
0000
0000
0010
0000
1000
0000
0000
0000
0010
0000
0000
0000
,
0001
0000
0000
0100
0000
0000
0010
0000
1000
0000
0000
0000
0001
0000
0000
0000
,
0100
0000
0000
1000
0000
0000
0100
0000
0010
0000
1000
0000
0010
0000
1000
0000
,
0001
0000
0100
0001
0000
0100
0001
0000
1000
0000
0100
0000
0010
0000
0001
0000
,
1000
0000
0010
1000
0000
0010
1000
0000
0001
0000
0010
0000
0001
0000
0100
0000
,
0010
0000
1000
0001
0000
1000
0001
0000
1000
0000
0100
0000
1000
0000
0001
0000
,
0100
0000
0010
0100
0000
0010
0100
0000
0001
0000
1000
0000
0100
0000
0010
0000
,
0001
0000
1000
0010
0000
1000
0010
0000
1000
0000
0100
0000
1000
0000
0001
0000
,
0100
0000
0001
0010
0000
0001
0010
0000
0001
0000
0100
0000
0001
0000
0010
0000
,
0001
0000
1000
0001
0000
1000
0001
0000
0100
0000
0001
0000
1000
0000
0010
0000
,
1000
0000
0001
1000
0000
0001
1000
0000
1001
0000
0000
0000
0100
0000
0000
0000
,
0101
0010
1001
1010
,
1001
1100
0011
0001
,
0101
0010
1010
0110
,
0101
0000
1001
0000
1000
0100
1000
0010
,
1000
0100
1000
0010
0100
0001
0010
0001
,
0100
0001
0010
0001
2002
0000
0000
0000
,
0000
0000
0000
0000
0000
0000
3003
0000
2000
0000
0000
0100
0000
0000
0001
0000
,
0020
3000
0000
0000
0000
0000
0000
0000
0000
0000
0000
0000
0001
0000
0000
0000
0000
0000
0000
0000
0000
0000
0000
0000
0100
0000
0000
0000
0000
0000
0000
0000
1000
0030
0000
0000
0000
0000
0000
0000
0100
0000
0000
0000
0000
0000
0000
0000
0010
0000
0000
0000
0000
0000
0000
0000
0001
0000
0000
0000
0000
0000
0000
0000
,
1000
0000
0010
0000
0100
0000
0000
0000
0020
0000
0000
1000
0000
0000
0001
0000
,
0200
0030
0000
0000
0000
0000
0000
0000
0000
0000
0000
0000
1000
0000
0000
0000
0000
0000
0000
0000
0000
0000
0000
0000
0010
0000
0000
0000
0000
0000
0000
0000
0001
0300
0000
0000
0000
0000
0000
0000
0000
0000
0000
0000
0000
0000
0000
0000
0101
0000
0000
0000
0000
0000
0000
0000
0000
0000
0000
0000
0000
0000
0000
0000
,
1010
0000
0000
0000
1001
0000
0000
0000
0002
0000
0000
0100
0000
0000
1000
0000
,
0020
0003
0000
0000
0000
0000
0000
0000
0000
0000
0000
0000
1000
0000
0000
0000
0000
0000
0000
0000
0000
0000
0000
0000
0001
0000
0000
0000
0000
0000
0000
0000
0100
0030
0000
0000
0000
0000
0000
0000
1000
0000
0000
0000
0000
0000
0000
0000
0010
0000
0000
0000
0000
0000
0000
0000
0100
0000
0000
0000
0000
0000
0000
0000
,
1000
0000
0100
0000
0001
0000
0000
0000
0101
0000
0000
0011
0000
0000
0001
0000
,
1100
0000
0000
1010
0000
0000
0000
0000
1001
0000
0001
0000
0100
0000
0110
0000
,
0000
0000
1001
0000
1001
0000
0000
0000
2000
0000
0000
0010
0000
0000
0001
0000
,
0200
3000
0000
0000
0000
0000
0000
0000
0000
0000
0000
0000
0001
0000
0000
0000
0000
0000
0000
0000
0000
0000
0000
0000
1000
0000
0000
0000
0000
0000
0000
0000
0010
0300
0000
0000
0000
0000
0000
0000
0001
0000
0000
0000
0000
0000
0000
0000
0100
0000
0000
0000
0000
0000
0000
0000
1000
0000
0000
0000
0000
0000
0000
0000
,
0100
0000
0001
0000
0010
0000
1000
0000
0020
0000
0000
0100
0000
0000
1000
0000
,
0002
0030
0000
0000
0000
0000
0000
0000
0000
0000
0000
0000
0100
0000
0000
0000
0000
0000
0000
0000
0000
0000
0000
0000
0010
0000
0000
0000
0000
0000
0000
0000
1000
0003
0000
0000
0000
0000
0000
0000
0000
0000
0000
0000
0000
0000
0000
0000
1010
0000
0000
0000
0000
0000
0000
0000
0000
0000
0000
0000
0000
0000
0000
0000
,
0101
0000
0000
0000
1001
0000
0000
0000
0002
0000
0000
1000
0000
0000
0010
0000
,
0200
0003
0000
0000
0000
0000
0000
0000
0000
0000
0000
0000
1000
0000
0000
0000
0000
0000
0000
0000
0000
0000
0000
0000
0001
0000
0000
0000
0000
0000
0000
0000
0010
0300
0000
0000
0000
0000
0000
0000
1000
0000
0000
0000
0000
0000
0000
0000
0001
0000
0000
0000
0000
0000
0000
0000
0010
0000
0000
0000
0000
0000
0000
0000
,
1000
0000
0001
0000
0100
0000
1000
0000
1010
0000
0000
1100
0000
0000
0010
0000
,
0011
0000
0000
0101
0000
0000
1000
0000
1001
0000
0001
0000
1000
0000
0100
0000
,
0000
1001
1001
0000
0110
0000
0000
0000
,
0000
0000
1001
0000
1001
0000
0000
0000
1000
0000
0001
0100
0001
0000
1000
0000
,
0100
0000
0001
0000
0100
0000
1000
0000
0010
0000
0100
0001
0100
0000
0010
0000
,
1000
0000
1000
0000
1000
0000
0000
0000
0001
0010
0100
0010
0100
1000
0001
1000
,
0010
0000
0100
0000
0001
0000
1000
0000
0100
0010
0001
1000
0001
0100
0010
1000
,
0010
0000
0100
0000
0001
0000
1000
0000
0100
0000
0010
0001
1000
0100
0010
0000
,
0001
0000
1000
0000
0001
0000
0100
0000
0010
0000
1000
0010
0100
0001
1000
0000
,
0100
0000
0100
0000
0100
0000
0000
0000
0010
0000
0001
0010
0100
1000
0100
0010
,
0001
0100
0010
1000
0010
0100
0001
0000
0001
0100
0000
0000
0010
1000
0000
0000
,
0100
0110
0110
0110
0020
0000
0000
0000
,
0000
0000
0030
0000
0110
MMMM
1001
MMMM
,
0110
MMMM
1001
MMMM
1000
0010
0100
0001
,
0010
0110
0110
0000
1000
0100
0010
0100
,
1000
0000
0000
0000
0010
0000
0000
0000
0100
0000
0000
0000
0001
0000
0000
0000
1000
0000
0100
0000
0002
0000
0000
0003
1000
0000
0010
0000
0002
0000
0000
0003
,
1000
0000
0010
0000
0002
0000
0000
0003
1000
0000
0100
0000
0002
0000
0000
0003
1001
0000
0000
0000
MMMM
0000
0000
0000
0110
0000
0000
0000
MMMM
0000
0000
0000
,
1001
MMMM
0110
MMMM
0001
0100
0010
1000
,
0001
1001
1001
0000
1000
0010
0100
0010
,
0001
0010
0100
0001
1001
0000
0100
0010
,
0110
0000
0000
0000
0100
0010
0100
0010
0100
0000
MMMM
0000
1100
0000
MMMM
0000
,
0011
MMMM
1001
MMMM
0001
0100
0001
1000
,
0010
1001
1001
0000
1000
0010
1000
0100
,
0010
0000
0000
0000
0001
0000
0000
0000
0010
0000
0000
0000
1000
0000
0000
0000
0010
0000
0001
0000
0200
0000
0000
0300
1000
0000
0100
0000
0002
0000
0000
0003
,
0010
0000
0100
0000
2000
0000
0000
3000
0001
0000
0010
0000
2000
0000
0000
3000
1010
0000
0000
0000
MMMM
0000
0000
0000
0110
0000
0000
0000
MMMM
0000
0000
0000
,
0101
MMMM
0110
MMMM
0001
1000
0010
0001
,
0010
0110
0110
0000
1000
0100
0001
0100
,
0010
0000
1000
0000
0010
0000
0001
0000
1000
0100
1000
0100
0010
0001
0010
0001
,
1000
0010
0100
0001
0100
0010
1000
0001
0020
0000
0000
0000
0000
0000
0100
0130
,
0110
0110
0000
1001
0000
1001
0001
2000
,
0100
3010
1000
0100
0001
0100
0000
1000
,
0020
0100
0031
0010
0000
1000
0010
0001
,
1000
0100
0001
0010
0000
0100
1000
0000
,
0020
0000
0130
0002
0000
0023
0000
2030
,
0000
3010
0110
0100
0000
1000
1001
0002
,
0000
0000
0100
0000
0013
0000
0002
0000
0000
0000
1003
0000
0001
1000
0001
1000
,
0001
0100
0001
1000
0020
1000
0001
0030
,
0010
0100
1000
0100
0001
1000
0100
0001
,
1000
0010
0100
1000
0200
0001
1000
0300
,
0100
0010
0001
0100
1000
0100
0010
1000
,
0001
0010
0100
1000
0002
0100
0010
0003
,
0001
0100
0010
0100
1000
0001
0010
1000
,
0100
0010
0110
0100
0000
1001
1000
0000
,
0001
0000
1000
0100
1000
0000
0010
0000
0100
0001
0100
0001
0100
0000
0010
0000
,
0110
0000
0000
0002
,
2003
0000
0000
3200
0000
0000
0302
0000
,
0203
0000
0000
0320
0000
0000
0230
0000
,
0000
0000
0000
0300
,
1000
0000
0010
0000
1000
0001
0000
1000
,
0000
0000
0100
0000
1000
0001
1000
0001
1000
0001
1000
0001
1000
0001
1000
0001
,
1000
0000
0000
0022
0033
0220
0330
2002
,
0003
0100
0000
3000
2002
0000
0000
3003
,
1001
0000
1100
0000
0101
0110
0000
2002
,
0000
3003
0001
0100
0001
1000
0010
1000
0100
0010
0001
0010
0100
1000
0001
0100
,
0001
0000
1100
0000
1001
0011
0000
2002
,
0000
0000
0000
3003
0000
0000
1000
0000
0000
0010
0000
0000
1000
0000
0000
0001
0000
0000
0100
0000
0000
0001
0000
0000
0010
0000
0000
0000
0000
0000
0000
0000
0000
0110
0000
0000
0000
0000
0000
0000
0000
0000
1000
0000
0001
0000
1000
0000
,
0002
0000
0000
0023
0030
0110
1000
0100
,
1001
0000
0101
0000
0110
0000
0010
1000
0010
0000
0100
0000
0001
1000
0001
1000
,
0100
0001
0100
1000
0010
0100
0001
0010
,
0001
0100
1000
0100
0001
0100
1000
0100
,
0100
0100
0100
0100
0100
0100
0100
0100
,
0010
0100
0000
0001
0100
0000
1000
0100
0000
0010
0100
0000
0001
0100
0001
0100
,
0010
1000
0010
1000
0001
0010
0100
1000
0100
0010
0001
1000
0001
0100
0010
1000
,
0100
0000
1000
0001
1000
0001
0100
0000
0000
0000
0110
0000
1001
0000
0000
0000
,
0001
0000
0010
0001
0010
0100
1000
0100
0010
0000
0001
0000
1000
0000
0020
0000
,
0030
0100
1000
0200
0300
0010
1000
0002
,
0003
0000
0100
0001
1000
0010
1000
0001
0100
0000
0010
0000
1000
0000
0200
0000
,
0300
0000
0010
0000
1000
0000
0020
0000
0030
0000
0001
0000
2000
0000
3000
0001
,
0010
0000
0100
1000
0001
1000
0001
0010
0100
0000
1000
0000
0010
0000
0200
0000
,
0300
0001
0010
0200
0300
1000
0010
0200
,
0300
0001
0100
0010
1000
0010
0100
0001
1000
0001
1000
0010
0100
0001
1000
0000
,
0001
0010
0100
1000
0100
0010
0001
0000
0100
0010
1000
0001
0010
0100
1000
0001
,
0100
0000
0001
0010
0100
1000
0010
0100
1000
0000
0100
0000
0001
0000
2000
0000
,
3000
0100
0001
0200
0300
0010
0001
2000
,
3000
0000
0010
0100
0001
1000
0010
0001
0010
0000
0100
0000
0001
0000
0020
0000
,
0030
0100
1000
0002
0003
0010
2000
3000
,
0010
0000
0100
1000
0001
0100
0010
0001
0010
1000
0100
0001
0100
1000
0020
0000
,
0030
0000
0100
0000
0001
0000
0020
0000
0030
0000
0100
1000
0100
1000
0001
0000
,
1001
0000
0110
0110
0000
1001
1001
0000
,
1001
0000
0001
0000
1000
0010
0100
0001
0100
1000
0100
0010
1000
0100
0010
1000
,
0010
0001
1000
0010
0100
0001
0100
0010
0001
0010
0200
0000
0300
0000
0001
1000
,
0100
0001
0100
0010
0001
1000
0010
0100
0001
1000
0100
0010
1000
0010
0001
0100
,
0010
0100
1000
0100
0001
1000
0100
0010
0001
0100
0020
0000
0030
0000
1000
0100
,
0010
1000
0010
0001
1000
0010
0001
0010
0100
0001
1000
0100
0010
1000
0010
0100
,
0001
0100
1000
0010
0100
0001
1000
0010
0001
0010
0200
0000
0300
0000
0001
0010
,
1000
0010
0100
1000
0100
0010
0001
1000
0010
0001
0010
0100
0001
0010
1000
0010
,
0100
1000
0001
0100
0010
1000
0100
0001
0100
1000
0020
0000
0030
0000
0100
1000
,
0100
0010
1000
0100
0010
0001
0100
0010
0001
0010
1000
0010
0100
0001
0010
0100
,
1000
0001
1000
0001
1000
0001
1000
0001
1000
0001
1000
0001
1000
0001
1000
0001
,
0100
0001
0100
0001
0100
0001
0100
0001
0100
0001
0100
0001
0100
0001
0100
0001
,
0010
1000
0001
0100
1000
0010
0100
1000
0001
0010
0100
0001
,
1000
0100
0001
1000
0010
0001
0100
1000
0001
0010
1000
0100
,
0020
0000
0000
0000
,
0000
0000
0000
0000
0000
0030
0100
0010
0100
0000
1000
0000
0001
0000
0100
0000
,
0010
1000
0000
0001
1000
0000
0100
0010
0100
0000
1000
0000
0010
0000
0001
0000
,
0010
0100
0000
0001
0010
0000
1000
0010
0000
0100
1000
0000
0001
0000
0100
0010
,
0100
0000
0100
0000
0001
0010
0000
0100
0000
0001
0100
0000
1000
0000
0010
0100
,
0010
0000
0001
0000
0010
0000
1000
0000
0100
0001
0100
0010
0001
0100
1000
0100
,
0010
1000
0000
0010
0001
0000
0010
0100
0000
0000
0001
0000
0010
0000
0100
0010
,
0100
1000
0000
0100
0001
0000
1000
0010
0000
0001
1000
0000
0010
0100
0001
0100
,
0010
0000
0010
0000
0001
0000
0010
0100
0001
0000
0001
0000
0010
0000
0100
1000
,
0100
0000
0100
0000
0001
0000
0200
0000
0000
0300
0010
0001
0010
1000
0010
0100
,
1000
0010
0000
0100
1000
0000
0100
0001
1000
0100
0001
0100
0010
0001
0100
0010
,
0001
0010
0000
1000
0001
0000
1000
0100
0000
0000
0110
0000
0110
0000
0001
0100
,
0001
0000
0000
0000
0000
0000
0001
0000
0000
0000
0000
0000
1000
0000
0000
0000
0000
0000
0100
0000
0000
0001
0000
0000
1000
0000
0000
0000
0010
0000
0000
0000
0001
0000
0000
0000
0100
0000
0000
0000
1000
0000
0000
0000
0001
0000
0000
0000
,
0010
0100
0000
0001
0100
0010
1000
0000
0100
0000
0020
0000
0000
0030
0100
1000
,
0010
0000
0100
0000
0110
0000
0100
0001
0010
0000
0100
0000
1000
0000
0001
0100
,
1000
0000
0100
0000
0110
0000
0010
1000
0100
0001
0100
0010
0100
1000
0010
0100
,
0001
0100
1000
0100
0010
1000
0001
0100
1000
0100
0001
0010
0001
0100
1000
0100
,
0010
1000
0100
0001
0100
0010
1000
0010
0001
1000
0010
0001
0010
0100
0001
1000
,
0100
0001
0000
0100
1000
0010
0100
0001
,
0100
1000
0000
0100
0010
1000
0100
0001
,
0100
1000
0000
0010
0100
0001
0010
1000
,
0010
0100
1000
0001
0100
0010
0110
0000
,
1001
1001
1001
0001
0100
1000
0100
0001
,
0010
1000
0000
0010
0100
1000
0001
1000
,
1001
0000
1000
0000
0010
0000
0100
0000
0110
0000
0001
0000
1000
0000
0100
0010
0100
0000
1000
0000
1010
0000
0010
0000
0100
0001
0100
0000
0010
0000
0010
0000
,
1000
0010
0001
0010
0100
0001
1000
0100
,
0001
1000
0010
0001
1000
0010
0100
0001
,
1000
0100
0001
0100
1000
0010
0100
1000
,
0100
0001
0010
0100
1000
0001
0101
0101
,
0100
0010
1000
0001
0010
0100
1000
0010
,
0001
0000
0010
0000
1000
0000
0100
0000
0001
0000
0100
0000
1000
0000
0010
0100
,
0010
0000
0000
0000
0100
0000
0001
0000
0010
0000
1000
0000
0010
0000
0001
1000
,
0001
0000
0000
0000
0010
0000
0100
0000
1000
0100
0010
0001
1000
0000
0000
0000
,
0110
0001
0100
1000
0100
0001
0010
1000
,
0010
0100
1000
0001
1000
0010
0100
0001
,
0100
1000
0100
0001
0010
1000
0010
0100
,
1000
0000
0010
0000
0100
0000
0001
0000
0011
0000
0110
0000
0100
1000
0100
0000
,
0010
1000
0010
0001
0100
1000
0100
0001
,
1000
0100
0001
0100
1000
0010
0100
0110
,
0100
0001
0010
0110
0100
1000
0001
1001
,
1000
0000
1001
0000
0001
0000
1001
0000
1000
0000
0001
0100
0010
1000
0002
0000
,
0000
0000
0000
0000
0000
0000
0000
0000
0000
0000
0003
0000
0001
1000
0010
0001
,
1000
0100
0010
0001
1000
0100
0001
1000
0100
0010
1000
0001
1000
0001
0100
0010
,
0001
0100
1000
0001
0010
0100
0010
0001
1000
0100
0001
1000
0010
0100
1000
0001
,
0010
0100
0001
0010
0100
1000
0010
0100
1000
0001
0010
0100
0001
1000
0010
0100
,
0001
0010
1000
0100
1000
0010
0001
0100
0010
0001
1000
0100
0001
1000
0100
0001
,
0010
0001
0100
1000
0010
0100
0001
1000
0100
0001
1000
0010
0100
1000
0010
0100
,
1000
0001
0010
1000
0100
0001
1000
0010
0001
1000
0010
0100
0001
0010
1000
0010
,
0100
0000
1000
0000
0010
0000
0001
0000
0010
0000
0100
0000
0001
0000
1000
0000
0100
0000
0001
0000
0100
0000
1000
0000
0001
0100
0010
1000
0001
0100
0010
1000
,
0001
0010
0100
1000
0001
0010
0100
1000
0010
0000
0001
0000
1000
0000
0100
0000
0001
0000
0010
0000
1000
0000
0001
0000
0200
0000
0000
0000
0000
0000
0000
0000
,
0000
0000
0000
0300
;

//---------------dance-single - ver. Kekkle----------------
#NOTES:
     dance-single:
     ver. Kekkle:
     Hard:
     18:
     0.808944,1.255586,0.348375,0.545721,0.693730,2812.000000,2639.000000,173.000000,271.000000,14.000000,0.000000,0.808944,1.255586,0.348375,0.545721,0.693730,2812.000000,2639.000000,173.000000,271.000000,14.000000,0.000000:
0000
0000
0000
0000
,
0000
0000
0000
0000
,
0000
0000
0000
0000
,
0000
0000
0000
0000
,
0000
0000
0000
0000
,
0002
0000
0000
0203
0000
0000
0000
0320
,
0000
0000
0032
0000
0000
2003
0000
0000
,
3200
0000
0000
0320
0000
0000
0000
2030
,
0000
0000
3200
0000
0000
0320
0000
0000
,
0031
0000
0000
0000
0200
0000
0000
0000
1000
0000
0000
0010
0000
0000
0301
0000
,
1000
0000
0000
0000
0200
0000
0000
0000
0001
0000
0000
0010
0000
0000
1300
0000
,
0001
0000
0000
0000
0020
0000
0000
0000
1000
0000
0000
0100
0000
0000
0031
0000
,
1000
0000
0000
0000
0020
0000
0000
0000
0001
0000
0000
0100
0000
0000
1030
0000
,
0001
0000
0000
0000
0100
0000
0000
0000
1010
0000
0000
1001
0000
0000
1100
0000
,
0100
0000
0000
0000
0010
0000
0000
0000
0011
0000
0000
1001
0000
0000
0101
0000
,
0100
0000
0000
0000
0010
0000
0000
0000
1010
0000
0000
0110
0000
0000
0101
0000
,
0001
1000
0001
1000
0100
0010
0100
0010
0001
1000
0010
0100
0001
0000
0000
0000
,
1001
0000
0001
0011
0000
1000
1010
0000
,
0101
0000
0001
0011
0000
1000
1100
0001
,
0101
0000
1000
1010
0000
0001
0101
0000
,
1100
0000
0000
0000
0110
0000
0000
0000
1001
0000
0000
0001
0100
0000
0010
1000
,
0001
0001
0010
1000
0010
0010
0100
1000
,
0001
0001
0100
0010
0001
0001
0010
1000
,
0001
0010
0100
1000
0001
0100
0010
0001
0010
0100
0001
1000
,
0200
0000
0000
0000
0000
0000
0000
0000
0310
0001
0010
0000
0001
0000
1000
0000
,
1020
0000
0130
0001
1100
0000
0100
0010
,
0020
0031
0100
0000
0110
0001
1000
0100
,
0020
0000
0031
1000
0101
0000
0001
1000
,
2000
3100
0010
0000
0011
0000
0001
1000
,
0020
0000
0130
0001
1010
0000
1000
0100
,
0001
0100
1000
0010
0100
0001
0100
0010
,
2000
0000
3001
0010
1100
0000
1000
0001
,
0100
0100
0010
1000
0001
0000
0001
0000
,
2001
0000
0000
0000
3100
0010
0000
0001
0100
0001
0100
0010
1000
0010
0100
0002
,
0000
0000
1003
0000
0100
0000
1000
0001
0100
0001
0010
0100
0010
0001
1000
0002
,
0000
0000
0103
0000
0010
1000
0000
0010
0100
0001
0100
0010
1000
0001
1000
0200
,
0000
0000
0310
0000
0001
0000
0001
0000
1000
0010
0001
0010
1000
0002
0000
0000
,
1003
0000
0000
0000
0001
0010
0000
0100
0010
0001
1000
0010
1000
0010
0100
0002
,
0000
0000
0103
0000
0010
0000
1000
0100
0010
0100
1000
0100
0010
0001
0010
0002
,
0000
0000
0103
0000
0010
1000
0000
0010
0100
0001
1000
0100
0010
0100
0010
0002
,
0000
0000
0103
0000
0010
0000
0010
0000
1000
0100
0001
0100
1000
0002
0000
0000
,
0203
0000
0000
0000
0310
1000
0000
0001
0010
0000
0011
0000
0000
0000
1100
0000
,
0000
1001
0000
0000
0110
0000
0010
0000
2000
0000
0000
0000
3001
0010
0001
0010
,
0200
0000
0000
0000
1300
0001
0000
0100
0001
1000
0100
0010
0100
1000
0001
0200
,
0000
0000
0310
0000
1000
0000
1000
0000
0001
0010
1000
0010
0001
2000
0000
0000
,
3010
0000
0000
0000
0100
0001
0000
1000
0001
0010
0001
0010
0100
0010
0001
2000
,
0000
0000
3010
0000
0001
0000
0010
1000
0010
1000
0001
0010
0100
1000
0100
0020
,
0000
0000
0031
0000
0100
0001
0000
0100
0010
1000
0001
0010
0001
1000
0010
2000
,
0000
0000
3001
0000
0010
0000
0010
0000
0001
1000
0001
1000
0001
0200
0000
0000
,
0310
1000
0100
0001
0100
0010
0001
0100
,
1000
0100
0001
0100
1000
0100
0001
0100
,
0010
1000
0100
0001
0000
0001
0000
0001
,
0100
1000
0010
0001
0000
0001
0000
0001
,
0010
1000
0001
0010
0100
0010
1000
0010
,
0001
0010
1000
0010
0001
0010
0100
1000
,
0010
0100
0101
0101
0001
0010
0110
0110
,
0100
1000
1100
1100
0100
1000
1001
1001
,
0001
0100
0010
0001
0010
1000
0100
0001
,
0100
1000
0100
0001
0100
1000
0100
0001
,
0100
0010
0001
0100
0000
0100
0000
0100
,
1000
0001
0010
1000
0000
1000
0000
1000
,
0M02
0000
0000
0023
0000
0000
2030
0000
3100
0000
0100
0000
0001
0000
0200
0000
,
2300
0000
0000
3002
0000
0000
0000
0000
0M13
1000
0000
1100
0000
0000
0010
0001
,
0000
0101
0000
0000
0100
0010
0100
0000
0020
0000
0000
0000
0001
0000
0000
0000
,
1030
0100
0001
0100
0010
0001
1000
0010
,
1000
0100
0010
0100
1000
0100
1000
0000
0200
0000
0000
0000
0001
0000
0000
0000
,
1300
0010
0100
0010
0001
0010
1000
0001
,
0010
0001
0010
0001
1000
0010
1000
0020
0000
0000
0130
0000
0001
0000
1000
0200
,
0000
0000
0310
0000
0100
0000
0001
0200
0000
0000
1300
0000
0010
0000
0100
0000
,
0001
0100
0001
0100
0010
0100
0010
2000
0000
0000
3001
0000
0010
0000
0001
0000
,
0100
0000
0100
0000
0010
0000
0000
0000
1000
0100
0000
0110
0000
0000
0001
0100
,
0000
0110
0000
0000
0010
1000
0010
0000
2000
0000
0000
0000
3002
0000
0000
0000
,
0023
0000
0000
0130
1000
0000
0001
0100
0000
0100
0001
0000
0010
0000
0001
0000
,
0100
0000
0110
0010
2000
0000
3002
0000
,
0203
0000
0000
0310
1000
0000
0100
0010
0000
0010
0100
0000
1000
0000
0001
0000
,
0100
0001
0100
0001
1000
0001
1000
0002
0000
0000
0013
0000
0001
0000
1000
0020
,
0000
0000
0031
0000
0010
0000
1000
0020
0000
0000
0130
0000
0001
0000
0010
0000
,
0100
1000
0001
1000
0100
1000
0001
0000
0100
0000
0100
0000
0010
0000
0010
0000
,
2000
0000
0000
0000
3001
0000
0010
0000
0001
0100
0000
010M
0000
0000
1000
0010
,
0000
0M10
0000
0000
0001
0000
0100
0000
0010
0000
0010
2000
0000
0000
3100
0000
,
0010
0000
0010
0002
0000
0000
0103
0000
0020
0000
0000
0000
0001
0000
0000
0000
,
0100
0000
1030
0001
0010
0010
0100
0100
,
1000
0010
0001
0010
1000
0000
0000
0001
,
0020
0000
0000
0000
0230
0000
0000
0000
1300
0000
1000
0200
0000
0000
0310
0000
,
0001
0000
0001
0200
0000
0000
0310
0000
0200
0000
0000
0000
1000
0000
0000
0000
,
0010
0000
0301
1000
0200
0000
0310
0001
,
0010
1000
0010
0001
0100
0000
0010
1000
,
0001
0000
0000
0010
0001
0000
1000
0000
0010
0000
1000
0010
1000
0000
0001
0000
,
0010
0000
0001
0010
0001
0000
0100
0000
0010
0000
0010
0000
1000
0000
0001
0000
,
0020
0000
0031
0100
0020
0000
0001
0000
,
1000
0000
0001
0000
0130
0001
1000
0100
,
0010
0000
0001
0000
1001
0000
0000
0000
1000
0000
0100
1000
0100
0000
0010
0000
,
0001
0000
0100
0001
0100
0000
0001
0000
0010
0000
0010
0000
0100
0000
1000
0000
,
0002
0000
1003
0010
0200
0000
1000
0000
,
0001
0000
1000
0000
0310
1000
0001
0010
,
0001
0000
0000
0001
0000
0000
1001
0000
0000
1000
0000
0000
0010
0000
0000
0010
0000
2000
0000
0000
3001
0010
0000
0000
,
0100
0000
0000
0100
0000
0020
0000
0000
0031
0100
0000
0010
1000
0000
0000
0001
0000
0000
1000
0000
1000
0000
0000
0200
,
0000
0000
0000
0310
0000
0000
0001
0000
0000
0001
0000
0000
1000
0000
0000
1000
0000
0020
0000
0000
0130
0001
0000
0000
,
0010
0000
0000
0010
0000
0002
0000
0000
1003
0100
0000
0100
0010
0000
0001
0000
0000
1000
0000
0000
0010
0100
0000
0020
,
0000
0000
0000
1030
0000
0000
1001
0000
0000
1001
0000
0000
0001
0000
0000
1000
0000
0200
0000
0000
0310
0001
0000
0000
,
0100
0000
0000
0010
0000
2000
0000
0000
3001
0010
0000
0010
0100
0000
0000
1000
0000
0000
0001
0000
0001
0000
0000
0200
,
0000
0000
0000
0310
0000
0000
1000
0000
0000
1000
0000
0000
0100
0000
0000
0010
0000
0200
0000
0000
1300
0001
0000
0000
,
0100
0000
0000
0010
0000
2000
0000
0000
3001
0010
0000
0210
0000
0000
0000
1300
0001
1000
0010
0000
0100
0000
0000
0120
,
0000
1030
0001
0001
0020
0000
0100
0000
,
0000
1000
0000
0100
,
0000
0031
0200
0010
,
0000
1000
0000
0010
,
0000
0000
0000
0000
0000
0000
0301
0000
0000
0000
0000
0000
1000
0000
0000
0000
0000
0000
0100
0000
0000
0000
0000
1000
,
0000
0000
0000
1000
0000
0000
0001
0000
0000
0000
0000
0000
0100
0000
0000
0100
0000
0000
0010
0000
0000
0000
0000
1000
,
0000
0000
0000
0001
0000
0000
0010
0000
0000
0010
0000
0000
0001
0000
0000
0000
0000
0000
1000
0000
0000
0000
0000
0010
,
0000
0000
0000
0010
0000
0000
0100
0000
0000
0000
0000
0000
0001
0000
1000
0001
0000
0000
0100
0000
0000
0100
0000
0220
,
0000
0000
0000
0000
0000
0000
0330
0000
0010
0000
1000
0010
1000
0000
0010
0100
,
0000
0100
0001
1000
0001
1000
0100
0000
0010
0001
0010
0001
1000
0000
0010
0100
,
0000
0100
0000
0001
1000
0100
1000
0100
0010
0001
0100
0001
0100
0000
0010
1000
,
0000
1000
0000
0001
0010
0100
0010
0001
1000
0010
0000
0001
0010
0000
1000
0100
,
0000
0001
0100
0000
1001
0000
0001
0000
1000
0010
0100
0010
1000
0000
0001
0010
,
0000
0010
0001
1000
0001
1000
0010
0000
0100
0001
0100
0001
1000
0000
0100
0010
,
0000
0010
0000
0001
0100
0001
0100
0010
1000
0001
1000
0100
0010
0000
0100
1000
,
0000
1000
0000
0010
0100
0001
1000
0001
1000
0100
0000
0001
0100
0000
1000
0010
,
0000
0001
0010
0000
1000
0000
1000
0000
0002
0000
0000
0000
0023
0000
0000
0000
,
2030
0000
3200
0000
0301
0100
0010
1000
,
0001
1000
0001
1000
0001
1000
0001
1000
0020
0000
0000
0000
0000
0000
0000
0000
,
0000
0000
0030
0000
0020
0000
1030
0100
,
0001
0100
1000
0001
0200
0000
0310
0001
,
0010
1000
0001
0010
0200
0000
0301
1000
,
0010
0001
0100
0010
1000
1000
0001
0001
,
0010
0000
0100
1000
0000
0000
0001
0000
0200
0000
0000
0000
0310
0000
0001
0000
,
1000
0100
0001
0010
2000
0000
3010
0001
,
1000
0010
0100
0001
0020
0000
0130
0001
,
0100
0000
1000
0000
0010
0000
0100
0000
0001
0000
0001
0000
1000
0000
0100
0010
,
0000
0000
0001
0100
0000
0010
1000
0000
0100
0000
1000
0000
0100
0010
0001
0020
,
0000
0000
0031
0000
1001
0000
1000
0000
0010
0000
0100
0000
0001
1000
0001
0020
,
0000
0000
0130
0000
1100
0000
1000
0000
0001
0000
0100
0000
0010
0100
0001
0200
,
0000
0000
0310
0000
1010
0000
1000
0000
0001
0000
0010
0000
0100
0010
0001
2000
,
0000
0000
3010
0000
0110
0000
0100
0000
0001
0000
0001
0000
1000
0100
0010
0002
,
0000
0000
0103
0000
0110
0000
0010
0000
1000
0000
1000
0000
0001
0010
0100
2000
,
0000
0000
3010
0000
0110
0000
0100
0000
0001
0000
0001
0000
1000
0100
1000
0100
,
0010
0000
0001
0000
0100
0000
0100
0000
0010
0000
0000
0010
1000
0000
0000
1000
,
0001
0000
0001
1000
0100
0000
0010
0000
0220
0000
0000
0000
0000
0000
0000
0000
,
0000
0000
0000
0000
,
0000
0000
0330
0000
0200
0000
1300
0010
,
0200
0000
0301
0000
0020
0000
0031
0100
,
0010
1000
0010
0010
2000
0000
3100
0010
,
0002
0000
0103
0000
0020
0000
1030
0001
,
0010
0100
0000
0100
0000
1000
0001
0000
2000
0000
0000
0000
3001
0000
0100
0000
,
0020
0000
0130
0000
0002
0000
0013
0100
,
0010
0001
0100
0100
0020
0000
1030
0001
,
0020
0000
0031
0000
2000
0000
3010
0100
,
0001
1000
0000
1000
0000
0100
0010
0000
0011
0000
0000
0001
1000
0000
0010
0000
,
1000
0000
0000
0010
1000
0000
0001
0000
0010
0000
0000
0001
0010
0000
1000
0000
,
0010
0000
0001
0000
1000
0010
1000
0000
1001
0000
0000
0001
0100
0000
0010
0000
,
1000
0000
0000
0100
0010
0000
0001
0000
0100
0000
0000
0001
0010
0000
0100
1000
,
0100
1000
0000
0001
0000
0100
0001
0000
0101
0000
0000
0100
0010
0000
1000
0000
,
0001
0000
0000
0010
0001
0000
0010
0000
0100
0000
0000
1000
0010
0000
0100
0000
,
0001
0000
1000
0100
1000
0000
0010
0000
0210
0000
0000
0301
1000
0000
0100
0000
,
0010
0000
0000
0100
0010
0000
0001
0000
0100
0000
0000
0010
1000
0000
0010
0100
,
0010
0100
0000
0001
0000
1000
0100
0000
0120
0000
0000
0000
1000
0000
0000
0000
,
0001
1000
0230
1000
,
0320
0031
2001
0010
,
0100
0001
3020
0100
,
2030
0000
3001
0000
1001
1000
0100
0100
,
0010
0010
0001
0001
1001
1000
1010
0010
,
0110
0100
0101
0001
2002
0000
0000
0000
,
0000
0000
0000
0000
3003
0000
0000
0000
1010
0000
0000
0100
0000
0000
0001
0000
,
0011
0000
0000
0100
0000
0000
1000
0000
0010
0000
0001
0000
0010
0000
1000
0000
,
0100
0000
0010
0000
0001
0000
0100
0000
0101
0000
0000
0010
0000
0000
1000
0000
,
1100
0000
0000
0010
0000
0000
0001
0000
2002
0000
3003
0000
2200
0000
3300
0000
,
0022
0000
0033
0000
0202
0000
0303
0000
0110
0000
0000
0010
0000
0000
1000
0000
,
1001
0000
0000
0001
0000
0000
0010
0000
1000
0000
0010
0000
0001
0000
0100
0000
,
0010
0000
1000
0000
0010
0000
0000
0000
1010
0000
1000
0100
0000
0000
0010
0000
,
0101
0000
0100
0010
0000
0000
1000
0000
0002
0000
0000
0000
0103
0000
0010
0000
,
0000
0000
0110
0000
1001
0000
0000
0000
1100
0000
0010
0001
0000
0000
0100
0000
,
0101
0000
0010
1000
0000
0000
0010
0000
0100
0000
0100
0000
0001
0000
1000
0000
,
0100
0000
0010
0000
0011
0000
0000
0000
0101
0000
0010
1000
0000
0000
0100
0000
,
1100
0000
0010
0001
0000
0000
0100
0000
0202
0000
0303
0000
2020
0000
3030
0000
,
2200
0000
3300
0000
0022
0000
0033
0000
1001
0000
1000
0010
0000
0000
0100
0000
,
0101
0000
0001
1000
0000
0000
0100
0000
0001
0000
0100
0000
1000
0000
0010
0000
,
0100
0000
0001
0000
0100
0000
0010
0000
1010
0000
1000
0100
0000
0000
0010
0000
,
0011
0000
0001
0100
0000
0000
0010
0000
2000
0000
0000
0000
0001
0000
3001
0000
,
0000
0100
0110
0000
2002
0000
0000
0000
,
0000
0000
0000
0000
3003
0000
0000
0000
0001
0000
1000
0100
0010
0000
0100
0000
,
2000
0000
0000
0000
3001
0100
0001
0100
0010
0000
1000
0001
0010
0000
0100
0000
,
0010
0000
0001
0000
0200
0000
0000
0000
0310
1000
0010
0100
0001
0100
0010
0000
,
1000
0001
0010
0000
0100
0000
1000
0100
0010
0001
0010
0001
1000
0010
0100
0010
,
0100
0000
0001
1000
0001
0000
0010
0000
0100
0000
1000
0001
1000
0010
1000
0000
,
0010
0000
0010
0000
0100
0000
0001
0000
1000
0000
0100
0010
0001
0010
0100
0000
,
1000
0000
0001
0000
0200
0000
0000
0000
0310
0000
1000
0001
0010
0001
1000
0010
,
1000
0001
0100
0010
1000
0010
0100
0000
0001
0100
0001
0000
1000
0100
1000
0000
,
0010
0000
0100
0000
0001
1000
0100
0000
0220
0000
0000
0000
0000
0000
0000
0000
,
0000
0330
0200
2300
,
3001
0100
0010
0000
0100
0000
1000
0000
0001
0000
0010
0000
1000
0000
0100
0000
,
0010
0000
0001
1000
0100
1000
0001
0000
1000
0000
1000
0000
0100
0000
0010
0000
,
0001
0000
0001
0000
0100
0000
0010
0000
1000
0100
1000
0000
0001
0100
0001
0000
,
1000
0100
0010
0000
0001
0100
0010
0000
2000
0000
0000
0000
3002
0000
0000
0000
,
0013
0100
1000
0000
0010
0000
0100
0000
0001
0000
0100
0000
0010
0000
0001
0000
,
0010
0000
1000
0001
0010
0001
1000
0000
0010
0000
0100
0000
0001
0000
1000
0000
,
0100
0001
0100
1000
0001
0001
0100
0100
,
0010
0000
1000
0000
0001
0010
0100
1000
0002
0000
0000
0000
0203
0000
0000
0000
,
0310
1000
0001
0000
1000
0000
0100
0000
0010
0000
0100
0000
0001
0000
0100
0000
,
1000
0001
0100
0001
1000
0100
1000
0000
0001
0000
0100
0000
0010
0000
0001
0000
,
1000
0000
0100
0000
0001
0000
1000
0000
0100
0010
0001
0000
1000
0010
0100
0000
,
0001
0100
0010
0000
1000
0100
0010
0001
2000
0000
0000
0000
3002
0000
0000
0000
,
1003
0100
0010
0000
0001
0000
0100
0000
1000
0000
0100
0000
0010
0000
1000
0000
,
0100
0010
0100
1000
0001
1000
0001
0000
0100
0000
0010
0000
1000
0000
0001
0000
,
0010
0000
0010
0000
0001
0000
0001
0000
1000
0010
1000
0010
0100
0001
0100
0001
,
1000
0100
0010
0100
1000
0100
0010
0001
020M
0000
0000
0000
0000
0000
0300
0000
,
101M
0000
1000
0000
0001
0010
0100
0000
0000
0000
1100
0000
0000
0000
1002
0000
,
0000
1003
1010
0010
0100
0002
0000
1003
,
0100
0010
0110
0200
0000
1300
1001
0001
,
0100
0010
0001
0020
0000
0030
1010
0000
,
0002
0000
1003
0100
0000
0010
0001
1000
,
0010
0100
0110
0000
0010
1000
2001
3020
,
0000
0000
1030
0000
2001
0000
3200
0000
0000
0000
0310
0000
0001
1000
0001
1000
,
0001
0000
1000
0010
0100
0000
0001
0100
0010
0100
0010
0100
0001
1000
0001
0000
,
1000
0000
0100
0010
0001
0000
1000
0010
1000
0010
0100
0001
0100
0001
0100
0000
,
0010
0000
1000
0001
0010
0000
0001
0010
0001
0010
0100
1000
0100
1000
0100
0000
,
0010
0001
0100
0100
0010
1000
0100
0100
,
0010
0000
0001
1000
0010
0000
1000
0100
0010
0100
1000
0100
0010
0001
1000
0000
,
0010
0000
0100
0001
1000
0000
0001
0100
0010
0100
0001
0100
0010
0100
0001
0000
,
1000
0001
0011
0100
1000
1010
0001
0100
,
0110
0000
0010
1000
0001
0000
0010
0000
0001
0100
0000
0100
0020
0000
0000
0000
,
2030
0000
0000
0001
0000
0000
3100
0000
,
0020
0000
0031
0200
0000
0301
0020
0000
,
0230
0000
1300
0020
0000
1030
0100
0000
,
0020
0001
0100
0031
,
0200
0000
0000
0001
0000
0000
0310
0000
,
1000
0000
0001
0000
0010
0001
0010
0100
1000
0001
1000
0010
0100
0001
0100
0010
,
0220
0000
0330
2020
3030
0202
0303
2002
,
0000
3000
0203
0300
,
1010
0000
1001
0000
0011
0110
0000
2001
,
0000
0000
3001
0000
0100
0001
1000
0100
1000
0001
0100
0001
1000
0010
1000
0001
,
0010
0000
0011
0000
1100
1001
0000
0201
,
0000
0000
0310
1000
0001
0010
0001
0010
0100
0000
0000
1100
0000
0000
0001
1000
,
0020
0000
0100
0000
1030
1001
0000
0001
,
0010
0000
0010
0000
0001
0000
1000
0010
0100
0000
0010
0000
1000
0001
1000
0001
,
0010
0100
1000
0100
0001
0100
0010
0001
,
0100
0100
0010
0010
1000
1000
0001
0001
,
1000
1010
0001
0011
1000
1100
0001
0101
,
0100
0010
0000
0100
1000
0000
0100
0010
0000
0100
0001
0000
1000
0100
0010
0001
,
0010
0100
1000
0010
0100
0001
0100
0010
1000
0001
1000
0001
1000
0001
1000
0001
,
0020
0000
0000
0130
0000
1000
1002
0000
,
0103
0000
0010
1000
0001
0010
0100
0010
0002
0000
0203
0000
0320
0000
2030
0000
,
0000
3001
0010
0210
0000
1300
0010
0210
,
0000
0000
0301
1000
0100
0010
0100
1000
0020
0000
0230
0000
0302
0000
2003
0000
,
0000
3100
0010
0012
0000
0103
0120
0000
,
1030
0000
0001
0010
0100
1000
0001
1000
0020
0000
0230
0000
0302
0000
2003
0000
,
0000
3010
0100
0102
0000
0013
0100
2100
,
0000
3001
0100
0010
0100
0001
1000
0100
0010
0001
0010
0100
0010
0001
2000
0000
,
3010
0100
0010
0001
0010
1000
0002
0000
0013
0100
1000
0100
0010
0001
1000
0001
,
0200
0000
0310
1000
0001
0010
0100
1000
0200
0000
0320
0000
0032
0000
0203
0000
,
0000
0310
1000
1200
0000
0310
0001
0201
,
0000
0000
0310
1000
0010
0100
0001
1000
0200
0000
0320
0000
0230
0000
2300
0000
,
0000
3001
0100
0120
0000
1030
1002
0000
,
0013
0000
0100
1000
0100
0010
0001
0100
0001
0100
0010
1000
0001
1000
0020
0000
,
0000
0000
1030
0000
0100
0000
2100
0000
0000
0000
3001
0100
0010
0100
0001
0100
,
0020
1000
1030
0200
0010
0310
0002
0100
,
0103
0000
0020
0000
1030
0001
0010
0100
0010
0001
1000
0001
0100
0010
1000
0001
,
0010
0100
0010
0001
0010
0100
1000
0000
0001
0100
0010
0000
1000
0001
1000
0100
,
1000
0000
0001
0100
0010
1000
0010
0000
1000
0100
0010
0001
1000
0010
1000
0001
,
0010
0000
0100
1000
0001
0100
0001
0000
1000
0010
0100
0000
0001
0010
0100
0010
,
0001
1000
0010
1000
0100
0010
0001
0100
0010
1000
0010
1000
0100
0010
0001
0010
,
0100
0000
1000
0010
0100
0001
0010
0000
0001
1000
0010
0000
0100
0001
1000
0001
,
0010
0000
0100
1000
0001
0100
0010
0000
1000
0010
0100
0001
1000
0100
1000
0000
,
0001
0100
0010
0100
0001
1000
0001
1000
0100
0010
0100
1000
0100
0010
0001
1000
,
0010
1000
0100
0010
0100
1000
0001
0100
1000
0100
0001
1000
0100
0010
0001
1000
,
0010
0000
0100
0000
0001
0000
0100
0002
0000
0000
1003
0000
0100
0000
0010
0000
,
0100
0000
1000
0000
0010
0000
0100
0020
0000
0000
1030
0000
0001
0000
0010
0000
,
0100
1000
0100
0010
0001
1000
0001
0100
0001
0010
0100
1000
,
0001
0100
1000
0001
0010
1000
0100
0001
1000
0010
0001
1000
,
0020
0000
0000
0000
,
0200
0000
0000
0000
0330
0000
0010
1000
0001
0000
0010
0000
0001
0000
0100
0000
,
0010
1000
0000
0010
0100
0000
0001
2000
0000
0000
3100
0000
0010
0000
0001
0000
,
1001
0000
1000
0010
0000
0001
0020
0000
0000
0000
0130
0000
0100
0000
0001
1000
,
0100
0000
0010
0000
0011
0000
0001
0100
0000
1000
0100
0000
0010
0000
1000
0001
,
0010
0000
0010
0000
0100
0000
2000
0000
0000
3001
0100
0010
0100
1000
0100
0001
,
1000
0100
0000
0010
0100
0000
0001
0200
0000
0000
1300
0000
1000
0000
0001
0100
,
0010
0000
0001
0010
0000
1000
0020
0000
0000
0000
0130
0000
0100
0001
1000
0001
,
1000
0000
0100
0000
0001
0000
1000
0000
0010
0000
0010
0000
0100
0000
1000
0010
,
0100
0000
0010
0000
0001
0000
0020
0000
0000
0000
1030
0001
0010
0100
1000
0001
,
0100
0010
0000
0001
0010
0000
1000
0001
0010
0001
1000
0010
1000
0001
0010
0100
,
1000
0100
0000
0001
0100
0000
1000
0010
0100
0010
0001
0010
1000
0001
1000
0100
,
0010
0000
0000
0000
0000
0000
0001
0000
0000
0000
0000
0000
1001
0000
0000
0000
0000
0000
1000
0000
0000
0010
0000
0000
0001
0000
0000
0000
1000
0000
0000
0000
0100
0000
0000
0000
0001
0000
0000
0000
0010
0000
0000
0000
1000
0000
0000
0000
,
0010
0000
0001
0100
0010
1000
0010
0000
0100
0001
2000
0000
0000
0000
3001
0010
,
0100
0000
1000
0000
1001
0000
0001
0100
0010
0000
1000
0000
1010
0000
0010
0100
,
0001
0000
1000
0000
1100
0000
0100
0010
0001
0100
0001
0100
0010
1000
0010
1000
,
0001
0010
0100
0010
0001
1000
0010
1000
0100
0010
0001
0010
0100
1000
0010
0100
,
0001
0100
1000
0100
0001
0010
0100
0010
0001
0010
1000
0010
0001
0100
0010
1000
,
0010
0100
0010
0002
0010
0013
1000
0001
,
0010
0100
0010
2000
0010
3010
0001
0100
,
0010
1000
0010
0200
1000
1300
0100
0010
,
1000
0001
0010
0200
0001
0301
0100
0010
,
0001
0001
0001
2000
0010
3010
0100
0010
,
0001
0010
1000
0002
0010
0013
0100
1000
,
1M01
0000
0000
0000
0001
0000
0100
0000
0110
0000
0000
0000
0010
0000
1000
0001
2000
0000
0000
0000
3200
0000
0000
0000
0320
0000
0000
0000
0001
0000
0031
0000
,
1M00
0010
0100
0010
0001
0010
1010
1000
,
0001
0010
1000
0010
0001
0100
0101
0001
,
0010
1000
0001
0100
1000
0010
1010
1000
,
0010
0001
0010
0100
0001
1000
2100
3100
,
0010
0001
0100
0001
0010
0100
1100
1000
,
0010
0000
0001
0000
0010
0000
0100
0000
0001
0000
1000
0000
1001
0000
0001
0100
,
0020
0000
0000
0000
1030
0000
0001
0000
0011
0000
0000
0000
0010
0000
0001
1000
,
0020
0001
0200
0330
,
1001
1100
0100
0001
0100
0020
0031
0100
,
0010
1000
0010
0001
0010
2000
3100
0010
,
0001
1000
0100
0001
0100
2000
3001
0100
,
0010
1000
0010
0001
1000
0200
0010
0310
,
1000
1100
0100
0010
0001
0101
0100
0010
,
1000
1010
0010
0100
0001
0011
0010
2200
,
0000
3300
0000
0202
0000
0303
0000
0001
,
0001
0000
1000
0000
1000
0000
0010
0000
0100
0000
0001
1000
0100
0010
020M
0000
,
0000
0000
0000
0000
0000
0000
0000
0000
0000
0000
0000
0000
130M
0010
0100
0001
,
0010
0100
0010
0001
1000
0010
0100
0010
0001
0010
1000
0001
0010
0100
0010
0001
,
1000
0010
1000
0100
0010
0001
0100
0010
0001
0010
1000
0001
0010
0100
0010
0001
,
0100
1000
0100
0010
0100
0001
1000
0100
0010
0001
0100
0001
0010
0100
1000
0010
,
0100
0001
1000
0100
1100
0000
0011
0000
0001
1000
MMMM
1000
0100
0001
0100
0010
,
0001
0100
0010
0100
1000
0100
0001
0100
0010
1000
0001
0010
0100
0010
0001
0100
,
0010
1000
0001
0010
0100
0010
0001
0100
0010
1000
0010
0001
0010
0100
0001
0010
,
0100
0000
1000
0000
0010
0000
0100
0000
0001
0000
0100
0000
0010
0000
1000
0000
0001
0000
0010
0000
0100
0000
1000
0000
0001
0100
0001
0000
1000
0100
1000
0000
,
0010
0100
0010
0100
0010
0100
0010
0000
1000
0000
0001
0000
0010
0000
1000
0000
0010
0000
0001
0000
0100
0000
0010
0000
0220
0000
0000
0000
0000
0000
0000
0000
,
0000
0000
0000
0330
;

//---------------dance-single - ver. Zenius----------------
#NOTES:
     dance-single:
     ver. Zenius:
     Edit:
     18:
     0.780176,1.287780,0.356430,0.302059,0.643387,2712.000000,2535.000000,177.000000,150.000000,6.000000,0.000000,0.780176,1.287780,0.356430,0.302059,0.643387,2712.000000,2535.000000,177.000000,150.000000,6.000000,0.000000:
0000
0000
0000
0000
,
0000
0000
0000
0000
,
0000
0000
0000
0000
,
0000
0000
0000
0000
,
0000
0000
0000
0000
,
0000
0000
0000
0000
,
0000
0000
0000
0000
,
0000
0000
0000
0000
,
0000
0000
0000
0000
,
1001
0000
0000
0000
1000
0000
0000
0000
1000
0000
0000
0001
0000
0000
0100
0000
,
0010
0000
0000
0000
0010
0000
0000
0000
0010
0000
0000
1000
0000
0000
0001
0000
,
0100
0000
0000
0000
0100
0000
0000
0000
0100
0000
0000
0010
0000
0000
1000
0000
,
0001
0000
0000
0000
0001
0000
0000
0000
0001
0000
0000
0010
0000
0000
0100
0000
,
0001
0000
0000
0000
0001
0000
0000
0000
0001
0000
0000
0100
0000
0000
1000
0000
,
0010
0000
0000
0000
0010
0000
0000
0000
0010
0000
0000
0100
0000
0000
1000
0000
,
0100
0000
0000
0000
0100
0000
0000
0000
0100
0000
0000
0001
0000
0000
0010
0000
,
1000
0000
1000
0000
1000
0010
0001
0000
,
0011
0001
1000
1100
0000
0000
1001
0000
,
1010
1000
0001
0101
0000
0000
0110
0000
,
1001
0001
0010
0110
0000
0000
1001
0000
,
1010
0000
0000
0000
0101
0000
0000
0000
0110
0000
0000
0100
0000
0000
0010
0000
,
1000
0100
0010
0001
0100
0010
1000
0100
,
0001
0100
1000
0010
0001
0010
1000
0001
,
1000
0010
0100
0001
0100
0010
1000
0100
0010
0001
0010
0100
,
2000
0000
0000
0000
3001
0000
1000
0010
,
0110
0000
0001
1000
0100
0000
0010
0001
,
0000
0001
1000
0000
0010
0100
0001
1000
,
0001
0000
1000
0001
0010
0000
0100
1000
,
0000
1000
0001
0000
0100
0010
1000
0001
,
1000
0000
0100
0010
0001
0000
0100
0010
,
0000
0010
1000
0000
0001
0100
1000
0100
,
0001
0000
0010
0100
1000
0000
0010
0100
,
0000
0100
0001
0000
0011
0000
1010
0000
,
2000
0000
3001
0000
1000
0100
0000
0010
0001
0100
0001
0100
0010
1000
0001
0100
,
0000
0010
1000
0000
0100
0000
0010
0001
0100
0010
0100
0010
1000
0001
0010
0100
,
0000
0000
1000
0000
0010
1000
0000
0001
1000
0100
0010
0001
0010
0100
1000
0001
,
0000
0000
0100
0000
0010
0000
1000
0000
0100
0010
0100
0010
0001
1000
0000
0000
,
2002
0000
3003
0000
0001
0010
0000
0100
1000
0010
1000
0010
0100
0001
1000
0010
,
0000
0100
0001
0000
0010
0000
0100
1000
0010
0100
0010
0100
0001
1000
0100
0010
,
0000
0000
0001
0000
0100
0001
0000
1000
0001
0010
0100
1000
0100
0010
0001
1000
,
0000
0000
0010
0000
0100
0000
0001
0000
0010
0100
0010
0100
1000
0001
0000
0000
,
0200
0000
0000
0000
0301
1000
0000
0000
0000
0000
1100
0000
0000
0000
0101
0000
,
0000
0011
0000
0000
1010
0000
0000
0000
1001
0000
0000
0000
0001
0010
0100
1000
,
0002
0000
1003
0000
0001
0100
0000
0010
1000
0100
1000
0100
0010
0001
1000
0001
,
0000
0000
0100
0000
0010
0000
1000
0000
0100
0010
0100
0010
0001
1000
0000
0000
,
2002
0000
3003
0000
0001
0100
0000
0010
1000
0001
0010
0100
1000
0100
0010
0001
,
0000
0000
1000
0000
0010
0000
0100
0010
1000
0001
1000
0001
0010
0100
1000
0001
,
0000
0000
0100
0000
0010
0100
0000
0001
1000
0100
1000
0100
0010
0001
1000
0001
,
0000
0000
0100
0000
0010
0000
1000
0000
0100
0010
0100
0010
0001
1000
0000
0000
,
1001
1000
0100
0001
0100
1000
0100
0010
,
0100
1000
0001
0010
1000
0001
0100
1000
,
0001
0100
1000
0100
0001
0010
0100
1000
,
0010
0100
0010
1000
0100
0001
0100
1000
,
0001
0100
0010
1000
0100
1000
0001
0010
,
0100
0010
0001
0100
1000
0001
0010
1000
,
0001
1000
0100
0100
0001
1000
0100
0100
,
0001
1000
0100
0100
0001
1000
0100
0100
,
1001
0000
1000
0010
0100
1000
0100
0001
,
0010
1000
0010
0001
0100
0010
0100
0000
,
0001
1000
0100
0001
0100
1000
0010
0100
,
0010
1000
0001
1000
0010
0001
0010
1000
,
0010
1000
0001
0100
0001
0010
0100
1000
0000
0100
0010
0001
1000
0001
0100
0010
,
1000
0001
0010
0100
1000
0001
1000
0010
1000
0001
0000
1000
0000
0000
0001
1000
,
0000
0001
0000
0000
0010
0000
1000
0000
1010
0000
0000
0000
1010
0000
0000
0000
,
0011
0000
0011
0000
1000
0010
0001
0000
,
1000
0100
0001
0000
0101
0000
0101
0000
,
1100
0000
1100
0000
1000
0100
0001
0000
,
1000
0010
0001
0000
0011
0000
1001
0000
,
0100
0010
0100
0000
0110
0000
1010
0000
,
1000
0001
0010
0000
0001
1000
0100
1000
,
1000
0000
0001
0000
0100
0000
0001
0000
1000
0001
0000
1000
0000
0000
0001
1000
,
0000
0001
0000
0000
1000
0001
1000
0000
0010
0000
0000
0010
0000
0000
0010
0000
,
0000
0000
0100
0000
0000
0100
0000
0000
0200
0000
0000
0000
0320
0000
0000
0000
,
2030
0000
0000
0000
3002
0000
0000
0000
1003
0000
0000
1000
0000
0000
1000
0000
,
0000
0000
0001
0000
0000
0001
0000
0000
0002
0000
0000
0000
0023
0000
0000
0000
,
2030
0000
3200
0000
0302
0000
0013
0001
,
0200
0000
0310
1000
0200
0000
0320
0000
,
0032
0000
2003
0000
3001
0100
0010
0000
,
0010
0000
0100
0000
0001
0000
0000
0000
1000
0001
0000
1000
0000
0000
0001
1000
,
0000
0001
0000
0000
1000
0001
1000
0000
1100
0000
0100
0010
0000
0000
0000
0000
,
1100
0000
0100
0010
0000
0000
0000
0000
0000
0000
0000
0000
0002
0000
0000
0000
,
0203
0000
0320
0000
1030
0001
0100
0001
,
1000
0100
0010
0100
0100
0000
1000
0010
,
0100
0000
0001
0000
1000
0000
0000
0000
0101
0000
0100
0010
0000
0000
0000
0000
,
0101
0000
0100
0010
0000
0000
0000
0000
0000
0000
0000
0000
2000
0000
0000
0000
,
3200
0320
0031
0100
,
0010
1000
0001
1000
0100
0000
0010
0001
,
0100
0010
1000
0001
1000
0100
0001
0100
,
1000
0000
0010
0100
0010
0000
0000
0000
0100
0000
0001
0000
0010
0000
0001
0000
,
0100
0010
1000
0000
0002
0000
0100
0000
,
1000
0100
2003
0100
,
0001
0000
0100
0000
3001
0010
1000
0010
,
0001
0000
1000
0001
1000
0000
0000
0000
0010
0000
0100
0000
0001
0000
1000
0000
,
0100
0010
0001
0000
2000
0000
0010
0000
,
0001
0010
3002
0010
,
1000
0000
0000
0003
0000
0000
1001
0000
0000
0011
0000
0000
0020
0000
0000
0130
0000
1000
0000
0000
0001
0100
0000
0000
,
0020
0000
0000
0130
0000
0001
0000
0000
1000
0100
0000
0010
0001
0000
0000
1000
0000
0000
0001
0000
0100
0000
0000
0110
,
0000
0000
0000
1010
0000
0000
1001
0000
0000
1100
0000
0000
0200
0000
0000
0310
0000
0001
0000
0000
1000
0010
0000
0000
,
0200
0000
0000
0301
0000
1000
0000
0000
0001
0010
0000
0010
1000
0000
0010
0000
0000
0002
0000
0000
1003
0010
0000
0200
,
0000
0000
0000
0301
0000
0000
0101
0000
0000
1100
0000
0000
2000
0000
0000
3100
0000
0010
0000
0000
0001
1000
0000
0000
,
0002
0000
0000
0103
0000
0010
0000
0000
1000
0001
0000
0010
0100
0000
0000
0010
0000
0000
0001
0000
1000
0000
0000
1001
,
0000
0000
0000
1010
0000
0000
0110
0000
0000
0101
0000
0000
0002
0000
0000
0013
0000
0100
0000
0000
1000
0001
0000
0000
,
2000
0000
0000
3010
0000
0001
0000
0000
0010
1000
0000
0200
0000
0000
0000
0310
0001
0010
0001
0000
1000
0000
0000
1020
,
0000
0130
0101
1100
1001
0000
0000
0000
,
0000
0000
0000
0000
,
0000
0000
0000
0000
0001
0010
0100
0000
,
1000
0000
0000
0010
0000
0000
0100
0000
0000
0000
0000
0000
0001
0000
0000
1000
0000
0000
0001
0000
0000
0000
0000
0011
,
0000
0010
0110
0000
1000
0010
0001
0000
,
1000
0000
0000
0100
0000
0000
0001
0000
0000
0000
0000
0000
1000
0000
0000
0100
0000
0000
0010
0000
0000
0000
0000
0011
,
0000
0001
1001
0000
0001
0100
1000
0000
,
0001
0000
0000
0010
0000
0000
1000
0000
0000
0000
0000
0000
0100
0000
0000
0010
0000
0000
0001
0000
0000
0000
0000
0101
,
0000
0000
0000
0000
0000
0000
0000
0000
1000
0000
0100
0000
1000
0000
0001
0100
,
0000
0010
0000
1000
0001
0000
1000
0000
0001
0010
0000
0010
0001
0000
1000
0100
,
0000
1000
0000
0100
1000
0000
0001
0000
0100
0000
0010
0000
1000
0000
0001
1000
,
0000
0100
0000
0010
0001
0000
0100
0000
0010
1000
0000
0001
0100
0000
0001
0010
,
0000
0100
1000
0000
0001
0100
0001
0000
1000
0000
0100
0000
0010
0000
0001
0100
,
0000
0010
0000
1000
0001
0000
0010
0000
0100
0010
0000
0001
1000
0000
0001
0100
,
0000
0010
0000
1000
0001
0000
1000
0000
0001
0000
0100
0000
0001
0000
0010
0100
,
0000
0010
0000
0001
1000
0000
0001
0000
1000
0100
0000
0010
0001
0000
1000
0010
,
0000
0100
0001
0000
1000
0000
0001
0000
1100
0000
0000
0000
0011
0000
0000
0000
,
0101
0000
1010
0000
0010
1000
0100
0010
,
0001
0010
0001
0010
0100
1000
0100
1000
0002
0000
0000
0000
0010
0000
0000
0000
,
2000
0000
3003
0000
1001
0000
0001
0010
,
0100
0010
0001
0100
0010
0000
1000
0010
,
0100
1000
0100
0010
1000
0000
0001
0010
,
0001
0000
0000
1000
0000
0000
0010
0000
1000
0000
0100
0000
1000
0000
0001
0000
,
0100
0000
0001
0010
0001
0000
1000
0000
1100
0000
0000
0000
0010
0000
0001
0000
,
0100
1000
0100
0001
1000
0000
0001
0010
,
1000
0010
0001
0100
0010
0000
0100
0010
,
1000
0000
0000
0001
0000
0000
1000
0000
0100
0000
0010
0000
0100
0000
1000
0001
,
0000
0000
0001
0100
0001
0000
1000
0000
0001
0000
0100
0000
0001
1000
0001
1000
,
0000
0000
0001
0000
0010
0000
0100
0000
0010
0000
0001
0000
1000
0100
1000
0100
,
0000
0000
0010
0000
0001
0000
1000
0000
0001
0000
0100
0000
0010
1000
0010
1000
,
0000
0000
0001
0000
0100
0000
0010
0000
1000
0000
0001
0000
0100
0010
0100
0010
,
1000
0000
0100
0000
0010
0000
0001
0000
1000
0000
0100
0000
0010
0001
1000
0001
,
0000
0000
0100
0000
0001
0000
0100
0000
0010
0000
1000
0000
0001
0100
0010
0100
,
0000
0000
0001
0000
1000
0000
0100
0000
1100
0000
0000
0000
0010
0001
0010
0001
,
0100
0000
0000
0000
1010
0000
0010
0000
0101
0000
0000
0000
0001
1000
0001
1000
,
0100
0000
0010
0001
1000
0000
0001
0000
0220
0000
0000
0000
0000
0000
0000
0000
,
0000
0000
0000
0000
,
0000
0000
0330
0000
1000
0100
1000
0001
,
1000
0010
1000
0000
0001
0100
0001
1000
,
0001
0010
0001
0001
0100
0010
1000
0001
,
0010
0000
0001
1000
0001
1000
0001
0000
0100
0000
0010
0000
1000
0000
0001
0100
,
0010
1000
0000
0100
0000
0010
0001
0000
1000
0000
0010
0000
0100
0000
0010
0000
,
1000
0010
0100
0000
0001
0100
0010
0100
,
0001
0100
0010
0010
1000
0001
0010
0100
,
1000
0000
0001
1000
0001
1000
0001
0000
0100
0000
0010
0000
1000
0000
0001
0010
,
0001
0000
1000
0010
0000
0100
0010
0000
1000
0000
0100
0000
1000
0000
0001
0000
,
0001
0000
0100
0010
1000
0010
0100
0000
0001
0000
0010
0000
0001
0000
1000
0000
,
1000
0000
0100
1000
0010
1000
0100
0000
0010
0000
1000
0000
0001
0000
1000
0000
,
0010
0000
0100
0001
1000
0001
0100
0000
0100
0000
0001
0000
1000
0000
0001
0000
,
0100
0000
0010
1000
0001
1000
0010
0000
0100
0000
0001
0000
0001
0000
0010
0000
,
0001
0000
0100
0001
0100
0001
1000
0000
0100
0000
1000
0000
1000
0000
0001
0000
,
1000
0000
0100
1000
0100
1000
0001
0000
0100
0000
0010
0000
1000
0000
0100
0000
,
0010
0000
0001
1000
0001
1000
0001
0000
0010
0000
0100
0000
1000
0000
0010
0000
,
0100
0000
0001
1000
0001
1000
0001
0000
0100
0000
0000
0000
0100
0000
0000
0000
,
0100
0010
0100
0001
2000
0000
0100
3100
,
0020
0000
0001
0031
1000
0000
1000
0000
,
1000
0010
1000
0001
2000
0000
0010
3010
,
0200
0000
0001
0301
0010
0001
0100
0001
,
1000
0100
0010
0100
1100
1000
1001
0001
,
0011
0010
0110
0100
2100
0000
0000
0000
,
0002
0000
0000
0000
3003
0000
0000
0000
0010
0000
0000
1100
0000
0000
1100
0000
,
0001
0000
0000
0101
0000
0000
0101
0000
0010
0000
1000
0000
0100
0000
0100
0000
,
0010
0000
0002
0000
2000
0000
3003
0000
0010
0000
0000
0101
0000
0000
0101
0000
,
1000
0000
0000
1100
0000
0000
1100
0000
0110
0000
0000
0000
1010
0000
0000
0000
,
1100
0000
0000
0000
0011
0000
0000
0000
0100
0000
0000
1001
0000
0000
1001
0000
,
0010
0000
0000
0110
0000
0000
0110
0000
0001
0000
1000
0000
0010
0000
0100
0000
,
0010
0000
2000
0000
0002
0000
3003
0000
0010
0000
0000
1100
0000
0000
1001
0000
,
0010
0000
0000
0101
0000
0000
1001
0000
0020
0000
0130
0010
0100
0000
0010
0000
,
0000
0000
1001
0000
1001
0000
0000
0000
0021
0000
0130
1000
0000
0100
1000
0000
,
0020
0000
0130
0001
0000
0100
0001
0000
1000
0000
0100
0000
0001
0000
0100
0000
,
1000
0000
0002
0000
0020
0000
0033
0000
0210
0000
1300
0010
0000
1000
0010
0000
,
0200
0000
0301
0010
0000
0001
0010
0000
0110
0000
0000
0000
0101
0000
0000
0000
,
1100
0000
0000
0000
1010
0000
0000
0000
0210
0000
0301
0010
0000
0001
0010
0000
,
0200
0000
1300
0010
0000
1000
0010
0000
0100
0000
0001
0000
0010
0000
1000
0000
,
0010
0000
0002
0000
2000
0000
3003
0000
0010
0000
0100
0001
0000
0001
0100
0000
,
0010
0000
1000
0100
0000
0100
1000
0000
0020
0000
0130
0001
1000
0000
0100
0000
,
0000
0110
0110
0000
2002
0000
0000
0000
,
3003
0000
0200
0000
0020
0000
0330
0000
2001
0000
3100
0010
0100
0000
1000
0000
,
0001
0010
0100
1000
0100
0000
0010
0000
0001
1000
0001
0100
0010
0000
0100
0001
,
0010
0000
0100
0000
0020
0000
0030
0000
0100
1000
0100
1000
0001
0000
1000
0010
,
0100
0001
0100
0010
1000
0000
0001
0010
0100
0010
0100
0010
0001
0010
0001
0010
,
0100
0000
1000
0000
0001
0000
0100
0000
0010
0000
0010
0100
1000
0100
0010
1000
,
0010
0000
1000
0000
0100
0010
0100
0000
0001
0000
0100
1000
0100
0010
0001
0010
,
0100
0000
2000
0000
0020
0000
3030
0000
0100
0000
0100
0010
1000
0100
1000
0100
,
0010
0001
0010
0001
0100
0001
0100
0001
1000
0020
0000
0000
1030
0200
0000
0000
,
1300
0001
1000
0001
0100
0000
0010
0000
0200
0000
0000
0000
0000
0000
0000
0000
,
0000
0300
1010
0101
,
0011
0000
1100
0000
1000
0010
0100
0001
,
0010
0100
0100
0001
0100
1000
0010
0100
,
0001
0000
0100
0000
1000
0000
0100
0000
0010
1000
0100
0000
0010
0001
1000
0000
,
0010
0100
0001
0000
0100
0010
1000
0000
0110
0000
0000
0000
1001
0000
0000
0000
,
0011
0000
1010
0000
0001
0100
1000
0100
,
0010
1000
1000
0100
0001
0100
0010
0001
,
1000
0000
0010
0000
0100
0000
0001
0000
0010
0000
0000
1000
0000
0000
0010
0000
,
0100
0000
1000
0000
0001
0100
0001
1000
0010
0000
0000
0000
1001
0000
0000
0000
,
1100
0000
0101
0000
1000
0001
0010
1000
,
0010
0100
0100
1000
0001
0100
1000
0100
,
0010
0000
1000
0000
0001
0000
0100
0000
0010
1000
0001
0000
0100
0001
0010
0000
,
0100
1000
0001
0000
1000
0010
0100
0000
0011
0000
0000
0000
1010
0000
0000
0000
,
1100
0000
0101
0000
0001
1000
0010
0100
,
1000
0100
0100
0001
1000
0100
0010
0001
,
0010
0000
1000
0000
0010
0000
0001
0000
0010
0100
1000
0001
1000
0100
0010
0001
,
1000
0001
0100
0001
1000
0010
0100
0010
02M0
0000
0000
0000
0000
0000
0300
0000
,
10M1
0000
1000
0000
0100
1000
0002
0000
0000
0000
0200
0000
0303
0000
2001
0000
,
0000
3100
1000
0002
1000
2003
0000
3010
,
0100
0002
1000
2003
0000
3100
0001
1000
,
0010
0100
1000
0020
0000
0000
0130
0000
,
0101
0000
0001
0020
0000
1030
0001
0100
,
0010
0001
0200
0000
0000
0310
0010
2000
,
0000
0000
3001
0000
0010
0000
2000
0000
0000
0000
3010
0000
0001
1000
0001
1000
,
0001
0000
0100
0000
0010
0000
1000
0000
0001
0010
0001
0000
0100
0000
0100
0000
,
0010
0000
1000
0000
0100
0000
0010
0000
0001
0100
0001
0000
0010
0000
0010
0000
,
0100
0000
1000
0000
0010
0000
0100
0000
0001
1000
0001
0000
0100
0000
0100
0000
,
0010
0000
1000
0000
0100
0000
0001
0000
0100
0010
0100
0000
1000
0000
1000
0000
,
0001
0000
0100
0000
0010
0000
1000
0000
0001
0010
0100
0000
1000
0000
1000
0000
,
0010
0000
0100
0000
0010
0000
1000
0000
0100
0010
0001
0000
0100
0000
0100
0000
,
0010
1000
1001
0010
0000
1001
0100
0000
,
1100
0000
1000
0001
1000
0000
0010
0000
0100
0010
0000
0010
0200
0000
0000
0000
,
0300
0000
0000
0001
,
0200
0000
0000
0310
0000
0000
1000
0000
,
0002
0000
0000
0023
0000
0000
0230
0000
,
0000
0000
0000
0300
,
1000
0000
0001
0000
1000
0001
0000
1000
,
0000
0001
1000
0000
1000
0001
0000
0000
,
0110
0000
0000
1010
0000
0101
0000
2020
,
0000
0000
0000
3000
0200
0000
0000
0330
,
1001
0000
0110
0000
0100
1001
0000
0110
,
0000
0000
0100
0000
0010
0000
0001
0000
1000
0001
0100
0001
1000
0100
1000
0001
,
1000
0000
0101
0000
0001
1001
0000
1200
,
0000
0000
0000
0000
0000
0000
0000
0000
0310
0000
0000
0100
0000
0000
1000
0000
,
0002
0000
0000
0013
0000
0001
0010
0001
,
1000
0000
0000
0100
0000
0000
1000
0001
0100
0000
0010
0000
1000
0000
0001
0000
,
0020
0000
0000
0230
0000
0000
0000
0000
,
0310
0001
1000
0100
0010
0100
1000
0010
,
0000
0101
0000
1001
0000
1100
0000
1001
,
0000
1010
0000
0000
0101
0000
0000
0011
0000
0000
0110
0000
0000
1100
0000
0000
,
0100
0000
0010
0000
0001
0000
0100
0000
0010
0100
0010
0100
0001
1000
0001
1000
,
0000
0000
0000
2001
0000
3010
1001
0000
,
0001
0000
1000
0100
0010
0001
1000
0010
0100
0000
0010
0000
1000
0000
0200
0000
,
0000
0000
0301
0000
0100
0000
2000
0000
0000
0000
3010
0000
0100
0001
0020
0000
,
0000
0000
0031
1000
0001
0100
0010
1000
0100
0000
0010
0000
0001
0000
2000
0000
,
0000
0000
3010
0000
0100
0000
0002
0000
0000
0000
1003
0000
0100
0000
0010
0001
,
1000
0000
0001
0100
0010
1000
0001
0010
0100
0000
1000
0000
0010
0000
2000
0000
,
0000
3001
0010
0200
0000
1300
0001
0020
,
0031
1000
0010
1000
0001
0100
1000
0100
0001
1000
0100
0010
0001
0100
0020
0000
,
1030
0100
0001
0100
1000
0010
0200
0000
0301
1000
0010
0000
1000
0001
0010
0100
,
1000
0000
0001
1000
0100
0010
0001
0010
0100
0000
1000
0000
0010
0000
0002
0000
,
0000
0013
1000
0200
0000
0301
1000
0020
,
0000
0000
0031
0100
0010
1000
0001
0010
0100
0000
0001
0000
0100
0000
2000
0000
,
0000
3010
0100
0002
0000
1003
2010
0000
,
3001
0000
1000
0001
0100
0010
1000
0010
0100
0001
0010
0100
0010
0001
2000
0000
,
0000
0000
3010
0000
0100
0000
0002
0000
0000
0000
0013
0100
0010
0100
1000
0000
,
1020
0000
0130
0210
0000
0301
0021
0000
,
0130
0000
2100
0000
0000
0000
3001
0010
0100
1000
0001
0010
0100
0000
1000
0001
,
0100
0000
0010
1000
0010
1000
0001
0000
0010
0000
0110
0000
0100
0000
1000
0001
,
1000
0000
0100
1000
0100
1000
0001
0000
0010
0000
1100
0000
1000
0001
0010
0100
,
1000
0000
0010
1000
0010
1000
0001
0000
0100
0000
0110
0000
0010
0000
1000
0100
,
1000
0001
0010
0001
0100
0010
1000
0100
1000
0001
0010
0001
0010
0001
0100
0010
,
1000
0000
0001
0010
1000
0010
0001
0000
0100
0000
0110
0000
0010
0000
1000
0001
,
0010
0000
0001
0100
1000
0100
0001
0000
1000
0000
0011
0000
0001
0010
0100
1000
,
0001
1000
0001
0010
0100
0010
0001
0100
0010
1000
0001
0010
0001
1000
0001
1000
,
0100
0010
0001
0010
0100
1000
0001
1000
0010
0100
0010
0100
0001
0100
0010
1000
,
0010
1000
0010
1000
0010
0000
1000
0001
0000
0001
0010
0000
0001
0000
0100
0000
,
0001
0010
0001
0010
0001
0000
0100
0010
0000
0010
1000
0000
0010
0000
0100
0000
,
0001
0010
0001
1000
0010
1000
0001
0100
0001
1000
0100
1000
,
0001
0010
1000
0001
0100
1000
0001
0010
1000
0001
0100
1000
,
0020
0000
0000
0000
,
0000
0000
0000
0000
0130
0000
0010
1000
0010
0000
1000
0000
0100
0000
1000
0000
,
0001
0010
0000
0001
0100
0000
0001
1000
0000
0001
0010
0000
0100
0000
1000
0100
,
1000
0010
0000
0100
0010
0000
1000
0001
0000
1000
0100
0000
0010
0000
0100
1000
,
0001
0000
0100
0000
0010
0100
0000
0001
0010
0001
1000
0000
0001
0000
1000
0100
,
1000
0000
0001
0000
0010
0000
1000
0000
0010
0000
0001
0100
0001
0010
0100
1000
,
0001
0100
0000
0010
0100
0000
0001
1000
0000
0001
0010
0000
0001
0000
1000
0010
,
1000
0000
0010
0100
0001
0100
0010
0000
1000
0100
1000
0001
0010
0100
0010
0001
,
0100
0000
0001
0000
0100
0000
1000
0000
0100
0000
0001
0000
0010
0000
0001
1000
,
0001
0000
1000
0000
0010
0000
0200
0000
0000
0000
0310
1000
0001
0010
0100
1000
,
0001
0100
0000
1000
0100
0000
0010
0100
0001
0010
0001
1000
0100
1000
0001
0100
,
0001
0000
0000
0011
0000
0000
2001
0000
0000
0000
3100
1000
0100
0000
1000
0001
,
1000
0000
0000
0001
0000
0000
0100
0000
0000
0001
0000
0000
1000
0000
0010
0000
0001
0000
1000
0000
0100
0000
0001
0000
,
0000
0100
0000
0001
0000
0100
0010
1000
0001
2000
0000
0000
0000
0000
3001
0010
,
0001
0000
1000
0000
0100
0000
1000
0010
1000
0000
0001
0000
0100
0000
0001
0010
,
0100
0000
0010
0000
0001
0000
1000
0010
0100
0010
0100
0010
1000
0010
1000
0010
,
1000
0100
0001
0100
0010
0001
1000
0001
0010
1000
0010
0100
1000
0001
0100
0001
,
1000
0010
0100
0001
1000
0010
0100
0001
1000
0100
0010
0001
1000
0100
0010
0001
,
1000
0001
0100
0020
1000
0130
0001
0010
,
0100
0000
1000
0000
0001
0000
0200
0000
0001
0000
0310
0000
1000
0100
0010
0001
,
0100
0010
1000
0002
0100
0013
0001
0100
,
0010
1000
0100
2000
0010
3100
1001
0000
,
0100
0100
0100
0020
1000
0130
0010
1000
,
0001
0100
0010
2000
0010
3001
0100
0010
,
1010
0000
0000
0000
0001
0000
1000
0000
0100
0000
0100
0000
0100
0000
1000
0001
0100
0000
0010
0000
0100
0000
0001
0000
0010
0100
0010
0100
1000
0100
0010
0001
,
1000
0010
0001
1000
0001
0010
1000
0100
,
1000
0010
0100
1000
0100
0010
0001
0010
,
1000
0000
0100
0000
0010
0000
0100
0000
1000
0000
0001
0000
0010
0001
0010
0100
,
1000
0000
0100
0000
1000
0010
0100
0001
0010
0000
0100
0000
1000
0010
0100
0001
,
0100
0000
0010
1000
0100
0001
0100
1000
,
0010
0000
0100
0000
0001
0000
0010
0000
0100
0000
0001
0000
0100
0000
0010
0001
,
0200
0000
0000
0000
0310
0000
0100
0000
0110
0000
0000
0000
0100
0000
0001
0010
,
0100
0000
1000
0000
0001
0000
0100
0000
0010
1000
0010
1000
0200
0000
0000
0000
,
0310
1001
0001
0010
0001
0100
0010
2000
,
0100
3100
1000
0002
0100
0103
0001
0010
,
1000
0000
0010
0000
0001
0000
0100
0000
0010
0000
0100
0001
0100
0001
1000
0000
,
0100
0000
1000
0000
0010
0000
0100
0000
0100
0000
0101
0000
0001
0100
0010
0000
,
1000
1010
0010
0100
0001
0011
0010
0100
,
1000
1100
0100
0010
0001
1001
1000
2020
,
0000
0000
3030
0000
0000
0000
0202
0000
0000
0000
0303
0000
0000
0000
0001
0010
,
0100
0010
0100
1000
0010
0100
0010
0100
0001
0010
0100
1000
0100
1000
002M
0000
,
M000
0000
0000
0000
000M
0000
0000
0000
M000
0000
0000
0000
1030
0010
0100
0001
,
1000
0010
1000
0010
0100
0001
0100
0010
1000
0100
0010
0001
0010
0100
0010
0100
,
1000
0100
0010
0001
1000
0010
0100
0001
0100
0010
0100
0001
1000
0100
1000
0100
,
0010
0001
0010
0100
1000
0100
0010
0001
0100
0010
0100
0001
1000
0010
1000
0010
,
0100
0001
0100
0010
1000
0100
0001
0100
1000
0001
1000
0001
0100
0010
1000
0010
,
0100
0001
0100
0001
1000
0100
0010
0001
0010
0100
0010
0001
1000
0010
1000
0010
,
0100
0001
0100
0010
1000
0010
0100
0001
1000
0100
0010
0001
0100
0001
0010
0001
,
0100
0000
0001
0000
0010
0000
0000
0000
0100
0000
1000
0000
0010
0000
1000
0000
0100
0000
1000
0000
0010
0000
0000
0000
1000
0010
1000
0010
0100
0001
0100
0001
,
0010
0001
0010
0001
0010
0100
0010
0100
1000
0000
0100
0000
0010
0000
0001
0000
0100
0000
0010
0000
1000
0000
0001
0000
2002
0000
0000
0000
0000
0000
0000
0000
,
0000
0000
0000
3003
;
