#TITLE:will o the wisp;
#SUBTITLE:;
#ARTIST:banya;
#TITLETRANSLIT:;
#SUBTITLETRANSLIT:;
#ARTISTTRANSLIT:;
#CREDIT:Reo;
#BANNER:will o the wisp.png;
#BACKGROUND:will o the wisp-bg.png;
#LYRICSPATH:;
#CDTITLE:!Kewing DarkSun v3 (cdtitle).png;
#MUSIC:will o the wisp.ogg;
#OFFSET:-0.583;
#SAMPLESTART:69.987;
#SAMPLELENGTH:9.120;
#SELECTABLE:YES;
#BPMS:0.000=210.000;
#STOPS:96.000=2.000
,169.000=0.560
;
#BGCHANGES:;

//---------------dance-single - ----------------
#NOTES:
     dance-single:
     :
     Hard:
     9:
     0.657,0.726,0.292,0.065,0.000: // measure 1
0000
0000
0000
0000
,  // measure 2
0000
0000
0000
0000
,  // measure 3
0000
0000
0000
0000
,  // measure 4
0000
0000
0000
0000
,  // measure 5
1000
0000
0001
0000
1000
0100
0010
0000
,  // measure 6
1000
0000
0010
0000
0001
0010
0100
0000
,  // measure 7
1000
0000
0001
0000
1000
0010
0100
0000
,  // measure 8
1000
0000
0100
0000
0001
0100
0010
0000
,  // measure 9
1000
0000
0001
0000
1000
0100
0001
0000
,  // measure 10
0100
0000
0010
0000
1000
0010
0001
0000
,  // measure 11
0001
0000
1000
0000
0001
0100
1000
0000
,  // measure 12
0100
0000
0010
0000
0001
0010
1000
0000
,  // measure 13
1100
0000
0001
0000
0100
0001
0010
0000
,  // measure 14
1100
0000
0001
0000
0010
0001
0100
0000
,  // measure 15
0101
0000
1000
0000
0100
1000
0010
0000
,  // measure 16
0101
0000
1000
0000
0010
1000
0100
0000
,  // measure 17
1100
0000
0101
0000
0001
1000
0100
0010
,  // measure 18
0110
0000
1001
0000
0010
0001
0100
0001
,  // measure 19
0101
0000
1100
0000
1000
0001
0100
0010
,  // measure 20
0110
0000
1001
0000
0010
0001
0010
0100
,  // measure 21
0001
0100
1000
0000
1000
0010
0100
0000
,  // measure 22
1000
0100
0001
0000
0001
0010
0100
0000
,  // measure 23
0100
1000
0010
0100
0001
0010
0001
0100
,  // measure 24
0010
1000
0100
0001
0100
0010
0100
1000
,  // measure 25
0000
0000
1100
0000
1000
0010
0000
1000
,  // measure 26
0001
0000
0101
0000
0001
0010
0000
0001
,  // measure 27
1000
0000
1100
0000
0100
0010
0000
0001
,  // measure 28
1000
0000
1001
0000
0100
0010
0100
0001
,  // measure 29
2000
0000
3100
0010
0100
1000
0001
0100
,  // measure 30
0100
0000
0001
0100
0001
0010
1000
0010
,  // measure 31
0002
0000
0103
0010
0100
0001
1000
0100
,  // measure 32
0100
0000
1000
0100
1000
0010
0001
0010
,  // measure 33
2000
0000
3001
0010
0100
1000
0000
0100
,  // measure 34
1000
0000
1000
0010
0100
0001
0000
0100
,  // measure 35
0001
0000
0001
0010
0100
0010
0000
0010
,  // measure 36
0001
0000
1000
0010
0100
0010
0000
0010
,  // measure 37
2000
0000
3001
0010
0001
0100
1000
0100
,  // measure 38
0100
0000
0001
0100
0010
1000
0100
0001
,  // measure 39
0200
0000
1300
0010
0100
0001
1000
0010
,  // measure 40
0100
0001
1000
0100
1000
0010
0100
0010
,  // measure 41
1000
0001
0010
0001
0100
0010
1000
0100
,  // measure 42
0001
0100
1000
0001
0100
1000
0100
0001
,  // measure 43
0010
0000
0000
0000
0200
0000
0000
0000
0000
0300
0000
0000
0000
0000
0000
0000
0010
0000
0000
0000
0000
0000
0000
0000
0000
0000
0000
0000
0000
0000
0000
0000
,  // measure 44
0000
0000
0001
0100
1000
0000
0000
0000
,  // measure 45
0000
0000
0010
0000
,  // measure 46
0000
0000
1000
0100
0001
0000
0000
0000
,  // measure 47
0000
0000
0010
0000
,  // measure 48
0000
0000
0001
0100
1000
0000
0000
0000
,  // measure 49
0000
0000
0010
0000
,  // measure 50
0000
0000
1000
0100
0001
0000
0000
0000
,  // measure 51
0000
0000
0001
0010
,  // measure 52
0100
0000
0001
0100
1000
0000
0100
0000
,  // measure 53
0010
0000
0001
0100
,  // measure 54
0010
0000
0001
0010
1000
0000
0010
0000
,  // measure 55
0100
0000
1000
0010
,  // measure 56
0100
0000
1000
0100
0001
0000
0100
0000
,  // measure 57
0010
0000
1000
0100
,  // measure 58
0010
0000
1000
0010
0001
0000
0010
0000
,  // measure 59
0100
0000
0000
0000
1001
1000
0100
0000
,  // measure 60
0001
0100
1000
0000
0011
0001
1000
0000
,  // measure 61
0010
0100
0001
0000
1001
0001
0100
0000
,  // measure 62
1000
0100
0001
0000
1010
1000
0001
0010
,  // measure 63
0100
1000
0010
0000
1100
1000
0010
0000
,  // measure 64
0100
0001
0010
0000
0101
0001
0010
0001
,  // measure 65
1000
0001
0100
0000
0101
0001
0010
0000
,  // measure 66
0100
1000
0010
0000
1100
1000
0010
1000
,  // measure 67
0001
1000
0100
0010
0001
0100
1000
0000
,  // measure 68
1000
0100
0010
0000
0110
0010
1000
0001
,  // measure 69
0010
0001
0100
0010
1000
0100
0001
0000
,  // measure 70
0100
0010
0100
1000
0010
0100
0001
1000
,  // measure 71
0100
1000
0001
0000
0110
0010
0001
0100
,  // measure 72
1000
0100
0010
1000
0001
0100
0001
0010
,  // measure 73
0001
1000
0100
0001
0100
0010
0001
1000
,  // measure 74
0100
1000
0010
0100
0001
0010
1000
0010
,  // measure 75
0100
0010
0001
1000
1001
0000
0000
0000
;

//---------------dance-single - ----------------
#NOTES:
     dance-single:
     :
     Medium:
     7:
     0.481,0.645,0.249,0.108,0.000:
0000
0000
0000
0000
,
0000
0000
0000
0000
,
0000
0000
0000
0000
,
0000
0000
0000
0000
,
1000
0000
0100
0000
0000
1000
0000
0000
,
0001
0000
0100
0000
0000
0001
0000
0000
,
0100
0000
0010
0000
0000
0100
0000
0000
,
0001
0010
0100
1000
,
1100
0000
1000
0000
0000
0100
0000
0000
,
0011
0000
0001
0000
0000
0010
0000
0000
,
0110
0000
0010
0000
0000
0100
0000
0000
,
1100
1000
0010
0100
,
0001
0000
1000
0000
0001
1000
0000
0000
,
1000
0000
0001
0000
1000
0001
0000
0000
,
0001
0000
0100
0000
0010
1000
0000
0000
,
1000
0100
0010
0001
,
0011
0000
0001
0000
1000
0010
0000
0000
,
1010
0000
1000
0000
0001
0010
0000
0000
,
1100
0000
1000
0000
0010
0100
0000
0000
,
0101
0000
0001
0000
0010
0100
0000
0000
,
1000
0100
1000
0000
0010
1000
0010
0000
,
0100
0001
0100
0000
0001
0010
0001
0000
,
0011
1001
1100
1010
,
0010
1000
0001
1000
0001
1000
0001
1000
,
0000
0000
0100
0000
0000
0010
0000
0000
,
0001
0000
0100
0000
0000
0010
0000
0000
,
1000
0000
0100
0000
0000
0010
0000
0000
,
0001
0000
1000
0000
0000
0010
0100
0000
,
0010
1000
0100
0020
,
0230
0000
1300
0000
0010
0000
1000
0001
,
1000
0001
0100
0020
,
0230
0000
0301
0000
0010
0000
0001
1000
,
0001
0000
0010
0000
0100
2000
0000
0000
,
3001
0000
0100
0000
0010
0200
0000
0000
,
0301
0000
0100
0000
0001
0020
0000
0000
,
0130
0000
0010
0000
0001
2000
0000
0000
,
3001
1000
0001
0200
,
0302
0000
1003
0000
0100
0000
0010
0100
,
0010
0000
0001
1000
0000
0010
0000
0001
,
0000
0010
0000
1000
0001
0000
0010
0000
,
1000
0100
0001
0010
,
1000
0000
0100
0010
0100
0010
1000
0001
,
1000
0001
0000
0000
0010
0000
0000
0000
,
0000
0000
0010
1000
0010
0000
0000
0000
,
0000
0000
0010
0000
,
0000
0000
0010
0001
0010
0000
0000
0000
,
0000
0000
0100
0000
,
0000
0000
0100
0001
0100
0000
0000
0000
,
0000
0000
0100
0000
,
0000
0000
0100
1000
0100
0000
0000
0000
,
0000
0000
0010
0001
,
0010
0000
0001
1000
0001
0000
0000
0000
,
0000
0000
0100
0001
,
0100
0000
0001
1000
0001
0000
0000
0000
,
0000
0000
0010
1000
,
0010
0000
1000
0001
1000
0000
0000
0000
,
0000
0000
0100
1000
,
0100
0000
1000
0001
1000
0000
0000
0000
,
0000
0000
1001
0101
,
0010
0000
1001
1100
,
0010
0000
0011
1001
,
0100
0000
1010
1001
,
0100
0000
1001
1000
,
0100
0010
0100
0000
0010
0000
0001
0000
,
0100
0010
0100
0000
0001
0000
0010
0000
,
0100
1000
0100
0000
1000
0000
0010
0000
,
0100
0001
0100
0000
0110
0000
0100
0000
,
0010
1000
0001
0000
0100
0000
0001
0000
,
0010
0001
1000
0000
1001
0000
0001
0000
,
0100
0001
1000
0000
0010
0000
1000
0000
,
0100
1000
0001
0000
0001
0100
0001
0000
,
0010
0001
0010
0000
0100
1000
0100
0000
,
1000
0010
1000
0000
0010
1000
0001
0000
,
0010
0001
1000
0000
0001
0100
0010
1000
,
0001
0100
0010
1000
0100
0000
0000
0000
;

//---------------dance-single - ----------------
#NOTES:
     dance-single:
     :
     Easy:
     5:
     0.359,0.523,0.097,0.195,0.000:
0000
0000
0000
0000
,
0000
0000
0000
0000
,
0000
0000
0000
0000
,
0000
0000
0000
0000
,
1000
0100
0000
1000
,
0100
0010
0000
0010
,
0001
0100
0000
0001
,
0100
0010
0000
0010
,
1000
0001
0000
0100
,
0001
0010
0000
0010
,
0001
1000
0000
0100
,
1000
0010
0000
0010
,
1000
0100
0010
0000
,
0100
1000
0010
0000
,
0100
0001
0010
0000
,
0001
0100
0010
0000
,
1000
0010
1000
0010
,
0100
0010
1000
0000
,
0001
0010
0001
0010
,
0100
0010
0001
0000
,
0010
0010
0100
0100
,
1000
1000
0001
0001
,
0100
0010
1000
0001
,
0010
0100
1000
0001
,
0000
0100
0000
0000
,
0001
0001
0000
0000
,
1000
1000
0000
0000
,
0100
0100
0000
1000
,
0020
0030
0001
0010
,
1000
0000
0001
0010
,
0020
0030
1000
0010
,
0001
0000
1000
0010
,
0020
0000
0030
0000
0000
2000
0000
0000
,
3100
0000
0000
0000
0000
0200
0000
0000
,
0310
0000
0000
0000
0000
0020
0000
0000
,
0031
0000
0000
0001
,
0200
0300
1000
0100
,
0001
0000
0010
0100
,
0200
1300
1000
1000
,
1000
1000
0010
0100
,
0001
0100
0010
1000
,
0100
0010
0001
1000
,
2002
3003
1000
0000
,
0000
0001
0002
0000
,
0003
0000
0100
0000
,
0000
0001
0002
0000
,
0003
0000
0001
0000
,
0000
1000
2000
0000
,
3000
0000
0100
0000
,
0000
1000
2000
0000
,
3000
0000
0010
0000
,
0010
1000
2000
0000
,
3000
0000
0100
0000
,
0100
1000
2000
0000
,
3000
0000
0010
0000
,
0010
0001
0002
0000
,
0003
0000
0100
0000
,
0100
0001
0002
0000
,
0003
0000
0101
0001
,
1000
0000
1010
1000
,
0100
0000
1100
1000
,
0001
0000
0011
0001
,
0100
0000
0001
0100
,
1000
0100
0001
0100
,
0010
0000
1000
0100
,
0001
0100
1000
0100
,
0010
0000
0010
0100
,
1000
0010
0010
0100
,
0001
0010
0010
0100
,
0001
0100
0100
0010
,
1000
0010
0010
0001
,
0100
0010
1000
0100
,
0010
0001
0101
0101
,
1010
1010
0010
0100
,
0001
1000
0001
1000
0000
0000
0000
0000
;

//---------------dance-single - ----------------
#NOTES:
     dance-single:
     :
     Beginner:
     3:
     0.189,0.442,0.108,0.000,0.000:
0000
0000
0000
0000
,
0000
0000
0000
0000
,
0000
0000
0000
0000
,
0000
0000
0000
0000
,
1000
0000
0000
0000
,
0001
0000
0000
0000
,
0100
0000
0000
0000
,
0010
0000
0000
0000
,
1000
0000
1000
0000
,
0100
0000
0000
0000
,
0001
0000
0001
0000
,
0100
0000
0000
0000
,
1000
0000
1000
0000
,
0010
0000
0000
0000
,
0001
0000
0001
0000
,
0010
0000
0000
0000
,
1000
0000
0100
0000
,
0010
0000
0000
0000
,
0001
0000
0100
0000
,
0010
0000
0000
0000
,
1000
0000
0100
0000
,
0001
0000
0100
0000
,
0010
0000
0001
0000
,
0100
0000
0010
0010
,
0000
1000
0000
0000
,
0000
1000
0000
0000
,
0000
0001
0000
0000
,
0000
0001
0000
0000
,
0000
1000
0000
0010
,
0000
0001
0000
0010
,
0000
1000
0000
0100
,
0000
0001
0000
0100
,
0000
1000
0000
0010
,
0010
0000
0000
0010
,
0010
0000
0000
0010
,
0010
0000
0000
0010
,
0010
0000
0000
0100
,
0000
0001
0000
0010
,
0000
0100
0000
1000
,
0000
0100
0000
0001
,
0000
0010
0000
1000
,
0000
0001
0000
0100
,
0000
0010
0000
0000
,
0000
0000
0001
0000
,
0000
0000
0000
0000
,
0000
0000
1000
0000
,
0000
0000
0000
0000
,
0000
0000
0001
0000
,
0000
0000
0000
0000
,
0000
0000
1000
0000
,
0000
0000
0010
0000
,
0000
0000
0010
0000
,
0000
0000
0100
0000
,
0000
0000
0100
0000
,
0000
0000
0001
0000
,
0000
0000
0001
0000
,
0000
0000
1000
0000
,
0000
0000
1000
0000
,
0000
0000
0100
0000
,
1000
0000
0001
0000
,
0100
0000
0001
0000
,
0010
0000
0001
0000
,
1000
0000
0010
0010
,
0010
0000
0100
0000
,
0001
0000
0010
0010
,
0010
0000
0001
0000
,
1000
0000
0110
0000
,
0100
0000
1000
0000
,
0100
0000
0110
0000
,
0100
0000
0001
0000
,
0100
0000
1001
0000
,
0100
0000
1001
0000
,
0010
0000
1001
0000
,
1001
0000
1001
1001
,
1001
1001
0000
0000
;
